<?xml version="1.0" encoding="UTF-8"?>
<svg xmlns="http://www.w3.org/2000/svg" xmlns:xlink="http://www.w3.org/1999/xlink" version="1.2" >
<font id="Thomas Mag Medium">
<font-face  font-family="Thomas Mag" units-per-em="1024" ascent="936" descent="-280" font-style="normal" font-weight="500" font-stretch="normal" cap-height="660" x-height="500" underline-position="0" underline-thickness="0" />
<missing-glyph  horiz-adv-x="472" d="M0 700 L432 700 L432 0 L0 0 L0 700 L0 700 Z M50 50 L382 50 L382 650 L50 650 L50 50 L50 50 Z " />
<glyph glyph-name="NULL" d="" />
<glyph glyph-name="CR" unicode="&#xd;" horiz-adv-x="256" d="" />
<glyph glyph-name="space" unicode="&#x20;" horiz-adv-x="250" d="" />
<glyph glyph-name="exclam" unicode="&#x21;" horiz-adv-x="222" d="M117 -5 C148 -5 168 15 168 46 C168 76 148 96 117 96 C87 96 67 76 67 46 C67 15 87 -5 117 -5 L117 -5 Z M156 613 C158 644 141 665 113 665 C84 665 67 644 70 613 L113 171 L122 171 L156 613 L156 613 Z " />
<glyph glyph-name="quotedbl" unicode="&#x22;" horiz-adv-x="302" d="M166 660 L205 436 L217 436 L255 660 L166 660 L166 660 Z M47 660 L85 436 L97 436 L136 660 L47 660 L47 660 Z " />
<glyph glyph-name="numbersign" unicode="&#x23;" horiz-adv-x="554" d="M397 673 L370 487 L228 487 L255 673 L228 673 L201 487 L73 487 L65 433 L193 433 L163 227 L33 227 L25 173 L155 173 L130 0 L158 0 L183 173 L324 173 L299 0 L326 0 L351 173 L474 173 L481 227 L359 227 L389 433 L520 433 L527 487 L397 487 L424 673 L397 673 L397 673 Z M220 433 L362 433 L332 227 L191 227 L220 433 L220 433 Z " />
<glyph glyph-name="dollar" unicode="&#x24;" horiz-adv-x="521" d="M275 735 L275 664 C267 665 259 665 251 665 C240 665 229 664 219 663 L219 735 L195 735 L195 659 C106 638 50 567 50 468 C50 400 107 334 195 299 L195 29 C140 44 87 87 58 136 L45 136 L45 77 L59 87 C59 87 59 87 59 86 L45 77 C69 40 125 12 195 1 L195 -75 L219 -75 L219 -2 C235 -4 251 -5 267 -5 C270 -5 272 -5 275 -5 L275 -75 L299 -75 L299 -3 C402 9 469 79 469 181 C469 260 401 335 299 368 L299 633 C304 632 309 630 314 628 C343 617 377 585 403 547 C408 540 414 531 419 524 L432 524 L432 583 L417 573 L417 573 L432 583 C407 622 356 650 299 661 L299 735 L275 735 L275 735 Z M219 400 L219 637 C228 639 237 640 247 640 C256 640 266 639 275 638 L275 376 C255 384 236 392 219 400 L219 400 Z M195 414 C148 443 120 476 120 508 C120 567 149 612 195 630 L195 414 L195 414 Z M219 291 C239 284 258 277 275 269 L275 20 C272 20 270 20 267 20 C251 20 234 21 219 23 L219 291 L219 291 Z M299 257 C360 223 398 180 398 140 C398 78 360 34 299 23 L299 257 L299 257 Z " />
<glyph glyph-name="ampersand" unicode="&#x26;" horiz-adv-x="726" d="M593 380 L517 380 L517 365 L521 365 C536 365 545 350 545 270 L545 240 C545 192 531 149 506 115 C476 145 441 184 400 232 C356 285 317 335 288 381 C395 410 464 475 464 549 C464 619 405 665 317 665 C229 665 170 600 170 502 C170 467 188 421 219 369 C120 328 57 248 57 160 C57 61 140 -5 264 -5 C352 -5 425 19 477 61 C571 -13 641 -14 719 0 L719 12 C667 2 617 9 518 103 C546 141 561 187 561 240 L561 270 C561 350 572 365 588 365 L593 365 L593 380 L593 380 Z M281 391 C245 449 224 498 224 533 C224 603 259 650 312 650 C370 650 409 608 409 545 C409 476 359 417 281 391 L281 391 Z M463 73 C422 43 367 26 303 26 C195 26 123 90 123 187 C123 261 163 325 226 357 C257 306 299 249 350 189 C392 139 429 101 463 73 L463 73 L463 73 Z " />
<glyph glyph-name="quoteright" unicode="&#x27;" horiz-adv-x="182" d="M47 660 L85 436 L97 436 L136 660 L47 660 L47 660 Z " />
<glyph glyph-name="parenleft" unicode="&#x28;" horiz-adv-x="240" d="M214 690 C126 584 67 460 67 270 C67 80 126 -44 214 -150 L223 -143 C162 -70 121 43 121 270 C121 497 162 610 223 683 L214 690 L214 690 Z " />
<glyph glyph-name="parenright" unicode="&#x29;" horiz-adv-x="240" d="M17 -150 C105 -44 164 80 165 270 C164 460 105 584 17 690 L8 683 C69 610 110 497 110 270 C110 43 69 -70 8 -143 L17 -150 L17 -150 Z " />
<glyph glyph-name="asterisk" unicode="&#x2a;" horiz-adv-x="291" d="M151 540 L42 499 C9 486 34 438 64 461 L154 535 L136 420 C133 404 141 393 157 393 C173 393 181 404 178 420 L160 535 L250 461 C263 451 277 453 284 466 C292 480 287 493 272 499 L163 540 L272 581 C304 594 279 641 250 619 L160 545 L178 660 C181 676 173 687 157 687 C141 687 133 676 136 660 L154 545 L64 619 C51 629 37 627 29 614 C22 600 27 587 42 581 L151 540 L151 540 Z " />
<glyph glyph-name="plus" unicode="&#x2b;" horiz-adv-x="561" d="M265 450 L265 266 L82 266 L82 234 L265 234 L265 50 L299 50 L299 234 L482 234 L482 266 L299 266 L299 450 L265 450 L265 450 Z " />
<glyph glyph-name="comma" unicode="&#x2c;" horiz-adv-x="233" d="M163 22 C166 29 168 37 168 46 C168 76 148 96 117 96 C87 96 67 76 67 46 C67 16 85 -3 113 -5 C127 -19 135 -28 135 -28 C135 -63 113 -97 81 -113 L86 -123 C141 -97 177 -45 177 7 C177 7 172 12 163 22 L163 22 L163 22 Z " />
<glyph glyph-name="hyphen" unicode="&#x2d;" horiz-adv-x="286" d="M27 208 L260 208 L260 262 L27 262 L27 208 L27 208 Z " />
<glyph glyph-name="period" unicode="&#x2e;" horiz-adv-x="242" d="M125 -5 C156 -5 176 15 176 46 C176 76 156 96 125 96 C94 96 74 76 74 46 C74 15 94 -5 125 -5 L125 -5 Z " />
<glyph glyph-name="slash" unicode="&#x2f;" horiz-adv-x="348" d="M7 -145 L38 -145 L348 710 L317 710 L7 -145 L7 -145 Z " />
<glyph glyph-name="zero" unicode="0" horiz-adv-x="570" d="M285 11 C181 11 111 107 111 250 C111 393 181 489 285 489 C390 489 460 393 460 250 C460 107 390 11 285 11 L285 11 Z M33 250 C33 97 134 -5 285 -5 C436 -5 537 97 537 250 C537 403 436 505 285 505 C134 505 33 403 33 250 L33 250 Z " />
<glyph glyph-name="one" unicode="1" horiz-adv-x="235" d="M174 500 L150 500 L115 500 L80 500 L56 500 L56 485 L60 485 C72 485 80 459 80 420 L80 80 C80 41 72 15 60 15 L56 15 L56 0 L80 0 L115 0 L150 0 L174 0 L174 15 L170 15 C158 15 150 41 150 80 L150 420 C150 459 158 485 170 485 L174 485 L174 500 L174 500 Z " />
<glyph glyph-name="two" unicode="2" horiz-adv-x="496" d="M445 94 L445 90 C444 78 417 70 378 70 L142 70 C322 184 436 254 436 351 C436 443 372 505 275 505 C192 505 113 446 78 358 L86 353 C111 413 172 453 240 453 C311 453 358 403 358 327 C358 196 228 143 32 16 L32 0 L452 0 L455 35 L457 64 C458 74 459 85 460 94 L445 94 L445 94 Z " />
<glyph glyph-name="three" unicode="3" horiz-adv-x="456" d="M32 -215 C264 -203 418 -101 418 41 C418 134 344 199 231 209 C322 256 377 316 377 373 C377 452 319 505 233 505 C156 505 69 454 17 376 L25 371 C59 421 128 454 197 454 C263 454 307 412 307 350 C307 293 256 235 174 196 C158 190 137 182 111 172 L111 161 C115 162 118 163 122 164 C141 170 165 173 185 173 C281 173 344 119 344 37 C344 -97 219 -194 31 -203 L32 -215 L32 -215 Z " />
<glyph glyph-name="four" unicode="4" horiz-adv-x="504" d="M61 31 L307 384 L307 31 L61 31 L61 31 Z M307 0 L307 -150 L377 -150 L377 0 L487 0 L487 31 L377 31 L377 484 L377 505 L366 505 L22 12 L22 0 L36 0 L39 0 L307 0 L307 0 Z " />
<glyph glyph-name="five" unicode="5" horiz-adv-x="459" d="M73 206 L91 206 L131 206 C252 206 332 145 332 52 C332 -74 214 -162 37 -169 L38 -182 C256 -174 402 -71 402 75 C402 195 308 275 167 275 L97 275 L91 206 L114 500 L109 426 L371 426 L383 463 C389 481 397 505 402 524 L387 524 L386 520 C383 508 354 500 315 500 L114 500 L93 500 L73 206 L73 206 Z " />
<glyph glyph-name="six" unicode="6" horiz-adv-x="529" d="M473 715 C211 706 37 539 37 297 C37 116 127 -5 263 -5 C407 -5 498 83 491 216 C491 344 411 429 291 429 C216 429 153 381 118 301 C118 308 118 315 118 321 C118 543 260 696 473 703 L473 715 L473 715 Z M115 250 C143 348 204 409 279 409 C362 409 417 330 417 212 C424 93 365 14 271 14 C177 14 115 101 115 231 C115 237 115 244 115 250 L115 250 Z " />
<glyph glyph-name="seven" unicode="7" horiz-adv-x="454" d="M44 405 L44 408 C45 420 71 428 111 428 L402 428 L132 -140 L210 -140 C286 71 362 282 437 493 L432 500 L37 500 L34 464 C32 446 30 422 29 405 L44 405 L44 405 Z " />
<glyph glyph-name="eight" unicode="8" horiz-adv-x="505" d="M292 355 C278 360 264 365 249 369 C169 391 116 452 116 520 C116 598 165 650 240 650 C318 650 371 593 371 507 C371 434 341 377 292 355 L292 355 L292 355 Z M302 351 C380 376 429 439 429 518 C429 606 355 665 243 665 C132 665 57 596 57 493 C57 422 103 358 176 321 C87 309 30 248 30 162 C30 62 116 -5 246 -5 C375 -5 461 67 461 176 C461 244 399 311 302 351 L302 351 L302 351 Z M184 316 C198 310 213 304 229 300 C329 272 395 213 395 152 C395 67 337 10 249 10 C157 10 96 75 96 174 C96 249 131 303 184 316 L184 316 L184 316 Z " />
<glyph glyph-name="nine" unicode="9" horiz-adv-x="565" d="M75 -215 C337 -206 511 -39 511 203 C511 384 420 505 285 505 C141 505 50 417 57 284 C57 156 137 71 257 71 C332 71 395 120 430 200 C430 193 430 186 430 179 C430 -43 288 -196 75 -203 L75 -215 L75 -215 Z M433 250 C405 152 343 91 268 91 C186 91 131 170 131 288 C124 407 183 486 277 486 C371 486 433 399 433 269 C433 263 433 256 433 250 L433 250 L433 250 Z " />
<glyph glyph-name="colon" unicode="&#x3a;" horiz-adv-x="242" d="M125 379 C156 379 176 399 176 430 C176 461 156 481 125 481 C94 481 74 461 74 430 C74 399 94 379 125 379 L125 379 Z M125 -5 C156 -5 176 15 176 46 C176 76 156 96 125 96 C94 96 74 76 74 46 C74 15 94 -5 125 -5 L125 -5 Z " />
<glyph glyph-name="semicolon" unicode="&#x3b;" horiz-adv-x="233" d="M117 379 C148 379 168 399 168 430 C168 461 148 481 117 481 C87 481 67 461 67 430 C67 399 87 379 117 379 L117 379 Z M163 22 C166 29 168 37 168 46 C168 76 148 96 117 96 C87 96 67 76 67 46 C67 16 85 -3 113 -5 C127 -19 135 -28 135 -28 C135 -63 113 -97 81 -113 L86 -123 C141 -97 177 -45 177 7 C177 7 172 12 163 22 L163 22 L163 22 Z " />
<glyph glyph-name="less" unicode="&#x3c;" horiz-adv-x="551" d="M470 500 L55 296 L47 292 L47 258 L55 254 L470 50 L470 85 L78 275 L470 465 L470 500 L470 500 Z " />
<glyph glyph-name="equal" unicode="&#x3d;" horiz-adv-x="544" d="M88 216 L88 184 L468 184 L468 216 L88 216 L88 216 Z M88 316 L88 284 L468 284 L468 316 L88 316 L88 316 Z " />
<glyph glyph-name="greater" unicode="&#x3e;" horiz-adv-x="543" d="M465 275 L82 85 L82 50 L487 254 L497 260 L497 290 L487 296 L82 500 L82 465 L465 275 L465 275 Z " />
<glyph glyph-name="question" unicode="&#x3f;" horiz-adv-x="382" d="M146 -5 C177 -5 197 15 197 46 C197 76 177 96 146 96 C116 96 96 76 96 46 C96 15 116 -5 146 -5 L146 -5 Z M139 371 C131 371 125 367 126 360 L142 176 L151 176 L163 317 L198 317 C317 317 340 393 340 436 C340 573 256 665 130 665 C79 665 46 639 46 601 C46 587 60 577 81 577 C107 577 125 610 152 610 C255 610 324 543 324 444 C324 417 300 371 174 371 L139 371 L139 371 Z " />
<glyph glyph-name="at" unicode="&#x40;" horiz-adv-x="1165" d="M1049 0 C983 -142 801 -237 595 -237 C308 -237 117 -39 117 259 C117 557 303 755 583 755 C862 755 1049 590 1049 343 C1049 141 974 6 861 6 C756 6 704 84 734 200 L804 480 L738 480 L717 395 C703 454 655 490 588 490 C415 490 300 372 300 194 C300 84 370 10 475 10 C554 10 623 54 661 125 C668 37 736 -18 849 -18 C1001 -18 1103 126 1103 343 C1103 602 895 775 583 775 C270 775 62 569 62 259 C62 -51 275 -257 595 -257 C810 -257 1001 -154 1073 0 L1049 0 L1049 0 Z M707 355 L668 200 C645 109 582 49 511 49 C430 49 376 112 376 208 C376 366 460 471 586 471 C658 471 706 425 706 355 L707 355 L707 355 Z " />
<glyph glyph-name="A" unicode="A" horiz-adv-x="615" d="M597 15 L593 15 C582 15 567 32 553 60 L298 675 L273 675 L57 70 C43 37 28 15 17 15 L13 15 L13 0 L32 0 L49 0 L65 0 L100 0 L100 15 L96 15 C80 15 81 47 98 95 L98 95 L130 187 L353 291 L436 80 L436 80 C452 41 454 15 442 15 L439 15 L439 0 L468 0 L523 0 L578 0 L597 0 L597 15 L597 15 Z M333 340 L147 239 L252 543 L333 340 L333 340 Z " />
<glyph glyph-name="B" unicode="B" horiz-adv-x="593" d="M47 645 L50 645 C63 645 71 619 71 580 L71 80 C71 41 63 15 50 15 L47 15 L47 0 L71 0 L121 0 L171 0 L316 0 C467 0 567 73 567 181 C567 273 483 338 351 355 C450 375 512 431 512 508 C512 599 424 660 291 660 L171 660 L121 660 L71 660 L47 660 L47 645 L47 645 Z M171 359 L171 641 L291 641 C363 641 411 588 411 508 C411 419 354 359 267 359 L171 359 L171 359 Z M171 343 L258 343 C380 343 461 278 461 181 C461 84 400 19 308 19 L171 19 L171 343 L171 343 Z " />
<glyph glyph-name="C" unicode="C" horiz-adv-x="709" d="M643 518 L643 572 C606 628 503 665 386 665 C179 665 41 531 41 330 C41 129 179 -5 386 -5 C503 -5 606 32 643 88 L643 142 L630 142 C626 137 620 129 617 123 C581 69 506 29 430 22 L430 22 C416 21 401 20 386 20 C246 20 152 144 152 330 C152 516 246 640 386 640 C416 640 446 637 473 632 L473 632 C527 623 585 584 617 537 C620 531 626 523 630 518 L643 518 L643 518 Z " />
<glyph glyph-name="D" unicode="D" horiz-adv-x="688" d="M47 645 L50 645 C63 645 71 619 71 580 L71 80 C71 41 63 15 50 15 L47 15 L47 0 L71 0 L121 0 L171 0 L315 0 C505 0 632 132 632 330 C632 528 491 660 279 660 L171 660 L121 660 L71 660 L47 660 L47 645 L47 645 Z M171 19 L171 641 L279 641 C430 641 531 517 531 330 C531 143 445 19 315 19 L171 19 L171 19 Z " />
<glyph glyph-name="E" unicode="E" horiz-adv-x="531" d="M396 312 L396 339 L396 352 L396 365 L396 388 L384 388 L380 385 C370 373 336 366 293 365 L276 365 L166 365 L166 635 L305 635 C372 635 423 618 449 592 L460 592 L460 647 L460 660 L451 660 L380 660 L166 660 L115 660 L65 660 L41 660 L41 645 L45 645 C57 645 65 619 65 580 L65 80 C65 41 57 15 45 15 L41 15 L41 0 L65 0 L115 0 L166 0 L383 0 L461 0 L463 0 C463 4 464 9 465 13 C468 29 472 51 475 68 L464 68 L456 62 C430 40 372 25 312 25 L166 25 L166 339 L276 339 C327 339 369 330 380 316 L384 312 L396 312 L396 312 Z " />
<glyph glyph-name="F" unicode="F" horiz-adv-x="497" d="M386 307 L386 334 L386 347 L386 360 L386 383 L374 383 L370 380 C360 368 326 361 283 360 L266 360 L166 360 L166 635 L335 635 C402 635 453 618 479 592 L490 592 L490 647 L490 660 L481 660 L410 660 L166 660 L115 660 L65 660 L41 660 L41 645 L45 645 C57 645 65 619 65 580 L65 80 C65 41 57 15 45 15 L41 15 L41 0 L65 0 L115 0 L166 0 L200 0 L200 15 L195 15 C177 15 166 41 166 80 L166 334 L266 334 C317 334 359 325 370 311 L374 307 L386 307 L386 307 Z " />
<glyph glyph-name="G" unicode="G" horiz-adv-x="691" d="M635 310 L611 310 L565 310 L520 310 L496 310 L496 295 L500 295 C512 295 520 269 520 230 L520 44 C471 29 414 20 361 20 C227 20 137 144 137 330 C137 516 227 640 361 640 C390 640 418 637 443 632 C496 621 550 584 582 537 C585 531 591 523 595 518 L608 518 L608 572 C571 628 472 665 361 665 C160 665 26 531 26 330 C26 129 160 -5 361 -5 C449 -5 549 19 611 55 L611 230 C611 269 619 295 631 295 L635 295 L635 310 L635 310 Z " />
<glyph glyph-name="H" unicode="H" horiz-adv-x="685" d="M639 660 L615 660 L565 660 L514 660 L491 660 L491 645 L494 645 C506 645 514 619 514 580 L514 360 L166 360 L166 580 C166 619 174 645 186 645 L190 645 L190 660 L166 660 L115 660 L65 660 L41 660 L41 645 L45 645 C57 645 65 619 65 580 L65 80 C65 41 57 15 45 15 L41 15 L41 0 L65 0 L115 0 L166 0 L190 0 L190 15 L186 15 C174 15 166 41 166 80 L166 334 L514 334 L514 80 C514 41 506 15 494 15 L491 15 L491 0 L514 0 L565 0 L615 0 L639 0 L639 15 L635 15 C623 15 615 41 615 80 L615 580 C615 619 623 645 635 645 L639 645 L639 660 L639 660 Z " />
<glyph glyph-name="I" unicode="I" horiz-adv-x="230" d="M184 660 L160 660 L110 660 L59 660 L35 660 L35 645 L39 645 C51 645 59 619 59 580 L59 80 C59 41 51 15 39 15 L35 15 L35 0 L59 0 L110 0 L160 0 L184 0 L184 15 L180 15 C168 15 160 41 160 80 L160 580 C160 619 168 645 180 645 L184 645 L184 660 L184 660 Z " />
<glyph glyph-name="J" unicode="J" horiz-adv-x="356" d="M309 660 L286 660 L235 660 L185 660 L161 660 L161 645 L165 645 C177 645 185 619 185 580 L185 200 C185 60 171 6 134 6 C104 6 80 24 73 50 C68 69 54 81 38 81 C15 81 2 69 7 50 C16 14 59 -10 114 -10 C238 -10 286 73 286 285 L286 580 L286 593 C287 625 294 645 306 645 L309 645 L309 660 L309 660 Z " />
<glyph glyph-name="K" unicode="K" horiz-adv-x="619" d="M434 645 L435 645 C440 645 423 624 393 591 L171 355 L171 580 C172 619 180 645 192 645 L195 645 L195 660 L171 660 L121 660 L71 660 L47 660 L47 645 L50 645 C63 645 71 619 71 580 L71 80 C71 41 63 15 50 15 L47 15 L47 0 L71 0 L121 0 L171 0 L195 0 L195 15 L192 15 C180 15 172 41 171 80 L171 355 L187 334 L188 335 L334 153 C427 39 494 -5 574 -5 L603 -5 L603 10 L598 10 C563 10 504 66 388 210 L241 392 L419 580 L419 580 C456 619 488 645 500 645 L504 645 L504 660 L494 660 L476 660 L458 660 L434 660 L434 645 L434 645 Z " />
<glyph glyph-name="L" unicode="L" horiz-adv-x="516" d="M190 660 L166 660 L115 660 L65 660 L41 660 L41 645 L45 645 C57 645 65 619 65 580 L65 80 C65 41 57 15 45 15 L41 15 L41 0 L65 0 L115 0 L166 0 L383 0 L461 0 L463 0 C463 4 464 9 465 13 C468 30 472 53 475 70 C475 70 474 71 471 71 C463 72 456 73 456 73 L449 66 C427 42 376 25 322 25 L166 25 L166 580 C166 619 174 645 186 645 L190 645 L190 660 L190 660 Z " />
<glyph glyph-name="M" unicode="M" horiz-adv-x="756" d="M716 660 L693 660 L647 660 L629 660 L602 660 L376 116 L168 660 L102 660 L87 660 L72 660 L48 660 L48 645 L51 645 C64 645 70 620 69 582 L50 80 C48 41 39 15 27 15 L24 15 L24 0 L47 0 L62 0 L77 0 L112 0 L112 15 L107 15 C90 15 79 47 81 95 L98 549 L319 14 L326 -5 L352 -5 L604 600 L619 80 C620 41 613 15 602 15 L598 15 L598 0 L622 0 L672 0 L723 0 L746 0 L746 15 L742 15 C731 15 723 35 720 67 L696 599 C697 627 703 645 712 645 L716 645 L716 660 L716 660 Z " />
<glyph glyph-name="N" unicode="N" horiz-adv-x="619" d="M580 660 L556 660 L541 660 L526 660 L502 660 L502 645 L506 645 C518 645 526 619 526 580 L526 121 L168 660 L100 627 L100 627 L168 660 L100 660 L85 660 L70 660 L46 660 L46 645 L50 645 C62 645 70 619 70 580 L70 80 C70 41 62 15 50 15 L46 15 L46 0 L70 0 L85 0 L100 0 L124 0 L124 15 L121 15 C108 15 100 41 100 80 L100 583 L480 14 L500 -16 L556 -16 L556 51 L556 580 C556 619 564 645 576 645 L580 645 L580 660 L580 660 Z " />
<glyph glyph-name="O" unicode="O" horiz-adv-x="772" d="M386 20 C241 20 167 163 167 330 C167 497 241 640 386 640 C531 640 605 497 605 330 C605 163 531 20 386 20 L386 20 Z M56 330 C56 149 168 -5 386 -5 C604 -5 716 149 716 330 C716 511 604 665 386 665 C168 665 56 511 56 330 L56 330 Z " />
<glyph glyph-name="P" unicode="P" horiz-adv-x="556" d="M47 645 L50 645 C63 645 71 619 71 580 L71 80 C71 41 63 15 50 15 L47 15 L47 0 L71 0 L121 0 L171 0 L195 0 L195 15 L192 15 C180 15 172 41 171 80 L171 296 L272 296 C427 296 530 369 530 478 C530 587 437 660 298 660 L171 660 L121 660 L71 660 L47 660 L47 645 L47 645 Z M171 316 L171 641 L298 641 C373 641 424 576 424 478 C424 381 363 316 272 316 L171 316 L171 316 Z " />
<glyph glyph-name="Q" unicode="Q" horiz-adv-x="772" d="M809 -51 L802 -46 C784 -67 720 -81 643 -81 C530 -81 451 -51 397 -5 C608 0 716 152 716 330 C716 511 604 665 386 665 C168 665 56 511 56 330 C56 154 162 3 369 -5 C449 -82 539 -132 635 -132 C698 -132 768 -100 809 -51 L809 -51 Z M386 20 C241 20 167 163 167 330 C167 497 241 640 386 640 C531 640 605 497 605 330 C605 163 531 20 386 20 L386 20 Z " />
<glyph glyph-name="R" unicode="R" horiz-adv-x="599" d="M47 645 L50 645 C63 645 71 619 71 580 L71 80 C71 41 63 15 50 15 L47 15 L47 0 L71 0 L121 0 L171 0 L195 0 L195 15 L192 15 C180 15 172 41 171 80 L171 315 L248 315 L399 106 C473 4 480 0 564 0 L593 0 L593 15 L588 15 C562 15 559 18 506 91 L338 321 C448 339 517 402 517 490 C517 592 427 660 291 660 L171 660 L121 660 L71 660 L47 660 L47 645 L47 645 Z M267 335 L234 335 L171 335 L171 641 L291 641 C363 641 411 580 411 490 C411 397 353 335 267 335 L267 335 Z " />
<glyph glyph-name="S" unicode="S" horiz-adv-x="521" d="M58 136 L45 136 L45 77 L59 87 C59 87 59 87 59 86 L45 77 C77 28 166 -5 267 -5 C388 -5 469 69 469 181 C469 261 400 336 296 369 C190 403 120 458 120 508 C120 587 171 640 247 640 C270 640 293 636 314 628 C343 617 377 585 403 547 C408 540 414 531 419 524 L432 524 L432 583 L417 573 L417 573 L432 583 C400 632 327 665 251 665 C131 665 50 586 50 468 C50 394 117 323 218 291 C326 257 398 196 398 140 C398 68 346 20 267 20 C250 20 234 21 218 23 L218 24 C155 32 91 80 58 136 L58 136 Z " />
<glyph glyph-name="T" unicode="T" horiz-adv-x="633" d="M391 15 L388 15 C376 15 367 41 367 80 L367 635 L468 635 C516 635 566 619 592 594 L600 587 L612 587 C611 605 608 629 607 647 C606 651 606 656 606 660 L587 660 L526 660 L108 660 L47 660 L28 660 C28 656 27 651 27 647 C25 629 23 605 22 587 L34 587 L42 594 C68 619 118 635 166 635 L267 635 L267 80 C267 41 259 15 246 15 L243 15 L243 0 L267 0 L317 0 L367 0 L391 0 L391 15 L391 15 Z " />
<glyph glyph-name="U" unicode="U" horiz-adv-x="583" d="M556 660 L529 660 L518 660 L506 660 L477 660 L477 645 L482 645 C495 645 504 619 506 580 L505 189 C505 94 452 30 315 30 C204 30 161 95 161 192 L161 580 C162 619 170 645 182 645 L185 645 L185 660 L161 660 L111 660 L61 660 L37 660 L37 645 L40 645 C53 645 61 619 61 580 L61 212 C61 82 128 -5 300 -5 C465 -5 529 70 529 182 L529 570 C529 615 538 645 552 645 L556 645 L556 660 L556 660 Z " />
<glyph glyph-name="V" unicode="V" horiz-adv-x="635" d="M591 660 L573 660 L561 660 L549 660 L511 660 L511 645 L516 645 C533 645 531 607 511 550 L511 550 L352 91 L166 585 C154 621 154 645 166 645 L170 645 L170 660 L138 660 L83 660 L27 660 L14 660 L14 645 L17 645 C27 645 44 619 61 580 L61 580 L316 -15 L336 -15 L545 580 L545 580 C558 619 576 645 588 645 L591 645 L591 660 L591 660 Z " />
<glyph glyph-name="W" unicode="W" horiz-adv-x="932" d="M903 660 L884 660 L872 660 L860 660 L827 660 L827 645 L831 645 C846 645 848 619 837 580 L837 580 L701 106 L510 670 L490 670 L314 98 L171 580 L171 580 C159 619 160 645 172 645 L176 645 L176 660 L147 660 L92 660 L36 660 L22 660 L22 645 L25 645 C34 645 48 624 61 592 L279 -15 L299 -15 L470 541 L666 -15 L685 -15 L864 592 C875 624 888 645 899 645 L903 645 L903 660 L903 660 Z " />
<glyph glyph-name="X" unicode="X" horiz-adv-x="657" d="M487 645 L490 645 C501 645 497 627 481 598 L345 388 L221 580 L221 580 C195 619 186 645 197 645 L201 645 L201 660 L169 660 L111 660 L54 660 L46 660 L46 645 L49 645 C58 645 79 622 102 586 L106 580 L276 318 L276 318 L124 80 L124 80 C99 41 74 15 62 15 L58 15 L58 0 L73 0 L91 0 L110 0 L145 0 L145 15 L141 15 C130 15 137 40 158 78 L292 295 L431 80 C456 41 465 15 454 15 L451 15 L451 0 L483 0 L540 0 L597 0 L605 0 L605 15 L603 15 C594 15 573 39 548 75 L360 365 L516 594 C539 625 560 645 571 645 L574 645 C575 645 575 648 574 653 C575 657 575 660 574 660 L561 660 L541 660 L521 660 L487 660 L487 645 L487 645 Z " />
<glyph glyph-name="Y" unicode="Y" horiz-adv-x="592" d="M372 15 L369 15 C357 15 348 41 348 80 L348 322 L348 322 L523 594 C545 625 563 645 573 645 L576 645 L576 660 L565 660 L553 660 L541 660 L506 660 C507 660 507 657 506 653 C507 648 507 645 506 645 L510 645 C522 645 511 614 482 566 L328 322 L317 322 L188 587 C171 622 167 645 177 645 L181 645 L181 660 L152 660 L91 660 L31 660 L22 660 L22 645 L25 645 C34 645 55 619 76 580 L77 580 L247 281 L247 80 C247 41 239 15 227 15 L224 15 L224 0 L247 0 L298 0 L348 0 L372 0 L372 15 L372 15 Z " />
<glyph glyph-name="Z" unicode="Z" horiz-adv-x="590" d="M512 13 C515 31 519 54 522 72 L522 72 L522 72 L522 72 C522 71 521 72 518 72 C509 73 503 74 503 74 L496 67 C474 43 423 26 369 26 L175 26 L536 660 L479 660 L422 660 L188 660 L127 660 L108 660 C107 656 105 651 105 647 C100 632 95 612 91 597 L103 597 L112 602 C141 622 193 635 241 635 L408 635 L47 0 L103 0 L160 0 L429 0 L508 0 L509 0 C510 4 511 9 512 13 L512 13 Z " />
<glyph glyph-name="bracketleft" unicode="&#x5b;" horiz-adv-x="256" d="M135 644 L240 644 L240 660 L135 660 L80 660 L80 -120 L135 -120 L240 -120 L240 -104 L135 -104 L135 644 L135 644 Z " />
<glyph glyph-name="backslash" unicode="&#x5c;" horiz-adv-x="252" d="M221 -145 L246 -145 L-29 710 L-53 710 L221 -145 L221 -145 Z " />
<glyph glyph-name="bracketright" unicode="&#x5d;" horiz-adv-x="240" d="M110 644 L110 -104 L5 -104 L5 -120 L110 -120 L164 -120 L164 660 L110 660 L5 660 L5 644 L110 644 L110 644 Z " />
<glyph glyph-name="underscore" unicode="&#x5f;" horiz-adv-x="461" d="M12 -50 L12 -89 L450 -89 L450 -50 L12 -50 L12 -50 Z " />
<glyph glyph-name="a" unicode="a" horiz-adv-x="505" d="M477 39 C467 29 453 23 427 23 C396 23 388 48 388 85 L388 357 C388 446 337 505 261 505 C114 505 38 442 72 348 L142 348 C112 431 154 486 246 486 C287 486 314 441 314 373 L314 254 L213 239 C111 225 43 170 43 103 C43 38 89 -5 159 -5 C212 -5 269 19 315 57 C318 16 335 -10 379 -10 C430 -10 461 6 485 30 L477 39 L477 39 Z M314 237 L314 77 C314 76 314 76 314 75 C281 54 238 42 194 42 C145 42 112 74 112 123 C112 168 152 206 213 218 L314 237 L314 237 Z " />
<glyph glyph-name="b" unicode="b" horiz-adv-x="527" d="M20 686 C40 661 44 651 44 591 L44 0 L52 0 C59 16 77 26 98 26 C145 26 186 -5 250 -5 C394 -5 490 97 490 249 C490 403 406 505 280 505 C205 505 140 471 114 419 L114 610 L114 702 L114 720 L100 720 L20 695 L20 686 L20 686 Z M114 397 C132 443 176 474 226 474 C340 474 416 371 416 218 C416 95 350 14 250 14 C168 14 114 67 114 147 L114 397 L114 397 Z " />
<glyph glyph-name="c" unicode="c" horiz-adv-x="468" d="M423 133 L414 137 C385 78 334 38 287 38 C180 38 108 127 108 260 C108 396 175 486 275 486 C320 486 353 453 358 404 C360 383 374 369 393 369 C411 369 424 382 424 400 C418 463 361 505 283 505 C133 505 34 396 34 233 C34 90 112 -5 229 -5 C306 -5 383 50 423 133 L423 133 Z " />
<glyph glyph-name="d" unicode="d" horiz-adv-x="541" d="M485 34 C465 59 461 69 461 129 L461 610 L461 702 L461 720 L447 720 L367 695 L367 686 C387 661 391 651 391 591 L391 438 C362 479 312 505 249 505 C115 505 26 392 26 223 C26 86 105 -5 222 -5 C295 -5 360 28 391 81 L391 18 L391 0 L405 0 L485 25 L485 34 L485 34 Z M391 110 L391 97 C371 61 321 38 261 38 C164 38 99 123 99 250 C99 392 158 486 246 486 C317 486 371 451 391 397 L391 110 L391 110 Z " />
<glyph glyph-name="e" unicode="e" horiz-adv-x="486" d="M113 333 C130 427 181 486 250 486 C318 486 364 443 364 378 C364 377 364 376 364 375 C363 358 351 345 333 344 C332 344 331 344 330 344 L333 344 L363 345 L113 333 L113 333 Z M428 133 L419 137 C391 78 339 38 289 38 C180 38 107 127 107 260 C107 281 108 301 111 320 L429 320 C429 431 359 505 253 505 C121 505 33 396 33 233 C33 90 112 -5 231 -5 C310 -5 389 50 428 133 L428 133 Z " />
<glyph glyph-name="f" unicode="f" horiz-adv-x="336" d="M174 15 L171 15 C159 15 150 41 150 80 L150 473 L285 473 L285 500 L150 500 L150 533 C150 635 192 704 254 704 C285 704 307 687 310 660 C311 642 325 629 345 629 C363 629 376 642 376 660 C373 696 332 720 274 720 C168 720 92 651 84 548 L80 500 L1 500 L1 473 L80 473 L80 80 C80 41 72 15 60 15 L56 15 L56 0 L80 0 L115 0 L150 0 L174 0 L174 15 L174 15 Z " />
<glyph glyph-name="g" unicode="g" horiz-adv-x="484" d="M478 500 L341 485 L341 485 C315 498 283 505 248 505 C142 505 71 442 71 349 C71 279 111 226 175 203 C102 198 55 160 55 105 C55 59 86 26 137 13 C72 -16 30 -65 30 -118 C30 -191 90 -240 181 -240 C347 -240 458 -161 458 -43 C458 29 386 77 279 77 L197 74 C140 71 102 94 102 132 C102 168 138 192 193 192 L248 192 C353 192 424 255 424 349 C424 394 408 432 379 459 L478 461 L478 500 L478 500 Z M138 349 C138 433 182 489 248 489 C314 489 358 433 358 349 C358 264 314 208 248 208 C182 208 138 264 138 349 L138 349 Z M156 10 C170 8 185 7 201 8 L260 11 C348 11 407 -25 407 -78 C407 -163 320 -220 189 -220 C122 -220 77 -176 77 -110 C77 -60 108 -15 156 10 L156 10 L156 10 Z " />
<glyph glyph-name="h" unicode="h" horiz-adv-x="536" d="M490 15 L486 15 C474 15 466 41 466 80 L466 337 C466 438 432 505 344 505 C256 505 179 463 145 399 L145 610 L145 702 L145 720 L131 720 L52 695 L52 686 L55 681 C72 660 75 646 75 591 L75 80 C75 41 67 15 55 15 L52 15 L52 0 L75 0 L110 0 L145 0 L169 0 L169 15 L166 15 C154 15 146 41 145 80 L145 385 C168 429 224 458 290 458 C366 458 396 407 396 329 L396 80 C396 41 388 15 376 15 L372 15 L372 0 L396 0 L431 0 L466 0 L490 0 L490 15 L490 15 Z " />
<glyph glyph-name="i" unicode="i" horiz-adv-x="221" d="M52 466 C72 441 76 431 76 371 L76 80 C76 41 68 15 56 15 L52 15 L52 0 L76 0 L111 0 L146 0 L170 0 L170 15 L166 15 C154 15 146 41 146 80 L146 390 L146 482 L146 500 L132 500 L52 475 L52 466 L52 466 Z M107 570 C135 570 154 589 154 617 C154 644 135 663 107 663 C79 663 60 644 60 617 C60 589 79 570 107 570 L107 570 Z " />
<glyph glyph-name="j" unicode="j" horiz-adv-x="221" d="M52 466 C69 444 75 434 76 390 L75 5 C75 -130 48 -173 -34 -225 L-27 -234 C103 -153 146 -102 146 25 L146 390 L146 482 L146 500 L132 500 L52 475 L52 466 L52 466 Z M107 570 C135 570 154 589 154 617 C154 644 135 663 107 663 C79 663 60 644 60 617 C60 589 79 570 107 570 L107 570 Z " />
<glyph glyph-name="k" unicode="k" horiz-adv-x="460" d="M481 15 L477 15 C465 15 435 41 403 80 L402 80 L208 313 L332 424 C374 461 408 485 420 485 L423 485 L423 500 L416 500 L401 500 L385 500 L361 500 L361 485 L362 485 C366 485 342 459 301 420 L301 420 L149 275 L149 610 L149 702 L149 720 L135 720 L55 695 L55 686 C75 661 79 651 79 591 L79 80 C79 41 71 15 59 15 L55 15 L55 0 L79 0 L114 0 L149 0 L173 0 L173 15 L170 15 C158 15 149 41 149 80 L149 275 L156 266 L156 266 L337 53 C356 29 364 15 360 15 L358 15 L358 0 L382 0 L426 0 L469 0 L481 0 L481 15 L481 15 Z " />
<glyph glyph-name="l" unicode="l" horiz-adv-x="221" d="M52 686 C72 661 76 651 76 591 L76 80 C76 41 68 15 56 15 L52 15 L52 0 L76 0 L111 0 L146 0 L170 0 L170 15 L166 15 C154 15 146 41 146 80 L146 610 L146 702 L146 720 L132 720 L52 695 L52 686 L52 686 Z " />
<glyph glyph-name="m" unicode="m" horiz-adv-x="877" d="M830 15 L827 15 C815 15 807 41 806 80 L806 337 C806 438 750 505 677 505 C573 505 500 466 466 406 C448 467 404 505 350 505 C250 505 178 463 145 399 L145 402 L145 500 L131 500 L52 475 L52 466 L55 461 C72 440 75 426 75 371 L75 80 C75 41 67 15 55 15 L52 15 L52 0 L75 0 L110 0 L145 0 L169 0 L169 15 L166 15 C154 15 146 41 145 80 L145 385 C168 432 221 462 296 462 C359 462 406 409 406 329 L406 80 C406 41 398 15 386 15 L382 15 L382 0 L406 0 L441 0 L476 0 L500 0 L500 15 L496 15 C484 15 476 41 476 80 L476 337 C476 356 474 373 471 390 C494 431 547 458 623 458 C687 458 736 407 736 329 L736 80 C736 41 728 15 716 15 L712 15 L712 0 L736 0 L771 0 L806 0 L830 0 L830 15 L830 15 Z " />
<glyph glyph-name="n" unicode="n" horiz-adv-x="536" d="M490 15 L486 15 C474 15 466 41 466 80 L466 337 C466 438 432 505 344 505 C256 505 179 463 145 399 L145 402 L145 500 L131 500 L52 475 L52 466 L55 461 C72 440 75 426 75 371 L75 80 C75 41 67 15 55 15 L52 15 L52 0 L75 0 L110 0 L145 0 L169 0 L169 15 L166 15 C154 15 146 41 145 80 L145 385 C168 429 224 458 290 458 C366 458 396 407 396 329 L396 80 C396 41 388 15 376 15 L372 15 L372 0 L396 0 L431 0 L466 0 L490 0 L490 15 L490 15 Z " />
<glyph glyph-name="o" unicode="o" horiz-adv-x="584" d="M292 11 C191 11 123 107 123 250 C123 393 191 489 292 489 C394 489 462 393 462 250 C462 107 394 11 292 11 L292 11 Z M45 250 C45 97 144 -5 292 -5 C440 -5 539 97 539 250 C539 403 440 505 292 505 C144 505 45 403 45 250 L45 250 Z " />
<glyph glyph-name="p" unicode="p" horiz-adv-x="577" d="M41 466 L44 461 C61 440 64 426 64 371 L64 -150 C64 -189 56 -215 44 -215 L41 -215 L41 -230 L64 -230 L99 -230 L134 -230 L158 -230 L158 -215 L155 -215 C143 -215 135 -189 134 -150 L134 54 C165 17 216 -5 278 -5 C428 -5 528 102 528 262 C528 408 447 505 326 505 C228 505 156 467 133 406 L125 500 L111 500 L41 475 L41 466 L41 466 Z M134 156 L134 376 C147 426 199 458 272 458 C384 458 459 358 459 207 C459 91 387 14 278 14 C192 14 134 71 134 156 L134 156 L134 156 Z " />
<glyph glyph-name="q" unicode="q" horiz-adv-x="552" d="M501 -215 L497 -215 C485 -215 477 -189 477 -150 L477 500 L469 500 C469 499 468 498 468 497 C461 480 442 469 422 469 C374 469 335 505 270 505 C134 505 43 392 43 223 C43 86 118 -5 231 -5 C307 -5 375 32 407 88 L407 -150 C407 -189 399 -215 387 -215 L383 -215 L383 -230 L407 -230 L442 -230 L477 -230 L501 -230 L501 -215 L501 -215 Z M407 110 C389 67 334 38 269 38 C177 38 116 123 116 250 C116 392 178 486 270 486 C352 486 407 422 407 327 L407 110 L407 110 Z " />
<glyph glyph-name="r" unicode="r" horiz-adv-x="384" d="M52 466 L55 461 C72 440 75 426 75 371 L75 80 C75 41 67 15 55 15 L52 15 L52 0 L75 0 L110 0 L145 0 L169 0 L169 15 L166 15 C154 15 146 41 145 80 L145 380 C161 425 192 453 230 453 C263 453 300 425 334 425 C354 425 368 438 368 458 C368 486 345 505 285 505 C221 505 167 460 145 391 L145 402 L144 402 L136 500 L122 500 L52 475 L52 466 L52 466 Z " />
<glyph glyph-name="s" unicode="s" horiz-adv-x="433" d="M63 102 L52 102 L52 61 C78 21 143 -5 214 -5 C312 -5 377 54 377 141 C377 191 329 244 258 275 C175 310 119 359 119 397 C119 452 161 489 224 489 C238 489 253 485 267 479 C295 465 327 430 344 396 L356 396 L356 434 L346 427 L346 427 L356 434 C328 477 275 505 224 505 C128 505 65 452 65 373 C65 321 122 262 208 225 C275 198 319 154 319 115 C319 53 279 11 218 11 C208 11 198 12 189 13 L189 13 C144 19 90 57 63 102 L63 102 Z " />
<glyph glyph-name="t" unicode="t" horiz-adv-x="358" d="M320 500 L176 500 L176 640 L165 640 L149 595 C125 533 80 488 34 481 L32 481 L32 473 L106 473 L106 112 C107 21 127 -5 196 -5 C250 -5 292 43 332 116 L325 119 C294 63 264 26 231 26 C188 26 176 42 176 100 L176 473 L320 473 L320 500 L320 500 Z M150 598 L152 603 C151 601 151 600 150 598 L150 598 Z " />
<glyph glyph-name="u" unicode="u" horiz-adv-x="501" d="M460 34 C440 59 436 69 436 129 L436 500 L401 500 L366 500 L342 500 L342 485 L346 485 C358 485 366 459 366 420 L366 110 L366 107 C349 68 311 41 245 41 C159 41 115 90 115 162 L115 500 L80 500 L45 500 L22 500 L22 485 L25 485 C37 485 45 459 45 420 L45 155 C45 59 95 -5 191 -5 C282 -5 337 32 366 89 L366 18 L366 0 L380 0 L460 25 L460 34 L460 34 Z " />
<glyph glyph-name="v" unicode="v" horiz-adv-x="489" d="M390 485 L392 485 C400 485 399 467 390 438 L257 79 L126 435 C116 466 115 485 123 485 L126 485 L126 500 L102 500 L62 500 L22 500 L4 500 L4 485 L7 485 C18 485 35 463 50 430 L224 -10 L236 -10 L412 437 C426 466 441 485 451 485 L455 485 C454 485 454 488 455 493 C454 497 454 500 455 500 L437 500 L425 500 L413 500 L390 500 L390 485 L390 485 Z " />
<glyph glyph-name="w" unicode="w" horiz-adv-x="765" d="M750 500 L737 500 L713 500 L680 500 L680 485 L686 485 C697 485 702 475 686 426 L558 81 L427 433 C412 476 416 485 426 485 L432 485 L432 500 L402 500 L322 500 L310 500 L310 485 L315 485 C323 485 333 473 358 408 L358 408 L383 346 L281 78 L159 411 L159 411 C158 413 157 415 157 417 L147 443 C136 477 139 485 148 485 L154 485 L154 500 L126 500 L46 500 L33 500 L33 485 L38 485 C46 485 57 473 82 408 L82 408 L248 -10 L260 -10 L390 327 L524 -10 L536 -10 L717 448 C730 478 738 485 745 485 L750 485 L750 500 L750 500 Z " />
<glyph glyph-name="x" unicode="x" horiz-adv-x="521" d="M447 500 L434 500 L423 500 L411 500 L379 500 L379 485 L382 485 C393 485 381 460 355 422 L272 306 L193 420 L193 420 C165 459 153 485 163 485 L166 485 L166 500 L137 500 L94 500 L51 500 L43 500 L43 485 L46 485 C54 485 73 466 96 435 L228 246 L115 80 L115 80 C88 41 62 15 48 15 L44 15 L44 0 L61 0 L72 0 L84 0 L122 0 L122 15 L118 15 C104 15 111 41 137 80 L137 80 L237 233 L359 58 C375 31 383 15 377 15 L375 15 L375 0 L399 0 L442 0 L485 0 L490 0 L490 15 L488 15 C481 15 463 34 441 64 L280 294 L381 429 C408 463 432 485 443 485 L447 485 L447 500 L447 500 Z " />
<glyph glyph-name="y" unicode="y" horiz-adv-x="465" d="M402 485 L404 485 C412 485 411 467 402 438 L269 79 L138 435 C128 466 127 485 135 485 L138 485 L138 500 L114 500 L74 500 L34 500 L16 500 L16 485 L19 485 C30 485 47 463 62 430 L232 0 L205 -66 C172 -151 146 -184 111 -184 C87 -184 63 -160 38 -160 C17 -160 3 -172 3 -189 C3 -214 29 -230 68 -230 C135 -230 178 -186 223 -72 L248 -10 L424 437 C438 466 453 485 463 485 L467 485 C466 485 466 488 467 493 C466 497 466 500 467 500 L449 500 L437 500 L425 500 L402 500 L402 485 L402 485 Z " />
<glyph glyph-name="z" unicode="z" horiz-adv-x="497" d="M425 8 C428 24 431 45 434 61 C434 61 433 62 431 62 C422 63 416 64 416 63 L409 56 C386 32 335 16 281 16 L150 16 L441 500 L400 500 L360 500 L157 500 L96 500 L77 500 C77 498 76 494 75 492 C72 481 68 466 65 455 L77 455 L86 459 C114 474 165 484 213 484 L350 484 L57 0 L99 0 L140 0 L344 0 L420 0 L424 0 C424 2 424 6 425 8 L425 8 Z " />
<glyph glyph-name="braceleft" unicode="&#x7b;" horiz-adv-x="259" d="M238 -120 L238 -108 L213 -108 C158 -108 121 -61 121 9 L121 164 C121 221 94 261 51 270 C94 279 121 320 121 377 L121 531 C121 601 158 648 213 648 L238 648 L238 660 L198 660 C119 660 67 609 67 531 L67 338 C67 301 47 276 17 276 L12 276 L12 264 L17 264 C47 264 67 240 67 203 L67 9 C67 -69 119 -120 198 -120 L238 -120 L238 -120 Z " />
<glyph glyph-name="bar" unicode="&#x7c;" horiz-adv-x="188" d="M67 770 L67 -234 L121 -234 L121 770 L67 770 L67 770 Z " />
<glyph glyph-name="braceright" unicode="&#x7d;" horiz-adv-x="259" d="M12 660 L12 648 L36 648 C91 648 128 601 128 531 L128 376 C128 319 156 279 198 270 C156 261 128 220 128 163 L128 9 C128 -61 91 -108 36 -108 L12 -108 L12 -120 L52 -120 C131 -120 183 -69 183 9 L183 202 C183 239 203 264 233 264 L238 264 L238 276 L233 276 C203 276 183 300 183 337 L183 531 C183 609 131 660 52 660 L12 660 L12 660 Z " />
<glyph glyph-name="nbspace" unicode="&#xa0;" horiz-adv-x="220" d="" />
<glyph glyph-name="exclamdown" unicode="&#xa1;" horiz-adv-x="222" d="M105 505 C75 505 54 485 54 454 C54 424 75 404 105 404 C135 404 156 424 156 454 C156 485 135 505 105 505 L105 505 Z M67 -113 C65 -144 82 -165 110 -165 C138 -165 155 -144 152 -113 L110 329 L100 329 L67 -113 L67 -113 Z " />
<glyph glyph-name="cent" unicode="&#xa2;" horiz-adv-x="503" d="M279 575 L279 504 C144 491 57 386 57 233 C57 90 135 -5 252 -5 C261 -5 270 -4 279 -3 L279 -75 L302 -75 L302 3 C361 20 415 68 446 133 L437 137 C408 78 357 38 310 38 C307 38 305 38 302 38 L302 486 C345 484 376 452 381 404 C383 383 397 369 416 369 C434 369 447 382 447 400 C441 463 384 505 306 505 C305 505 303 505 302 505 L302 575 L279 575 L279 575 Z M279 41 C189 56 131 140 131 260 C131 387 190 474 279 485 L279 41 L279 41 Z " />
<glyph glyph-name="guillemotleft" unicode="&#xab;" horiz-adv-x="465" d="M257 250 L412 457 L404 465 L186 254 L186 246 L406 35 L413 43 L257 250 L257 250 Z M99 250 L246 457 L238 465 L27 254 L27 246 L240 35 L248 43 L99 250 L99 250 Z " />
<glyph glyph-name="guillemotright" unicode="&#xbb;" horiz-adv-x="465" d="M208 250 L54 457 L62 465 L280 254 L280 246 L60 35 L52 43 L208 250 L208 250 Z M367 250 L220 457 L227 465 L438 254 L438 246 L225 35 L218 43 L367 250 L367 250 Z " />
<glyph glyph-name="questiondown" unicode="&#xbf;" horiz-adv-x="382" d="M236 505 C205 505 185 485 185 454 C185 424 205 404 236 404 C266 404 286 424 286 454 C286 485 266 505 236 505 L236 505 Z M243 129 C251 129 257 133 256 140 L240 324 L231 324 L219 183 L184 183 C65 183 42 107 42 64 C42 -73 126 -165 253 -165 C303 -165 336 -139 336 -101 C336 -87 322 -77 301 -77 C275 -77 257 -110 230 -110 C127 -110 58 -43 58 56 C58 83 82 129 208 129 L243 129 L243 129 Z " />
<glyph glyph-name="Agrave" unicode="&#xc0;" horiz-adv-x="615" d="M597 15 L593 15 C582 15 567 32 553 60 L298 675 L273 675 L57 70 C43 37 28 15 17 15 L13 15 L13 0 L32 0 L49 0 L65 0 L100 0 L100 15 L96 15 C80 15 81 47 98 95 L98 95 L146 234 L375 234 L436 80 L436 80 C452 41 454 15 442 15 L439 15 L439 0 L468 0 L523 0 L578 0 L597 0 L597 15 L597 15 Z M280 846 C261 878 247 900 243 900 C231 900 203 879 203 870 C203 864 219 844 244 818 L359 690 L367 697 L280 846 L280 846 Z M365 259 L154 259 L252 543 L365 259 L365 259 Z " />
<glyph glyph-name="Aacute" unicode="&#xc1;" horiz-adv-x="615" d="M224 690 L336 818 C360 846 375 866 376 870 C376 879 348 900 336 900 C333 900 319 878 300 846 L216 697 L224 690 L224 690 Z M597 15 L593 15 C582 15 567 32 553 60 L298 675 L273 675 L57 70 C43 37 28 15 17 15 L13 15 L13 0 L32 0 L49 0 L65 0 L100 0 L100 15 L96 15 C80 15 81 47 98 95 L98 95 L146 234 L375 234 L436 80 L436 80 C452 41 454 15 442 15 L439 15 L439 0 L468 0 L523 0 L578 0 L597 0 L597 15 L597 15 Z M365 259 L154 259 L252 543 L365 259 L365 259 Z " />
<glyph glyph-name="Acircumflex" unicode="&#xc2;" horiz-adv-x="615" d="M597 15 L593 15 C582 15 567 32 553 60 L298 675 L273 675 L57 70 C43 37 28 15 17 15 L13 15 L13 0 L32 0 L49 0 L65 0 L100 0 L100 15 L96 15 C80 15 81 47 98 95 L98 95 L146 234 L375 234 L436 80 L436 80 C452 41 454 15 442 15 L439 15 L439 0 L468 0 L523 0 L578 0 L597 0 L597 15 L597 15 Z M286 835 L398 693 L405 699 L308 885 C305 891 297 905 286 905 C275 905 267 891 264 885 L167 699 L174 693 L286 835 L286 835 Z M365 259 L154 259 L252 543 L365 259 L365 259 Z " />
<glyph glyph-name="Atilde" unicode="&#xc3;" horiz-adv-x="615" d="M145 755 C145 793 162 818 188 818 C247 818 305 756 365 756 C409 756 439 799 439 862 L427 862 C427 826 408 802 380 802 C320 802 263 865 203 865 C161 865 133 821 133 755 L145 755 L145 755 Z M597 15 L593 15 C582 15 567 32 553 60 L298 675 L273 675 L57 70 C43 37 28 15 17 15 L13 15 L13 0 L32 0 L49 0 L65 0 L100 0 L100 15 L96 15 C80 15 81 47 98 95 L98 95 L146 234 L375 234 L436 80 L436 80 C452 41 454 15 442 15 L439 15 L439 0 L468 0 L523 0 L578 0 L597 0 L597 15 L597 15 Z M365 259 L154 259 L252 543 L365 259 L365 259 Z " />
<glyph glyph-name="Adieresis" unicode="&#xc4;" horiz-adv-x="615" d="M378 730 C404 730 421 747 421 773 C421 799 404 816 378 816 C352 816 335 799 335 773 C335 747 352 730 378 730 L378 730 Z M194 730 C219 730 236 747 236 773 C236 799 219 816 194 816 C168 816 151 799 151 773 C151 747 168 730 194 730 L194 730 Z M597 15 L593 15 C582 15 567 32 553 60 L298 675 L273 675 L57 70 C43 37 28 15 17 15 L13 15 L13 0 L32 0 L49 0 L65 0 L100 0 L100 15 L96 15 C80 15 81 47 98 95 L98 95 L146 234 L375 234 L436 80 L436 80 C452 41 454 15 442 15 L439 15 L439 0 L468 0 L523 0 L578 0 L597 0 L597 15 L597 15 Z M365 259 L154 259 L252 543 L365 259 L365 259 Z " />
<glyph glyph-name="Aring" unicode="&#xc5;" horiz-adv-x="615" d="M286 711 C245 711 211 746 211 788 C211 833 241 864 286 864 C331 864 361 833 361 788 C361 746 326 711 286 711 L286 711 Z M191 788 C191 738 235 695 286 695 C337 695 380 738 380 788 C380 843 342 880 286 880 C229 880 191 843 191 788 L191 788 Z M597 15 L593 15 C582 15 567 32 553 60 L298 675 L273 675 L57 70 C43 37 28 15 17 15 L13 15 L13 0 L32 0 L49 0 L65 0 L100 0 L100 15 L96 15 C80 15 81 47 98 95 L98 95 L146 234 L375 234 L436 80 L436 80 C452 41 454 15 442 15 L439 15 L439 0 L468 0 L523 0 L578 0 L597 0 L597 15 L597 15 Z M365 259 L154 259 L252 543 L365 259 L365 259 Z " />
<glyph glyph-name="Ccedilla" unicode="&#xc7;" horiz-adv-x="724" d="M658 518 L658 572 C621 628 518 665 401 665 C194 665 56 531 56 330 C56 129 194 -5 401 -5 C518 -5 621 32 658 88 L658 142 L645 142 C641 137 635 129 632 123 C596 69 521 29 445 22 L445 22 C431 21 416 20 401 20 C261 20 167 144 167 330 C167 516 261 640 401 640 C431 640 461 637 488 632 L488 632 C542 623 600 584 632 537 C635 531 641 523 645 518 L658 518 L658 518 Z " />
<glyph glyph-name="Egrave" unicode="&#xc8;" horiz-adv-x="531" d="M396 312 L396 339 L396 352 L396 365 L396 388 L384 388 L380 385 C370 373 336 366 293 365 L276 365 L166 365 L166 635 L305 635 C372 635 423 618 449 592 L460 592 L460 647 L460 660 L451 660 L380 660 L166 660 L115 660 L65 660 L41 660 L41 645 L45 645 C57 645 65 619 65 580 L65 80 C65 41 57 15 45 15 L41 15 L41 0 L65 0 L115 0 L166 0 L383 0 L461 0 L463 0 C463 4 464 9 465 13 C468 29 472 51 475 68 L464 68 L456 62 C430 40 372 25 312 25 L166 25 L166 339 L276 339 C327 339 369 330 380 316 L384 312 L396 312 L396 312 Z M236 846 C218 878 204 900 199 900 C187 900 159 879 159 870 C159 864 176 844 200 818 L315 690 L323 697 L236 846 L236 846 Z " />
<glyph glyph-name="Eacute" unicode="&#xc9;" horiz-adv-x="531" d="M227 690 L338 818 C363 846 379 866 378 870 C378 879 350 900 338 900 C335 900 321 878 303 846 L219 697 L227 690 L227 690 Z M396 312 L396 339 L396 352 L396 365 L396 388 L384 388 L380 385 C370 373 336 366 293 365 L276 365 L166 365 L166 635 L305 635 C372 635 423 618 449 592 L460 592 L460 647 L460 660 L451 660 L380 660 L166 660 L115 660 L65 660 L41 660 L41 645 L45 645 C57 645 65 619 65 580 L65 80 C65 41 57 15 45 15 L41 15 L41 0 L65 0 L115 0 L166 0 L383 0 L461 0 L463 0 C463 4 464 9 465 13 C468 29 472 51 475 68 L464 68 L456 62 C430 40 372 25 312 25 L166 25 L166 339 L276 339 C327 339 369 330 380 316 L384 312 L396 312 L396 312 Z " />
<glyph glyph-name="Ecircumflex" unicode="&#xca;" horiz-adv-x="531" d="M396 312 L396 339 L396 352 L396 365 L396 388 L384 388 L380 385 C370 373 336 366 293 365 L276 365 L166 365 L166 635 L305 635 C372 635 423 618 449 592 L460 592 L460 647 L460 660 L451 660 L380 660 L166 660 L115 660 L65 660 L41 660 L41 645 L45 645 C57 645 65 619 65 580 L65 80 C65 41 57 15 45 15 L41 15 L41 0 L65 0 L115 0 L166 0 L383 0 L461 0 L463 0 C463 4 464 9 465 13 C468 29 472 51 475 68 L464 68 L456 62 C430 40 372 25 312 25 L166 25 L166 339 L276 339 C327 339 369 330 380 316 L384 312 L396 312 L396 312 Z M258 835 L370 693 L377 699 L280 885 C277 891 269 905 258 905 C247 905 239 891 236 885 L139 699 L146 693 L258 835 L258 835 Z " />
<glyph glyph-name="Edieresis" unicode="&#xcb;" horiz-adv-x="531" d="M350 730 C376 730 393 747 393 773 C393 799 376 816 350 816 C324 816 307 799 307 773 C307 747 324 730 350 730 L350 730 Z M166 730 C191 730 208 747 208 773 C208 799 191 816 166 816 C140 816 123 799 123 773 C123 747 140 730 166 730 L166 730 Z M396 312 L396 339 L396 352 L396 365 L396 388 L384 388 L380 385 C370 373 336 366 293 365 L276 365 L166 365 L166 635 L305 635 C372 635 423 618 449 592 L460 592 L460 647 L460 660 L451 660 L380 660 L166 660 L115 660 L65 660 L41 660 L41 645 L45 645 C57 645 65 619 65 580 L65 80 C65 41 57 15 45 15 L41 15 L41 0 L65 0 L115 0 L166 0 L383 0 L461 0 L463 0 C463 4 464 9 465 13 C468 29 472 51 475 68 L464 68 L456 62 C430 40 372 25 312 25 L166 25 L166 339 L276 339 C327 339 369 330 380 316 L384 312 L396 312 L396 312 Z " />
<glyph glyph-name="Igrave" unicode="&#xcc;" horiz-adv-x="230" d="M184 660 L160 660 L110 660 L59 660 L35 660 L35 645 L39 645 C51 645 59 619 59 580 L59 80 C59 41 51 15 39 15 L35 15 L35 0 L59 0 L110 0 L160 0 L184 0 L184 15 L180 15 C168 15 160 41 160 80 L160 580 C160 619 168 645 180 645 L184 645 L184 660 L184 660 Z M103 846 C85 878 71 900 67 900 C55 900 27 879 27 870 C27 864 43 844 68 818 L183 690 L190 697 L103 846 L103 846 Z " />
<glyph glyph-name="Iacute" unicode="&#xcd;" horiz-adv-x="230" d="M48 690 L160 818 C184 846 199 866 200 870 C200 879 172 900 160 900 C157 900 143 878 124 846 L40 697 L48 690 L48 690 Z M184 660 L160 660 L110 660 L59 660 L35 660 L35 645 L39 645 C51 645 59 619 59 580 L59 80 C59 41 51 15 39 15 L35 15 L35 0 L59 0 L110 0 L160 0 L184 0 L184 15 L180 15 C168 15 160 41 160 80 L160 580 C160 619 168 645 180 645 L184 645 L184 660 L184 660 Z " />
<glyph glyph-name="Icircumflex" unicode="&#xce;" horiz-adv-x="230" d="M184 660 L160 660 L110 660 L59 660 L35 660 L35 645 L39 645 C51 645 59 619 59 580 L59 80 C59 41 51 15 39 15 L35 15 L35 0 L59 0 L110 0 L160 0 L184 0 L184 15 L180 15 C168 15 160 41 160 80 L160 580 C160 619 168 645 180 645 L184 645 L184 660 L184 660 Z M110 835 L222 693 L229 699 L132 885 C129 891 121 905 110 905 C99 905 91 891 87 885 L-10 699 L-2 693 L110 835 L110 835 Z " />
<glyph glyph-name="Idieresis" unicode="&#xcf;" horiz-adv-x="230" d="M202 730 C228 730 245 747 245 773 C245 799 228 816 202 816 C176 816 159 799 159 773 C159 747 176 730 202 730 L202 730 Z M17 730 C43 730 60 747 60 773 C60 799 43 816 17 816 C-8 816 -25 799 -25 773 C-25 747 -8 730 17 730 L17 730 Z M184 660 L160 660 L110 660 L59 660 L35 660 L35 645 L39 645 C51 645 59 619 59 580 L59 80 C59 41 51 15 39 15 L35 15 L35 0 L59 0 L110 0 L160 0 L184 0 L184 15 L180 15 C168 15 160 41 160 80 L160 580 C160 619 168 645 180 645 L184 645 L184 660 L184 660 Z " />
<glyph glyph-name="Ntilde" unicode="&#xd1;" horiz-adv-x="619" d="M172 755 C172 793 189 818 215 818 C275 818 333 756 392 756 C436 756 466 799 466 862 L454 862 C454 826 435 802 407 802 C348 802 290 865 230 865 C188 865 160 821 160 755 L172 755 L172 755 Z M580 660 L556 660 L541 660 L526 660 L502 660 L502 645 L506 645 C518 645 526 619 526 580 L526 121 L168 660 L100 627 L100 627 L168 660 L100 660 L85 660 L70 660 L46 660 L46 645 L50 645 C62 645 70 619 70 580 L70 80 C70 41 62 15 50 15 L46 15 L46 0 L70 0 L85 0 L100 0 L124 0 L124 15 L121 15 C108 15 100 41 100 80 L100 583 L480 14 L500 -16 L556 -16 L556 51 L556 580 C556 619 564 645 576 645 L580 645 L580 660 L580 660 Z " />
<glyph glyph-name="Ograve" unicode="&#xd2;" horiz-adv-x="772" d="M386 20 C241 20 167 163 167 330 C167 497 241 640 386 640 C531 640 605 497 605 330 C605 163 531 20 386 20 L386 20 Z M56 330 C56 149 168 -5 386 -5 C604 -5 716 149 716 330 C716 511 604 665 386 665 C168 665 56 511 56 330 L56 330 Z M380 846 C361 878 347 900 343 900 C331 900 303 879 303 870 C303 864 319 844 344 818 L459 690 L467 697 L380 846 L380 846 Z " />
<glyph glyph-name="Oacute" unicode="&#xd3;" horiz-adv-x="772" d="M362 690 L474 818 C498 846 514 866 514 870 C514 879 486 900 474 900 C471 900 457 878 439 846 L354 697 L362 690 L362 690 Z M386 20 C241 20 167 163 167 330 C167 497 241 640 386 640 C531 640 605 497 605 330 C605 163 531 20 386 20 L386 20 Z M56 330 C56 149 168 -5 386 -5 C604 -5 716 149 716 330 C716 511 604 665 386 665 C168 665 56 511 56 330 L56 330 Z " />
<glyph glyph-name="Ocircumflex" unicode="&#xd4;" horiz-adv-x="772" d="M386 20 C241 20 167 163 167 330 C167 497 241 640 386 640 C531 640 605 497 605 330 C605 163 531 20 386 20 L386 20 Z M56 330 C56 149 168 -5 386 -5 C604 -5 716 149 716 330 C716 511 604 665 386 665 C168 665 56 511 56 330 L56 330 Z M386 835 L498 693 L505 699 L408 885 C405 891 397 905 386 905 C375 905 367 891 364 885 L267 699 L274 693 L386 835 L386 835 Z " />
<glyph glyph-name="Otilde" unicode="&#xd5;" horiz-adv-x="772" d="M245 755 C245 793 262 818 288 818 C348 818 406 756 465 756 C509 756 539 799 539 862 L527 862 C527 826 508 802 480 802 C421 802 363 865 303 865 C261 865 233 821 233 755 L245 755 L245 755 Z M386 20 C241 20 167 163 167 330 C167 497 241 640 386 640 C531 640 605 497 605 330 C605 163 531 20 386 20 L386 20 Z M56 330 C56 149 168 -5 386 -5 C604 -5 716 149 716 330 C716 511 604 665 386 665 C168 665 56 511 56 330 L56 330 Z " />
<glyph glyph-name="Odieresis" unicode="&#xd6;" horiz-adv-x="772" d="M478 730 C504 730 521 747 521 773 C521 799 504 816 478 816 C453 816 436 799 436 773 C436 747 453 730 478 730 L478 730 Z M294 730 C319 730 336 747 336 773 C336 799 319 816 294 816 C268 816 251 799 251 773 C251 747 268 730 294 730 L294 730 Z M386 20 C241 20 167 163 167 330 C167 497 241 640 386 640 C531 640 605 497 605 330 C605 163 531 20 386 20 L386 20 Z M56 330 C56 149 168 -5 386 -5 C604 -5 716 149 716 330 C716 511 604 665 386 665 C168 665 56 511 56 330 L56 330 Z " />
<glyph glyph-name="Oslash" unicode="&#xd8;" horiz-adv-x="772" d="M72 -21 L163 71 C217 24 292 -5 386 -5 C604 -5 716 149 716 330 C716 416 691 496 641 556 L732 649 L700 681 L609 589 C555 636 480 665 386 665 C168 665 56 511 56 330 C56 244 81 164 131 104 L40 11 L72 -21 L72 -21 Z M386 20 C309 20 251 61 215 124 L578 492 C596 445 605 389 605 330 C605 163 531 20 386 20 L386 20 L386 20 Z M194 168 C176 215 167 271 167 330 C167 497 241 640 386 640 C463 640 521 599 557 536 L194 168 L194 168 Z " />
<glyph glyph-name="Ugrave" unicode="&#xd9;" horiz-adv-x="583" d="M556 660 L529 660 L518 660 L506 660 L477 660 L477 645 L482 645 C495 645 504 619 506 580 L505 189 C505 94 452 30 315 30 C204 30 161 95 161 192 L161 580 C162 619 170 645 182 645 L185 645 L185 660 L161 660 L111 660 L61 660 L37 660 L37 645 L40 645 C53 645 61 619 61 580 L61 212 C61 82 128 -5 300 -5 C465 -5 529 70 529 182 L529 570 C529 615 538 645 552 645 L556 645 L556 660 L556 660 Z M289 846 C270 878 256 900 252 900 C240 900 212 879 212 870 C212 864 228 844 253 818 L368 690 L376 697 L289 846 L289 846 Z " />
<glyph glyph-name="Uacute" unicode="&#xda;" horiz-adv-x="583" d="M294 690 L406 818 C429 846 445 866 445 870 C445 879 417 900 406 900 C402 900 389 878 370 846 L286 697 L294 690 L294 690 Z M556 660 L529 660 L518 660 L506 660 L477 660 L477 645 L482 645 C495 645 504 619 506 580 L505 189 C505 94 452 30 315 30 C204 30 161 95 161 192 L161 580 C162 619 170 645 182 645 L185 645 L185 660 L161 660 L111 660 L61 660 L37 660 L37 645 L40 645 C53 645 61 619 61 580 L61 212 C61 82 128 -5 300 -5 C465 -5 529 70 529 182 L529 570 C529 615 538 645 552 645 L556 645 L556 660 L556 660 Z " />
<glyph glyph-name="Ucircumflex" unicode="&#xdb;" horiz-adv-x="583" d="M556 660 L529 660 L518 660 L506 660 L477 660 L477 645 L482 645 C495 645 504 619 506 580 L505 189 C505 94 452 30 315 30 C204 30 161 95 161 192 L161 580 C162 619 170 645 182 645 L185 645 L185 660 L161 660 L111 660 L61 660 L37 660 L37 645 L40 645 C53 645 61 619 61 580 L61 212 C61 82 128 -5 300 -5 C465 -5 529 70 529 182 L529 570 C529 615 538 645 552 645 L556 645 L556 660 L556 660 Z M295 835 L407 693 L414 699 L317 885 C314 891 306 905 295 905 C284 905 276 891 273 885 L176 699 L183 693 L295 835 L295 835 Z " />
<glyph glyph-name="Udieresis" unicode="&#xdc;" horiz-adv-x="583" d="M387 730 C413 730 430 747 430 773 C430 799 413 816 387 816 C361 816 344 799 344 773 C344 747 361 730 387 730 L387 730 Z M203 730 C228 730 245 747 245 773 C245 799 228 816 203 816 C177 816 160 799 160 773 C160 747 177 730 203 730 L203 730 Z M556 660 L529 660 L518 660 L506 660 L477 660 L477 645 L482 645 C495 645 504 619 506 580 L505 189 C505 94 452 30 315 30 C204 30 161 95 161 192 L161 580 C162 619 170 645 182 645 L185 645 L185 660 L161 660 L111 660 L61 660 L37 660 L37 645 L40 645 C53 645 61 619 61 580 L61 212 C61 82 128 -5 300 -5 C465 -5 529 70 529 182 L529 570 C529 615 538 645 552 645 L556 645 L556 660 L556 660 Z " />
<glyph glyph-name="Yacute" unicode="&#xdd;" horiz-adv-x="592" d="M297 690 L409 818 C432 846 448 866 448 870 C448 879 420 900 409 900 C405 900 392 878 373 846 L289 697 L297 690 L297 690 Z M372 15 L369 15 C357 15 348 41 348 80 L348 322 L348 322 L523 594 C545 625 563 645 573 645 L576 645 L576 660 L565 660 L553 660 L541 660 L506 660 C507 660 507 657 506 653 C507 648 507 645 506 645 L510 645 C522 645 511 614 482 566 L328 322 L317 322 L188 587 C171 622 167 645 177 645 L181 645 L181 660 L152 660 L91 660 L31 660 L22 660 L22 645 L25 645 C34 645 55 619 76 580 L77 580 L247 281 L247 80 C247 41 239 15 227 15 L224 15 L224 0 L247 0 L298 0 L348 0 L372 0 L372 15 L372 15 Z " />
<glyph glyph-name="agrave" unicode="&#xe0;" horiz-adv-x="591" d="M499 34 C479 59 475 69 475 129 L475 500 L456 500 L419 389 C403 458 347 505 270 505 C145 505 62 392 62 223 C62 86 134 -5 243 -5 C322 -5 381 35 405 100 L405 0 L405 -5 L417 -5 L469 16 L499 25 L499 34 L499 34 Z M237 686 C218 718 204 740 200 740 C188 740 160 719 160 710 C160 704 176 684 201 658 L316 530 L324 537 L237 686 L237 686 Z M405 134 C392 75 346 38 282 38 C194 38 135 123 135 250 C135 392 188 486 266 486 C350 486 405 427 405 347 L405 134 L405 134 Z " />
<glyph glyph-name="aacute" unicode="&#xe1;" horiz-adv-x="505" d="M199 530 L311 658 C335 686 351 706 350 710 C350 719 322 740 310 740 C307 740 293 718 275 686 L191 537 L199 530 L199 530 Z M477 39 C467 29 453 23 427 23 C396 23 388 48 388 85 L388 357 C388 446 337 505 261 505 C114 505 38 442 72 348 L142 348 C112 431 154 486 246 486 C287 486 314 441 314 373 L314 254 L213 239 C111 225 43 170 43 103 C43 38 89 -5 159 -5 C212 -5 269 19 315 57 C318 16 335 -10 379 -10 C430 -10 461 6 485 30 L477 39 L477 39 Z M314 237 L314 77 C314 76 314 76 314 75 C281 54 238 42 194 42 C145 42 112 74 112 123 C112 168 152 206 213 218 L314 237 L314 237 Z " />
<glyph glyph-name="acircumflex" unicode="&#xe2;" horiz-adv-x="591" d="M499 34 C479 59 475 69 475 129 L475 500 L456 500 L419 389 C403 458 347 505 270 505 C145 505 62 392 62 223 C62 86 134 -5 243 -5 C322 -5 381 35 405 100 L405 0 L405 -5 L417 -5 L469 16 L499 25 L499 34 L499 34 Z M243 675 L355 533 L362 539 L265 725 C262 731 254 745 243 745 C232 745 224 731 221 725 L124 539 L131 533 L243 675 L243 675 Z M405 134 C392 75 346 38 282 38 C194 38 135 123 135 250 C135 392 188 486 266 486 C350 486 405 427 405 347 L405 134 L405 134 Z " />
<glyph glyph-name="atilde" unicode="&#xe3;" horiz-adv-x="591" d="M102 595 C102 633 119 658 145 658 C205 658 262 596 322 596 C366 596 396 639 396 702 L384 702 C384 666 365 642 337 642 C278 642 220 705 160 705 C118 705 90 661 90 595 L102 595 L102 595 Z M499 34 C479 59 475 69 475 129 L475 500 L456 500 L419 389 C403 458 347 505 270 505 C145 505 62 392 62 223 C62 86 134 -5 243 -5 C322 -5 381 35 405 100 L405 0 L405 -5 L417 -5 L469 16 L499 25 L499 34 L499 34 Z M405 134 C392 75 346 38 282 38 C194 38 135 123 135 250 C135 392 188 486 266 486 C350 486 405 427 405 347 L405 134 L405 134 Z " />
<glyph glyph-name="adieresis" unicode="&#xe4;" horiz-adv-x="591" d="M335 570 C361 570 378 587 378 613 C378 639 361 656 335 656 C310 656 293 639 293 613 C293 587 310 570 335 570 L335 570 Z M151 570 C176 570 193 587 193 613 C193 639 176 656 151 656 C125 656 108 639 108 613 C108 587 125 570 151 570 L151 570 Z M499 34 C479 59 475 69 475 129 L475 500 L456 500 L419 389 C403 458 347 505 270 505 C145 505 62 392 62 223 C62 86 134 -5 243 -5 C322 -5 381 35 405 100 L405 0 L405 -5 L417 -5 L469 16 L499 25 L499 34 L499 34 Z M405 134 C392 75 346 38 282 38 C194 38 135 123 135 250 C135 392 188 486 266 486 C350 486 405 427 405 347 L405 134 L405 134 Z " />
<glyph glyph-name="aring" unicode="&#xe5;" horiz-adv-x="591" d="M243 551 C203 551 168 586 168 628 C168 673 198 704 243 704 C288 704 318 673 318 628 C318 586 284 551 243 551 L243 551 Z M148 628 C148 578 192 535 243 535 C294 535 338 578 338 628 C338 683 300 720 243 720 C186 720 148 683 148 628 L148 628 Z M499 34 C479 59 475 69 475 129 L475 500 L456 500 L419 389 C403 458 347 505 270 505 C145 505 62 392 62 223 C62 86 134 -5 243 -5 C322 -5 381 35 405 100 L405 0 L405 -5 L417 -5 L469 16 L499 25 L499 34 L499 34 Z M405 134 C392 75 346 38 282 38 C194 38 135 123 135 250 C135 392 188 486 266 486 C350 486 405 427 405 347 L405 134 L405 134 Z " />
<glyph glyph-name="ccedilla" unicode="&#xe7;" horiz-adv-x="503" d="M446 133 L437 137 C408 78 357 38 310 38 C203 38 131 127 131 260 C131 396 198 486 298 486 C343 486 376 453 381 404 C383 383 397 369 416 369 C434 369 447 382 447 400 C441 463 384 505 306 505 C156 505 57 396 57 233 C57 90 135 -5 252 -5 C329 -5 406 50 446 133 L446 133 Z " />
<glyph glyph-name="egrave" unicode="&#xe8;" horiz-adv-x="510" d="M137 333 C154 427 205 486 274 486 C342 486 388 443 388 378 C388 377 388 376 388 375 C387 358 375 345 357 344 C356 344 355 344 354 344 L357 344 L387 345 L137 333 L137 333 Z M452 133 L443 137 C415 78 363 38 313 38 C204 38 131 127 131 260 C131 281 132 301 135 320 L453 320 C453 431 383 505 277 505 C145 505 57 396 57 233 C57 90 136 -5 255 -5 C334 -5 413 50 452 133 L452 133 Z M271 686 C253 718 239 740 234 740 C223 740 195 719 195 710 C195 704 211 684 235 658 L350 530 L358 537 L271 686 L271 686 Z " />
<glyph glyph-name="eacute" unicode="&#xe9;" horiz-adv-x="510" d="M137 333 C154 427 205 486 274 486 C342 486 388 443 388 378 C388 377 388 376 388 375 C387 358 375 345 357 344 C356 344 355 344 354 344 L357 344 L387 345 L137 333 L137 333 Z M246 530 L358 658 C382 686 398 706 398 710 C398 719 370 740 358 740 C354 740 341 718 322 686 L238 537 L246 530 L246 530 Z M452 133 L443 137 C415 78 363 38 313 38 C204 38 131 127 131 260 C131 281 132 301 135 320 L453 320 C453 431 383 505 277 505 C145 505 57 396 57 233 C57 90 136 -5 255 -5 C334 -5 413 50 452 133 L452 133 Z " />
<glyph glyph-name="ecircumflex" unicode="&#xea;" horiz-adv-x="510" d="M137 333 C154 427 205 486 274 486 C342 486 388 443 388 378 C388 377 388 376 388 375 C387 358 375 345 357 344 C356 344 355 344 354 344 L357 344 L387 345 L137 333 L137 333 Z M452 133 L443 137 C415 78 363 38 313 38 C204 38 131 127 131 260 C131 281 132 301 135 320 L453 320 C453 431 383 505 277 505 C145 505 57 396 57 233 C57 90 136 -5 255 -5 C334 -5 413 50 452 133 L452 133 Z M277 675 L389 533 L397 539 L300 725 C297 731 288 745 277 745 C266 745 258 731 255 725 L158 539 L165 533 L277 675 L277 675 Z " />
<glyph glyph-name="edieresis" unicode="&#xeb;" horiz-adv-x="510" d="M137 333 C154 427 205 486 274 486 C342 486 388 443 388 378 C388 377 388 376 388 375 C387 358 375 345 357 344 C356 344 355 344 354 344 L357 344 L387 345 L137 333 L137 333 Z M370 570 C395 570 412 587 412 613 C412 639 395 656 370 656 C344 656 327 639 327 613 C327 587 344 570 370 570 L370 570 Z M185 570 C211 570 228 587 228 613 C228 639 211 656 185 656 C159 656 142 639 142 613 C142 587 159 570 185 570 L185 570 Z M452 133 L443 137 C415 78 363 38 313 38 C204 38 131 127 131 260 C131 281 132 301 135 320 L453 320 C453 431 383 505 277 505 C145 505 57 396 57 233 C57 90 136 -5 255 -5 C334 -5 413 50 452 133 L452 133 Z " />
<glyph glyph-name="igrave" unicode="&#xec;" horiz-adv-x="221" d="M146 0 L170 0 L170 15 L165 15 C154 15 146 13 146 0 L146 420 L146 505 L142 505 L56 479 L56 469 L70 447 C74 441 76 432 76 400 L76 0 C76 13 68 15 57 15 L52 15 L52 0 L76 0 L76 400 L76 420 L146 420 L146 0 L146 0 Z M104 686 C86 718 72 740 68 740 C56 740 28 719 28 710 C28 704 44 684 69 658 L184 530 L192 537 L104 686 L104 686 Z " />
<glyph glyph-name="iacute" unicode="&#xed;" horiz-adv-x="221" d="M146 0 L170 0 L170 15 L165 15 C154 15 146 13 146 0 L146 420 L146 505 L142 505 L56 479 L56 469 L70 447 C74 441 76 432 76 400 L76 0 C76 13 68 15 57 15 L52 15 L52 0 L76 0 L76 400 L76 420 L146 420 L146 0 L146 0 Z M34 530 L146 658 C169 686 185 706 186 710 C185 719 157 740 146 740 C142 740 129 718 110 686 L26 537 L34 530 L34 530 Z " />
<glyph glyph-name="icircumflex" unicode="&#xee;" horiz-adv-x="221" d="M111 714 L89 725 L133 725 C130 731 122 745 111 745 C100 745 92 731 89 725 L-9 539 L-1 533 L111 675 L133 703 L88 703 L111 675 L223 533 L230 539 L133 725 L111 714 L111 714 Z M146 0 L170 0 L170 15 L165 15 C154 15 146 13 146 0 L146 420 L146 505 L142 505 L56 479 L56 469 L70 447 C74 441 76 432 76 400 L76 0 C76 13 68 15 57 15 L52 15 L52 0 L76 0 L76 400 L76 420 L146 420 L146 0 L146 0 Z " />
<glyph glyph-name="idieresis" unicode="&#xef;" horiz-adv-x="221" d="M146 0 L170 0 L170 15 L165 15 C154 15 146 13 146 0 L146 420 L146 505 L142 505 L56 479 L56 469 L70 447 C74 441 76 432 76 400 L76 0 C76 13 68 15 57 15 L52 15 L52 0 L76 0 L76 400 L76 420 L146 420 L146 0 L146 0 Z M203 570 C229 570 246 587 246 613 C246 639 229 656 203 656 C177 656 160 639 160 613 C160 587 177 570 203 570 L203 570 Z M18 570 C44 570 61 587 61 613 C61 639 44 656 18 656 C-7 656 -24 639 -24 613 C-24 587 -7 570 18 570 L18 570 Z " />
<glyph glyph-name="ntilde" unicode="&#xf1;" horiz-adv-x="536" d="M130 595 C130 633 147 658 173 658 C232 658 290 596 349 596 C394 596 423 639 423 702 L412 702 C412 666 393 642 365 642 C305 642 247 705 188 705 C146 705 118 661 118 595 L130 595 L130 595 Z M490 15 L486 15 C474 15 466 41 466 80 L466 337 C466 438 432 505 344 505 C256 505 179 463 145 399 L145 402 L145 500 L131 500 L52 475 L52 466 L55 461 C72 440 75 426 75 371 L75 80 C75 41 67 15 55 15 L52 15 L52 0 L75 0 L110 0 L145 0 L169 0 L169 15 L166 15 C154 15 146 41 145 80 L145 385 C168 429 224 458 290 458 C366 458 396 407 396 329 L396 80 C396 41 388 15 376 15 L372 15 L372 0 L396 0 L431 0 L466 0 L490 0 L490 15 L490 15 Z " />
<glyph glyph-name="ograve" unicode="&#xf2;" horiz-adv-x="608" d="M304 11 C203 11 135 107 135 250 C135 393 203 489 304 489 C406 489 474 393 474 250 C474 107 406 11 304 11 L304 11 Z M57 250 C57 97 156 -5 304 -5 C452 -5 551 97 551 250 C551 403 452 505 304 505 C156 505 57 403 57 250 L57 250 Z M298 686 C279 718 265 740 261 740 C249 740 221 719 221 710 C221 704 237 684 262 658 L377 530 L385 537 L298 686 L298 686 Z " />
<glyph glyph-name="oacute" unicode="&#xf3;" horiz-adv-x="608" d="M273 530 L385 658 C409 686 425 706 424 710 C424 719 397 740 384 740 C381 740 367 718 349 686 L265 537 L273 530 L273 530 Z M304 11 C203 11 135 107 135 250 C135 393 203 489 304 489 C406 489 474 393 474 250 C474 107 406 11 304 11 L304 11 Z M57 250 C57 97 156 -5 304 -5 C452 -5 551 97 551 250 C551 403 452 505 304 505 C156 505 57 403 57 250 L57 250 Z " />
<glyph glyph-name="ocircumflex" unicode="&#xf4;" horiz-adv-x="608" d="M304 11 C203 11 135 107 135 250 C135 393 203 489 304 489 C406 489 474 393 474 250 C474 107 406 11 304 11 L304 11 Z M57 250 C57 97 156 -5 304 -5 C452 -5 551 97 551 250 C551 403 452 505 304 505 C156 505 57 403 57 250 L57 250 Z M304 675 L416 533 L423 539 L327 725 C323 731 315 745 304 745 C293 745 285 731 282 725 L185 539 L192 533 L304 675 L304 675 Z " />
<glyph glyph-name="otilde" unicode="&#xf5;" horiz-adv-x="608" d="M163 595 C163 633 180 658 206 658 C266 658 324 596 383 596 C427 596 457 639 457 702 L445 702 C445 666 426 642 398 642 C339 642 281 705 222 705 C179 705 151 661 151 595 L163 595 L163 595 Z M304 11 C203 11 135 107 135 250 C135 393 203 489 304 489 C406 489 474 393 474 250 C474 107 406 11 304 11 L304 11 Z M57 250 C57 97 156 -5 304 -5 C452 -5 551 97 551 250 C551 403 452 505 304 505 C156 505 57 403 57 250 L57 250 Z " />
<glyph glyph-name="odieresis" unicode="&#xf6;" horiz-adv-x="608" d="M396 570 C422 570 439 587 439 613 C439 639 422 656 396 656 C371 656 354 639 354 613 C354 587 371 570 396 570 L396 570 Z M212 570 C238 570 255 587 255 613 C255 639 238 656 212 656 C186 656 169 639 169 613 C169 587 186 570 212 570 L212 570 Z M304 11 C203 11 135 107 135 250 C135 393 203 489 304 489 C406 489 474 393 474 250 C474 107 406 11 304 11 L304 11 Z M57 250 C57 97 156 -5 304 -5 C452 -5 551 97 551 250 C551 403 452 505 304 505 C156 505 57 403 57 250 L57 250 Z " />
<glyph glyph-name="oslash" unicode="&#xf8;" horiz-adv-x="608" d="M65 -13 L133 57 C176 17 235 -5 304 -5 C452 -5 551 97 551 250 C551 322 529 382 491 426 L560 497 L543 513 L475 443 C432 482 374 505 304 505 C156 505 57 403 57 250 C57 178 79 118 117 74 L49 3 L65 -13 L65 -13 Z M304 11 C247 11 200 42 170 95 L449 383 C465 346 474 301 474 250 C474 107 406 11 304 11 L304 11 L304 11 Z M159 117 C144 154 135 199 135 250 C135 393 203 489 304 489 C362 489 409 458 439 405 L159 117 L159 117 Z " />
<glyph glyph-name="ugrave" unicode="&#xf9;" horiz-adv-x="501" d="M460 34 C440 59 436 69 436 129 L436 500 L401 500 L366 500 L342 500 L342 485 L346 485 C358 485 366 459 366 420 L366 110 L366 107 C349 68 311 41 245 41 C159 41 115 90 115 162 L115 500 L80 500 L45 500 L22 500 L22 485 L25 485 C37 485 45 459 45 420 L45 155 C45 59 95 -5 191 -5 C282 -5 337 32 366 89 L366 18 L366 0 L380 0 L460 25 L460 34 L460 34 Z M234 686 C216 718 202 740 198 740 C186 740 158 719 158 710 C158 704 174 684 199 658 L314 530 L321 537 L234 686 L234 686 Z " />
<glyph glyph-name="uacute" unicode="&#xfa;" horiz-adv-x="501" d="M209 530 L321 658 C345 686 361 706 361 710 C361 719 333 740 321 740 C318 740 304 718 286 686 L201 537 L209 530 L209 530 Z M460 34 C440 59 436 69 436 129 L436 500 L401 500 L366 500 L342 500 L342 485 L346 485 C358 485 366 459 366 420 L366 110 L366 107 C349 68 311 41 245 41 C159 41 115 90 115 162 L115 500 L80 500 L45 500 L22 500 L22 485 L25 485 C37 485 45 459 45 420 L45 155 C45 59 95 -5 191 -5 C282 -5 337 32 366 89 L366 18 L366 0 L380 0 L460 25 L460 34 L460 34 Z " />
<glyph glyph-name="ucircumflex" unicode="&#xfb;" horiz-adv-x="501" d="M460 34 C440 59 436 69 436 129 L436 500 L401 500 L366 500 L342 500 L342 485 L346 485 C358 485 366 459 366 420 L366 110 L366 107 C349 68 311 41 245 41 C159 41 115 90 115 162 L115 500 L80 500 L45 500 L22 500 L22 485 L25 485 C37 485 45 459 45 420 L45 155 C45 59 95 -5 191 -5 C282 -5 337 32 366 89 L366 18 L366 0 L380 0 L460 25 L460 34 L460 34 Z M241 675 L353 533 L360 539 L263 725 C260 731 252 745 241 745 C230 745 222 731 218 725 L121 539 L128 533 L241 675 L241 675 Z " />
<glyph glyph-name="udieresis" unicode="&#xfc;" horiz-adv-x="501" d="M333 570 C359 570 376 587 376 613 C376 639 359 656 333 656 C307 656 290 639 290 613 C290 587 307 570 333 570 L333 570 Z M148 570 C174 570 191 587 191 613 C191 639 174 656 148 656 C123 656 106 639 106 613 C106 587 123 570 148 570 L148 570 Z M460 34 C440 59 436 69 436 129 L436 500 L401 500 L366 500 L342 500 L342 485 L346 485 C358 485 366 459 366 420 L366 110 L366 107 C349 68 311 41 245 41 C159 41 115 90 115 162 L115 500 L80 500 L45 500 L22 500 L22 485 L25 485 C37 485 45 459 45 420 L45 155 C45 59 95 -5 191 -5 C282 -5 337 32 366 89 L366 18 L366 0 L380 0 L460 25 L460 34 L460 34 Z " />
<glyph glyph-name="Ydieresis" unicode="&#xff;" horiz-adv-x="405" d="M322 570 C347 570 364 587 364 613 C364 639 347 656 322 656 C296 656 279 639 279 613 C279 587 296 570 322 570 L322 570 Z M137 570 C163 570 180 587 180 613 C180 639 163 656 137 656 C111 656 94 639 94 613 C94 587 111 570 137 570 L137 570 Z M390 485 L392 485 C400 485 399 467 390 438 L257 79 L126 435 C116 466 115 485 123 485 L126 485 L126 500 L102 500 L62 500 L22 500 L4 500 L4 485 L7 485 C18 485 35 463 50 430 L220 0 L193 -66 C160 -151 134 -184 99 -184 C75 -184 51 -160 26 -160 C5 -160 -9 -172 -9 -189 C-9 -214 17 -230 56 -230 C123 -230 166 -186 211 -72 L236 -10 L412 437 C426 466 441 485 451 485 L455 485 C454 485 454 488 455 493 C454 497 454 500 455 500 L437 500 L425 500 L413 500 L390 500 L390 485 L390 485 Z " />
<glyph glyph-name="Amacron" unicode="&#x100;" horiz-adv-x="615" d="M136 767 L436 767 L436 806 L136 806 L136 767 L136 767 Z M597 15 L593 15 C582 15 567 32 553 60 L298 675 L273 675 L57 70 C43 37 28 15 17 15 L13 15 L13 0 L32 0 L49 0 L65 0 L100 0 L100 15 L96 15 C80 15 81 47 98 95 L98 95 L146 234 L375 234 L436 80 L436 80 C452 41 454 15 442 15 L439 15 L439 0 L468 0 L523 0 L578 0 L597 0 L597 15 L597 15 Z M365 259 L154 259 L252 543 L365 259 L365 259 Z " />
<glyph glyph-name="amacron" unicode="&#x101;" horiz-adv-x="591" d="M93 607 L393 607 L393 646 L93 646 L93 607 L93 607 Z M499 34 C479 59 475 69 475 129 L475 500 L456 500 L419 389 C403 458 347 505 270 505 C145 505 62 392 62 223 C62 86 134 -5 243 -5 C322 -5 381 35 405 100 L405 0 L405 -5 L417 -5 L469 16 L499 25 L499 34 L499 34 Z M405 134 C392 75 346 38 282 38 C194 38 135 123 135 250 C135 392 188 486 266 486 C350 486 405 427 405 347 L405 134 L405 134 Z " />
<glyph glyph-name="Abreve" unicode="&#x102;" horiz-adv-x="615" d="M165 871 C183 803 231 758 286 758 C341 758 389 803 406 871 L394 874 C384 833 341 805 286 805 C231 805 188 833 177 874 L165 871 L165 871 Z M597 15 L593 15 C582 15 567 32 553 60 L298 675 L273 675 L57 70 C43 37 28 15 17 15 L13 15 L13 0 L32 0 L49 0 L65 0 L100 0 L100 15 L96 15 C80 15 81 47 98 95 L98 95 L146 234 L375 234 L436 80 L436 80 C452 41 454 15 442 15 L439 15 L439 0 L468 0 L523 0 L578 0 L597 0 L597 15 L597 15 Z M365 259 L154 259 L252 543 L365 259 L365 259 Z " />
<glyph glyph-name="abreve" unicode="&#x103;" horiz-adv-x="591" d="M122 681 C140 613 188 568 243 568 C298 568 346 613 364 681 L352 684 C341 643 298 615 243 615 C188 615 145 643 135 684 L122 681 L122 681 Z M499 34 C479 59 475 69 475 129 L475 500 L456 500 L419 389 C403 458 347 505 270 505 C145 505 62 392 62 223 C62 86 134 -5 243 -5 C322 -5 381 35 405 100 L405 0 L405 -5 L417 -5 L469 16 L499 25 L499 34 L499 34 Z M405 134 C392 75 346 38 282 38 C194 38 135 123 135 250 C135 392 188 486 266 486 C350 486 405 427 405 347 L405 134 L405 134 Z " />
<glyph glyph-name="Aogonek" unicode="&#x104;" horiz-adv-x="615" d="M597 15 L593 15 C582 15 567 32 553 60 L298 675 L273 675 L57 70 C43 37 28 15 17 15 L13 15 L13 0 L32 0 L49 0 L65 0 L100 0 L100 15 L96 15 C80 15 81 47 98 95 L98 95 L146 234 L375 234 L436 80 L436 80 C452 41 454 15 442 15 L439 15 L439 1 C388 -30 316 -98 316 -155 C316 -202 361 -234 430 -234 C462 -234 494 -220 512 -200 L507 -194 C497 -206 472 -214 445 -214 C393 -214 358 -187 358 -147 C358 -83 435 -12 468 0 L523 0 L578 0 L597 0 L597 15 L597 15 Z M365 259 L154 259 L252 543 L365 259 L365 259 Z " />
<glyph glyph-name="aogonek" unicode="&#x105;" horiz-adv-x="505" d="M477 39 C476 38 474 37 473 35 L473 46 C462 42 448 34 433 23 C431 23 429 23 427 23 C396 23 388 48 388 85 L388 357 C388 446 337 505 261 505 C114 505 38 442 72 348 L142 348 C112 431 154 486 246 486 C287 486 314 441 314 373 L314 254 L213 239 C111 225 43 170 43 103 C43 38 89 -5 159 -5 C212 -5 269 19 315 57 C318 16 335 -10 379 -10 C384 -10 389 -10 393 -10 C355 -45 321 -92 321 -134 C321 -194 367 -234 435 -234 C467 -234 500 -220 517 -200 L512 -194 C502 -206 477 -214 450 -214 C399 -214 364 -179 364 -126 C364 -82 394 -35 425 -5 C451 2 469 14 485 30 L477 39 L477 39 Z M314 237 L314 77 C314 76 314 76 314 75 C281 54 238 42 194 42 C145 42 112 74 112 123 C112 168 152 206 213 218 L314 237 L314 237 Z " />
<glyph glyph-name="Cacute" unicode="&#x106;" horiz-adv-x="724" d="M355 690 L467 818 C491 846 506 866 506 870 C506 879 478 900 466 900 C463 900 449 878 431 846 L347 697 L355 690 L355 690 Z M658 518 L658 572 C621 628 518 665 401 665 C194 665 56 531 56 330 C56 129 194 -5 401 -5 C518 -5 621 32 658 88 L658 142 L645 142 C641 137 635 129 632 123 C596 69 521 29 445 22 L445 22 C431 21 416 20 401 20 C261 20 167 144 167 330 C167 516 261 640 401 640 C431 640 461 637 488 632 L488 632 C542 623 600 584 632 537 C635 531 641 523 645 518 L658 518 L658 518 Z " />
<glyph glyph-name="cacute" unicode="&#x107;" horiz-adv-x="503" d="M229 530 L341 658 C364 686 380 706 381 710 C380 719 352 740 341 740 C337 740 324 718 305 686 L221 537 L229 530 L229 530 Z M446 133 L437 137 C408 78 357 38 310 38 C203 38 131 127 131 260 C131 396 198 486 298 486 C343 486 376 453 381 404 C383 383 397 369 416 369 C434 369 447 382 447 400 C441 463 384 505 306 505 C156 505 57 396 57 233 C57 90 135 -5 252 -5 C329 -5 406 50 446 133 L446 133 Z " />
<glyph glyph-name="Ccircumflex" unicode="&#x108;" horiz-adv-x="724" d="M658 518 L658 572 C621 628 518 665 401 665 C194 665 56 531 56 330 C56 129 194 -5 401 -5 C518 -5 621 32 658 88 L658 142 L645 142 C641 137 635 129 632 123 C596 69 521 29 445 22 L445 22 C431 21 416 20 401 20 C261 20 167 144 167 330 C167 516 261 640 401 640 C431 640 461 637 488 632 L488 632 C542 623 600 584 632 537 C635 531 641 523 645 518 L658 518 L658 518 Z M401 835 L513 693 L521 699 L424 885 C420 891 412 905 401 905 C390 905 382 891 379 885 L282 699 L289 693 L401 835 L401 835 Z " />
<glyph glyph-name="Cdot" unicode="&#x10a;" horiz-adv-x="724" d="M401 730 C427 730 444 747 444 773 C444 799 427 816 401 816 C376 816 359 799 359 773 C359 747 376 730 401 730 L401 730 Z M658 518 L658 572 C621 628 518 665 401 665 C194 665 56 531 56 330 C56 129 194 -5 401 -5 C518 -5 621 32 658 88 L658 142 L645 142 C641 137 635 129 632 123 C596 69 521 29 445 22 L445 22 C431 21 416 20 401 20 C261 20 167 144 167 330 C167 516 261 640 401 640 C431 640 461 637 488 632 L488 632 C542 623 600 584 632 537 C635 531 641 523 645 518 L658 518 L658 518 Z " />
<glyph glyph-name="cdot" unicode="&#x10b;" horiz-adv-x="503" d="M306 570 C332 570 349 587 349 613 C349 639 332 656 306 656 C280 656 263 639 263 613 C263 587 280 570 306 570 L306 570 Z M446 133 L437 137 C408 78 357 38 310 38 C203 38 131 127 131 260 C131 396 198 486 298 486 C343 486 376 453 381 404 C383 383 397 369 416 369 C434 369 447 382 447 400 C441 463 384 505 306 505 C156 505 57 396 57 233 C57 90 135 -5 252 -5 C329 -5 406 50 446 133 L446 133 Z " />
<glyph glyph-name="Ccaron" unicode="&#x10c;" horiz-adv-x="724" d="M658 518 L658 572 C621 628 518 665 401 665 C194 665 56 531 56 330 C56 129 194 -5 401 -5 C518 -5 621 32 658 88 L658 142 L645 142 C641 137 635 129 632 123 C596 69 521 29 445 22 L445 22 C431 21 416 20 401 20 C261 20 167 144 167 330 C167 516 261 640 401 640 C431 640 461 637 488 632 L488 632 C542 623 600 584 632 537 C635 531 641 523 645 518 L658 518 L658 518 Z M401 785 L513 927 L521 921 L424 735 C420 729 412 715 401 715 C390 715 382 729 379 735 L282 921 L289 927 L401 785 L401 785 Z " />
<glyph glyph-name="ccaron" unicode="&#x10d;" horiz-adv-x="503" d="M446 133 L437 137 C408 78 357 38 310 38 C203 38 131 127 131 260 C131 396 198 486 298 486 C343 486 376 453 381 404 C383 383 397 369 416 369 C434 369 447 382 447 400 C441 463 384 505 306 505 C156 505 57 396 57 233 C57 90 135 -5 252 -5 C329 -5 406 50 446 133 L446 133 Z M306 625 L418 767 L425 761 L328 575 C325 569 317 555 306 555 C295 555 287 569 284 575 L186 761 L194 767 L306 625 L306 625 Z " />
<glyph glyph-name="Dcaron" unicode="&#x10e;" horiz-adv-x="688" d="M47 645 L50 645 C63 645 71 619 71 580 L71 80 C71 41 63 15 50 15 L47 15 L47 0 L71 0 L121 0 L171 0 L315 0 C505 0 632 132 632 330 C632 528 491 660 279 660 L171 660 L121 660 L71 660 L47 660 L47 645 L47 645 Z M301 785 L413 927 L420 921 L323 735 C320 729 312 715 301 715 C290 715 282 729 279 735 L182 921 L189 927 L301 785 L301 785 Z M171 19 L171 641 L279 641 C430 641 531 517 531 330 C531 143 445 19 315 19 L171 19 L171 19 Z " />
<glyph glyph-name="dcaron" unicode="&#x10f;" horiz-adv-x="613" d="M521 34 C501 59 497 69 497 129 L497 610 L497 702 L497 720 L483 720 L403 695 L403 686 C423 661 427 651 427 591 L427 438 C398 479 348 505 285 505 C151 505 62 392 62 223 C62 86 141 -5 258 -5 C331 -5 396 28 427 81 L427 18 L427 0 L441 0 L521 25 L521 34 L521 34 Z M620 629 C643 680 658 730 658 737 C658 748 627 753 614 753 C600 753 584 690 576 645 L545 482 L554 479 L620 629 L620 629 Z M427 110 L427 97 C407 61 357 38 297 38 C200 38 135 123 135 250 C135 392 194 486 282 486 C353 486 407 451 427 397 L427 110 L427 110 Z " />
<glyph glyph-name="Emacron" unicode="&#x112;" horiz-adv-x="531" d="M108 767 L408 767 L408 806 L108 806 L108 767 L108 767 Z M396 312 L396 339 L396 352 L396 365 L396 388 L384 388 L380 385 C370 373 336 366 293 365 L276 365 L166 365 L166 635 L305 635 C372 635 423 618 449 592 L460 592 L460 647 L460 660 L451 660 L380 660 L166 660 L115 660 L65 660 L41 660 L41 645 L45 645 C57 645 65 619 65 580 L65 80 C65 41 57 15 45 15 L41 15 L41 0 L65 0 L115 0 L166 0 L383 0 L461 0 L463 0 C463 4 464 9 465 13 C468 29 472 51 475 68 L464 68 L456 62 C430 40 372 25 312 25 L166 25 L166 339 L276 339 C327 339 369 330 380 316 L384 312 L396 312 L396 312 Z " />
<glyph glyph-name="emacron" unicode="&#x113;" horiz-adv-x="510" d="M137 333 C154 427 205 486 274 486 C342 486 388 443 388 378 C388 377 388 376 388 375 C387 358 375 345 357 344 C356 344 355 344 354 344 L357 344 L387 345 L137 333 L137 333 Z M127 607 L427 607 L427 646 L127 646 L127 607 L127 607 Z M452 133 L443 137 C415 78 363 38 313 38 C204 38 131 127 131 260 C131 281 132 301 135 320 L453 320 C453 431 383 505 277 505 C145 505 57 396 57 233 C57 90 136 -5 255 -5 C334 -5 413 50 452 133 L452 133 Z " />
<glyph glyph-name="Ebreve" unicode="&#x114;" horiz-adv-x="531" d="M137 871 C155 803 203 758 258 758 C313 758 361 803 378 871 L366 874 C356 833 313 805 258 805 C203 805 160 833 149 874 L137 871 L137 871 Z M396 312 L396 339 L396 352 L396 365 L396 388 L384 388 L380 385 C370 373 336 366 293 365 L276 365 L166 365 L166 635 L305 635 C372 635 423 618 449 592 L460 592 L460 647 L460 660 L451 660 L380 660 L166 660 L115 660 L65 660 L41 660 L41 645 L45 645 C57 645 65 619 65 580 L65 80 C65 41 57 15 45 15 L41 15 L41 0 L65 0 L115 0 L166 0 L383 0 L461 0 L463 0 C463 4 464 9 465 13 C468 29 472 51 475 68 L464 68 L456 62 C430 40 372 25 312 25 L166 25 L166 339 L276 339 C327 339 369 330 380 316 L384 312 L396 312 L396 312 Z " />
<glyph glyph-name="ebreve" unicode="&#x115;" horiz-adv-x="510" d="M137 333 C154 427 205 486 274 486 C342 486 388 443 388 378 C388 377 388 376 388 375 C387 358 375 345 357 344 C356 344 355 344 354 344 L357 344 L387 345 L137 333 L137 333 Z M157 711 C174 643 222 598 277 598 C333 598 381 643 398 711 L386 714 C376 673 332 645 277 645 C223 645 179 673 169 714 L157 711 L157 711 Z M452 133 L443 137 C415 78 363 38 313 38 C204 38 131 127 131 260 C131 281 132 301 135 320 L453 320 C453 431 383 505 277 505 C145 505 57 396 57 233 C57 90 136 -5 255 -5 C334 -5 413 50 452 133 L452 133 Z " />
<glyph glyph-name="Edot" unicode="&#x116;" horiz-adv-x="531" d="M258 730 C284 730 301 747 301 773 C301 799 284 816 258 816 C232 816 215 799 215 773 C215 747 232 730 258 730 L258 730 Z M396 312 L396 339 L396 352 L396 365 L396 388 L384 388 L380 385 C370 373 336 366 293 365 L276 365 L166 365 L166 635 L305 635 C372 635 423 618 449 592 L460 592 L460 647 L460 660 L451 660 L380 660 L166 660 L115 660 L65 660 L41 660 L41 645 L45 645 C57 645 65 619 65 580 L65 80 C65 41 57 15 45 15 L41 15 L41 0 L65 0 L115 0 L166 0 L383 0 L461 0 L463 0 C463 4 464 9 465 13 C468 29 472 51 475 68 L464 68 L456 62 C430 40 372 25 312 25 L166 25 L166 339 L276 339 C327 339 369 330 380 316 L384 312 L396 312 L396 312 Z " />
<glyph glyph-name="edot" unicode="&#x117;" horiz-adv-x="510" d="M137 333 C154 427 205 486 274 486 C342 486 388 443 388 378 C388 377 388 376 388 375 C387 358 375 345 357 344 C356 344 355 344 354 344 L357 344 L387 345 L137 333 L137 333 Z M277 570 C303 570 320 587 320 613 C320 639 303 656 277 656 C252 656 235 639 235 613 C235 587 252 570 277 570 L277 570 Z M452 133 L443 137 C415 78 363 38 313 38 C204 38 131 127 131 260 C131 281 132 301 135 320 L453 320 C453 431 383 505 277 505 C145 505 57 396 57 233 C57 90 136 -5 255 -5 C334 -5 413 50 452 133 L452 133 Z " />
<glyph glyph-name="Eogonek" unicode="&#x118;" horiz-adv-x="531" d="M396 312 L396 339 L396 352 L396 365 L396 388 L384 388 L380 385 C370 373 336 366 293 365 L276 365 L166 365 L166 635 L305 635 C372 635 423 618 449 592 L460 592 L460 647 L460 660 L451 660 L380 660 L166 660 L115 660 L65 660 L41 660 L41 645 L45 645 C57 645 65 619 65 580 L65 80 C65 41 57 15 45 15 L41 15 L41 0 L65 0 L115 0 L166 0 L383 0 L430 0 C379 -32 309 -99 309 -155 C309 -202 354 -234 423 -234 C455 -234 488 -220 505 -200 L500 -194 C490 -206 465 -214 438 -214 C386 -214 352 -187 352 -147 C352 -83 428 -12 461 0 L463 0 C463 4 464 9 465 13 C468 29 472 51 475 68 L464 68 L456 62 C430 40 372 25 312 25 L166 25 L166 339 L276 339 C327 339 369 330 380 316 L384 312 L396 312 L396 312 Z " />
<glyph glyph-name="eogonek" unicode="&#x119;" horiz-adv-x="510" d="M137 333 C154 427 205 486 274 486 C342 486 388 443 388 378 C388 377 388 376 388 375 C387 358 375 345 357 344 C356 344 355 344 354 344 L357 344 L387 345 L137 333 L137 333 Z M135 320 L453 320 C453 431 383 505 277 505 C145 505 57 396 57 233 C57 90 136 -5 255 -5 C263 -5 271 -4 279 -3 C234 -39 187 -93 187 -142 C187 -197 233 -234 301 -234 C334 -234 366 -220 383 -200 L378 -194 C368 -206 343 -214 317 -214 C265 -214 230 -182 230 -134 C230 -78 282 -19 318 6 C374 27 424 72 452 133 L443 137 C415 78 363 38 313 38 C204 38 131 127 131 260 C131 281 132 301 135 320 L135 320 Z " />
<glyph glyph-name="Ecaron" unicode="&#x11a;" horiz-adv-x="531" d="M396 312 L396 339 L396 352 L396 365 L396 388 L384 388 L380 385 C370 373 336 366 293 365 L276 365 L166 365 L166 635 L305 635 C372 635 423 618 449 592 L460 592 L460 647 L460 660 L451 660 L380 660 L166 660 L115 660 L65 660 L41 660 L41 645 L45 645 C57 645 65 619 65 580 L65 80 C65 41 57 15 45 15 L41 15 L41 0 L65 0 L115 0 L166 0 L383 0 L461 0 L463 0 C463 4 464 9 465 13 C468 29 472 51 475 68 L464 68 L456 62 C430 40 372 25 312 25 L166 25 L166 339 L276 339 C327 339 369 330 380 316 L384 312 L396 312 L396 312 Z M258 785 L370 927 L377 921 L280 735 C277 729 269 715 258 715 C247 715 239 729 236 735 L139 921 L146 927 L258 785 L258 785 Z " />
<glyph glyph-name="ecaron" unicode="&#x11b;" horiz-adv-x="510" d="M137 333 C154 427 205 486 274 486 C342 486 388 443 388 378 C388 377 388 376 388 375 C387 358 375 345 357 344 C356 344 355 344 354 344 L357 344 L387 345 L137 333 L137 333 Z M452 133 L443 137 C415 78 363 38 313 38 C204 38 131 127 131 260 C131 281 132 301 135 320 L453 320 C453 431 383 505 277 505 C145 505 57 396 57 233 C57 90 136 -5 255 -5 C334 -5 413 50 452 133 L452 133 Z M277 625 L389 767 L397 761 L300 575 C297 569 288 555 277 555 C266 555 258 569 255 575 L158 761 L165 767 L277 625 L277 625 Z " />
<glyph glyph-name="Gcircumflex" unicode="&#x11c;" horiz-adv-x="763" d="M665 310 L641 310 L595 310 L550 310 L526 310 L526 295 L530 295 C542 295 550 269 550 230 L550 44 C501 29 444 20 391 20 C257 20 167 144 167 330 C167 516 257 640 391 640 C420 640 448 637 473 632 C526 621 580 584 612 537 C615 531 621 523 625 518 L638 518 L638 572 C601 628 502 665 391 665 C190 665 56 531 56 330 C56 129 190 -5 391 -5 C479 -5 579 19 641 55 L641 230 C641 269 649 295 661 295 L665 295 L665 310 L665 310 Z M391 835 L503 693 L511 699 L414 885 C410 891 402 905 391 905 C380 905 372 891 369 885 L272 699 L279 693 L391 835 L391 835 Z " />
<glyph glyph-name="Gbreve" unicode="&#x11e;" horiz-adv-x="763" d="M271 871 C288 803 336 758 391 758 C447 758 495 803 512 871 L500 874 C489 833 446 805 391 805 C337 805 293 833 283 874 L271 871 L271 871 Z M665 310 L641 310 L595 310 L550 310 L526 310 L526 295 L530 295 C542 295 550 269 550 230 L550 44 C501 29 444 20 391 20 C257 20 167 144 167 330 C167 516 257 640 391 640 C420 640 448 637 473 632 C526 621 580 584 612 537 C615 531 621 523 625 518 L638 518 L638 572 C601 628 502 665 391 665 C190 665 56 531 56 330 C56 129 190 -5 391 -5 C479 -5 579 19 641 55 L641 230 C641 269 649 295 661 295 L665 295 L665 310 L665 310 Z " />
<glyph glyph-name="gbreve" unicode="&#x11f;" horiz-adv-x="484" d="M127 711 C144 643 192 598 248 598 C303 598 351 643 368 711 L356 714 C346 673 302 645 248 645 C193 645 149 673 139 714 L127 711 L127 711 Z M478 500 L341 485 L341 485 C315 498 283 505 248 505 C142 505 71 442 71 349 C71 279 111 226 175 203 C102 198 55 160 55 105 C55 59 86 26 137 13 C72 -16 30 -65 30 -118 C30 -191 90 -240 181 -240 C347 -240 458 -161 458 -43 C458 29 386 77 279 77 L197 74 C140 71 102 94 102 132 C102 168 138 192 193 192 L248 192 C353 192 424 255 424 349 C424 394 408 432 379 459 L478 461 L478 500 L478 500 Z M138 349 C138 433 182 489 248 489 C314 489 358 433 358 349 C358 264 314 208 248 208 C182 208 138 264 138 349 L138 349 Z M156 10 C170 8 185 7 201 8 L260 11 C348 11 407 -25 407 -78 C407 -163 320 -220 189 -220 C122 -220 77 -176 77 -110 C77 -60 108 -15 156 10 L156 10 L156 10 Z " />
<glyph glyph-name="Gdot" unicode="&#x120;" horiz-adv-x="763" d="M391 730 C417 730 434 747 434 773 C434 799 417 816 391 816 C366 816 349 799 349 773 C349 747 366 730 391 730 L391 730 Z M665 310 L641 310 L595 310 L550 310 L526 310 L526 295 L530 295 C542 295 550 269 550 230 L550 44 C501 29 444 20 391 20 C257 20 167 144 167 330 C167 516 257 640 391 640 C420 640 448 637 473 632 C526 621 580 584 612 537 C615 531 621 523 625 518 L638 518 L638 572 C601 628 502 665 391 665 C190 665 56 531 56 330 C56 129 190 -5 391 -5 C479 -5 579 19 641 55 L641 230 C641 269 649 295 661 295 L665 295 L665 310 L665 310 Z " />
<glyph glyph-name="gdot" unicode="&#x121;" horiz-adv-x="484" d="M248 570 C273 570 290 587 290 613 C290 639 273 656 248 656 C222 656 205 639 205 613 C205 587 222 570 248 570 L248 570 Z M478 500 L341 485 L341 485 C315 498 283 505 248 505 C142 505 71 442 71 349 C71 279 111 226 175 203 C102 198 55 160 55 105 C55 59 86 26 137 13 C72 -16 30 -65 30 -118 C30 -191 90 -240 181 -240 C347 -240 458 -161 458 -43 C458 29 386 77 279 77 L197 74 C140 71 102 94 102 132 C102 168 138 192 193 192 L248 192 C353 192 424 255 424 349 C424 394 408 432 379 459 L478 461 L478 500 L478 500 Z M138 349 C138 433 182 489 248 489 C314 489 358 433 358 349 C358 264 314 208 248 208 C182 208 138 264 138 349 L138 349 Z M156 10 C170 8 185 7 201 8 L260 11 C348 11 407 -25 407 -78 C407 -163 320 -220 189 -220 C122 -220 77 -176 77 -110 C77 -60 108 -15 156 10 L156 10 L156 10 Z " />
<glyph glyph-name="Hcircumflex" unicode="&#x124;" horiz-adv-x="685" d="M639 660 L615 660 L565 660 L514 660 L491 660 L491 645 L494 645 C506 645 514 619 514 580 L514 360 L166 360 L166 580 C166 619 174 645 186 645 L190 645 L190 660 L166 660 L115 660 L65 660 L41 660 L41 645 L45 645 C57 645 65 619 65 580 L65 80 C65 41 57 15 45 15 L41 15 L41 0 L65 0 L115 0 L166 0 L190 0 L190 15 L186 15 C174 15 166 41 166 80 L166 334 L514 334 L514 80 C514 41 506 15 494 15 L491 15 L491 0 L514 0 L565 0 L615 0 L639 0 L639 15 L635 15 C623 15 615 41 615 80 L615 580 C615 619 623 645 635 645 L639 645 L639 660 L639 660 Z M340 835 L452 693 L459 699 L362 885 C359 891 351 905 340 905 C329 905 321 891 318 885 L221 699 L228 693 L340 835 L340 835 Z " />
<glyph glyph-name="Itilde" unicode="&#x128;" horiz-adv-x="230" d="M-31 755 C-31 793 -14 818 12 818 C71 818 129 756 189 756 C233 756 262 799 262 862 L251 862 C251 826 232 802 204 802 C144 802 86 865 27 865 C-15 865 -43 821 -43 755 L-31 755 L-31 755 Z M184 660 L160 660 L110 660 L59 660 L35 660 L35 645 L39 645 C51 645 59 619 59 580 L59 80 C59 41 51 15 39 15 L35 15 L35 0 L59 0 L110 0 L160 0 L184 0 L184 15 L180 15 C168 15 160 41 160 80 L160 580 C160 619 168 645 180 645 L184 645 L184 660 L184 660 Z " />
<glyph glyph-name="itilde" unicode="&#x129;" horiz-adv-x="221" d="M146 0 L170 0 L170 15 L165 15 C154 15 146 13 146 0 L146 420 L146 505 L142 505 L56 479 L56 469 L70 447 C74 441 76 432 76 400 L76 0 C76 13 68 15 57 15 L52 15 L52 0 L76 0 L76 400 L76 420 L146 420 L146 0 L146 0 Z M-30 595 C-30 633 -13 658 13 658 C72 658 130 596 190 596 C234 596 264 639 264 702 L252 702 C252 666 233 642 205 642 C145 642 88 705 28 705 C-14 705 -42 661 -42 595 L-30 595 L-30 595 Z " />
<glyph glyph-name="Imacron" unicode="&#x12a;" horiz-adv-x="230" d="M-40 767 L260 767 L260 806 L-40 806 L-40 767 L-40 767 Z M184 660 L160 660 L110 660 L59 660 L35 660 L35 645 L39 645 C51 645 59 619 59 580 L59 80 C59 41 51 15 39 15 L35 15 L35 0 L59 0 L110 0 L160 0 L184 0 L184 15 L180 15 C168 15 160 41 160 80 L160 580 C160 619 168 645 180 645 L184 645 L184 660 L184 660 Z " />
<glyph glyph-name="imacron" unicode="&#x12b;" horiz-adv-x="221" d="M146 0 L170 0 L170 15 L165 15 C154 15 146 13 146 0 L146 420 L146 505 L142 505 L56 479 L56 469 L70 447 C74 441 76 432 76 400 L76 0 C76 13 68 15 57 15 L52 15 L52 0 L76 0 L76 400 L76 420 L146 420 L146 0 L146 0 Z M-39 607 L261 607 L261 646 L-39 646 L-39 607 L-39 607 Z " />
<glyph glyph-name="Ibreve" unicode="&#x12c;" horiz-adv-x="230" d="M-11 871 C6 803 54 758 110 758 C165 758 213 803 230 871 L218 874 C208 833 164 805 110 805 C55 805 12 833 1 874 L-11 871 L-11 871 Z M184 660 L160 660 L110 660 L59 660 L35 660 L35 645 L39 645 C51 645 59 619 59 580 L59 80 C59 41 51 15 39 15 L35 15 L35 0 L59 0 L110 0 L160 0 L184 0 L184 15 L180 15 C168 15 160 41 160 80 L160 580 C160 619 168 645 180 645 L184 645 L184 660 L184 660 Z " />
<glyph glyph-name="ibreve" unicode="&#x12d;" horiz-adv-x="221" d="M146 0 L170 0 L170 15 L165 15 C154 15 146 13 146 0 L146 420 L146 505 L142 505 L56 479 L56 469 L70 447 C74 441 76 432 76 400 L76 0 C76 13 68 15 57 15 L52 15 L52 0 L76 0 L76 400 L76 420 L146 420 L146 0 L146 0 Z M-10 711 C7 643 55 598 111 598 C166 598 214 643 231 711 L219 714 C209 673 166 645 111 645 C56 645 13 673 2 714 L-10 711 L-10 711 Z " />
<glyph glyph-name="Idot" unicode="&#x130;" horiz-adv-x="230" d="M110 730 C135 730 152 747 152 773 C152 799 135 816 110 816 C84 816 67 799 67 773 C67 747 84 730 110 730 L110 730 Z M184 660 L160 660 L110 660 L59 660 L35 660 L35 645 L39 645 C51 645 59 619 59 580 L59 80 C59 41 51 15 39 15 L35 15 L35 0 L59 0 L110 0 L160 0 L184 0 L184 15 L180 15 C168 15 160 41 160 80 L160 580 C160 619 168 645 180 645 L184 645 L184 660 L184 660 Z " />
<glyph glyph-name="dotlessi" unicode="&#x131;" horiz-adv-x="221" d="M146 0 L170 0 L170 15 L165 15 C154 15 146 13 146 0 L146 420 L146 505 L142 505 L56 479 L56 469 L70 447 C74 441 76 432 76 400 L76 0 C76 13 68 15 57 15 L52 15 L52 0 L76 0 L76 400 L76 420 L146 420 L146 0 L146 0 Z " />
<glyph glyph-name="Jcircumflex" unicode="&#x134;" horiz-adv-x="356" d="M309 660 L286 660 L235 660 L185 660 L161 660 L161 645 L165 645 C177 645 185 619 185 580 L185 200 C185 60 171 6 134 6 C104 6 80 24 73 50 C68 69 54 81 38 81 C15 81 2 69 7 50 C16 14 59 -10 114 -10 C238 -10 286 73 286 285 L286 580 L286 593 C287 625 294 645 306 645 L309 645 L309 660 L309 660 Z M235 835 L347 693 L354 699 L258 885 C254 891 246 905 235 905 C224 905 216 891 213 885 L116 699 L123 693 L235 835 L235 835 Z " />
<glyph glyph-name="Lacute" unicode="&#x139;" horiz-adv-x="531" d="M92 690 L204 818 C227 846 243 866 243 870 C243 879 215 900 203 900 C200 900 187 878 168 846 L84 697 L92 690 L92 690 Z M190 660 L166 660 L115 660 L65 660 L41 660 L41 645 L45 645 C57 645 65 619 65 580 L65 80 C65 41 57 15 45 15 L41 15 L41 0 L65 0 L115 0 L166 0 L383 0 L461 0 L463 0 C463 4 464 9 465 13 C468 30 472 53 475 70 C475 70 474 71 471 71 C463 72 456 73 456 73 L449 66 C427 42 376 25 322 25 L166 25 L166 580 C166 619 174 645 186 645 L190 645 L190 660 L190 660 Z " />
<glyph glyph-name="Lcaron" unicode="&#x13d;" horiz-adv-x="531" d="M190 660 L166 660 L115 660 L65 660 L41 660 L41 645 L45 645 C57 645 65 619 65 580 L65 80 C65 41 57 15 45 15 L41 15 L41 0 L65 0 L115 0 L166 0 L383 0 L461 0 L463 0 C463 4 464 9 465 13 C468 30 472 53 475 70 C475 70 474 71 471 71 C463 72 456 73 456 73 L449 66 C427 42 376 25 322 25 L166 25 L166 580 C166 619 174 645 186 645 L190 645 L190 660 L190 660 Z M313 569 C336 620 351 670 351 677 C351 688 320 693 307 693 C292 693 277 630 269 585 L237 422 L246 419 L313 569 L313 569 Z " />
<glyph glyph-name="lcaron" unicode="&#x13e;" horiz-adv-x="221" d="M52 686 C72 661 76 651 76 591 L76 80 C76 41 68 15 56 15 L52 15 L52 0 L76 0 L111 0 L146 0 L170 0 L170 15 L166 15 C154 15 146 41 146 80 L146 610 L146 702 L146 720 L132 720 L52 695 L52 686 L52 686 Z M269 599 C292 650 307 700 307 707 C307 718 276 723 263 723 C248 723 233 660 225 615 L194 452 L202 449 L269 599 L269 599 Z " />
<glyph glyph-name="Lslash" unicode="&#x141;" horiz-adv-x="531" d="M15 268 L65 285 L65 80 C65 41 57 15 45 15 L41 15 L41 0 L65 0 L115 0 L166 0 L383 0 L461 0 L463 0 C463 4 464 9 465 13 C468 30 472 53 475 70 C475 70 474 71 471 71 C463 72 456 73 456 73 L449 66 C427 42 376 25 322 25 L166 25 L166 319 L313 368 L313 392 L166 343 L166 580 C166 619 174 645 186 645 L190 645 L190 660 L166 660 L115 660 L65 660 L41 660 L41 645 L45 645 C57 645 65 619 65 580 L65 309 L15 292 L15 268 L15 268 Z " />
<glyph glyph-name="lslash" unicode="&#x142;" horiz-adv-x="221" d="M-24 298 L76 335 L76 80 C76 41 68 15 56 15 L52 15 L52 0 L76 0 L111 0 L146 0 L170 0 L170 15 L166 15 C154 15 146 41 146 80 L146 361 L246 398 L246 422 L146 385 L146 610 L146 702 L146 720 L132 720 L52 695 L52 686 C72 661 76 651 76 591 L76 359 L-24 322 L-24 298 L-24 298 Z " />
<glyph glyph-name="Nacute" unicode="&#x143;" horiz-adv-x="619" d="M282 690 L394 818 C418 846 434 866 433 870 C433 879 405 900 393 900 C390 900 376 878 358 846 L274 697 L282 690 L282 690 Z M580 660 L556 660 L541 660 L526 660 L502 660 L502 645 L506 645 C518 645 526 619 526 580 L526 121 L168 660 L100 627 L100 627 L168 660 L100 660 L85 660 L70 660 L46 660 L46 645 L50 645 C62 645 70 619 70 580 L70 80 C70 41 62 15 50 15 L46 15 L46 0 L70 0 L85 0 L100 0 L124 0 L124 15 L121 15 C108 15 100 41 100 80 L100 583 L480 14 L500 -16 L556 -16 L556 51 L556 580 C556 619 564 645 576 645 L580 645 L580 660 L580 660 Z " />
<glyph glyph-name="nacute" unicode="&#x144;" horiz-adv-x="536" d="M194 530 L306 658 C329 686 345 706 345 710 C345 719 317 740 305 740 C302 740 289 718 270 686 L186 537 L194 530 L194 530 Z M490 15 L486 15 C474 15 466 41 466 80 L466 337 C466 438 432 505 344 505 C256 505 179 463 145 399 L145 402 L145 500 L131 500 L52 475 L52 466 L55 461 C72 440 75 426 75 371 L75 80 C75 41 67 15 55 15 L52 15 L52 0 L75 0 L110 0 L145 0 L169 0 L169 15 L166 15 C154 15 146 41 145 80 L145 385 C168 429 224 458 290 458 C366 458 396 407 396 329 L396 80 C396 41 388 15 376 15 L372 15 L372 0 L396 0 L431 0 L466 0 L490 0 L490 15 L490 15 Z " />
<glyph glyph-name="Ncaron" unicode="&#x147;" horiz-adv-x="619" d="M580 660 L556 660 L541 660 L526 660 L502 660 L502 645 L506 645 C518 645 526 619 526 580 L526 121 L168 660 L100 627 L100 627 L168 660 L100 660 L85 660 L70 660 L46 660 L46 645 L50 645 C62 645 70 619 70 580 L70 80 C70 41 62 15 50 15 L46 15 L46 0 L70 0 L85 0 L100 0 L124 0 L124 15 L121 15 C108 15 100 41 100 80 L100 583 L480 14 L500 -16 L556 -16 L556 51 L556 580 C556 619 564 645 576 645 L580 645 L580 660 L580 660 Z M313 785 L425 927 L432 921 L335 735 C332 729 324 715 313 715 C302 715 294 729 291 735 L194 921 L201 927 L313 785 L313 785 Z " />
<glyph glyph-name="ncaron" unicode="&#x148;" horiz-adv-x="536" d="M490 15 L486 15 C474 15 466 41 466 80 L466 337 C466 438 432 505 344 505 C256 505 179 463 145 399 L145 402 L145 500 L131 500 L52 475 L52 466 L55 461 C72 440 75 426 75 371 L75 80 C75 41 67 15 55 15 L52 15 L52 0 L75 0 L110 0 L145 0 L169 0 L169 15 L166 15 C154 15 146 41 145 80 L145 385 C168 429 224 458 290 458 C366 458 396 407 396 329 L396 80 C396 41 388 15 376 15 L372 15 L372 0 L396 0 L431 0 L466 0 L490 0 L490 15 L490 15 Z M271 625 L383 767 L390 761 L293 575 C290 569 282 555 271 555 C260 555 252 569 248 575 L151 761 L158 767 L271 625 L271 625 Z " />
<glyph glyph-name="Omacron" unicode="&#x14c;" horiz-adv-x="772" d="M236 767 L536 767 L536 806 L236 806 L236 767 L236 767 Z M386 20 C241 20 167 163 167 330 C167 497 241 640 386 640 C531 640 605 497 605 330 C605 163 531 20 386 20 L386 20 Z M56 330 C56 149 168 -5 386 -5 C604 -5 716 149 716 330 C716 511 604 665 386 665 C168 665 56 511 56 330 L56 330 Z " />
<glyph glyph-name="omacron" unicode="&#x14d;" horiz-adv-x="608" d="M154 607 L454 607 L454 646 L154 646 L154 607 L154 607 Z M304 11 C203 11 135 107 135 250 C135 393 203 489 304 489 C406 489 474 393 474 250 C474 107 406 11 304 11 L304 11 Z M57 250 C57 97 156 -5 304 -5 C452 -5 551 97 551 250 C551 403 452 505 304 505 C156 505 57 403 57 250 L57 250 Z " />
<glyph glyph-name="Obreve" unicode="&#x14e;" horiz-adv-x="772" d="M265 871 C283 803 331 758 386 758 C441 758 489 803 507 871 L495 874 C484 833 441 805 386 805 C331 805 288 833 278 874 L265 871 L265 871 Z M386 20 C241 20 167 163 167 330 C167 497 241 640 386 640 C531 640 605 497 605 330 C605 163 531 20 386 20 L386 20 Z M56 330 C56 149 168 -5 386 -5 C604 -5 716 149 716 330 C716 511 604 665 386 665 C168 665 56 511 56 330 L56 330 Z " />
<glyph glyph-name="obreve" unicode="&#x14f;" horiz-adv-x="608" d="M184 711 C201 643 249 598 304 598 C359 598 407 643 425 711 L413 714 C402 673 359 645 304 645 C249 645 206 673 196 714 L184 711 L184 711 Z M304 11 C203 11 135 107 135 250 C135 393 203 489 304 489 C406 489 474 393 474 250 C474 107 406 11 304 11 L304 11 Z M57 250 C57 97 156 -5 304 -5 C452 -5 551 97 551 250 C551 403 452 505 304 505 C156 505 57 403 57 250 L57 250 Z " />
<glyph glyph-name="Racute" unicode="&#x154;" horiz-adv-x="599" d="M217 690 L329 818 C352 846 368 866 368 870 C368 879 340 900 328 900 C325 900 312 878 293 846 L209 697 L217 690 L217 690 Z M47 645 L50 645 C63 645 71 619 71 580 L71 80 C71 41 63 15 50 15 L47 15 L47 0 L71 0 L121 0 L171 0 L195 0 L195 15 L192 15 C180 15 172 41 171 80 L171 315 L248 315 L399 106 C473 4 480 0 564 0 L593 0 L593 15 L588 15 C562 15 559 18 506 91 L338 321 C448 339 517 402 517 490 C517 592 427 660 291 660 L171 660 L121 660 L71 660 L47 660 L47 645 L47 645 Z M267 335 L234 335 L171 335 L171 641 L291 641 C363 641 411 580 411 490 C411 397 353 335 267 335 L267 335 Z " />
<glyph glyph-name="Rcaron" unicode="&#x158;" horiz-adv-x="559" d="M47 645 L50 645 C63 645 71 619 71 580 L71 80 C71 41 63 15 50 15 L47 15 L47 0 L71 0 L121 0 L171 0 L195 0 L195 15 L192 15 C180 15 172 41 171 80 L171 315 L267 315 C317 179 431 35 553 -44 L560 -33 C499 7 417 149 353 324 C454 345 517 407 517 490 C517 592 427 660 291 660 L171 660 L121 660 L71 660 L47 660 L47 645 L47 645 Z M294 785 L406 927 L413 921 L316 735 C313 729 305 715 294 715 C283 715 275 729 271 735 L174 921 L181 927 L294 785 L294 785 Z M171 335 L171 641 L291 641 C363 641 411 580 411 490 C411 397 353 335 267 335 L171 335 L171 335 Z " />
<glyph glyph-name="rcaron" unicode="&#x159;" horiz-adv-x="384" d="M52 466 L55 461 C72 440 75 426 75 371 L75 80 C75 41 67 15 55 15 L52 15 L52 0 L75 0 L110 0 L145 0 L169 0 L169 15 L166 15 C154 15 146 41 145 80 L145 380 C161 425 192 453 230 453 C263 453 300 425 334 425 C354 425 368 438 368 458 C368 486 345 505 285 505 C221 505 167 460 145 391 L145 402 L144 402 L136 500 L122 500 L52 475 L52 466 L52 466 Z M181 625 L293 767 L300 761 L203 575 C200 569 191 555 180 555 C169 555 161 569 158 575 L61 761 L68 767 L181 625 L181 625 Z " />
<glyph glyph-name="Sacute" unicode="&#x15a;" horiz-adv-x="521" d="M201 690 L313 818 C337 846 352 866 352 870 C352 879 324 900 312 900 C309 900 295 878 277 846 L193 697 L201 690 L201 690 Z M58 136 L45 136 L45 77 L59 87 C59 87 59 87 59 86 L45 77 C77 28 166 -5 267 -5 C388 -5 469 69 469 181 C469 261 400 336 296 369 C190 403 120 458 120 508 C120 587 171 640 247 640 C270 640 293 636 314 628 C343 617 377 585 403 547 C408 540 414 531 419 524 L432 524 L432 583 L417 573 L417 573 L432 583 C400 632 327 665 251 665 C131 665 50 586 50 468 C50 394 117 323 218 291 C326 257 398 196 398 140 C398 68 346 20 267 20 C250 20 234 21 218 23 L218 24 C155 32 91 80 58 136 L58 136 Z " />
<glyph glyph-name="sacute" unicode="&#x15b;" horiz-adv-x="433" d="M147 530 L259 658 C282 686 298 706 298 710 C298 719 270 740 258 740 C255 740 242 718 223 686 L139 537 L147 530 L147 530 Z M63 102 L52 102 L52 61 C78 21 143 -5 214 -5 C312 -5 377 54 377 141 C377 191 329 244 258 275 C175 310 119 359 119 397 C119 452 161 489 224 489 C238 489 253 485 267 479 C295 465 327 430 344 396 L356 396 L356 434 L346 427 L346 427 L356 434 C328 477 275 505 224 505 C128 505 65 452 65 373 C65 321 122 262 208 225 C275 198 319 154 319 115 C319 53 279 11 218 11 C208 11 198 12 189 13 L189 13 C144 19 90 57 63 102 L63 102 Z " />
<glyph glyph-name="Scircumflex" unicode="&#x15c;" horiz-adv-x="521" d="M58 136 L45 136 L45 77 L59 87 C59 87 59 87 59 86 L45 77 C77 28 166 -5 267 -5 C388 -5 469 69 469 181 C469 261 400 336 296 369 C190 403 120 458 120 508 C120 587 171 640 247 640 C270 640 293 636 314 628 C343 617 377 585 403 547 C408 540 414 531 419 524 L432 524 L432 583 L417 573 L417 573 L432 583 C400 632 327 665 251 665 C131 665 50 586 50 468 C50 394 117 323 218 291 C326 257 398 196 398 140 C398 68 346 20 267 20 C250 20 234 21 218 23 L218 24 C155 32 91 80 58 136 L58 136 Z M247 835 L359 693 L366 699 L269 885 C266 891 258 905 247 905 C236 905 228 891 225 885 L128 699 L135 693 L247 835 L247 835 Z " />
<glyph glyph-name="Scedilla" unicode="&#x15e;" horiz-adv-x="521" d="M58 136 L45 136 L45 77 L59 87 C59 87 59 87 59 86 L45 77 C77 28 166 -5 267 -5 C388 -5 469 69 469 181 C469 261 400 336 296 369 C190 403 120 458 120 508 C120 587 171 640 247 640 C270 640 293 636 314 628 C343 617 377 585 403 547 C408 540 414 531 419 524 L432 524 L432 583 L417 573 L417 573 L432 583 C400 632 327 665 251 665 C131 665 50 586 50 468 C50 394 117 323 218 291 C326 257 398 196 398 140 C398 68 346 20 267 20 C250 20 234 21 218 23 L218 24 C155 32 91 80 58 136 L58 136 Z " />
<glyph glyph-name="scedilla" unicode="&#x15f;" horiz-adv-x="433" d="M63 102 L52 102 L52 61 C78 21 143 -5 214 -5 C312 -5 377 54 377 141 C377 191 329 244 258 275 C175 310 119 359 119 397 C119 452 161 489 224 489 C238 489 253 485 267 479 C295 465 327 430 344 396 L356 396 L356 434 L346 427 L346 427 L356 434 C328 477 275 505 224 505 C128 505 65 452 65 373 C65 321 122 262 208 225 C275 198 319 154 319 115 C319 53 279 11 218 11 C208 11 198 12 189 13 L189 13 C144 19 90 57 63 102 L63 102 Z " />
<glyph glyph-name="Scaron" unicode="&#x160;" horiz-adv-x="521" d="M58 136 L45 136 L45 77 L59 87 C59 87 59 87 59 86 L45 77 C77 28 166 -5 267 -5 C388 -5 469 69 469 181 C469 261 400 336 296 369 C190 403 120 458 120 508 C120 587 171 640 247 640 C270 640 293 636 314 628 C343 617 377 585 403 547 C408 540 414 531 419 524 L432 524 L432 583 L417 573 L417 573 L432 583 C400 632 327 665 251 665 C131 665 50 586 50 468 C50 394 117 323 218 291 C326 257 398 196 398 140 C398 68 346 20 267 20 C250 20 234 21 218 23 L218 24 C155 32 91 80 58 136 L58 136 Z M247 785 L359 927 L366 921 L269 735 C266 729 258 715 247 715 C236 715 228 729 225 735 L128 921 L135 927 L247 785 L247 785 Z " />
<glyph glyph-name="scaron" unicode="&#x161;" horiz-adv-x="433" d="M63 102 L52 102 L52 61 C78 21 143 -5 214 -5 C312 -5 377 54 377 141 C377 191 329 244 258 275 C175 310 119 359 119 397 C119 452 161 489 224 489 C238 489 253 485 267 479 C295 465 327 430 344 396 L356 396 L356 434 L346 427 L346 427 L356 434 C328 477 275 505 224 505 C128 505 65 452 65 373 C65 321 122 262 208 225 C275 198 319 154 319 115 C319 53 279 11 218 11 C208 11 198 12 189 13 L189 13 C144 19 90 57 63 102 L63 102 Z M224 625 L336 767 L343 761 L246 575 C243 569 235 555 224 555 C213 555 205 569 201 575 L104 761 L111 767 L224 625 L224 625 Z " />
<glyph glyph-name="Tcaron" unicode="&#x164;" horiz-adv-x="633" d="M391 15 L388 15 C376 15 367 41 367 80 L367 635 L468 635 C516 635 566 619 592 594 L600 587 L612 587 C611 605 608 629 607 647 C606 651 606 656 606 660 L587 660 L526 660 L108 660 L47 660 L28 660 C28 656 27 651 27 647 C25 629 23 605 22 587 L34 587 L42 594 C68 619 118 635 166 635 L267 635 L267 80 C267 41 259 15 246 15 L243 15 L243 0 L267 0 L317 0 L367 0 L391 0 L391 15 L391 15 Z M317 785 L429 927 L436 921 L339 735 C336 729 328 715 317 715 C306 715 298 729 295 735 L198 921 L205 927 L317 785 L317 785 Z " />
<glyph glyph-name="tcaron" unicode="&#x165;" horiz-adv-x="358" d="M320 500 L176 500 L176 640 L165 640 L149 595 C125 533 80 488 34 481 L32 481 L32 473 L106 473 L106 112 C107 21 127 -5 196 -5 C250 -5 292 43 332 116 L325 119 C294 63 264 26 231 26 C188 26 176 42 176 100 L176 473 L320 473 L320 500 L320 500 Z M443 599 C466 650 481 700 481 707 C481 718 450 723 437 723 C422 723 407 660 399 615 L368 452 L377 449 L443 599 L443 599 Z M150 598 L152 603 C151 601 151 600 150 598 L150 598 Z " />
<glyph glyph-name="Utilde" unicode="&#x168;" horiz-adv-x="583" d="M154 755 C154 793 171 818 197 818 C256 818 314 756 374 756 C418 756 448 799 448 862 L436 862 C436 826 417 802 389 802 C329 802 272 865 212 865 C170 865 142 821 142 755 L154 755 L154 755 Z M556 660 L529 660 L518 660 L506 660 L477 660 L477 645 L482 645 C495 645 504 619 506 580 L505 189 C505 94 452 30 315 30 C204 30 161 95 161 192 L161 580 C162 619 170 645 182 645 L185 645 L185 660 L161 660 L111 660 L61 660 L37 660 L37 645 L40 645 C53 645 61 619 61 580 L61 212 C61 82 128 -5 300 -5 C465 -5 529 70 529 182 L529 570 C529 615 538 645 552 645 L556 645 L556 660 L556 660 Z " />
<glyph glyph-name="utilde" unicode="&#x169;" horiz-adv-x="501" d="M100 595 C100 633 117 658 143 658 C202 658 260 596 319 596 C364 596 393 639 393 702 L382 702 C382 666 363 642 335 642 C275 642 217 705 158 705 C116 705 88 661 88 595 L100 595 L100 595 Z M460 34 C440 59 436 69 436 129 L436 500 L401 500 L366 500 L342 500 L342 485 L346 485 C358 485 366 459 366 420 L366 110 L366 107 C349 68 311 41 245 41 C159 41 115 90 115 162 L115 500 L80 500 L45 500 L22 500 L22 485 L25 485 C37 485 45 459 45 420 L45 155 C45 59 95 -5 191 -5 C282 -5 337 32 366 89 L366 18 L366 0 L380 0 L460 25 L460 34 L460 34 Z " />
<glyph glyph-name="Umacron" unicode="&#x16a;" horiz-adv-x="583" d="M145 767 L445 767 L445 806 L145 806 L145 767 L145 767 Z M556 660 L529 660 L518 660 L506 660 L477 660 L477 645 L482 645 C495 645 504 619 506 580 L505 189 C505 94 452 30 315 30 C204 30 161 95 161 192 L161 580 C162 619 170 645 182 645 L185 645 L185 660 L161 660 L111 660 L61 660 L37 660 L37 645 L40 645 C53 645 61 619 61 580 L61 212 C61 82 128 -5 300 -5 C465 -5 529 70 529 182 L529 570 C529 615 538 645 552 645 L556 645 L556 660 L556 660 Z " />
<glyph glyph-name="umacron" unicode="&#x16b;" horiz-adv-x="501" d="M91 607 L391 607 L391 646 L91 646 L91 607 L91 607 Z M460 34 C440 59 436 69 436 129 L436 500 L401 500 L366 500 L342 500 L342 485 L346 485 C358 485 366 459 366 420 L366 110 L366 107 C349 68 311 41 245 41 C159 41 115 90 115 162 L115 500 L80 500 L45 500 L22 500 L22 485 L25 485 C37 485 45 459 45 420 L45 155 C45 59 95 -5 191 -5 C282 -5 337 32 366 89 L366 18 L366 0 L380 0 L460 25 L460 34 L460 34 Z " />
<glyph glyph-name="Ubreve" unicode="&#x16c;" horiz-adv-x="583" d="M174 871 C192 803 240 758 295 758 C350 758 398 803 415 871 L403 874 C393 833 350 805 295 805 C240 805 197 833 186 874 L174 871 L174 871 Z M556 660 L529 660 L518 660 L506 660 L477 660 L477 645 L482 645 C495 645 504 619 506 580 L505 189 C505 94 452 30 315 30 C204 30 161 95 161 192 L161 580 C162 619 170 645 182 645 L185 645 L185 660 L161 660 L111 660 L61 660 L37 660 L37 645 L40 645 C53 645 61 619 61 580 L61 212 C61 82 128 -5 300 -5 C465 -5 529 70 529 182 L529 570 C529 615 538 645 552 645 L556 645 L556 660 L556 660 Z " />
<glyph glyph-name="ubreve" unicode="&#x16d;" horiz-adv-x="501" d="M120 711 C137 643 185 598 241 598 C296 598 344 643 361 711 L349 714 C339 673 295 645 241 645 C186 645 142 673 132 714 L120 711 L120 711 Z M460 34 C440 59 436 69 436 129 L436 500 L401 500 L366 500 L342 500 L342 485 L346 485 C358 485 366 459 366 420 L366 110 L366 107 C349 68 311 41 245 41 C159 41 115 90 115 162 L115 500 L80 500 L45 500 L22 500 L22 485 L25 485 C37 485 45 459 45 420 L45 155 C45 59 95 -5 191 -5 C282 -5 337 32 366 89 L366 18 L366 0 L380 0 L460 25 L460 34 L460 34 Z " />
<glyph glyph-name="Uring" unicode="&#x16e;" horiz-adv-x="583" d="M295 711 C254 711 220 746 220 788 C220 833 250 864 295 864 C340 864 370 833 370 788 C370 746 335 711 295 711 L295 711 Z M200 788 C200 738 244 695 295 695 C346 695 389 738 389 788 C389 843 351 880 295 880 C238 880 200 843 200 788 L200 788 Z M556 660 L529 660 L518 660 L506 660 L477 660 L477 645 L482 645 C495 645 504 619 506 580 L505 189 C505 94 452 30 315 30 C204 30 161 95 161 192 L161 580 C162 619 170 645 182 645 L185 645 L185 660 L161 660 L111 660 L61 660 L37 660 L37 645 L40 645 C53 645 61 619 61 580 L61 212 C61 82 128 -5 300 -5 C465 -5 529 70 529 182 L529 570 C529 615 538 645 552 645 L556 645 L556 660 L556 660 Z " />
<glyph glyph-name="uring" unicode="&#x16f;" horiz-adv-x="501" d="M241 551 C200 551 165 586 165 628 C165 673 195 704 241 704 C286 704 316 673 316 628 C316 586 281 551 241 551 L241 551 Z M146 628 C146 578 190 535 241 535 C292 535 335 578 335 628 C335 683 297 720 241 720 C184 720 146 683 146 628 L146 628 Z M460 34 C440 59 436 69 436 129 L436 500 L401 500 L366 500 L342 500 L342 485 L346 485 C358 485 366 459 366 420 L366 110 L366 107 C349 68 311 41 245 41 C159 41 115 90 115 162 L115 500 L80 500 L45 500 L22 500 L22 485 L25 485 C37 485 45 459 45 420 L45 155 C45 59 95 -5 191 -5 C282 -5 337 32 366 89 L366 18 L366 0 L380 0 L460 25 L460 34 L460 34 Z " />
<glyph glyph-name="Wcircumflex" unicode="&#x174;" horiz-adv-x="902" d="M888 660 L869 660 L857 660 L845 660 L812 660 L812 645 L816 645 C831 645 833 619 822 580 L822 580 L686 106 L495 670 L475 670 L299 98 L156 580 L156 580 C144 619 145 645 157 645 L161 645 L161 660 L132 660 L77 660 L21 660 L7 660 L7 645 L10 645 C19 645 33 624 46 592 L264 -15 L284 -15 L455 541 L651 -15 L670 -15 L849 592 C860 624 873 645 884 645 L888 645 L888 660 L888 660 Z M485 835 L597 693 L604 699 L507 885 C504 891 496 905 485 905 C474 905 466 891 463 885 L366 699 L373 693 L485 835 L485 835 Z " />
<glyph glyph-name="Ycircumflex" unicode="&#x176;" horiz-adv-x="592" d="M372 15 L369 15 C357 15 348 41 348 80 L348 322 L348 322 L523 594 C545 625 563 645 573 645 L576 645 L576 660 L565 660 L553 660 L541 660 L506 660 C507 660 507 657 506 653 C507 648 507 645 506 645 L510 645 C522 645 511 614 482 566 L328 322 L317 322 L188 587 C171 622 167 645 177 645 L181 645 L181 660 L152 660 L91 660 L31 660 L22 660 L22 645 L25 645 C34 645 55 619 76 580 L77 580 L247 281 L247 80 C247 41 239 15 227 15 L224 15 L224 0 L247 0 L298 0 L348 0 L372 0 L372 15 L372 15 Z M298 835 L410 693 L417 699 L320 885 C317 891 309 905 298 905 C287 905 279 891 276 885 L179 699 L186 693 L298 835 L298 835 Z " />
<glyph glyph-name="Ydieresis001" unicode="&#x178;" horiz-adv-x="592" d="M390 730 C416 730 433 747 433 773 C433 799 416 816 390 816 C364 816 347 799 347 773 C347 747 364 730 390 730 L390 730 Z M206 730 C231 730 248 747 248 773 C248 799 231 816 206 816 C180 816 163 799 163 773 C163 747 180 730 206 730 L206 730 Z M372 15 L369 15 C357 15 348 41 348 80 L348 322 L348 322 L523 594 C545 625 563 645 573 645 L576 645 L576 660 L565 660 L553 660 L541 660 L506 660 C507 660 507 657 506 653 C507 648 507 645 506 645 L510 645 C522 645 511 614 482 566 L328 322 L317 322 L188 587 C171 622 167 645 177 645 L181 645 L181 660 L152 660 L91 660 L31 660 L22 660 L22 645 L25 645 C34 645 55 619 76 580 L77 580 L247 281 L247 80 C247 41 239 15 227 15 L224 15 L224 0 L247 0 L298 0 L348 0 L372 0 L372 15 L372 15 Z " />
<glyph glyph-name="Zacute" unicode="&#x179;" horiz-adv-x="590" d="M512 13 C515 31 519 54 522 72 L522 72 L522 72 L522 72 C522 71 521 72 518 72 C509 73 503 74 503 74 L496 67 C474 43 423 26 369 26 L175 26 L536 660 L479 660 L422 660 L188 660 L127 660 L108 660 C107 656 105 651 105 647 C100 632 95 612 91 597 L103 597 L112 602 C141 622 193 635 241 635 L408 635 L47 0 L103 0 L160 0 L429 0 L508 0 L509 0 C510 4 511 9 512 13 L512 13 Z M331 690 L442 818 C466 846 482 866 482 870 C482 879 454 900 442 900 C439 900 426 878 407 846 L323 697 L331 690 L331 690 Z " />
<glyph glyph-name="zacute" unicode="&#x17a;" horiz-adv-x="497" d="M191 530 L303 658 C327 686 343 706 343 710 C343 719 315 740 303 740 C300 740 286 718 268 686 L184 537 L191 530 L191 530 Z M425 8 C428 24 431 45 434 61 C434 61 433 62 431 62 C422 63 416 64 416 63 L409 56 C386 32 335 16 281 16 L150 16 L441 500 L400 500 L360 500 L157 500 L96 500 L77 500 C77 498 76 494 75 492 C72 481 68 466 65 455 L77 455 L86 459 C114 474 165 484 213 484 L350 484 L57 0 L99 0 L140 0 L344 0 L420 0 L424 0 C424 2 424 6 425 8 L425 8 Z " />
<glyph glyph-name="Zdot" unicode="&#x17b;" horiz-adv-x="590" d="M512 13 C515 31 519 54 522 72 L522 72 L522 72 L522 72 C522 71 521 72 518 72 C509 73 503 74 503 74 L496 67 C474 43 423 26 369 26 L175 26 L536 660 L479 660 L422 660 L188 660 L127 660 L108 660 C107 656 105 651 105 647 C100 632 95 612 91 597 L103 597 L112 602 C141 622 193 635 241 635 L408 635 L47 0 L103 0 L160 0 L429 0 L508 0 L509 0 C510 4 511 9 512 13 L512 13 Z M332 730 C357 730 374 747 374 773 C374 799 357 816 332 816 C306 816 289 799 289 773 C289 747 306 730 332 730 L332 730 Z " />
<glyph glyph-name="zdot" unicode="&#x17c;" horiz-adv-x="497" d="M268 570 C294 570 311 587 311 613 C311 639 294 656 268 656 C243 656 226 639 226 613 C226 587 243 570 268 570 L268 570 Z M425 8 C428 24 431 45 434 61 C434 61 433 62 431 62 C422 63 416 64 416 63 L409 56 C386 32 335 16 281 16 L150 16 L441 500 L400 500 L360 500 L157 500 L96 500 L77 500 C77 498 76 494 75 492 C72 481 68 466 65 455 L77 455 L86 459 C114 474 165 484 213 484 L350 484 L57 0 L99 0 L140 0 L344 0 L420 0 L424 0 C424 2 424 6 425 8 L425 8 Z " />
<glyph glyph-name="Zcaron" unicode="&#x17d;" horiz-adv-x="590" d="M512 13 C515 31 519 54 522 72 L522 72 L522 72 L522 72 C522 71 521 72 518 72 C509 73 503 74 503 74 L496 67 C474 43 423 26 369 26 L175 26 L536 660 L479 660 L422 660 L188 660 L127 660 L108 660 C107 656 105 651 105 647 C100 632 95 612 91 597 L103 597 L112 602 C141 622 193 635 241 635 L408 635 L47 0 L103 0 L160 0 L429 0 L508 0 L509 0 C510 4 511 9 512 13 L512 13 Z M332 785 L444 927 L451 921 L354 735 C351 729 343 715 332 715 C321 715 313 729 309 735 L212 921 L219 927 L332 785 L332 785 Z " />
<glyph glyph-name="zcaron" unicode="&#x17e;" horiz-adv-x="497" d="M269 625 L381 767 L388 761 L291 575 C288 569 279 555 268 555 C257 555 249 569 246 575 L149 761 L156 767 L269 625 L269 625 Z M425 8 C428 24 431 45 434 61 C434 61 433 62 431 62 C422 63 416 64 416 63 L409 56 C386 32 335 16 281 16 L150 16 L441 500 L400 500 L360 500 L157 500 L96 500 L77 500 C77 498 76 494 75 492 C72 481 68 466 65 455 L77 455 L86 459 C114 474 165 484 213 484 L350 484 L57 0 L99 0 L140 0 L344 0 L420 0 L424 0 C424 2 424 6 425 8 L425 8 Z " />
<glyph glyph-name="oogonek" unicode="&#x1eb;" horiz-adv-x="712" d="M721 -51 L714 -46 C695 -69 640 -85 578 -85 C490 -85 420 -53 367 -5 C557 -1 656 127 656 277 C656 429 554 558 357 558 C160 558 59 429 59 277 C59 129 155 2 342 -5 C420 -80 499 -130 571 -130 C621 -130 681 -99 721 -51 L721 -51 Z M357 18 C226 18 159 137 159 277 C159 417 226 536 357 536 C488 536 556 417 556 277 C556 137 488 18 357 18 L357 18 Z " />
<glyph glyph-name="Adotabove" unicode="&#x226;" horiz-adv-x="615" d="M286 730 C312 730 329 747 329 773 C329 799 312 816 286 816 C260 816 243 799 243 773 C243 747 260 730 286 730 L286 730 Z M597 15 L593 15 C582 15 567 32 553 60 L298 675 L273 675 L57 70 C43 37 28 15 17 15 L13 15 L13 0 L32 0 L49 0 L65 0 L100 0 L100 15 L96 15 C80 15 81 47 98 95 L98 95 L146 234 L375 234 L436 80 L436 80 C452 41 454 15 442 15 L439 15 L439 0 L468 0 L523 0 L578 0 L597 0 L597 15 L597 15 Z M365 259 L154 259 L252 543 L365 259 L365 259 Z " />
<glyph glyph-name="LETTERSMALLCAPITALG" unicode="&#x262;" horiz-adv-x="704" d="M606 260 L582 260 L542 260 L501 260 L477 260 L477 245 L481 245 C493 245 501 219 501 180 L501 44 C454 28 403 18 359 18 C239 18 159 121 159 277 C159 432 239 536 359 536 C377 536 395 535 412 532 C466 521 522 483 553 433 C557 426 562 418 566 412 L579 412 L579 465 L569 458 L569 458 L579 465 C542 521 454 558 359 558 C179 558 59 445 59 277 C59 108 179 -5 359 -5 C430 -5 520 19 582 55 L582 180 C583 219 591 245 603 245 L606 245 L606 260 L606 260 Z " />
<glyph glyph-name="LETTERSMALLCAPITALI" unicode="&#x26a;" horiz-adv-x="225" d="M179 553 C158 554 130 554 110 553 C89 554 61 554 40 553 L40 538 L44 538 C56 539 64 513 64 473 L64 80 C64 41 56 15 44 15 L40 15 L40 0 L64 0 L110 0 L155 0 L179 0 L179 15 L175 15 C163 15 155 41 155 80 L155 473 C155 513 163 539 175 538 L179 538 L179 553 L179 553 Z " />
<glyph glyph-name="LETTERSMALLCAPITALN" unicode="&#x274;" horiz-adv-x="556" d="M517 553 C505 554 491 554 479 553 C468 554 453 554 442 553 L442 538 L446 538 C458 539 466 513 466 473 L466 108 L159 553 L98 523 L98 523 L159 553 L98 553 L85 553 C73 554 58 554 47 553 L47 538 L51 538 C63 539 71 513 71 473 L71 80 C71 41 63 15 51 15 L47 15 L47 0 L71 0 L85 0 L98 0 L122 0 L122 15 L118 15 C106 15 98 41 98 80 L98 484 L424 13 L443 -14 L493 -14 L493 46 L493 473 C493 513 501 539 513 538 L517 538 L517 553 L517 553 Z " />
<glyph glyph-name="LETTERSMALLCAPITALR" unicode="&#x280;" horiz-adv-x="532" d="M49 538 L53 538 C65 539 73 513 73 473 L73 80 C73 41 65 15 53 15 L49 15 L49 0 L73 0 L118 0 L164 0 L188 0 L188 15 L184 15 C172 15 164 41 164 80 L164 264 L208 264 L336 106 C418 4 424 0 499 0 L526 0 L526 14 L521 14 C496 14 492 17 431 93 L288 269 C382 285 441 338 441 412 C441 497 361 553 240 553 L164 553 L118 553 C98 554 70 554 49 553 L49 538 L49 538 Z M225 281 L194 281 L164 281 L164 536 L240 536 C304 536 346 487 346 412 C346 334 298 281 225 281 L225 281 Z " />
<glyph glyph-name="LETTERSMALLCAPITALY" unicode="&#x28f;" horiz-adv-x="522" d="M334 15 L330 15 C318 15 310 41 310 80 L310 273 L309 273 L442 473 L442 473 C468 513 492 539 503 538 L506 538 L506 553 C499 554 491 554 485 553 C471 554 453 554 439 553 L439 538 L443 538 C455 539 443 508 413 460 L292 273 L276 273 L178 480 C161 516 158 539 168 538 L171 538 C172 539 172 542 171 546 C172 551 172 554 171 553 C146 554 113 554 88 553 C70 554 44 554 25 553 L25 538 L28 538 C36 539 52 520 71 490 L219 236 L219 80 C219 41 211 15 199 15 L195 15 L195 0 L219 0 L265 0 L310 0 L334 0 L334 15 L334 15 Z " />
<glyph glyph-name="LETTERSMALLCAPITALB" unicode="&#x299;" horiz-adv-x="518" d="M49 538 L53 538 C65 539 73 513 73 473 L73 80 C73 41 65 15 53 15 L49 15 L49 0 L73 0 L118 0 L164 0 L261 0 C399 0 491 61 491 153 C491 230 418 285 302 299 C385 316 437 363 437 425 C437 502 358 553 240 553 L164 553 L118 553 C98 554 70 554 49 553 L49 538 L49 538 Z M242 302 L223 301 L164 301 L164 536 L240 536 C304 536 346 492 346 425 C346 357 305 309 242 302 L242 302 Z M164 288 L222 288 C326 288 396 234 396 153 C396 72 339 18 254 18 L164 18 L164 288 L164 288 Z " />
<glyph glyph-name="LETTERSMALLCAPITALH" unicode="&#x29c;" horiz-adv-x="625" d="M579 553 C558 554 531 554 510 553 C489 552 461 554 441 553 L441 538 L444 538 C457 539 465 513 465 473 L465 304 L158 304 L158 473 C158 513 166 539 178 538 L182 538 L182 553 C161 554 134 554 113 553 C92 552 64 554 44 553 L44 538 L47 538 C60 539 68 513 68 473 L68 80 C68 41 60 15 47 15 L44 15 L44 0 L68 0 L113 0 L158 0 L182 0 L182 15 L178 15 C166 15 158 41 158 80 L158 282 L465 282 L465 80 C465 41 457 15 444 15 L441 15 L441 0 L465 0 L510 0 L555 0 L579 0 L579 15 L575 15 C563 15 555 41 555 80 L555 473 C555 513 563 539 575 538 L579 538 L579 553 L579 553 Z " />
<glyph glyph-name="LETTERSMALLCAPITALL" unicode="&#x29f;" horiz-adv-x="478" d="M182 553 C161 554 134 554 113 553 C92 552 64 554 44 553 L44 538 L47 538 C60 539 68 513 68 473 L68 80 C68 41 60 15 47 15 L44 15 L44 0 L68 0 L113 0 L158 0 L330 0 L408 0 L410 0 C410 4 411 8 412 11 C415 28 419 51 422 68 L418 68 C409 70 403 70 403 70 L396 63 C375 40 329 24 278 23 L269 23 L158 23 L158 473 C158 513 166 539 178 538 L182 538 L182 553 L182 553 Z " />
<glyph glyph-name="LETTERSMALLCAPITALA" unicode="&#x1d00;" horiz-adv-x="544" d="M526 15 L522 15 C509 15 489 41 473 80 L473 80 L264 566 L241 566 L62 80 L62 80 C48 41 30 15 18 15 L14 15 L14 0 L33 0 L48 0 L63 0 L98 0 L98 15 L93 15 C78 15 79 47 97 95 L97 95 L132 195 L327 196 L378 72 C391 38 393 15 383 15 L379 15 L379 0 L408 0 L457 0 L507 0 L526 0 L526 15 L526 15 Z M318 218 L140 218 L222 448 L318 218 L318 218 Z " />
<glyph glyph-name="LETTERSMALLCAPITALC" unicode="&#x1d04;" horiz-adv-x="665" d="M599 412 L599 465 L589 458 L589 458 L599 465 C562 521 470 558 369 558 C183 558 59 445 59 277 C59 108 183 -5 369 -5 C470 -5 562 32 599 88 L599 141 L586 141 C582 135 577 127 573 121 C538 66 469 27 399 19 C389 18 379 18 369 18 C243 18 159 121 159 277 C159 432 243 536 369 536 C392 536 415 534 436 530 C490 518 543 480 573 432 C577 426 582 418 586 412 L599 412 L599 412 Z " />
<glyph glyph-name="LETTERSMALLCAPITALD" unicode="&#x1d05;" horiz-adv-x="613" d="M49 538 L53 538 C65 539 73 513 73 473 L73 80 C73 41 65 15 53 15 L49 15 L49 0 L73 0 L118 0 L164 0 L265 0 C440 0 557 111 557 277 C557 442 430 553 240 553 L164 553 L118 553 C98 554 70 554 49 553 L49 538 L49 538 Z M164 18 L164 536 L240 536 C375 536 466 432 466 277 C466 121 386 18 265 18 L164 18 L164 18 Z " />
<glyph glyph-name="LETTERSMALLCAPITALE" unicode="&#x1d07;" horiz-adv-x="478" d="M331 330 C316 315 279 307 223 306 L158 306 L158 531 L252 531 C312 531 366 516 389 494 L396 488 L407 488 L407 542 L407 553 C407 554 404 554 399 553 C397 554 394 554 392 553 C372 554 346 554 327 553 L158 553 L113 553 C92 554 64 554 44 553 L44 538 L47 538 C60 539 68 513 68 473 L68 80 C68 41 60 15 47 15 L44 15 L44 0 L68 0 L113 0 L158 0 L330 0 L408 0 L410 0 C410 4 411 8 412 11 C415 28 418 48 421 65 C421 66 421 66 421 66 C421 65 421 65 421 65 L420 66 C414 65 410 65 410 66 C384 40 332 24 271 23 L259 23 L158 23 L158 284 L223 284 C279 284 318 275 331 257 L343 257 L343 284 L343 295 L343 306 L343 330 L331 330 L331 330 Z " />
<glyph glyph-name="LETTERSMALLCAPITALJ" unicode="&#x1d0a;" horiz-adv-x="300" d="M253 553 C232 554 205 554 184 553 C163 552 135 554 115 553 L115 538 L118 538 C131 539 139 513 139 473 L139 168 C139 50 131 4 109 4 C91 4 73 22 66 50 C62 67 49 78 35 78 C14 78 3 67 7 50 C16 14 50 -10 92 -10 C191 -10 230 61 230 244 L229 484 C231 518 239 539 250 538 L253 538 L253 553 L253 553 Z " />
<glyph glyph-name="LETTERSMALLCAPITALK" unicode="&#x1d0b;" horiz-adv-x="550" d="M376 538 L378 538 C383 539 363 514 327 474 L211 349 L211 349 L164 298 L164 473 C164 513 172 539 184 538 L188 538 L188 553 C167 554 139 554 118 553 C98 554 70 554 49 553 L49 538 L53 538 C65 539 73 513 73 473 L73 80 C73 41 65 15 53 15 L49 15 L49 0 L73 0 L118 0 L164 0 L188 0 L188 15 L184 15 C172 15 164 41 164 80 L164 298 L178 279 L178 280 L274 158 C368 41 433 -5 507 -5 L533 -5 L533 9 L528 9 C494 9 436 65 321 210 L225 331 L354 473 L355 473 C390 513 422 539 434 538 L438 538 L438 553 C430 554 421 554 414 553 C402 554 387 554 376 553 L376 538 L376 538 Z " />
<glyph glyph-name="LETTERSMALLCAPITALM" unicode="&#x1d0d;" horiz-adv-x="701" d="M661 553 C641 554 616 554 597 553 L581 553 L556 553 L359 100 L174 553 L115 553 L101 553 C90 554 75 554 64 553 L64 538 L67 538 C79 539 86 513 84 473 L66 80 C64 41 55 15 43 15 L39 15 L39 0 L63 0 L76 0 L90 0 L125 0 L125 15 L120 15 C104 15 94 42 94 83 L111 456 L306 13 L313 -5 L336 -5 L558 501 L574 71 C575 37 568 15 557 15 L553 15 L553 0 L577 0 L622 0 L668 0 L691 0 L691 15 L687 15 C677 15 668 35 664 66 L642 486 C641 519 647 539 657 538 L661 538 L661 553 L661 553 Z " />
<glyph glyph-name="LETTERSMALLCAPITALO" unicode="&#x1d0f;" horiz-adv-x="712" d="M357 18 C226 18 159 137 159 277 C159 417 226 536 357 536 C488 536 556 417 556 277 C556 137 488 18 357 18 L357 18 Z M59 277 C59 125 160 -5 357 -5 C554 -5 656 125 656 277 C656 429 554 558 357 558 C160 558 59 429 59 277 L59 277 Z " />
<glyph glyph-name="LETTERSMALLCAPITALP" unicode="&#x1d18;" horiz-adv-x="491" d="M49 538 L53 538 C65 539 73 513 73 473 L73 80 C73 41 65 15 53 15 L49 15 L49 0 L73 0 L118 0 L164 0 L188 0 L188 15 L184 15 C172 15 164 41 164 80 L164 249 L233 249 C372 249 465 310 465 400 C465 492 379 553 250 553 L164 553 L118 553 C98 554 70 554 49 553 L49 538 L49 538 Z M164 266 L164 536 L250 536 C321 536 369 482 369 400 C369 320 314 266 233 266 L164 266 L164 266 Z " />
<glyph glyph-name="LETTERSMALLCAPITALT" unicode="&#x1d1b;" horiz-adv-x="573" d="M356 15 L353 15 C341 15 332 41 332 80 L332 531 L406 531 C454 531 504 515 530 490 L538 483 L550 483 C548 500 546 524 545 542 C545 545 544 550 544 553 C544 554 541 554 536 553 C534 554 531 554 529 553 C509 554 483 554 464 553 L110 553 C91 554 65 554 45 553 C43 554 40 554 38 553 C33 554 30 554 30 553 C30 550 29 545 29 542 C27 524 25 500 24 483 L36 483 L44 490 C70 515 120 531 168 531 L242 531 L242 80 C242 41 234 15 221 15 L218 15 L218 0 L242 0 L287 0 L332 0 L356 0 L356 15 L356 15 Z " />
<glyph glyph-name="LETTERSMALLCAPITALU" unicode="&#x1d1c;" horiz-adv-x="524" d="M421 538 L425 538 C439 539 449 509 449 463 L449 156 C449 78 403 27 284 27 C190 27 154 79 154 156 L154 473 C154 513 162 539 174 538 L178 538 L178 553 C157 554 129 554 108 553 C88 554 60 554 39 553 L39 538 L43 538 C55 539 63 513 63 473 L63 174 C63 67 121 -5 271 -5 C414 -5 470 56 470 149 L470 463 C471 509 480 539 493 538 L497 538 C498 539 498 542 497 546 C498 551 498 554 497 553 C486 554 471 554 460 553 C448 554 432 554 421 553 L421 538 L421 538 Z " />
<glyph glyph-name="LETTERSMALLCAPITALV" unicode="&#x1d20;" horiz-adv-x="536" d="M445 538 L450 538 C467 539 464 501 444 443 L444 443 L314 72 L155 488 C145 519 146 539 158 538 L161 538 L161 553 C137 554 104 554 80 553 C61 554 36 554 18 553 C17 553 17 553 17 553 C17 553 17 553 18 553 L18 553 C18 552 18 550 17 546 C18 542 18 539 17 538 L20 538 C29 539 44 519 59 488 L283 -15 L301 -15 L481 489 C494 520 509 539 519 538 L522 538 C523 539 523 542 522 546 C523 551 523 554 522 553 C514 554 502 554 493 553 C479 554 459 554 445 553 L445 538 L445 538 Z " />
<glyph glyph-name="LETTERSMALLCAPITALW" unicode="&#x1d21;" horiz-adv-x="771" d="M693 473 L693 473 L553 -15 L581 85 L424 563 L406 563 L258 79 L145 473 L145 473 C133 513 134 539 147 538 L150 538 L150 553 C127 554 95 554 72 553 C52 554 27 554 8 553 L8 538 L11 538 C21 539 37 513 51 473 L51 473 L229 -15 L247 -15 L391 456 L553 -15 L570 -15 L713 473 L714 473 C725 513 741 539 753 538 L757 538 C756 539 756 542 757 546 C756 550 756 552 756 553 C757 553 757 553 757 553 C757 553 757 553 756 553 L756 553 C747 554 735 554 727 553 C713 554 696 554 683 553 C682 554 682 551 683 546 C682 542 682 539 683 538 L687 538 C702 539 705 513 693 473 L693 473 Z " />
<glyph glyph-name="LETTERSMALLCAPITALZ" unicode="&#x1d22;" horiz-adv-x="530" d="M454 12 C457 29 461 52 464 69 L461 69 C451 70 445 71 445 71 C422 44 377 25 321 24 L311 24 L165 24 L476 553 L425 553 L373 553 L193 553 C173 554 147 554 128 553 C126 554 123 554 120 553 C115 554 112 554 113 553 C111 550 110 545 110 542 C105 527 100 507 96 493 L108 493 L117 498 C147 518 198 531 247 531 L360 531 L50 0 L100 0 L151 0 L372 0 L451 0 L452 0 C453 4 454 8 454 12 L454 12 Z " />
<glyph glyph-name="Wgrave" unicode="&#x1e80;" horiz-adv-x="902" d="M888 660 L869 660 L857 660 L845 660 L812 660 L812 645 L816 645 C831 645 833 619 822 580 L822 580 L686 106 L495 670 L475 670 L299 98 L156 580 L156 580 C144 619 145 645 157 645 L161 645 L161 660 L132 660 L77 660 L21 660 L7 660 L7 645 L10 645 C19 645 33 624 46 592 L264 -15 L284 -15 L455 541 L651 -15 L670 -15 L849 592 C860 624 873 645 884 645 L888 645 L888 660 L888 660 Z M479 846 C460 878 446 900 442 900 C430 900 402 879 402 870 C402 864 418 844 443 818 L558 690 L566 697 L479 846 L479 846 Z " />
<glyph glyph-name="Wacute" unicode="&#x1e82;" horiz-adv-x="902" d="M423 690 L535 818 C559 846 575 866 575 870 C575 879 547 900 535 900 C532 900 518 878 500 846 L416 697 L423 690 L423 690 Z M888 660 L869 660 L857 660 L845 660 L812 660 L812 645 L816 645 C831 645 833 619 822 580 L822 580 L686 106 L495 670 L475 670 L299 98 L156 580 L156 580 C144 619 145 645 157 645 L161 645 L161 660 L132 660 L77 660 L21 660 L7 660 L7 645 L10 645 C19 645 33 624 46 592 L264 -15 L284 -15 L455 541 L651 -15 L670 -15 L849 592 C860 624 873 645 884 645 L888 645 L888 660 L888 660 Z " />
<glyph glyph-name="Wdieresis" unicode="&#x1e84;" horiz-adv-x="902" d="M577 730 C603 730 620 747 620 773 C620 799 603 816 577 816 C552 816 535 799 535 773 C535 747 552 730 577 730 L577 730 Z M393 730 C419 730 436 747 436 773 C436 799 419 816 393 816 C367 816 350 799 350 773 C350 747 367 730 393 730 L393 730 Z M888 660 L869 660 L857 660 L845 660 L812 660 L812 645 L816 645 C831 645 833 619 822 580 L822 580 L686 106 L495 670 L475 670 L299 98 L156 580 L156 580 C144 619 145 645 157 645 L161 645 L161 660 L132 660 L77 660 L21 660 L7 660 L7 645 L10 645 C19 645 33 624 46 592 L264 -15 L284 -15 L455 541 L651 -15 L670 -15 L849 592 C860 624 873 645 884 645 L888 645 L888 660 L888 660 Z " />
<glyph glyph-name="Etilde" unicode="&#x1ebc;" horiz-adv-x="531" d="M117 755 C117 793 134 818 160 818 C219 818 277 756 337 756 C381 756 411 799 411 862 L399 862 C399 826 380 802 352 802 C293 802 235 865 175 865 C133 865 105 821 105 755 L117 755 L117 755 Z M396 312 L396 339 L396 352 L396 365 L396 388 L384 388 L380 385 C370 373 336 366 293 365 L276 365 L166 365 L166 635 L305 635 C372 635 423 618 449 592 L460 592 L460 647 L460 660 L451 660 L380 660 L166 660 L115 660 L65 660 L41 660 L41 645 L45 645 C57 645 65 619 65 580 L65 80 C65 41 57 15 45 15 L41 15 L41 0 L65 0 L115 0 L166 0 L383 0 L461 0 L463 0 C463 4 464 9 465 13 C468 29 472 51 475 68 L464 68 L456 62 C430 40 372 25 312 25 L166 25 L166 339 L276 339 C327 339 369 330 380 316 L384 312 L396 312 L396 312 Z " />
<glyph glyph-name="Ygrave" unicode="&#x1ef2;" horiz-adv-x="592" d="M372 15 L369 15 C357 15 348 41 348 80 L348 322 L348 322 L523 594 C545 625 563 645 573 645 L576 645 L576 660 L565 660 L553 660 L541 660 L506 660 C507 660 507 657 506 653 C507 648 507 645 506 645 L510 645 C522 645 511 614 482 566 L328 322 L317 322 L188 587 C171 622 167 645 177 645 L181 645 L181 660 L152 660 L91 660 L31 660 L22 660 L22 645 L25 645 C34 645 55 619 76 580 L77 580 L247 281 L247 80 C247 41 239 15 227 15 L224 15 L224 0 L247 0 L298 0 L348 0 L372 0 L372 15 L372 15 Z M292 846 C273 878 259 900 255 900 C243 900 215 879 215 870 C215 864 231 844 256 818 L371 690 L379 697 L292 846 L292 846 Z " />
<glyph glyph-name="quoteleft" unicode="&#x2018;" horiz-adv-x="233" d="M117 549 C112 549 108 549 104 548 C101 552 100 556 100 558 C100 601 122 641 154 657 L149 668 C94 641 58 583 58 523 C58 519 61 513 67 504 C67 502 67 501 67 499 C67 469 87 448 117 448 C148 448 168 469 168 499 C168 529 148 549 117 549 L117 549 Z " />
<glyph glyph-name="quoteright002" unicode="&#x2019;" horiz-adv-x="233" d="M117 564 C122 564 127 565 131 566 C134 561 135 557 135 555 C135 512 113 472 81 456 L86 446 C141 472 177 530 177 590 C177 594 174 600 168 609 C168 611 168 612 168 614 C168 645 148 665 117 665 C87 665 67 645 67 614 C67 584 87 564 117 564 L117 564 Z " />
<glyph glyph-name="quotedblleft" unicode="&#x201c;" horiz-adv-x="382" d="M117 549 C112 549 108 549 104 548 C101 552 100 556 100 558 C100 601 122 641 154 657 L149 668 C94 641 58 583 58 523 C58 519 61 513 67 504 C67 502 67 501 67 499 C67 469 87 448 117 448 C148 448 168 469 168 499 C168 529 148 549 117 549 L117 549 Z M222 525 C218 518 216 509 216 499 C216 469 236 448 266 448 C286 448 302 457 310 471 L336 496 C328 505 320 512 313 519 C308 533 298 542 284 546 C262 565 249 570 249 558 C249 601 270 641 303 657 L298 668 C243 641 207 583 207 523 C207 530 212 531 222 525 L222 525 Z " />
<glyph glyph-name="quotedblright" unicode="&#x201d;" horiz-adv-x="382" d="M117 564 C122 564 127 565 131 566 C134 561 135 557 135 555 C135 512 113 472 81 456 L86 446 C141 472 177 530 177 590 C177 594 174 600 168 609 C168 611 168 612 168 614 C168 645 148 665 117 665 C87 665 67 645 67 614 C67 584 87 564 117 564 L117 564 Z M311 588 C315 595 317 604 317 614 C317 645 297 665 266 665 C246 665 231 656 223 642 L196 617 C204 608 212 600 220 593 C225 580 235 570 249 566 C271 549 284 544 284 555 C284 512 262 472 230 456 L235 446 C289 472 326 530 326 590 C326 583 321 583 311 588 L311 588 L311 588 Z " />
<glyph glyph-name="ellipsis" unicode="&#x2026;" horiz-adv-x="523" d="M432 0 C462 0 482 20 482 51 C482 81 462 101 432 101 C401 101 381 81 381 51 C381 20 401 0 432 0 L432 0 Z M262 0 C292 0 312 20 312 51 C312 81 292 101 262 101 C231 101 211 81 211 51 C211 20 231 0 262 0 L262 0 Z M92 0 C122 0 142 20 142 51 C142 81 122 101 92 101 C61 101 41 81 41 51 C41 20 61 0 92 0 L92 0 Z " />
<glyph glyph-name="guilsinglleft" unicode="&#x2039;" horiz-adv-x="301" d="M99 251 L248 457 L240 465 L27 255 L27 247 L242 37 L250 45 L99 251 L99 251 Z " />
<glyph glyph-name="guilsinglright" unicode="&#x203a;" horiz-adv-x="301" d="M203 251 L54 457 L62 465 L275 255 L275 247 L60 37 L52 45 L203 251 L203 251 Z " />
<glyph glyph-name="Euro" unicode="&#x20ac;" horiz-adv-x="666" d="M600 537 L600 598 C530 638 450 665 398 665 C243 665 132 565 106 408 L64 408 L57 358 L101 358 C100 350 100 341 100 333 C100 325 100 316 101 308 L57 308 L50 257 L106 257 C132 97 242 -5 398 -5 C445 -5 526 24 600 67 L600 128 L587 128 C583 123 578 117 574 111 C548 79 513 53 475 37 C444 26 417 20 398 20 C302 20 233 112 215 257 L431 257 L438 308 L211 308 C211 316 211 325 211 333 C211 341 211 350 211 358 L438 358 L445 408 L215 408 C233 550 302 640 398 640 C405 640 413 639 422 638 C479 630 540 596 574 553 C578 548 583 542 587 537 L600 537 L600 537 Z " />
<glyph glyph-name="LETTERSMALLCAPITALF" unicode="&#xa730;" horiz-adv-x="445" d="M321 326 C306 311 269 302 213 302 L158 302 L158 531 L282 531 C342 531 396 516 419 494 L426 488 L437 488 L437 542 L437 553 C437 554 434 554 429 553 C427 554 424 554 422 553 C402 554 376 554 357 553 L158 553 L113 553 C92 554 64 554 44 553 L44 538 L47 538 C60 539 68 513 68 473 L68 80 C68 41 60 15 47 15 L44 15 L44 0 L68 0 L113 0 L158 0 L192 0 L192 15 L187 15 C170 15 158 41 158 80 L158 280 L213 280 C269 280 308 271 321 253 L333 253 L333 280 L333 291 L333 302 L333 326 L321 326 L321 326 Z " />
<glyph glyph-name="LETTERSMALLCAPITALS" unicode="&#xa731;" horiz-adv-x="460" d="M45 135 L45 77 C78 28 154 -5 234 -5 C338 -5 408 58 408 152 C408 218 348 281 258 310 C172 338 115 385 115 428 C115 493 156 536 219 536 C228 536 238 535 248 532 L248 532 C276 524 314 490 342 446 C347 438 354 427 359 419 L372 419 L372 476 L359 467 L359 467 L372 476 C339 525 279 558 223 558 C120 558 52 492 52 392 C52 330 108 270 191 243 C283 214 344 162 344 115 C344 57 300 18 234 18 C225 18 217 19 208 20 C158 28 105 65 71 115 C68 121 62 129 58 135 L45 135 L45 135 Z " />
<glyph glyph-name="[namenotfound]" unicode="&#xf078;" horiz-adv-x="576" d="M507 553 C499 554 488 554 480 553 C465 554 445 554 430 553 L430 538 L433 538 C446 539 435 513 407 473 L407 473 L307 334 L214 473 L214 473 C188 513 178 539 189 538 L192 538 L192 553 C167 554 134 554 108 553 C91 554 67 554 50 553 C49 553 49 553 49 553 C49 553 49 553 50 553 L50 553 C50 552 50 550 49 546 C50 542 50 539 49 538 L52 538 C60 539 78 519 101 488 L250 266 L130 80 L129 80 C104 41 79 15 67 15 L64 15 L64 0 L78 0 L92 0 L106 0 L141 0 L141 15 L137 15 C125 15 133 41 156 80 L261 249 L387 62 C404 33 409 15 400 15 L397 15 L397 0 L428 0 L480 0 L532 0 L539 0 L539 15 L536 15 C529 15 509 35 487 67 L318 318 L434 473 L435 473 C464 513 491 539 503 538 L507 538 L507 553 L507 553 Z " />
</font>
</svg>
