<?xml version="1.0" encoding="UTF-8"?>
<svg xmlns="http://www.w3.org/2000/svg" xmlns:xlink="http://www.w3.org/1999/xlink" version="1.2" >
<font id="Thomas Mag Medium Italic">
<font-face  font-family="Thomas Mag" units-per-em="1024" ascent="936" descent="-280" font-style="normal" font-weight="500" font-stretch="normal" cap-height="660" x-height="500" underline-position="0" underline-thickness="0" />
<missing-glyph  horiz-adv-x="472" d="M0 700 L432 700 L432 0 L0 0 L0 700 L0 700 Z M50 50 L382 50 L382 650 L50 650 L50 50 L50 50 Z " />
<glyph glyph-name="NULL" d="" />
<glyph glyph-name="CR" unicode="&#xd;" horiz-adv-x="256" d="" />
<glyph glyph-name="space" unicode="&#x20;" horiz-adv-x="250" d="" />
<glyph glyph-name="exclam" unicode="&#x21;" horiz-adv-x="222" d="M117 -5 C147 -5 171 15 176 46 C181 76 165 96 134 96 C104 96 80 76 75 46 C70 15 86 -5 117 -5 L117 -5 Z M264 613 C271 644 258 665 230 665 C201 665 181 644 178 613 L143 171 L152 171 L264 613 L264 613 Z " />
<glyph glyph-name="quotedbl" unicode="&#x22;" horiz-adv-x="302" d="M282 660 L282 436 L293 436 L372 660 L282 660 L282 660 Z M163 660 L162 436 L174 436 L252 660 L163 660 L163 660 Z " />
<glyph glyph-name="numbersign" unicode="&#x23;" horiz-adv-x="554" d="M516 673 L456 487 L314 487 L374 673 L347 673 L287 487 L159 487 L142 433 L270 433 L203 227 L73 227 L56 173 L186 173 L130 0 L158 0 L214 173 L355 173 L299 0 L326 0 L382 173 L504 173 L521 227 L399 227 L466 433 L596 433 L613 487 L483 487 L543 673 L516 673 L516 673 Z M297 433 L439 433 L372 227 L231 227 L297 433 L297 433 Z " />
<glyph glyph-name="dollar" unicode="&#x24;" horiz-adv-x="521" d="M405 735 L392 664 C385 665 377 665 369 665 C358 665 346 664 335 663 L348 735 L325 735 L312 659 C219 638 151 567 133 468 C121 400 166 334 248 299 L200 29 C149 43 102 86 82 136 L69 136 L58 77 L75 87 L75 87 L58 77 C76 40 128 12 195 1 L182 -75 L206 -75 L219 -2 C234 -4 250 -5 266 -5 C269 -5 272 -5 274 -5 L262 -75 L286 -75 L299 -3 C404 9 483 79 501 181 C515 260 460 335 364 368 L410 633 C414 632 419 631 423 629 C456 616 492 569 511 524 L524 524 L535 583 L518 573 L518 573 L535 583 C516 622 471 651 415 661 L428 735 L405 735 L405 735 Z M289 401 L331 637 C340 639 350 640 360 640 C369 640 379 639 388 638 L342 376 C322 383 305 392 289 401 L289 401 L289 401 Z M268 414 C226 443 204 476 210 508 C221 567 257 612 307 631 L268 414 L268 414 Z M270 291 C289 284 307 277 323 269 L279 20 C276 20 273 20 270 20 C254 20 238 21 223 23 L270 291 L270 291 Z M344 257 C400 223 430 180 423 140 C412 78 366 34 303 23 L344 257 L344 257 Z " />
<glyph glyph-name="ampersand" unicode="&#x26;" horiz-adv-x="726" d="M355 382 C467 410 547 475 560 550 C573 619 522 665 434 665 C346 665 276 600 259 502 C253 467 262 421 284 369 C178 328 100 248 85 160 C68 61 139 -5 263 -5 C351 -5 429 19 488 61 C569 -13 638 -14 719 0 L721 12 C667 2 618 9 536 103 C570 141 594 187 603 240 L608 270 C623 350 636 365 652 365 L657 365 C657 365 658 368 658 373 C659 377 660 380 660 380 L584 380 C584 380 583 377 582 373 C582 368 581 365 581 365 L586 365 C600 365 607 350 593 270 L588 240 C579 191 558 149 526 115 C501 145 473 184 441 232 C406 286 376 337 355 382 L355 382 Z M350 393 C324 450 312 498 318 533 C331 603 374 650 427 650 C485 650 516 608 505 546 C493 476 433 418 350 393 L350 393 L350 393 Z M476 73 C430 43 372 26 308 26 C200 26 139 90 156 187 C169 261 220 325 289 357 C311 306 343 249 383 189 C416 139 447 101 476 73 L476 73 L476 73 Z " />
<glyph glyph-name="quoteright" unicode="&#x27;" horiz-adv-x="182" d="M47 660 L85 436 L97 436 L136 660 L47 660 L47 660 Z " />
<glyph glyph-name="parenleft" unicode="&#x28;" horiz-adv-x="240" d="M336 690 C229 584 148 460 114 270 C81 80 118 -44 188 -150 L198 -143 C150 -70 129 43 169 270 C209 497 269 610 344 683 L336 690 L336 690 Z " />
<glyph glyph-name="parenright" unicode="&#x29;" horiz-adv-x="240" d="M-10 -150 C97 -44 178 80 212 270 C246 460 208 584 139 690 L128 683 C177 610 198 497 158 270 C118 43 57 -70 -17 -143 L-10 -150 L-10 -150 Z " />
<glyph glyph-name="asterisk" unicode="&#x2a;" horiz-adv-x="291" d="M151 540 L42 499 C9 486 34 438 64 461 L154 535 L136 420 C133 404 141 393 157 393 C173 393 181 404 178 420 L160 535 L250 461 C263 451 277 453 284 466 C292 480 287 493 272 499 L163 540 L272 581 C304 594 279 641 250 619 L160 545 L178 660 C181 676 173 687 157 687 C141 687 133 676 136 660 L154 545 L64 619 C51 629 37 627 29 614 C22 600 27 587 42 581 L151 540 L151 540 Z " />
<glyph glyph-name="plus" unicode="&#x2b;" horiz-adv-x="561" d="M344 450 L312 266 L129 266 L123 234 L306 234 L274 50 L308 50 L340 234 L523 234 L529 266 L346 266 L378 450 L344 450 L344 450 Z " />
<glyph glyph-name="comma" unicode="&#x2c;" horiz-adv-x="233" d="M117 -5 C123 -5 128 -4 134 -3 C133 -7 133 -12 132 -16 C125 -58 96 -97 61 -113 L64 -123 C124 -97 170 -40 180 19 C183 39 181 59 174 74 C168 88 154 96 134 96 C104 96 80 76 75 46 C70 15 86 -5 117 -5 L117 -5 Z " />
<glyph glyph-name="hyphen" unicode="&#x2d;" horiz-adv-x="286" d="M64 208 L297 208 L306 262 L73 262 L64 208 L64 208 Z " />
<glyph glyph-name="period" unicode="&#x2e;" horiz-adv-x="242" d="M124 -5 C155 -5 179 15 184 46 C189 76 173 96 142 96 C111 96 88 76 82 46 C77 15 94 -5 124 -5 L124 -5 Z " />
<glyph glyph-name="slash" unicode="&#x2f;" horiz-adv-x="348" d="M-19 -145 L12 -145 L473 710 L442 710 L-19 -145 L-19 -145 Z " />
<glyph glyph-name="zero" unicode="0" horiz-adv-x="570" d="M287 11 C183 11 130 107 155 250 C180 393 267 489 371 489 C476 489 529 393 504 250 C479 107 392 11 287 11 L287 11 Z M77 250 C50 97 133 -5 284 -5 C435 -5 554 97 581 250 C608 403 525 505 374 505 C223 505 104 403 77 250 L77 250 Z " />
<glyph glyph-name="one" unicode="1" horiz-adv-x="235" d="M141 485 L145 485 C156 485 160 462 155 427 L94 80 L94 80 C87 41 74 15 62 15 L59 15 C59 13 56 6 56 0 L80 0 L115 0 L150 0 L174 0 C174 1 176 12 176 15 L173 15 C161 15 157 38 163 72 L224 420 L224 420 C231 459 243 485 256 485 L259 485 C259 485 260 488 260 493 C261 497 262 500 262 500 L238 500 L203 500 L168 500 L144 500 C144 499 141 485 141 485 L141 485 Z " />
<glyph glyph-name="two" unicode="2" horiz-adv-x="496" d="M461 35 C466 52 472 76 477 94 L462 94 L461 90 C458 78 429 70 390 70 L154 70 C354 184 480 254 498 351 C514 443 461 505 364 505 C281 505 192 446 141 358 L149 353 C184 413 252 453 320 453 C391 453 429 403 416 327 C392 196 253 143 35 16 L32 0 L452 0 L461 35 L461 35 Z " />
<glyph glyph-name="three" unicode="3" horiz-adv-x="456" d="M-6 -215 C228 -203 400 -101 425 41 C442 134 379 199 268 209 C367 256 433 316 443 373 C457 452 408 505 322 505 C245 505 149 454 83 376 L91 371 C133 421 208 454 277 454 C343 454 380 412 369 350 C359 293 297 235 209 197 C193 190 170 182 142 172 L140 161 C144 162 148 163 152 165 C172 170 196 173 216 173 C311 173 365 119 350 37 C327 -97 185 -194 -5 -203 L-6 -215 L-6 -215 Z " />
<glyph glyph-name="four" unicode="4" horiz-adv-x="504" d="M66 31 L375 383 L313 31 L66 31 L66 31 Z M307 0 L281 -150 L351 -150 C360 -100 369 -50 377 0 L487 0 L493 31 L383 31 C409 182 436 332 462 483 L463 484 L463 485 C464 492 465 498 466 505 L455 505 L24 12 L22 0 L36 0 L39 0 L307 0 L307 0 Z " />
<glyph glyph-name="five" unicode="5" horiz-adv-x="459" d="M110 206 L128 206 L168 206 C288 206 358 145 341 52 C319 -74 186 -162 8 -169 L6 -182 C226 -174 390 -71 416 75 C437 195 356 275 215 275 L146 275 L184 426 L446 426 L470 475 C479 491 488 509 495 524 L480 524 L478 520 C472 508 442 500 403 500 L203 500 L182 500 L110 206 L110 206 Z " />
<glyph glyph-name="six" unicode="6" horiz-adv-x="529" d="M599 715 C336 706 132 539 89 297 C57 116 127 -5 262 -5 C406 -5 513 83 529 216 C552 344 487 429 367 429 C284 429 213 379 170 298 C172 306 174 314 175 321 C214 543 383 696 597 703 L599 715 L599 715 Z M152 202 C177 326 256 409 352 409 C434 409 475 330 455 212 C440 93 368 14 274 14 C187 14 141 88 152 202 L152 202 Z " />
<glyph glyph-name="seven" unicode="7" horiz-adv-x="454" d="M107 433 C105 423 102 413 100 405 L115 405 L116 408 C119 420 147 428 186 428 L478 428 L108 -140 L186 -140 C299 71 412 281 524 493 L520 500 L125 500 L107 433 L107 433 Z " />
<glyph glyph-name="eight" unicode="8" horiz-adv-x="505" d="M355 355 C342 360 328 365 314 369 C238 391 196 452 208 520 C221 598 280 650 354 650 C433 650 475 593 460 507 C447 432 407 375 355 355 L355 355 Z M362 352 C445 374 506 437 520 518 C536 606 472 665 361 665 C249 665 162 596 144 493 C132 423 165 359 230 322 C142 313 75 251 59 162 C41 62 115 -5 245 -5 C374 -5 473 67 492 176 C504 245 453 312 362 352 L362 352 L362 352 Z M236 319 C250 311 265 305 282 300 C377 272 433 213 422 152 C407 67 339 10 251 10 C159 10 109 75 127 174 C140 252 183 307 236 319 L236 319 L236 319 Z " />
<glyph glyph-name="nine" unicode="9" horiz-adv-x="565" d="M37 -215 C300 -206 504 -39 547 203 C579 384 510 505 374 505 C230 505 123 417 107 284 C84 156 149 71 269 71 C352 71 424 121 467 204 C465 195 463 187 462 179 C422 -43 253 -196 39 -203 L37 -215 L37 -215 Z M484 298 C459 174 380 91 284 91 C202 91 161 170 181 288 C196 407 268 486 363 486 C449 486 495 412 484 298 L484 298 Z " />
<glyph glyph-name="colon" unicode="&#x3a;" horiz-adv-x="242" d="M192 379 C222 379 246 399 251 430 C257 461 240 481 210 481 C179 481 155 461 150 430 C145 399 161 379 192 379 L192 379 Z M124 -5 C155 -5 179 15 184 46 C189 76 173 96 142 96 C111 96 88 76 82 46 C77 15 94 -5 124 -5 L124 -5 Z " />
<glyph glyph-name="semicolon" unicode="&#x3b;" horiz-adv-x="233" d="M184 379 C215 379 238 399 244 430 C249 461 233 481 202 481 C172 481 148 461 143 430 C137 399 154 379 184 379 L184 379 Z M117 -5 C123 -5 128 -4 134 -3 C133 -7 133 -12 132 -16 C125 -58 96 -97 61 -113 L64 -123 C124 -97 170 -40 180 19 C183 39 181 59 174 74 C168 88 154 96 134 96 C104 96 80 76 75 46 C70 15 86 -5 117 -5 L117 -5 Z " />
<glyph glyph-name="less" unicode="&#x3c;" horiz-adv-x="551" d="M558 500 L107 296 L98 292 L92 258 L100 254 L479 50 L485 85 L126 275 L552 465 L558 500 L558 500 Z " />
<glyph glyph-name="equal" unicode="&#x3d;" horiz-adv-x="544" d="M126 216 L120 184 L500 184 L506 216 L126 216 L126 216 Z M143 316 L138 284 L518 284 L523 316 L143 316 L143 316 Z " />
<glyph glyph-name="greater" unicode="&#x3e;" horiz-adv-x="543" d="M513 275 L97 85 L91 50 L532 254 L534 264 L534 264 L532 254 L543 260 L548 290 L539 296 L170 500 L164 465 L513 275 L513 275 Z " />
<glyph glyph-name="question" unicode="&#x3f;" horiz-adv-x="382" d="M146 -5 C176 -5 200 15 205 46 C210 76 194 96 163 96 C133 96 109 76 104 46 C99 15 115 -5 146 -5 L146 -5 Z M190 360 L173 176 L182 176 L219 317 L254 317 C373 317 409 393 417 436 C441 573 373 665 247 665 C197 665 159 639 152 601 C150 587 162 577 183 577 C209 577 233 610 259 610 C363 610 420 543 402 444 C398 417 365 371 240 371 L205 371 C196 371 190 367 190 360 L190 360 Z " />
<glyph glyph-name="at" unicode="&#x40;" horiz-adv-x="1165" d="M1049 0 C958 -142 760 -237 553 -237 C266 -237 110 -39 162 259 C215 557 436 755 716 755 C996 755 1153 590 1109 343 C1074 141 975 6 862 6 C757 6 719 84 769 200 L888 480 L822 480 L787 397 C782 454 740 490 674 490 C501 490 365 372 334 194 C315 84 372 10 476 10 C555 10 632 54 682 124 C675 36 734 -18 845 -18 C998 -18 1125 126 1164 343 C1209 602 1032 775 719 775 C407 775 162 569 108 259 C53 -51 230 -257 550 -257 C764 -257 974 -154 1073 0 L1049 0 L1049 0 Z M769 355 L703 200 C664 109 591 49 519 49 C439 49 396 112 413 208 C441 366 543 471 669 471 C741 471 781 425 769 355 L769 355 Z " />
<glyph glyph-name="A" unicode="A" horiz-adv-x="615" d="M559 80 L559 80 L417 675 L392 675 L68 68 C49 36 31 15 20 15 L16 15 C16 15 15 12 15 8 C14 3 13 0 13 0 L32 0 L49 0 L65 0 L100 0 C100 0 101 3 102 8 C102 12 103 15 103 15 L98 15 C83 15 90 47 115 95 L115 95 L163 187 L404 291 L450 80 L450 80 C459 41 457 15 445 15 L441 15 C442 15 439 0 439 0 L468 0 L523 0 L578 0 L597 0 C597 1 600 15 599 15 L596 15 C582 15 568 41 559 80 L559 80 L559 80 Z M393 340 L189 239 L348 544 L393 340 L393 340 Z " />
<glyph glyph-name="B" unicode="B" horiz-adv-x="593" d="M160 645 L164 645 C175 645 180 622 174 587 L85 80 L85 80 C78 41 65 15 53 15 L49 15 C50 15 47 0 47 0 L71 0 L121 0 L171 0 L285 641 L404 641 C476 641 515 588 501 508 C485 419 417 359 331 359 L235 359 L234 355 L234 355 L232 343 L319 343 C440 343 510 278 493 181 C476 84 403 19 312 19 L175 19 L171 0 L316 0 C467 0 580 73 599 181 C615 273 542 338 413 355 C516 375 588 431 601 508 C618 599 540 660 408 660 L288 660 L237 660 L187 660 L163 660 C163 659 161 645 160 645 L160 645 L160 645 Z " />
<glyph glyph-name="C" unicode="C" horiz-adv-x="709" d="M734 518 L743 572 C716 628 620 665 504 665 C296 665 135 531 99 330 C64 129 178 -5 385 -5 C502 -5 611 32 658 88 L668 142 L655 142 C650 137 643 129 638 123 C593 69 511 29 434 22 L434 22 C420 21 405 20 390 20 C249 20 177 144 210 330 C243 516 359 640 499 640 C529 640 558 637 584 633 L584 632 C637 623 688 584 711 537 C714 531 718 523 721 518 L734 518 L734 518 Z " />
<glyph glyph-name="D" unicode="D" horiz-adv-x="688" d="M160 645 L164 645 C175 645 180 622 174 587 L85 80 L85 80 C78 41 65 15 53 15 L49 15 C50 15 47 0 47 0 L71 0 L121 0 L171 0 L285 641 L392 641 C543 641 622 517 589 330 C556 143 448 19 319 19 L175 19 L171 0 L315 0 C505 0 655 132 690 330 C725 528 607 660 396 660 L288 660 L237 660 L187 660 L163 660 C163 659 161 645 160 645 L160 645 L160 645 Z " />
<glyph glyph-name="E" unicode="E" horiz-adv-x="531" d="M451 312 C452 320 454 330 456 339 L456 339 L458 352 C460 363 462 377 464 388 L452 388 L448 385 C436 373 400 366 357 365 L340 365 L230 365 L282 660 L278 635 L417 635 C477 635 530 620 548 598 L554 592 L565 592 C568 609 572 631 574 647 C575 651 576 656 577 660 L567 660 L497 660 L282 660 L232 660 L181 660 L158 660 C157 660 155 645 155 645 L158 645 C170 645 174 622 168 587 L79 80 L79 80 C72 41 60 15 47 15 L44 15 C44 15 43 12 43 8 C42 3 41 0 41 0 L65 0 L115 0 L166 0 L383 0 L461 0 L463 0 C464 4 466 9 467 13 C473 29 481 51 487 68 L476 68 L467 62 C437 40 377 25 316 25 L170 25 L229 358 L226 339 L336 339 C387 339 427 330 436 316 L439 312 L451 312 L451 312 Z " />
<glyph glyph-name="F" unicode="F" horiz-adv-x="497" d="M440 307 C441 315 443 325 445 334 L445 334 L447 347 C449 358 452 372 453 383 L441 383 L437 380 C425 368 389 361 346 360 L329 360 L229 360 L282 660 L278 635 L447 635 C507 635 560 620 578 598 L584 592 L595 592 C598 609 602 631 604 647 C605 651 606 656 607 660 L597 660 L527 660 L282 660 L232 660 L181 660 L158 660 C157 660 155 645 155 645 L158 645 C170 645 174 622 168 587 L79 80 L79 80 C72 41 60 15 47 15 L44 15 C44 15 43 12 43 8 C42 3 41 0 41 0 L65 0 L115 0 L166 0 L200 0 C200 1 202 12 202 15 L197 15 C181 15 174 39 179 74 L227 348 L225 334 L325 334 C376 334 416 325 425 311 L428 307 L440 307 L440 307 Z " />
<glyph glyph-name="G" unicode="G" horiz-adv-x="691" d="M689 310 L665 310 L620 310 L575 310 L551 310 C551 310 550 307 550 303 C549 298 548 295 548 295 L552 295 C563 295 566 273 562 239 C545 141 532 70 528 44 C476 29 417 20 365 20 C230 20 162 144 195 330 C228 516 340 640 474 640 C503 640 530 637 555 632 C606 620 654 584 676 537 C679 531 683 523 686 518 L699 518 L708 572 C681 628 589 665 479 665 C277 665 120 531 84 330 C49 129 159 -5 360 -5 C448 -5 552 19 620 55 C621 55 634 127 653 241 C661 274 672 295 683 295 L687 295 C687 296 689 307 689 310 L689 310 Z " />
<glyph glyph-name="H" unicode="H" horiz-adv-x="685" d="M604 645 L608 645 C619 645 623 621 618 586 L578 360 L229 360 L268 580 L268 580 C275 619 287 645 300 645 L303 645 C303 645 304 648 305 653 C305 657 306 660 306 660 L282 660 L232 660 L181 660 L158 660 C157 660 155 645 155 645 L158 645 C170 645 174 622 168 587 L79 80 L79 80 C72 41 60 15 47 15 L44 15 C44 15 43 12 43 8 C42 3 41 0 41 0 L65 0 L115 0 L166 0 L190 0 C190 1 192 12 192 15 L189 15 C177 15 173 38 179 73 L225 334 L573 334 L525 64 C518 34 507 15 497 15 L493 15 C492 12 491 1 491 0 L514 0 L565 0 L615 0 L639 0 C639 0 640 3 640 8 C641 12 642 15 642 15 L638 15 C627 15 623 39 628 74 L721 600 C729 627 739 645 749 645 L753 645 C753 645 754 648 754 653 C755 657 756 660 755 660 L732 660 L681 660 L631 660 L607 660 C607 659 605 645 604 645 L604 645 Z " />
<glyph glyph-name="I" unicode="I" horiz-adv-x="230" d="M300 660 L276 660 L226 660 L176 660 L152 660 C152 658 149 651 149 645 L153 645 C164 645 168 621 163 586 L73 80 L73 80 C66 41 54 15 42 15 L38 15 C38 15 37 12 37 8 C36 3 35 0 35 0 L59 0 L110 0 L160 0 L184 0 C184 0 185 3 185 8 C186 12 187 15 187 15 L183 15 C172 15 167 38 173 73 L262 580 L262 580 C269 619 282 645 294 645 L298 645 C298 646 300 657 300 660 L300 660 Z " />
<glyph glyph-name="J" unicode="J" horiz-adv-x="356" d="M275 645 L278 645 C290 645 294 623 288 588 L220 200 C196 60 172 6 135 6 C105 6 84 24 82 50 C80 69 68 81 52 81 C29 81 14 69 16 50 C18 14 57 -10 113 -10 C236 -10 299 73 336 285 L388 580 L388 580 C394 619 407 645 420 645 L423 645 C423 645 424 648 424 653 C425 657 426 660 426 660 L402 660 L352 660 L301 660 L277 660 C276 657 275 646 275 645 L275 645 Z " />
<glyph glyph-name="K" unicode="K" horiz-adv-x="619" d="M620 660 L610 660 L592 660 L574 660 L550 660 C550 659 547 645 548 645 L549 645 C554 645 532 623 496 590 L297 412 L297 412 L234 355 L246 334 L247 335 L361 153 C434 39 493 -5 573 -5 L602 -5 L604 10 L599 10 C564 10 515 66 425 210 L310 391 L521 580 L521 580 C565 619 602 645 614 645 L618 645 C618 646 620 657 620 660 L620 660 Z M160 645 L164 645 C175 645 180 622 174 587 L85 80 L85 80 C78 41 65 15 53 15 L49 15 C50 15 47 0 47 0 L71 0 L121 0 L171 0 L195 0 C195 0 198 14 198 15 L194 15 C183 15 179 39 184 74 L274 580 L274 580 C281 619 293 645 305 645 L309 645 C309 645 310 648 310 653 C311 657 312 660 312 660 L288 660 L237 660 L187 660 L163 660 C163 659 161 645 160 645 L160 645 Z " />
<glyph glyph-name="L" unicode="L" horiz-adv-x="516" d="M155 645 L158 645 C170 645 174 622 168 587 L79 80 L79 80 C72 41 60 15 47 15 L44 15 C44 15 43 12 43 8 C42 3 41 0 41 0 L65 0 L115 0 L166 0 L383 0 L461 0 L463 0 C464 4 466 9 467 13 C473 30 481 53 487 70 C487 70 486 71 484 71 C475 72 469 73 469 73 L461 66 C434 42 381 25 326 25 L170 25 L268 580 L268 580 C275 619 287 645 300 645 L303 645 C303 645 304 648 305 653 C305 657 306 660 306 660 L282 660 L232 660 L181 660 L158 660 C157 660 155 645 155 645 L155 645 Z " />
<glyph glyph-name="M" unicode="M" horiz-adv-x="756" d="M832 660 L809 660 L764 660 L746 660 L718 660 L397 116 L285 660 L218 660 L203 660 L188 660 L164 660 C164 659 162 645 162 645 L165 645 C176 645 179 624 173 592 L64 80 C55 41 42 15 30 15 L26 15 C25 12 24 1 24 0 L47 0 L62 0 L77 0 L112 0 C112 0 113 3 113 8 C114 12 115 15 115 15 L109 15 C93 15 88 42 95 83 L194 550 L321 14 L326 -5 L351 -5 L709 598 L632 68 C625 36 615 15 604 15 L601 15 C601 15 600 12 599 8 C599 3 598 0 598 0 L622 0 L672 0 L723 0 L746 0 L748 15 L745 15 C735 15 729 35 732 66 L800 593 C807 625 816 645 826 645 L829 645 C829 645 832 659 832 660 L832 660 Z " />
<glyph glyph-name="N" unicode="N" horiz-adv-x="619" d="M696 660 L672 660 L657 660 L642 660 L618 660 C617 657 616 646 616 645 L619 645 C631 645 635 622 629 587 L547 122 L285 660 L217 660 L202 660 L187 660 L163 660 C163 658 160 651 160 645 L164 645 C176 645 179 619 172 580 L173 580 L84 80 L84 80 C77 41 65 15 53 15 L49 15 C49 15 48 12 48 8 C47 3 46 0 46 0 L70 0 L85 0 L100 0 L124 0 C124 0 125 3 126 8 C126 12 127 15 127 15 L123 15 C111 15 107 41 115 80 L114 80 L203 581 L482 14 L497 -16 L553 -16 L565 51 L658 580 L658 580 C665 619 678 645 690 645 L694 645 C694 646 696 657 696 660 L696 660 L696 660 Z " />
<glyph glyph-name="O" unicode="O" horiz-adv-x="772" d="M390 20 C245 20 196 163 225 330 C255 497 354 640 499 640 C643 640 693 497 663 330 C634 163 534 20 390 20 L390 20 Z M114 330 C82 149 167 -5 385 -5 C603 -5 742 149 774 330 C806 511 721 665 503 665 C285 665 146 511 114 330 L114 330 Z " />
<glyph glyph-name="P" unicode="P" horiz-adv-x="556" d="M160 645 L164 645 C175 645 180 622 174 587 L85 80 L85 80 C78 41 65 15 53 15 L49 15 C50 15 47 0 47 0 L71 0 L121 0 L171 0 L195 0 C195 0 198 14 198 15 L194 15 C183 15 179 39 184 74 L227 315 L224 296 L325 296 C479 296 595 369 614 478 C633 587 553 660 414 660 L288 660 L237 660 L187 660 L163 660 C163 659 161 645 160 645 L160 645 Z M227 316 L285 641 L411 641 C486 641 526 576 508 478 C491 381 419 316 328 316 L227 316 L227 316 Z " />
<glyph glyph-name="Q" unicode="Q" horiz-adv-x="772" d="M800 -51 L794 -46 C772 -67 706 -81 628 -81 C516 -81 442 -51 396 -5 C608 0 743 152 774 330 C806 511 721 665 503 665 C285 665 146 511 114 330 C83 154 163 3 368 -5 C435 -82 516 -132 612 -132 C675 -132 750 -100 800 -51 L800 -51 Z M390 20 C245 20 196 163 225 330 C255 497 354 640 499 640 C643 640 693 497 663 330 C634 163 534 20 390 20 L390 20 Z " />
<glyph glyph-name="R" unicode="R" horiz-adv-x="599" d="M160 645 L164 645 C175 645 180 622 174 587 L85 80 L85 80 C78 41 65 15 53 15 L49 15 C50 15 47 0 47 0 L71 0 L121 0 L171 0 L195 0 C195 0 198 14 198 15 L194 15 C183 15 179 39 184 74 L228 321 L227 315 L304 315 L418 106 C474 4 480 0 564 0 L593 0 L596 15 L591 15 C565 15 562 18 522 91 L394 321 C507 339 588 402 603 490 C621 592 543 660 407 660 L288 660 L237 660 L187 660 L163 660 C163 659 161 645 160 645 L160 645 L160 645 Z M326 335 L293 335 L230 335 L285 641 L404 641 C476 641 513 580 497 490 C481 397 413 335 326 335 L326 335 Z " />
<glyph glyph-name="S" unicode="S" horiz-adv-x="521" d="M82 136 L69 136 L58 77 L75 87 L75 87 L58 77 C82 28 165 -5 266 -5 C387 -5 481 69 501 181 C515 261 459 336 361 369 C261 403 201 458 210 508 C224 587 284 640 360 640 C382 640 403 636 423 629 C456 616 492 569 511 524 L524 524 L535 583 L518 573 L518 573 L535 583 C511 632 445 665 369 665 C248 665 154 586 133 468 C120 394 174 323 269 291 C371 257 433 196 423 140 C410 68 349 20 270 20 C253 20 237 21 222 23 L222 24 C163 32 105 79 82 136 L82 136 Z " />
<glyph glyph-name="T" unicode="T" horiz-adv-x="633" d="M716 587 C717 605 719 629 721 647 C721 651 722 656 722 660 L703 660 L642 660 L225 660 L163 660 L145 660 C144 656 142 651 141 647 C136 629 130 605 125 587 L137 587 L146 594 C177 619 230 635 278 635 L378 635 L281 78 C274 40 261 15 249 15 L245 15 C246 15 243 0 243 0 L267 0 L317 0 L367 0 L391 0 C391 0 392 3 392 8 C394 12 394 15 394 15 L390 15 C378 15 375 39 380 76 L479 635 L580 635 C628 635 675 619 697 594 L704 587 L716 587 L716 587 Z " />
<glyph glyph-name="U" unicode="U" horiz-adv-x="583" d="M591 645 L595 645 C610 645 614 615 606 570 L606 570 L539 189 C522 94 457 30 320 30 C209 30 178 95 195 192 L264 580 L264 580 C271 619 283 645 295 645 L299 645 C299 645 300 648 300 653 C301 657 302 660 302 660 L278 660 L227 660 L177 660 L153 660 C153 659 151 645 150 645 L154 645 C165 645 169 623 164 588 L98 212 C75 82 127 -5 299 -5 C464 -5 541 70 561 182 L630 570 L630 570 C638 615 652 645 666 645 L670 645 C670 645 671 648 671 653 C672 657 673 660 673 660 L646 660 L634 660 L622 660 L594 660 C593 660 591 645 591 645 L591 645 Z " />
<glyph glyph-name="V" unicode="V" horiz-adv-x="635" d="M625 645 L630 645 C647 645 638 607 608 550 L608 550 L368 90 L270 580 L270 580 C263 619 266 645 280 645 L283 645 C284 645 286 659 286 660 L254 660 L199 660 L143 660 L131 660 C131 660 130 657 130 653 C129 648 128 645 128 645 L131 645 C139 645 149 628 158 602 L313 -15 L333 -15 L647 580 L647 580 C668 619 689 645 702 645 L705 645 C705 645 706 648 706 653 C707 657 708 660 708 660 L689 660 L677 660 L666 660 L628 660 C627 660 625 645 625 645 L625 645 L625 645 Z " />
<glyph glyph-name="W" unicode="W" horiz-adv-x="932" d="M939 580 L940 580 L663 -15 L719 106 L628 670 L608 670 L331 98 L273 580 L273 580 C269 619 274 645 286 645 L289 645 C289 645 292 659 292 660 L263 660 L208 660 L152 660 L139 660 C139 660 138 657 137 653 C137 648 136 645 136 645 L139 645 C148 645 157 626 164 596 L276 -15 L296 -15 L628 670 L566 542 L663 -15 L682 -15 L967 590 C984 623 1002 645 1013 645 L1017 645 C1017 645 1020 660 1019 660 L1000 660 L988 660 L977 660 L943 660 C943 659 940 645 941 645 L945 645 C960 645 957 619 939 580 L939 580 Z " />
<glyph glyph-name="X" unicode="X" horiz-adv-x="657" d="M600 645 L604 645 C617 645 604 619 572 580 L572 580 L414 388 L323 580 L323 580 C305 619 300 645 311 645 L314 645 C314 645 315 648 316 653 C316 657 317 660 317 660 L285 660 L228 660 L170 660 L163 660 C162 660 160 645 160 645 L163 645 C171 645 186 624 202 593 L332 318 L332 318 L138 80 L138 80 C106 41 77 15 65 15 L61 15 C61 15 60 12 60 8 C59 3 58 0 58 0 L73 0 L91 0 L110 0 L145 0 C145 1 144 3 148 15 L144 15 C131 15 144 41 174 80 L343 294 L445 80 L445 80 C463 41 468 15 457 15 L453 15 C454 15 451 0 451 0 L483 0 L540 0 L597 0 L605 0 C605 0 606 3 606 8 C607 12 608 15 608 15 L605 15 C596 15 578 41 560 80 L559 80 L424 365 L425 365 L609 580 L609 580 C642 619 672 645 685 645 L688 645 C688 645 689 648 689 653 C690 657 691 660 691 660 L677 660 L658 660 L638 660 L603 660 C603 659 601 645 600 645 L600 645 Z " />
<glyph glyph-name="Y" unicode="Y" horiz-adv-x="592" d="M224 0 L247 0 L298 0 L348 0 L372 0 C372 0 373 3 373 8 C374 12 375 15 375 15 L371 15 C359 15 356 40 362 77 C376 159 392 250 405 322 L616 580 L616 580 C648 619 676 645 686 645 L690 645 C689 645 690 648 691 653 C691 657 692 660 692 660 L681 660 L669 660 L658 660 L623 660 C623 660 623 657 621 653 C621 648 620 645 620 645 L624 645 C637 645 618 611 577 560 L577 560 L384 322 L374 322 L292 585 C281 621 280 645 291 645 L294 645 C294 645 297 659 297 660 L268 660 L208 660 L147 660 L138 660 C137 657 136 646 136 645 L138 645 C146 645 158 629 170 602 L296 280 C284 212 271 134 258 63 C250 34 240 15 230 15 L226 15 C227 15 224 0 224 0 L224 0 L224 0 Z " />
<glyph glyph-name="Z" unicode="Z" horiz-adv-x="590" d="M514 13 C520 31 528 54 534 72 L534 72 L534 72 L534 72 C533 72 532 72 531 72 C522 73 516 74 516 74 L508 67 C482 43 428 26 374 26 L179 26 L653 660 L595 660 L538 660 L304 660 L243 660 L224 660 C223 656 220 651 219 647 C212 632 203 612 196 597 L208 597 L218 602 C251 622 305 635 353 635 L519 635 L47 0 L103 0 L160 0 L429 0 L508 0 L509 0 C511 4 513 9 514 13 L514 13 Z " />
<glyph glyph-name="bracketleft" unicode="&#x5b;" horiz-adv-x="256" d="M248 644 L353 644 L356 660 L251 660 L197 660 L59 -120 L114 -120 L219 -120 L221 -104 L117 -104 L248 644 L248 644 Z " />
<glyph glyph-name="backslash" unicode="&#x5c;" horiz-adv-x="252" d="M196 -145 L220 -145 L96 710 L72 710 L196 -145 L196 -145 Z " />
<glyph glyph-name="bracketright" unicode="&#x5d;" horiz-adv-x="240" d="M91 -104 L-14 -104 L-17 -120 L88 -120 L143 -120 L280 660 L226 660 L121 660 L118 644 L223 644 L226 660 L91 -104 L91 -104 Z " />
<glyph glyph-name="underscore" unicode="&#x5f;" horiz-adv-x="461" d="M3 -50 L-4 -89 L434 -89 L441 -50 L3 -50 L3 -50 Z " />
<glyph glyph-name="a" unicode="a" horiz-adv-x="505" d="M483 39 C472 29 458 23 431 23 C401 23 396 48 403 85 L450 357 C466 446 426 505 351 505 C203 505 116 442 134 348 L204 348 C188 431 239 486 331 486 C372 486 392 441 379 373 L358 254 L255 239 C151 225 73 170 61 103 C50 38 88 -5 158 -5 C211 -5 273 19 324 57 C321 16 334 -10 377 -10 C429 -10 462 6 490 30 L483 39 L483 39 Z M355 237 L327 77 C327 76 327 75 327 75 C290 54 245 42 201 42 C152 42 125 74 134 123 C142 168 189 206 251 218 L355 237 L355 237 Z " />
<glyph glyph-name="b" unicode="b" horiz-adv-x="527" d="M188 420 L222 610 L222 610 L233 674 L238 702 L238 702 L241 720 L227 720 L143 695 L143 694 C142 689 141 686 141 686 C154 665 158 654 152 614 C116 409 80 205 44 0 L52 0 C52 1 53 1 53 2 L53 2 C63 17 83 26 103 26 C150 26 185 -5 249 -5 C393 -5 507 97 534 249 C561 403 495 505 369 505 C294 505 223 471 188 420 L188 420 L188 420 Z M184 397 C210 443 260 474 310 474 C424 474 481 371 454 218 C433 95 352 14 253 14 C181 14 137 55 137 119 C137 128 138 137 140 147 L184 397 L184 397 Z " />
<glyph glyph-name="c" unicode="c" horiz-adv-x="468" d="M446 133 L438 137 C399 78 341 38 294 38 C186 38 130 127 154 260 C178 396 260 486 360 486 C406 486 433 453 429 404 C427 383 439 369 458 369 C477 369 491 382 494 400 C500 463 451 505 372 505 C223 505 104 396 75 233 C50 90 111 -5 228 -5 C305 -5 392 50 446 133 L446 133 Z " />
<glyph glyph-name="d" unicode="d" horiz-adv-x="541" d="M484 129 L484 129 L569 610 L569 610 L580 676 L585 702 L585 702 L588 720 L574 720 L490 695 L490 694 C489 689 488 686 488 686 C503 661 506 651 495 591 L495 591 L468 438 C447 479 401 505 338 505 C204 505 95 392 65 223 C41 86 104 -5 222 -5 C294 -5 364 28 405 80 L399 44 L394 18 L394 18 L391 0 L405 0 L489 25 L489 26 C490 31 491 34 491 34 C476 59 473 69 484 129 L484 129 Z M410 110 L410 110 L408 96 C381 61 327 38 268 38 C170 38 121 123 143 250 C168 392 243 486 332 486 C404 486 450 450 461 397 L410 110 L410 110 Z " />
<glyph glyph-name="e" unicode="e" horiz-adv-x="486" d="M172 333 C206 427 266 486 335 486 C404 486 442 443 431 378 L431 377 C427 358 412 345 394 344 C393 344 392 344 391 344 L394 344 L424 345 L172 333 L172 333 Z M452 133 L443 137 C405 78 346 38 296 38 C187 38 129 127 153 260 C157 281 162 301 168 320 L485 320 C505 431 448 505 342 505 C210 505 103 396 74 233 C49 90 111 -5 230 -5 C309 -5 398 50 452 133 L452 133 Z " />
<glyph glyph-name="f" unicode="f" horiz-adv-x="336" d="M115 0 L150 0 L174 0 C174 0 175 3 175 8 C176 12 177 15 177 15 L173 15 C161 15 158 39 163 76 C187 208 210 341 233 473 L369 473 L373 500 L238 500 C240 511 242 522 244 533 C262 635 316 704 379 704 C410 704 429 687 426 660 C424 642 436 629 456 629 C474 629 489 642 492 660 C496 696 459 720 401 720 C295 720 207 651 181 548 L168 500 L89 500 L84 473 L163 473 L94 80 L94 80 C87 41 75 15 63 15 L59 15 C59 15 58 12 58 8 C57 3 56 0 56 0 L80 0 L115 0 L115 0 Z " />
<glyph glyph-name="g" unicode="g" horiz-adv-x="484" d="M566 500 L426 485 C402 498 372 505 337 505 C231 505 149 442 133 349 C120 279 150 225 211 203 C137 198 83 160 74 105 C64 54 96 19 156 10 C76 -16 18 -65 9 -118 C-4 -191 48 -240 139 -240 C305 -240 429 -161 450 -43 C463 29 400 77 292 77 L211 74 C153 71 119 94 126 132 C132 168 172 192 226 192 L281 192 C387 192 469 255 485 349 C493 394 484 432 460 459 L559 461 L566 500 L566 500 Z M199 349 C214 433 268 489 334 489 C400 489 434 433 419 349 C404 264 350 208 284 208 C218 208 184 264 199 349 L199 349 Z M177 8 C185 7 193 8 202 8 L262 11 C350 11 403 -25 393 -78 C378 -163 281 -220 150 -220 C83 -220 46 -176 58 -110 C67 -58 113 -12 177 8 L177 8 L177 8 Z " />
<glyph glyph-name="h" unicode="h" horiz-adv-x="536" d="M492 15 L489 15 C477 15 473 40 479 77 L525 337 C543 438 521 505 433 505 C345 505 261 463 216 399 L253 610 L253 610 L264 674 L269 702 L269 702 L272 720 L258 720 L174 695 L174 694 C173 689 173 686 172 686 C185 665 189 654 183 614 L89 80 L89 80 C82 41 70 15 58 15 L54 15 C53 12 52 1 52 0 L75 0 L110 0 L145 0 L169 0 C169 0 169 3 171 8 C171 12 172 15 172 15 L168 15 C156 15 153 39 158 76 L213 385 C244 429 305 458 371 458 C447 458 468 407 454 329 L410 80 L410 80 C403 41 390 15 378 15 L375 15 C375 15 374 12 373 8 C373 3 372 0 372 0 L396 0 L431 0 L466 0 L490 0 C491 3 492 14 492 15 L492 15 L492 15 Z " />
<glyph glyph-name="i" unicode="i" horiz-adv-x="221" d="M141 371 L141 371 L90 80 L90 80 C83 41 70 15 58 15 L55 15 C55 13 52 6 52 0 L76 0 L111 0 L146 0 L170 0 C170 1 172 12 172 15 L169 15 C157 15 154 37 159 71 L215 390 L215 390 L226 452 L231 482 L231 482 L234 500 L220 500 L136 475 C136 475 136 474 135 474 C135 469 134 466 134 466 C149 441 152 431 141 371 L141 371 L141 371 Z M207 570 C236 570 258 589 262 617 C267 644 252 663 224 663 C196 663 174 644 169 617 C164 589 179 570 207 570 L207 570 Z " />
<glyph glyph-name="j" unicode="j" horiz-adv-x="221" d="M141 371 L141 371 L76 5 C52 -130 17 -173 -74 -225 L-69 -234 C76 -153 128 -102 151 25 L215 390 L215 390 L223 435 L231 482 L231 482 L234 500 L220 500 L136 475 C136 475 136 474 135 474 C135 469 134 466 134 466 C149 441 152 431 141 371 L141 371 Z M207 570 C236 570 258 589 262 617 C267 644 252 663 224 663 C196 663 174 644 169 617 C164 589 179 570 207 570 L207 570 Z " />
<glyph glyph-name="k" unicode="k" horiz-adv-x="460" d="M417 80 L417 80 L264 313 L401 420 L402 420 C452 459 493 485 505 485 L509 485 C509 486 508 488 512 500 L504 500 L489 500 L473 500 L449 500 C448 497 447 486 447 485 L448 485 C452 485 423 459 375 420 L375 420 L198 275 L203 266 L204 267 L344 56 C360 31 368 15 363 15 L361 15 C361 15 360 12 360 8 C359 3 358 0 358 0 L382 0 L426 0 L469 0 L481 0 C481 0 484 15 483 15 L480 15 C468 15 443 41 417 80 L417 80 L417 80 Z M114 0 L149 0 L173 0 C173 0 174 3 174 8 C175 12 176 15 176 15 L172 15 C160 15 157 39 162 76 L257 610 L257 610 L268 674 L273 702 L273 702 L276 720 L262 720 L178 695 L178 694 C177 689 176 686 176 686 C189 665 193 654 187 614 L93 80 L93 80 C86 41 74 15 62 15 L58 15 C58 15 57 12 57 8 C56 3 55 0 55 0 L79 0 L114 0 L114 0 Z " />
<glyph glyph-name="l" unicode="l" horiz-adv-x="221" d="M180 591 L180 591 L90 80 L90 80 C83 41 70 15 58 15 L55 15 C55 13 52 6 52 0 L76 0 L111 0 L146 0 L170 0 C170 1 172 12 172 15 L169 15 C157 15 154 37 158 71 L270 702 L270 702 L273 720 L259 720 L174 695 L174 694 C173 689 173 686 173 686 C188 661 191 651 180 591 L180 591 Z " />
<glyph glyph-name="m" unicode="m" horiz-adv-x="877" d="M502 15 L499 15 C487 15 483 40 489 77 L535 337 C538 356 540 373 539 389 C569 431 627 458 703 458 C768 458 808 407 794 329 L750 80 L750 80 C743 41 731 15 719 15 L715 15 C715 15 714 12 714 8 C713 3 712 0 712 0 L736 0 L771 0 L806 0 L830 0 C830 0 831 3 831 7 C833 12 833 15 833 15 L829 15 C818 15 814 38 819 73 L866 337 C883 438 839 505 766 505 C662 505 583 466 538 406 C530 467 493 505 439 505 C340 505 260 463 216 400 L234 500 L220 500 L135 475 C136 475 135 474 135 474 C135 469 134 466 134 466 L136 461 C147 443 150 430 144 391 L89 80 L89 80 C82 41 70 15 58 15 L54 15 C53 12 52 1 52 0 L75 0 L110 0 L145 0 L169 0 C169 0 169 3 171 8 C171 12 172 15 172 15 L168 15 C156 15 153 39 158 76 L213 385 C245 432 303 462 377 462 C440 462 478 409 464 329 L420 80 L420 80 C413 41 400 15 388 15 L385 15 C385 15 384 12 383 8 C383 3 382 0 382 0 L406 0 L441 0 L476 0 L500 0 C501 3 502 14 502 15 L502 15 L502 15 Z " />
<glyph glyph-name="n" unicode="n" horiz-adv-x="536" d="M492 15 L489 15 C477 15 473 40 479 77 L525 337 C543 438 521 505 433 505 C345 505 261 463 216 400 L234 500 L220 500 L135 475 C136 475 135 474 135 474 C135 469 134 466 134 466 L136 461 C147 443 150 430 144 391 L89 80 L89 80 C82 41 70 15 58 15 L54 15 C53 12 52 1 52 0 L75 0 L110 0 L145 0 L169 0 C169 0 169 3 171 8 C171 12 172 15 172 15 L168 15 C156 15 153 39 158 76 L213 385 C244 429 305 458 371 458 C447 458 468 407 454 329 L410 80 L410 80 C403 41 390 15 378 15 L375 15 C375 15 374 12 373 8 C373 3 372 0 372 0 L396 0 L431 0 L466 0 L490 0 C491 3 492 14 492 15 L492 15 Z " />
<glyph glyph-name="o" unicode="o" horiz-adv-x="584" d="M294 11 C193 11 142 107 167 250 C192 393 277 489 378 489 C480 489 531 393 506 250 C481 107 396 11 294 11 L294 11 Z M89 250 C62 97 143 -5 291 -5 C439 -5 556 97 583 250 C610 403 529 505 381 505 C233 505 116 403 89 250 L89 250 Z " />
<glyph glyph-name="p" unicode="p" horiz-adv-x="577" d="M120 -215 L117 -215 C106 -215 101 -192 107 -156 L144 53 C169 16 215 -5 277 -5 C427 -5 546 102 574 262 C600 408 536 505 416 505 C317 505 238 467 204 406 L213 500 L199 500 L124 475 C125 475 124 474 124 474 C124 469 123 466 123 466 L125 461 C136 443 139 430 133 391 L38 -150 L38 -150 C31 -189 18 -215 6 -215 L3 -215 C3 -215 2 -218 1 -222 C1 -227 0 -230 0 -230 L24 -230 L59 -230 L94 -230 L118 -230 C117 -230 120 -216 120 -215 L120 -215 L120 -215 Z M162 156 L201 378 C224 427 281 458 353 458 C465 458 522 358 495 207 C475 91 389 14 281 14 C194 14 147 71 162 156 L162 156 L162 156 Z " />
<glyph glyph-name="q" unicode="q" horiz-adv-x="552" d="M463 -215 L460 -215 C448 -215 444 -192 450 -157 C488 62 527 281 565 500 L558 500 C547 481 526 469 504 469 C457 469 424 505 359 505 C223 505 112 392 82 223 C58 86 117 -5 230 -5 C306 -5 381 32 423 89 L381 -150 L381 -150 C374 -189 361 -215 349 -215 L345 -215 C344 -218 343 -229 343 -230 L367 -230 L402 -230 L437 -230 L460 -230 C461 -230 463 -216 463 -215 L463 -215 Z M427 111 C401 67 341 38 276 38 C184 38 138 123 160 250 C185 392 263 486 356 486 C437 486 481 423 466 330 C465 329 465 328 465 327 L427 111 L427 111 Z " />
<glyph glyph-name="r" unicode="r" horiz-adv-x="384" d="M52 0 L75 0 L110 0 L145 0 L169 0 C169 0 169 3 171 8 C171 12 172 15 172 15 L168 15 C156 15 153 39 158 76 L212 381 C236 425 272 453 309 453 C343 453 375 425 409 425 C429 425 445 438 448 458 C454 486 434 505 374 505 C310 505 249 460 214 391 L214 391 L216 402 L215 402 L224 500 L210 500 L135 475 C136 475 135 474 135 474 C135 469 134 466 134 466 L136 461 C147 443 150 430 144 391 L89 80 L89 80 C82 41 70 15 58 15 L54 15 C53 12 52 1 52 0 L52 0 Z " />
<glyph glyph-name="s" unicode="s" horiz-adv-x="433" d="M81 102 L70 102 L62 61 C82 21 142 -5 213 -5 C311 -5 386 54 402 141 C411 191 372 244 306 275 C229 310 182 359 189 397 C199 452 247 489 310 489 C324 489 338 485 352 479 C374 466 396 439 409 408 C410 405 412 400 414 396 L426 396 L432 434 L421 427 L421 427 L432 434 C412 477 364 505 313 505 C217 505 145 452 131 373 C122 321 169 262 248 225 C310 198 346 154 339 115 C328 53 280 11 220 11 C210 11 201 12 192 13 L192 13 C148 19 100 56 81 102 L81 102 Z " />
<glyph glyph-name="t" unicode="t" horiz-adv-x="358" d="M408 500 L265 500 L265 500 C273 547 281 593 289 640 L278 640 L200 492 L200 492 L258 603 C223 536 166 487 117 481 L115 473 L190 473 L126 112 C111 21 126 -5 195 -5 C249 -5 299 43 352 116 L346 119 C305 63 268 26 235 26 C193 26 183 42 194 100 C216 224 238 349 260 473 L403 473 L408 500 L408 500 Z " />
<glyph glyph-name="u" unicode="u" horiz-adv-x="501" d="M459 129 L459 129 L524 500 L489 500 L454 500 L430 500 C429 497 428 486 428 485 L431 485 C442 485 446 463 441 428 L385 110 L385 110 L384 106 C360 67 318 41 253 41 C167 41 131 90 144 162 L204 500 L169 500 L134 500 L110 500 C110 500 109 497 108 493 C108 488 107 485 107 485 L111 485 C123 485 126 459 119 420 L120 420 L73 155 C56 59 94 -5 190 -5 C280 -5 341 31 381 87 L374 48 L369 18 L369 18 L366 0 L380 0 L464 25 L464 26 C465 31 466 34 466 34 C451 59 448 69 459 129 L459 129 L459 129 Z " />
<glyph glyph-name="v" unicode="v" horiz-adv-x="489" d="M458 420 L458 420 L271 80 L206 420 L206 420 C198 459 199 485 208 485 L211 485 C211 485 212 488 213 493 C213 497 214 500 214 500 L190 500 L150 500 L110 500 L92 500 C92 500 91 497 91 493 C90 488 89 485 89 485 L93 485 C104 485 116 464 125 433 L222 -10 L234 -10 L488 435 C507 466 526 485 537 485 L540 485 C540 485 541 488 541 493 C542 497 543 500 543 500 L525 500 L513 500 L502 500 L478 500 C478 500 477 497 476 493 C476 488 475 485 475 485 L478 485 C487 485 479 459 458 420 L458 420 L458 420 Z " />
<glyph glyph-name="w" unicode="w" horiz-adv-x="765" d="M838 500 L825 500 L802 500 L768 500 C767 497 766 486 766 485 L772 485 C785 485 786 471 744 396 L745 396 L572 79 L502 438 C496 477 502 485 512 485 L518 485 C518 486 520 497 520 500 L490 500 L410 500 L398 500 C397 497 396 486 396 485 L401 485 C408 485 416 473 430 408 L430 408 L444 347 L296 79 L224 450 C220 478 225 485 234 485 L239 485 C239 485 240 488 240 493 C241 497 242 500 242 500 L214 500 L134 500 L121 500 C121 500 120 497 119 493 C119 488 118 485 118 485 L123 485 C132 485 140 473 154 408 L154 408 L246 -10 L258 -10 L448 328 L523 -10 L534 -10 L795 447 C814 478 823 485 830 485 L835 485 C836 485 838 499 838 500 L838 500 L838 500 Z " />
<glyph glyph-name="x" unicode="x" horiz-adv-x="521" d="M428 420 L428 420 L326 305 L267 420 L267 420 C246 459 239 485 248 485 L251 485 C251 485 252 488 252 493 C253 497 254 500 254 500 L225 500 L182 500 L140 500 L131 500 C131 500 130 497 130 493 C129 488 128 485 128 485 L131 485 C141 485 161 459 181 420 L181 420 L271 247 L129 80 L129 80 C96 41 64 15 50 15 L46 15 C47 15 44 0 44 0 L61 0 L72 0 L84 0 L122 0 C122 0 123 3 123 8 C124 12 125 15 125 15 L120 15 C107 15 117 38 146 74 L279 232 L367 62 C381 33 386 15 380 15 L378 15 C378 15 377 12 377 8 C376 3 375 0 375 0 L399 0 L442 0 L485 0 L490 0 C490 0 491 3 492 8 C492 12 493 15 493 15 L490 15 C483 15 470 32 454 60 L332 294 L455 427 C489 462 518 485 529 485 L532 485 C532 485 533 488 534 493 C534 497 535 500 535 500 L522 500 L511 500 L499 500 L467 500 C467 499 464 485 465 485 L468 485 C478 485 462 459 428 420 L428 420 L428 420 Z " />
<glyph glyph-name="y" unicode="y" horiz-adv-x="465" d="M470 420 L470 420 L283 80 L218 420 L218 420 C210 459 211 485 220 485 L223 485 C223 485 224 488 225 493 C225 497 226 500 226 500 L202 500 L162 500 L122 500 L104 500 C104 500 103 497 103 493 C102 488 101 485 101 485 L105 485 C116 485 128 464 137 433 L232 -1 L194 -66 C145 -151 113 -184 78 -184 C55 -184 35 -160 10 -160 C-11 -160 -27 -172 -30 -189 C-35 -214 -12 -230 27 -230 C94 -230 146 -186 211 -72 L246 -10 L500 435 C519 466 538 485 549 485 L552 485 C552 485 553 488 553 493 C554 497 555 500 555 500 L537 500 L525 500 L514 500 L490 500 C490 500 489 497 488 493 C488 488 487 485 487 485 L490 485 C499 485 491 459 470 420 L470 420 L470 420 Z " />
<glyph glyph-name="z" unicode="z" horiz-adv-x="497" d="M426 8 C432 24 439 45 445 61 C445 61 444 62 442 62 C433 63 427 64 427 63 L419 56 C392 32 338 16 284 16 L152 16 L529 500 L488 500 L448 500 L246 500 L184 500 L166 500 L162 492 C157 481 151 466 146 455 L158 455 C193 471 245 484 298 484 L435 484 L57 0 L99 0 L140 0 L344 0 L420 0 L424 0 C424 2 425 6 426 8 L426 8 Z " />
<glyph glyph-name="braceleft" unicode="&#x7b;" horiz-adv-x="259" d="M216 -120 L218 -108 L194 -108 C139 -108 111 -61 123 9 L150 164 C160 221 140 261 99 270 C143 279 177 320 188 377 L215 531 C227 601 272 648 327 648 L352 648 L354 660 L314 660 C235 660 174 609 161 531 L127 338 C120 301 95 276 66 276 L61 276 L59 264 L64 264 C93 264 109 240 103 203 L68 9 C55 -69 98 -120 176 -120 L216 -120 L216 -120 Z " />
<glyph glyph-name="bar" unicode="&#x7c;" horiz-adv-x="188" d="M203 770 L26 -234 L80 -234 L257 770 L203 770 L203 770 Z " />
<glyph glyph-name="braceright" unicode="&#x7d;" horiz-adv-x="259" d="M128 660 L126 648 L151 648 C206 648 234 601 222 531 L194 376 C184 319 205 279 245 270 C201 261 167 220 157 163 L130 9 C117 -61 72 -108 17 -108 L-7 -108 L-9 -120 L31 -120 C109 -120 171 -69 184 9 L218 202 C225 239 249 264 279 264 L284 264 L286 276 L281 276 C251 276 236 300 242 337 L276 531 C290 609 247 660 168 660 L128 660 L128 660 Z " />
<glyph glyph-name="nbspace" unicode="&#xa0;" horiz-adv-x="220" d="" />
<glyph glyph-name="exclamdown" unicode="&#xa1;" horiz-adv-x="222" d="M194 505 C164 505 140 485 135 454 C129 424 146 404 176 404 C207 404 230 424 236 454 C241 485 224 505 194 505 L194 505 Z M47 -113 C39 -144 53 -165 81 -165 C109 -165 130 -144 132 -113 L168 329 L158 329 L47 -113 L47 -113 Z " />
<glyph glyph-name="cent" unicode="&#xa2;" horiz-adv-x="503" d="M380 575 L368 504 C232 491 125 386 98 233 C73 90 134 -5 251 -5 C260 -5 269 -4 279 -3 L266 -75 L289 -75 L303 3 C365 21 427 68 469 133 L461 137 C422 78 364 38 317 38 C314 38 312 38 309 38 L388 486 C431 483 456 451 452 404 C450 383 462 369 481 369 C500 369 514 382 517 400 C523 463 474 505 395 505 C394 505 393 505 392 505 L404 575 L380 575 L380 575 Z M286 41 C199 56 155 140 177 260 C199 387 273 474 364 485 L286 41 L286 41 Z " />
<glyph glyph-name="guillemotleft" unicode="&#xab;" horiz-adv-x="465" d="M302 250 L492 457 L486 465 L230 254 L229 246 L412 35 L421 43 L302 250 L302 250 Z M142 250 L326 457 L320 465 L72 254 L70 246 L246 35 L255 43 L142 250 L142 250 Z " />
<glyph glyph-name="guillemotright" unicode="&#xbb;" horiz-adv-x="465" d="M252 250 L134 457 L144 465 L324 254 L323 246 L66 35 L59 43 L252 250 L252 250 Z M411 250 L300 457 L309 465 L483 254 L482 246 L232 35 L225 43 L411 250 L411 250 Z " />
<glyph glyph-name="questiondown" unicode="&#xbf;" horiz-adv-x="382" d="M325 505 C294 505 271 485 265 454 C260 424 277 404 307 404 C337 404 361 424 366 454 C372 485 355 505 325 505 L325 505 Z M281 140 L297 324 L288 324 L251 183 L216 183 C97 183 61 107 53 64 C29 -73 97 -165 223 -165 C274 -165 311 -139 318 -101 C321 -87 309 -77 287 -77 C262 -77 237 -110 211 -110 C108 -110 50 -43 68 56 C73 83 105 129 231 129 L266 129 C274 129 280 133 281 140 L281 140 Z " />
<glyph glyph-name="Agrave" unicode="&#xc0;" horiz-adv-x="615" d="M559 80 L559 80 L417 675 L392 675 L68 68 C49 36 31 15 20 15 L16 15 C16 15 15 12 15 8 C14 3 13 0 13 0 L32 0 L49 0 L65 0 L100 0 C100 0 101 3 102 8 C102 12 103 15 103 15 L98 15 C83 15 90 47 115 95 L115 95 L187 234 L417 234 L450 80 L450 80 C459 41 457 15 445 15 L441 15 C442 15 439 0 439 0 L468 0 L523 0 L578 0 L597 0 C597 1 600 15 599 15 L596 15 C582 15 568 41 559 80 L559 80 L559 80 Z M429 846 C416 878 406 900 402 900 C390 900 358 879 357 870 C355 864 368 844 388 818 L481 690 L489 697 L429 846 L429 846 Z M411 259 L200 259 L348 544 L411 259 L411 259 Z " />
<glyph glyph-name="Aacute" unicode="&#xc1;" horiz-adv-x="615" d="M346 690 L480 818 C509 846 528 866 529 870 C531 879 506 900 494 900 C491 900 474 878 450 846 L339 697 L346 690 L346 690 Z M559 80 L559 80 L417 675 L392 675 L68 68 C49 36 31 15 20 15 L16 15 C16 15 15 12 15 8 C14 3 13 0 13 0 L32 0 L49 0 L65 0 L100 0 C100 0 101 3 102 8 C102 12 103 15 103 15 L98 15 C83 15 90 47 115 95 L115 95 L187 234 L417 234 L450 80 L450 80 C459 41 457 15 445 15 L441 15 C442 15 439 0 439 0 L468 0 L523 0 L578 0 L597 0 C597 1 600 15 599 15 L596 15 C582 15 568 41 559 80 L559 80 L559 80 Z M411 259 L200 259 L348 544 L411 259 L411 259 Z " />
<glyph glyph-name="Acircumflex" unicode="&#xc2;" horiz-adv-x="615" d="M559 80 L559 80 L417 675 L392 675 L68 68 C49 36 31 15 20 15 L16 15 C16 15 15 12 15 8 C14 3 13 0 13 0 L32 0 L49 0 L65 0 L100 0 C100 0 101 3 102 8 C102 12 103 15 103 15 L98 15 C83 15 90 47 115 95 L115 95 L187 234 L417 234 L450 80 L450 80 C459 41 457 15 445 15 L441 15 C442 15 439 0 439 0 L468 0 L523 0 L578 0 L597 0 C597 1 600 15 599 15 L596 15 C582 15 568 41 559 80 L559 80 L559 80 Z M433 835 L520 693 L528 699 L464 885 C462 891 456 905 445 905 C435 905 424 891 420 885 L290 699 L296 693 L433 835 L433 835 Z M411 259 L200 259 L348 544 L411 259 L411 259 Z " />
<glyph glyph-name="Atilde" unicode="&#xc3;" horiz-adv-x="615" d="M278 755 C285 793 306 818 332 818 C392 818 438 756 498 756 C543 756 580 799 591 862 L579 862 C573 826 550 802 521 802 C461 802 416 865 356 865 C314 865 278 821 266 755 L278 755 L278 755 Z M559 80 L559 80 L417 675 L392 675 L68 68 C49 36 31 15 20 15 L16 15 C16 15 15 12 15 8 C14 3 13 0 13 0 L32 0 L49 0 L65 0 L100 0 C100 0 101 3 102 8 C102 12 103 15 103 15 L98 15 C83 15 90 47 115 95 L115 95 L187 234 L417 234 L450 80 L450 80 C459 41 457 15 445 15 L441 15 C442 15 439 0 439 0 L468 0 L523 0 L578 0 L597 0 C597 1 600 15 599 15 L596 15 C582 15 568 41 559 80 L559 80 L559 80 Z M411 259 L200 259 L348 544 L411 259 L411 259 Z " />
<glyph glyph-name="Adieresis" unicode="&#xc4;" horiz-adv-x="615" d="M507 730 C533 730 553 747 557 773 C562 799 548 816 522 816 C496 816 476 799 472 773 C467 747 481 730 507 730 L507 730 Z M322 730 C348 730 368 747 373 773 C377 799 363 816 337 816 C312 816 292 799 287 773 C283 747 297 730 322 730 L322 730 Z M559 80 L559 80 L417 675 L392 675 L68 68 C49 36 31 15 20 15 L16 15 C16 15 15 12 15 8 C14 3 13 0 13 0 L32 0 L49 0 L65 0 L100 0 C100 0 101 3 102 8 C102 12 103 15 103 15 L98 15 C83 15 90 47 115 95 L115 95 L187 234 L417 234 L450 80 L450 80 C459 41 457 15 445 15 L441 15 C442 15 439 0 439 0 L468 0 L523 0 L578 0 L597 0 C597 1 600 15 599 15 L596 15 C582 15 568 41 559 80 L559 80 L559 80 Z M411 259 L200 259 L348 544 L411 259 L411 259 Z " />
<glyph glyph-name="Aring" unicode="&#xc5;" horiz-adv-x="615" d="M411 711 C371 711 342 746 350 788 C358 833 393 864 438 864 C483 864 508 833 500 788 C493 746 452 711 411 711 L411 711 Z M330 788 C321 738 357 695 408 695 C459 695 510 738 519 788 C529 843 498 880 441 880 C384 880 340 843 330 788 L330 788 Z M559 80 L559 80 L417 675 L392 675 L68 68 C49 36 31 15 20 15 L16 15 C16 15 15 12 15 8 C14 3 13 0 13 0 L32 0 L49 0 L65 0 L100 0 C100 0 101 3 102 8 C102 12 103 15 103 15 L98 15 C83 15 90 47 115 95 L115 95 L187 234 L417 234 L450 80 L450 80 C459 41 457 15 445 15 L441 15 C442 15 439 0 439 0 L468 0 L523 0 L578 0 L597 0 C597 1 600 15 599 15 L596 15 C582 15 568 41 559 80 L559 80 L559 80 Z M411 259 L200 259 L348 544 L411 259 L411 259 Z " />
<glyph glyph-name="Ccedilla" unicode="&#xc7;" horiz-adv-x="724" d="M749 518 L758 572 C731 628 635 665 519 665 C311 665 150 531 114 330 C79 129 193 -5 400 -5 C517 -5 626 32 673 88 L683 142 L670 142 C665 137 658 129 653 123 C608 69 526 29 449 22 L449 22 C435 21 420 20 405 20 C264 20 192 144 225 330 C258 516 374 640 514 640 C544 640 573 637 599 633 L599 632 C652 623 703 584 726 537 C729 531 733 523 736 518 L749 518 L749 518 Z " />
<glyph glyph-name="Egrave" unicode="&#xc8;" horiz-adv-x="531" d="M451 312 C452 320 454 330 456 339 L456 339 L458 352 C460 363 462 377 464 388 L452 388 L448 385 C436 373 400 366 357 365 L340 365 L230 365 L282 660 L278 635 L417 635 C477 635 530 620 548 598 L554 592 L565 592 C568 609 572 631 574 647 C575 651 576 656 577 660 L567 660 L497 660 L282 660 L232 660 L181 660 L158 660 C157 660 155 645 155 645 L158 645 C170 645 174 622 168 587 L79 80 L79 80 C72 41 60 15 47 15 L44 15 C44 15 43 12 43 8 C42 3 41 0 41 0 L65 0 L115 0 L166 0 L383 0 L461 0 L463 0 C464 4 466 9 467 13 C473 29 481 51 487 68 L476 68 L467 62 C437 40 377 25 316 25 L170 25 L229 358 L226 339 L336 339 C387 339 427 330 436 316 L439 312 L451 312 L451 312 Z M385 846 C372 878 362 900 358 900 C346 900 314 879 313 870 C312 864 325 844 345 818 L437 690 L446 697 L385 846 L385 846 Z " />
<glyph glyph-name="Eacute" unicode="&#xc9;" horiz-adv-x="531" d="M451 312 C452 320 454 330 456 339 L456 339 L458 352 C460 363 462 377 464 388 L452 388 L448 385 C436 373 400 366 357 365 L340 365 L230 365 L282 660 L278 635 L417 635 C477 635 530 620 548 598 L554 592 L565 592 C568 609 572 631 574 647 C575 651 576 656 577 660 L567 660 L497 660 L282 660 L232 660 L181 660 L158 660 C157 660 155 645 155 645 L158 645 C170 645 174 622 168 587 L79 80 L79 80 C72 41 60 15 47 15 L44 15 C44 15 43 12 43 8 C42 3 41 0 41 0 L65 0 L115 0 L166 0 L383 0 L461 0 L463 0 C464 4 466 9 467 13 C473 29 481 51 487 68 L476 68 L467 62 C437 40 377 25 316 25 L170 25 L229 358 L226 339 L336 339 C387 339 427 330 436 316 L439 312 L451 312 L451 312 Z M348 690 L483 818 C512 846 531 866 532 870 C533 879 509 900 497 900 C494 900 476 878 452 846 L342 697 L348 690 L348 690 Z " />
<glyph glyph-name="Ecircumflex" unicode="&#xca;" horiz-adv-x="531" d="M451 312 C452 320 454 330 456 339 L456 339 L458 352 C460 363 462 377 464 388 L452 388 L448 385 C436 373 400 366 357 365 L340 365 L230 365 L282 660 L278 635 L417 635 C477 635 530 620 548 598 L554 592 L565 592 C568 609 572 631 574 647 C575 651 576 656 577 660 L567 660 L497 660 L282 660 L232 660 L181 660 L158 660 C157 660 155 645 155 645 L158 645 C170 645 174 622 168 587 L79 80 L79 80 C72 41 60 15 47 15 L44 15 C44 15 43 12 43 8 C42 3 41 0 41 0 L65 0 L115 0 L166 0 L383 0 L461 0 L463 0 C464 4 466 9 467 13 C473 29 481 51 487 68 L476 68 L467 62 C437 40 377 25 316 25 L170 25 L229 358 L226 339 L336 339 C387 339 427 330 436 316 L439 312 L451 312 L451 312 Z M405 835 L492 693 L500 699 L436 885 C434 891 428 905 417 905 C407 905 396 891 392 885 L262 699 L268 693 L405 835 L405 835 Z " />
<glyph glyph-name="Edieresis" unicode="&#xcb;" horiz-adv-x="531" d="M451 312 C452 320 454 330 456 339 L456 339 L458 352 C460 363 462 377 464 388 L452 388 L448 385 C436 373 400 366 357 365 L340 365 L230 365 L282 660 L278 635 L417 635 C477 635 530 620 548 598 L554 592 L565 592 C568 609 572 631 574 647 C575 651 576 656 577 660 L567 660 L497 660 L282 660 L232 660 L181 660 L158 660 C157 660 155 645 155 645 L158 645 C170 645 174 622 168 587 L79 80 L79 80 C72 41 60 15 47 15 L44 15 C44 15 43 12 43 8 C42 3 41 0 41 0 L65 0 L115 0 L166 0 L383 0 L461 0 L463 0 C464 4 466 9 467 13 C473 29 481 51 487 68 L476 68 L467 62 C437 40 377 25 316 25 L170 25 L229 358 L226 339 L336 339 C387 339 427 330 436 316 L439 312 L451 312 L451 312 Z M479 730 C505 730 525 747 529 773 C534 799 520 816 494 816 C468 816 448 799 444 773 C439 747 453 730 479 730 L479 730 Z M294 730 C320 730 340 747 345 773 C349 799 335 816 309 816 C284 816 264 799 259 773 C255 747 269 730 294 730 L294 730 Z " />
<glyph glyph-name="Igrave" unicode="&#xcc;" horiz-adv-x="230" d="M300 660 L276 660 L226 660 L176 660 L152 660 C152 658 149 651 149 645 L153 645 C164 645 168 621 163 586 L73 80 L73 80 C66 41 54 15 42 15 L38 15 C38 15 37 12 37 8 C36 3 35 0 35 0 L59 0 L110 0 L160 0 L184 0 C184 0 185 3 185 8 C186 12 187 15 187 15 L183 15 C172 15 167 38 173 73 L262 580 L262 580 C269 619 282 645 294 645 L298 645 C298 646 300 657 300 660 L300 660 Z M252 846 C240 878 230 900 225 900 C213 900 182 879 180 870 C179 864 192 844 212 818 L304 690 L313 697 L252 846 L252 846 Z " />
<glyph glyph-name="Iacute" unicode="&#xcd;" horiz-adv-x="230" d="M170 690 L304 818 C333 846 352 866 353 870 C355 879 330 900 318 900 C315 900 298 878 273 846 L163 697 L170 690 L170 690 Z M300 660 L276 660 L226 660 L176 660 L152 660 C152 658 149 651 149 645 L153 645 C164 645 168 621 163 586 L73 80 L73 80 C66 41 54 15 42 15 L38 15 C38 15 37 12 37 8 C36 3 35 0 35 0 L59 0 L110 0 L160 0 L184 0 C184 0 185 3 185 8 C186 12 187 15 187 15 L183 15 C172 15 167 38 173 73 L262 580 L262 580 C269 619 282 645 294 645 L298 645 C298 646 300 657 300 660 L300 660 Z " />
<glyph glyph-name="Icircumflex" unicode="&#xce;" horiz-adv-x="230" d="M300 660 L276 660 L226 660 L176 660 L152 660 C152 658 149 651 149 645 L153 645 C164 645 168 621 163 586 L73 80 L73 80 C66 41 54 15 42 15 L38 15 C38 15 37 12 37 8 C36 3 35 0 35 0 L59 0 L110 0 L160 0 L184 0 C184 0 185 3 185 8 C186 12 187 15 187 15 L183 15 C172 15 167 38 173 73 L262 580 L262 580 C269 619 282 645 294 645 L298 645 C298 646 300 657 300 660 L300 660 Z M257 835 L344 693 L352 699 L288 885 C286 891 280 905 269 905 C259 905 248 891 244 885 L114 699 L120 693 L257 835 L257 835 Z " />
<glyph glyph-name="Idieresis" unicode="&#xcf;" horiz-adv-x="230" d="M331 730 C357 730 377 747 381 773 C386 799 372 816 346 816 C320 816 300 799 295 773 C291 747 305 730 331 730 L331 730 Z M146 730 C172 730 192 747 196 773 C201 799 187 816 161 816 C136 816 116 799 111 773 C107 747 121 730 146 730 L146 730 Z M300 660 L276 660 L226 660 L176 660 L152 660 C152 658 149 651 149 645 L153 645 C164 645 168 621 163 586 L73 80 L73 80 C66 41 54 15 42 15 L38 15 C38 15 37 12 37 8 C36 3 35 0 35 0 L59 0 L110 0 L160 0 L184 0 C184 0 185 3 185 8 C186 12 187 15 187 15 L183 15 C172 15 167 38 173 73 L262 580 L262 580 C269 619 282 645 294 645 L298 645 C298 646 300 657 300 660 L300 660 Z " />
<glyph glyph-name="Ntilde" unicode="&#xd1;" horiz-adv-x="619" d="M305 755 C312 793 334 818 360 818 C419 818 466 756 525 756 C570 756 607 799 618 862 L606 862 C600 826 577 802 549 802 C489 802 443 865 383 865 C341 865 305 821 293 755 L305 755 L305 755 Z M696 660 L672 660 L657 660 L642 660 L618 660 C617 657 616 646 616 645 L619 645 C631 645 635 622 629 587 L547 122 L285 660 L217 660 L202 660 L187 660 L163 660 C163 658 160 651 160 645 L164 645 C176 645 179 619 172 580 L173 580 L84 80 L84 80 C77 41 65 15 53 15 L49 15 C49 15 48 12 48 8 C47 3 46 0 46 0 L70 0 L85 0 L100 0 L124 0 C124 0 125 3 126 8 C126 12 127 15 127 15 L123 15 C111 15 107 41 115 80 L114 80 L203 581 L482 14 L497 -16 L553 -16 L565 51 L658 580 L658 580 C665 619 678 645 690 645 L694 645 C694 646 696 657 696 660 L696 660 L696 660 Z " />
<glyph glyph-name="Ograve" unicode="&#xd2;" horiz-adv-x="772" d="M390 20 C245 20 196 163 225 330 C255 497 354 640 499 640 C643 640 693 497 663 330 C634 163 534 20 390 20 L390 20 Z M114 330 C82 149 167 -5 385 -5 C603 -5 742 149 774 330 C806 511 721 665 503 665 C285 665 146 511 114 330 L114 330 Z M529 846 C516 878 506 900 502 900 C490 900 458 879 457 870 C455 864 468 844 488 818 L581 690 L590 697 L529 846 L529 846 Z " />
<glyph glyph-name="Oacute" unicode="&#xd3;" horiz-adv-x="772" d="M484 690 L618 818 C647 846 667 866 667 870 C669 879 645 900 633 900 C629 900 612 878 588 846 L477 697 L484 690 L484 690 Z M390 20 C245 20 196 163 225 330 C255 497 354 640 499 640 C643 640 693 497 663 330 C634 163 534 20 390 20 L390 20 Z M114 330 C82 149 167 -5 385 -5 C603 -5 742 149 774 330 C806 511 721 665 503 665 C285 665 146 511 114 330 L114 330 Z " />
<glyph glyph-name="Ocircumflex" unicode="&#xd4;" horiz-adv-x="772" d="M390 20 C245 20 196 163 225 330 C255 497 354 640 499 640 C643 640 693 497 663 330 C634 163 534 20 390 20 L390 20 Z M114 330 C82 149 167 -5 385 -5 C603 -5 742 149 774 330 C806 511 721 665 503 665 C285 665 146 511 114 330 L114 330 Z M533 835 L620 693 L629 699 L564 885 C562 891 556 905 546 905 C535 905 524 891 520 885 L390 699 L396 693 L533 835 L533 835 Z " />
<glyph glyph-name="Otilde" unicode="&#xd5;" horiz-adv-x="772" d="M378 755 C385 793 407 818 433 818 C492 818 539 756 598 756 C643 756 680 799 691 862 L679 862 C673 826 650 802 622 802 C562 802 516 865 456 865 C414 865 378 821 366 755 L378 755 L378 755 Z M390 20 C245 20 196 163 225 330 C255 497 354 640 499 640 C643 640 693 497 663 330 C634 163 534 20 390 20 L390 20 Z M114 330 C82 149 167 -5 385 -5 C603 -5 742 149 774 330 C806 511 721 665 503 665 C285 665 146 511 114 330 L114 330 Z " />
<glyph glyph-name="Odieresis" unicode="&#xd6;" horiz-adv-x="772" d="M607 730 C633 730 653 747 657 773 C662 799 648 816 622 816 C597 816 577 799 572 773 C568 747 582 730 607 730 L607 730 Z M422 730 C448 730 468 747 473 773 C477 799 463 816 438 816 C412 816 392 799 387 773 C383 747 397 730 422 730 L422 730 Z M390 20 C245 20 196 163 225 330 C255 497 354 640 499 640 C643 640 693 497 663 330 C634 163 534 20 390 20 L390 20 Z M114 330 C82 149 167 -5 385 -5 C603 -5 742 149 774 330 C806 511 721 665 503 665 C285 665 146 511 114 330 L114 330 Z " />
<glyph glyph-name="Oslash" unicode="&#xd8;" horiz-adv-x="772" d="M69 -21 L176 71 C222 24 291 -5 385 -5 C603 -5 742 149 774 330 C789 416 778 496 739 556 L847 649 L820 681 L713 589 C667 636 597 665 503 665 C285 665 146 511 114 330 C99 244 110 164 150 104 L42 11 L69 -21 L69 -21 Z M390 20 C313 20 263 61 237 124 L664 492 C674 444 674 389 663 330 C634 163 534 20 390 20 L390 20 L390 20 Z M224 168 C214 215 215 271 225 330 C255 497 354 640 499 640 C576 640 626 599 651 536 L224 168 L224 168 Z " />
<glyph glyph-name="Ugrave" unicode="&#xd9;" horiz-adv-x="583" d="M591 645 L595 645 C610 645 614 615 606 570 L606 570 L539 189 C522 94 457 30 320 30 C209 30 178 95 195 192 L264 580 L264 580 C271 619 283 645 295 645 L299 645 C299 645 300 648 300 653 C301 657 302 660 302 660 L278 660 L227 660 L177 660 L153 660 C153 659 151 645 150 645 L154 645 C165 645 169 623 164 588 L98 212 C75 82 127 -5 299 -5 C464 -5 541 70 561 182 L630 570 L630 570 C638 615 652 645 666 645 L670 645 C670 645 671 648 671 653 C672 657 673 660 673 660 L646 660 L634 660 L622 660 L594 660 C593 660 591 645 591 645 L591 645 Z M438 846 C425 878 415 900 411 900 C399 900 367 879 366 870 C364 864 377 844 397 818 L490 690 L498 697 L438 846 L438 846 Z " />
<glyph glyph-name="Uacute" unicode="&#xda;" horiz-adv-x="583" d="M416 690 L550 818 C578 846 598 866 599 870 C600 879 576 900 564 900 C561 900 544 878 519 846 L409 697 L416 690 L416 690 Z M591 645 L595 645 C610 645 614 615 606 570 L606 570 L539 189 C522 94 457 30 320 30 C209 30 178 95 195 192 L264 580 L264 580 C271 619 283 645 295 645 L299 645 C299 645 300 648 300 653 C301 657 302 660 302 660 L278 660 L227 660 L177 660 L153 660 C153 659 151 645 150 645 L154 645 C165 645 169 623 164 588 L98 212 C75 82 127 -5 299 -5 C464 -5 541 70 561 182 L630 570 L630 570 C638 615 652 645 666 645 L670 645 C670 645 671 648 671 653 C672 657 673 660 673 660 L646 660 L634 660 L622 660 L594 660 C593 660 591 645 591 645 L591 645 Z " />
<glyph glyph-name="Ucircumflex" unicode="&#xdb;" horiz-adv-x="583" d="M591 645 L595 645 C610 645 614 615 606 570 L606 570 L539 189 C522 94 457 30 320 30 C209 30 178 95 195 192 L264 580 L264 580 C271 619 283 645 295 645 L299 645 C299 645 300 648 300 653 C301 657 302 660 302 660 L278 660 L227 660 L177 660 L153 660 C153 659 151 645 150 645 L154 645 C165 645 169 623 164 588 L98 212 C75 82 127 -5 299 -5 C464 -5 541 70 561 182 L630 570 L630 570 C638 615 652 645 666 645 L670 645 C670 645 671 648 671 653 C672 657 673 660 673 660 L646 660 L634 660 L622 660 L594 660 C593 660 591 645 591 645 L591 645 Z M442 835 L529 693 L537 699 L473 885 C471 891 465 905 454 905 C444 905 433 891 429 885 L299 699 L305 693 L442 835 L442 835 Z " />
<glyph glyph-name="Udieresis" unicode="&#xdc;" horiz-adv-x="583" d="M516 730 C542 730 562 747 566 773 C571 799 557 816 531 816 C505 816 485 799 481 773 C476 747 490 730 516 730 L516 730 Z M331 730 C357 730 377 747 382 773 C386 799 372 816 346 816 C321 816 301 799 296 773 C292 747 306 730 331 730 L331 730 Z M591 645 L595 645 C610 645 614 615 606 570 L606 570 L539 189 C522 94 457 30 320 30 C209 30 178 95 195 192 L264 580 L264 580 C271 619 283 645 295 645 L299 645 C299 645 300 648 300 653 C301 657 302 660 302 660 L278 660 L227 660 L177 660 L153 660 C153 659 151 645 150 645 L154 645 C165 645 169 623 164 588 L98 212 C75 82 127 -5 299 -5 C464 -5 541 70 561 182 L630 570 L630 570 C638 615 652 645 666 645 L670 645 C670 645 671 648 671 653 C672 657 673 660 673 660 L646 660 L634 660 L622 660 L594 660 C593 660 591 645 591 645 L591 645 Z " />
<glyph glyph-name="Yacute" unicode="&#xdd;" horiz-adv-x="592" d="M419 690 L553 818 C581 846 601 866 602 870 C603 879 579 900 567 900 C564 900 547 878 522 846 L412 697 L419 690 L419 690 Z M224 0 L247 0 L298 0 L348 0 L372 0 C372 0 373 3 373 8 C374 12 375 15 375 15 L371 15 C359 15 356 40 362 77 C376 159 392 250 405 322 L616 580 L616 580 C648 619 676 645 686 645 L690 645 C689 645 690 648 691 653 C691 657 692 660 692 660 L681 660 L669 660 L658 660 L623 660 C623 660 623 657 621 653 C621 648 620 645 620 645 L624 645 C637 645 618 611 577 560 L577 560 L384 322 L374 322 L292 585 C281 621 280 645 291 645 L294 645 C294 645 297 659 297 660 L268 660 L208 660 L147 660 L138 660 C137 657 136 646 136 645 L138 645 C146 645 158 629 170 602 L296 280 C284 212 271 134 258 63 C250 34 240 15 230 15 L226 15 C227 15 224 0 224 0 L224 0 L224 0 Z " />
<glyph glyph-name="agrave" unicode="&#xe0;" horiz-adv-x="591" d="M498 129 L498 129 C519 253 541 376 563 500 L544 500 L488 390 C483 458 435 505 359 505 C234 505 131 392 101 223 C77 86 134 -5 242 -5 C321 -5 387 35 422 100 L413 45 C410 28 407 12 404 -5 L416 -5 L472 16 L503 25 L503 26 C504 31 505 34 505 34 C490 59 487 69 498 129 L498 129 Z M358 686 C345 718 335 740 331 740 C318 740 287 719 285 710 C284 704 297 684 317 658 L410 530 L418 537 L358 686 L358 686 Z M428 133 C405 75 352 38 288 38 C200 38 157 123 179 250 C204 392 273 486 352 486 C435 486 480 427 466 347 C453 276 441 205 428 133 L428 133 L428 133 Z " />
<glyph glyph-name="aacute" unicode="&#xe1;" horiz-adv-x="505" d="M292 530 L427 658 C456 686 475 706 476 710 C477 719 453 740 441 740 C437 740 420 718 396 686 L285 537 L292 530 L292 530 Z M483 39 C472 29 458 23 431 23 C401 23 396 48 403 85 L450 357 C466 446 426 505 351 505 C203 505 116 442 134 348 L204 348 C188 431 239 486 331 486 C372 486 392 441 379 373 L358 254 L255 239 C151 225 73 170 61 103 C50 38 88 -5 158 -5 C211 -5 273 19 324 57 C321 16 334 -10 377 -10 C429 -10 462 6 490 30 L483 39 L483 39 Z M355 237 L327 77 C327 76 327 75 327 75 C290 54 245 42 201 42 C152 42 125 74 134 123 C142 168 189 206 251 218 L355 237 L355 237 Z " />
<glyph glyph-name="acircumflex" unicode="&#xe2;" horiz-adv-x="591" d="M498 129 L498 129 C519 253 541 376 563 500 L544 500 L488 390 C483 458 435 505 359 505 C234 505 131 392 101 223 C77 86 134 -5 242 -5 C321 -5 387 35 422 100 L413 45 C410 28 407 12 404 -5 L416 -5 L472 16 L503 25 L503 26 C504 31 505 34 505 34 C490 59 487 69 498 129 L498 129 Z M362 675 L449 533 L457 539 L393 725 C391 731 385 745 374 745 C364 745 353 731 349 725 L219 539 L225 533 L362 675 L362 675 Z M428 133 C405 75 352 38 288 38 C200 38 157 123 179 250 C204 392 273 486 352 486 C435 486 480 427 466 347 C453 276 441 205 428 133 L428 133 L428 133 Z " />
<glyph glyph-name="atilde" unicode="&#xe3;" horiz-adv-x="591" d="M207 595 C214 633 235 658 261 658 C321 658 367 596 427 596 C471 596 509 639 520 702 L508 702 C502 666 478 642 450 642 C391 642 344 705 285 705 C242 705 207 661 195 595 L207 595 L207 595 Z M498 129 L498 129 C519 253 541 376 563 500 L544 500 L488 390 C483 458 435 505 359 505 C234 505 131 392 101 223 C77 86 134 -5 242 -5 C321 -5 387 35 422 100 L413 45 C410 28 407 12 404 -5 L416 -5 L472 16 L503 25 L503 26 C504 31 505 34 505 34 C490 59 487 69 498 129 L498 129 Z M428 133 C405 75 352 38 288 38 C200 38 157 123 179 250 C204 392 273 486 352 486 C435 486 480 427 466 347 C453 276 441 205 428 133 L428 133 L428 133 Z " />
<glyph glyph-name="adieresis" unicode="&#xe4;" horiz-adv-x="591" d="M436 570 C461 570 482 587 486 613 C491 639 477 656 451 656 C426 656 405 639 401 613 C396 587 410 570 436 570 L436 570 Z M251 570 C277 570 297 587 301 613 C306 639 292 656 266 656 C241 656 221 639 216 613 C211 587 226 570 251 570 L251 570 Z M498 129 L498 129 C519 253 541 376 563 500 L544 500 L488 390 C483 458 435 505 359 505 C234 505 131 392 101 223 C77 86 134 -5 242 -5 C321 -5 387 35 422 100 L413 45 C410 28 407 12 404 -5 L416 -5 L472 16 L503 25 L503 26 C504 31 505 34 505 34 C490 59 487 69 498 129 L498 129 Z M428 133 C405 75 352 38 288 38 C200 38 157 123 179 250 C204 392 273 486 352 486 C435 486 480 427 466 347 C453 276 441 205 428 133 L428 133 L428 133 Z " />
<glyph glyph-name="aring" unicode="&#xe5;" horiz-adv-x="591" d="M340 551 C300 551 271 586 278 628 C287 673 322 704 367 704 C412 704 437 673 429 628 C421 586 381 551 340 551 L340 551 Z M259 628 C250 578 286 535 337 535 C389 535 440 578 448 628 C458 683 427 720 370 720 C313 720 269 683 259 628 L259 628 Z M498 129 L498 129 C519 253 541 376 563 500 L544 500 L488 390 C483 458 435 505 359 505 C234 505 131 392 101 223 C77 86 134 -5 242 -5 C321 -5 387 35 422 100 L413 45 C410 28 407 12 404 -5 L416 -5 L472 16 L503 25 L503 26 C504 31 505 34 505 34 C490 59 487 69 498 129 L498 129 Z M428 133 C405 75 352 38 288 38 C200 38 157 123 179 250 C204 392 273 486 352 486 C435 486 480 427 466 347 C453 276 441 205 428 133 L428 133 L428 133 Z " />
<glyph glyph-name="ccedilla" unicode="&#xe7;" horiz-adv-x="503" d="M469 133 L461 137 C422 78 364 38 317 38 C209 38 153 127 177 260 C201 396 283 486 383 486 C429 486 456 453 452 404 C450 383 462 369 481 369 C500 369 514 382 517 400 C523 463 474 505 395 505 C246 505 127 396 98 233 C73 90 134 -5 251 -5 C328 -5 415 50 469 133 L469 133 Z " />
<glyph glyph-name="egrave" unicode="&#xe8;" horiz-adv-x="510" d="M196 333 C230 427 290 486 359 486 C428 486 466 443 455 378 L455 377 C451 358 436 345 418 344 C417 344 416 344 415 344 L418 344 L448 345 L196 333 L196 333 Z M476 133 L467 137 C429 78 370 38 320 38 C211 38 153 127 177 260 C181 281 186 301 192 320 L509 320 C529 431 472 505 366 505 C234 505 127 396 98 233 C73 90 135 -5 254 -5 C333 -5 422 50 476 133 L476 133 Z M392 686 C380 718 370 740 365 740 C353 740 321 719 320 710 C319 704 332 684 351 658 L444 530 L453 537 L392 686 L392 686 Z " />
<glyph glyph-name="eacute" unicode="&#xe9;" horiz-adv-x="510" d="M196 333 C230 427 290 486 359 486 C428 486 466 443 455 378 L455 377 C451 358 436 345 418 344 C417 344 416 344 415 344 L418 344 L448 345 L196 333 L196 333 Z M340 530 L474 658 C503 686 522 706 523 710 C524 719 500 740 488 740 C485 740 467 718 443 686 L333 537 L340 530 L340 530 Z M476 133 L467 137 C429 78 370 38 320 38 C211 38 153 127 177 260 C181 281 186 301 192 320 L509 320 C529 431 472 505 366 505 C234 505 127 396 98 233 C73 90 135 -5 254 -5 C333 -5 422 50 476 133 L476 133 Z " />
<glyph glyph-name="ecircumflex" unicode="&#xea;" horiz-adv-x="510" d="M196 333 C230 427 290 486 359 486 C428 486 466 443 455 378 L455 377 C451 358 436 345 418 344 C417 344 416 344 415 344 L418 344 L448 345 L196 333 L196 333 Z M476 133 L467 137 C429 78 370 38 320 38 C211 38 153 127 177 260 C181 281 186 301 192 320 L509 320 C529 431 472 505 366 505 C234 505 127 396 98 233 C73 90 135 -5 254 -5 C333 -5 422 50 476 133 L476 133 Z M396 675 L483 533 L492 539 L428 725 C425 731 419 745 409 745 C398 745 387 731 383 725 L253 539 L259 533 L396 675 L396 675 Z " />
<glyph glyph-name="edieresis" unicode="&#xeb;" horiz-adv-x="510" d="M196 333 C230 427 290 486 359 486 C428 486 466 443 455 378 L455 377 C451 358 436 345 418 344 C417 344 416 344 415 344 L418 344 L448 345 L196 333 L196 333 Z M470 570 C496 570 516 587 521 613 C525 639 511 656 485 656 C460 656 440 639 435 613 C430 587 445 570 470 570 L470 570 Z M286 570 C311 570 331 587 336 613 C341 639 326 656 301 656 C275 656 255 639 250 613 C246 587 260 570 286 570 L286 570 Z M476 133 L467 137 C429 78 370 38 320 38 C211 38 153 127 177 260 C181 281 186 301 192 320 L509 320 C529 431 472 505 366 505 C234 505 127 396 98 233 C73 90 135 -5 254 -5 C333 -5 422 50 476 133 L476 133 Z " />
<glyph glyph-name="igrave" unicode="&#xec;" horiz-adv-x="221" d="M146 0 L170 0 C170 1 172 12 172 15 L167 15 C156 15 149 13 146 1 L220 420 C233 491 235 505 235 505 L231 505 L140 479 C140 479 140 477 139 474 C139 471 139 469 138 469 L149 447 C151 441 152 432 146 400 L147 400 L76 0 C78 13 71 15 59 15 L55 15 C55 13 52 6 52 0 L76 0 L146 0 L146 0 Z M225 686 C213 718 203 740 198 740 C186 740 155 719 153 710 C152 704 165 684 185 658 L277 530 L286 537 L225 686 L225 686 Z " />
<glyph glyph-name="iacute" unicode="&#xed;" horiz-adv-x="221" d="M127 530 L262 658 C290 686 310 706 311 710 C312 719 288 740 276 740 C273 740 255 718 231 686 L121 537 L127 530 L127 530 Z M146 0 L170 0 C170 1 172 12 172 15 L167 15 C156 15 149 13 146 1 L220 420 C233 491 235 505 235 505 L231 505 L140 479 C140 479 140 477 139 474 C139 471 139 469 138 469 L149 447 C151 441 152 432 146 400 L147 400 L76 0 C78 13 71 15 59 15 L55 15 C55 13 52 6 52 0 L76 0 L146 0 L146 0 Z " />
<glyph glyph-name="icircumflex" unicode="&#xee;" horiz-adv-x="221" d="M146 0 L170 0 C170 1 172 12 172 15 L167 15 C156 15 149 13 146 1 L220 420 C233 491 235 505 235 505 L231 505 L140 479 C140 479 140 477 139 474 C139 471 139 469 138 469 L149 447 C151 441 152 432 146 400 L147 400 L76 0 C78 13 71 15 59 15 L55 15 C55 13 52 6 52 0 L76 0 L146 0 L146 0 Z M230 675 L317 533 L325 539 L261 725 C259 731 253 745 242 745 C232 745 221 731 216 725 L86 539 L93 533 L230 675 L230 675 Z " />
<glyph glyph-name="idieresis" unicode="&#xef;" horiz-adv-x="221" d="M304 570 C329 570 349 587 354 613 C359 639 344 656 319 656 C293 656 273 639 268 613 C264 587 278 570 304 570 L304 570 Z M119 570 C144 570 165 587 169 613 C174 639 160 656 134 656 C109 656 88 639 84 613 C79 587 93 570 119 570 L119 570 Z M146 0 L170 0 C170 1 172 12 172 15 L167 15 C156 15 149 13 146 1 L220 420 C233 491 235 505 235 505 L231 505 L140 479 C140 479 140 477 139 474 C139 471 139 469 138 469 L149 447 C151 441 152 432 146 400 L147 400 L76 0 C78 13 71 15 59 15 L55 15 C55 13 52 6 52 0 L76 0 L146 0 L146 0 Z " />
<glyph glyph-name="ntilde" unicode="&#xf1;" horiz-adv-x="536" d="M234 595 C241 633 263 658 289 658 C348 658 395 596 455 596 C499 596 536 639 547 702 L536 702 C529 666 506 642 478 642 C418 642 372 705 312 705 C270 705 235 661 223 595 L234 595 L234 595 Z M492 15 L489 15 C477 15 473 40 479 77 L525 337 C543 438 521 505 433 505 C345 505 261 463 216 400 L234 500 L220 500 L135 475 C136 475 135 474 135 474 C135 469 134 466 134 466 L136 461 C147 443 150 430 144 391 L89 80 L89 80 C82 41 70 15 58 15 L54 15 C53 12 52 1 52 0 L75 0 L110 0 L145 0 L169 0 C169 0 169 3 171 8 C171 12 172 15 172 15 L168 15 C156 15 153 39 158 76 L213 385 C244 429 305 458 371 458 C447 458 468 407 454 329 L410 80 L410 80 C403 41 390 15 378 15 L375 15 C375 15 374 12 373 8 C373 3 372 0 372 0 L396 0 L431 0 L466 0 L490 0 C491 3 492 14 492 15 L492 15 Z " />
<glyph glyph-name="ograve" unicode="&#xf2;" horiz-adv-x="608" d="M306 11 C205 11 154 107 179 250 C204 393 289 489 390 489 C492 489 543 393 518 250 C493 107 408 11 306 11 L306 11 Z M101 250 C74 97 155 -5 303 -5 C451 -5 568 97 595 250 C622 403 541 505 393 505 C245 505 128 403 101 250 L101 250 Z M419 686 C406 718 396 740 392 740 C380 740 348 719 347 710 C345 704 358 684 378 658 L471 530 L480 537 L419 686 L419 686 Z " />
<glyph glyph-name="oacute" unicode="&#xf3;" horiz-adv-x="608" d="M366 530 L501 658 C530 686 549 706 550 710 C551 719 527 740 515 740 C511 740 494 718 470 686 L360 537 L366 530 L366 530 Z M306 11 C205 11 154 107 179 250 C204 393 289 489 390 489 C492 489 543 393 518 250 C493 107 408 11 306 11 L306 11 Z M101 250 C74 97 155 -5 303 -5 C451 -5 568 97 595 250 C622 403 541 505 393 505 C245 505 128 403 101 250 L101 250 Z " />
<glyph glyph-name="ocircumflex" unicode="&#xf4;" horiz-adv-x="608" d="M306 11 C205 11 154 107 179 250 C204 393 289 489 390 489 C492 489 543 393 518 250 C493 107 408 11 306 11 L306 11 Z M101 250 C74 97 155 -5 303 -5 C451 -5 568 97 595 250 C622 403 541 505 393 505 C245 505 128 403 101 250 L101 250 Z M423 675 L510 533 L518 539 L454 725 C452 731 446 745 435 745 C425 745 414 731 410 725 L280 539 L286 533 L423 675 L423 675 Z " />
<glyph glyph-name="otilde" unicode="&#xf5;" horiz-adv-x="608" d="M268 595 C275 633 296 658 322 658 C382 658 429 596 488 596 C532 596 570 639 581 702 L569 702 C563 666 539 642 511 642 C452 642 406 705 346 705 C304 705 268 661 256 595 L268 595 L268 595 Z M306 11 C205 11 154 107 179 250 C204 393 289 489 390 489 C492 489 543 393 518 250 C493 107 408 11 306 11 L306 11 Z M101 250 C74 97 155 -5 303 -5 C451 -5 568 97 595 250 C622 403 541 505 393 505 C245 505 128 403 101 250 L101 250 Z " />
<glyph glyph-name="odieresis" unicode="&#xf6;" horiz-adv-x="608" d="M497 570 C523 570 543 587 547 613 C552 639 538 656 512 656 C487 656 467 639 462 613 C457 587 472 570 497 570 L497 570 Z M312 570 C338 570 358 587 363 613 C367 639 353 656 327 656 C302 656 282 639 277 613 C273 587 287 570 312 570 L312 570 Z M306 11 C205 11 154 107 179 250 C204 393 289 489 390 489 C492 489 543 393 518 250 C493 107 408 11 306 11 L306 11 Z M101 250 C74 97 155 -5 303 -5 C451 -5 568 97 595 250 C622 403 541 505 393 505 C245 505 128 403 101 250 L101 250 Z " />
<glyph glyph-name="oslash" unicode="&#xf8;" horiz-adv-x="608" d="M63 -13 L143 57 C179 17 234 -5 303 -5 C451 -5 568 97 595 250 C608 322 597 382 566 426 L647 497 L633 513 L553 443 C517 483 462 505 393 505 C245 505 128 403 101 250 C88 178 99 118 130 74 L49 3 L63 -13 L63 -13 Z M306 11 C249 11 207 42 187 95 L517 383 C526 346 527 301 518 250 C493 107 408 11 306 11 L306 11 L306 11 Z M180 117 C171 154 170 199 179 250 C204 393 289 489 390 489 C448 489 489 458 510 405 L180 117 L180 117 Z " />
<glyph glyph-name="ugrave" unicode="&#xf9;" horiz-adv-x="501" d="M459 129 L459 129 L524 500 L489 500 L454 500 L430 500 C429 497 428 486 428 485 L431 485 C442 485 446 463 441 428 L385 110 L385 110 L384 106 C360 67 318 41 253 41 C167 41 131 90 144 162 L204 500 L169 500 L134 500 L110 500 C110 500 109 497 108 493 C108 488 107 485 107 485 L111 485 C123 485 126 459 119 420 L120 420 L73 155 C56 59 94 -5 190 -5 C280 -5 341 31 381 87 L374 48 L369 18 L369 18 L366 0 L380 0 L464 25 L464 26 C465 31 466 34 466 34 C451 59 448 69 459 129 L459 129 L459 129 Z M355 686 C343 718 333 740 328 740 C316 740 285 719 283 710 C282 704 295 684 315 658 L407 530 L416 537 L355 686 L355 686 Z " />
<glyph glyph-name="uacute" unicode="&#xfa;" horiz-adv-x="501" d="M303 530 L437 658 C466 686 485 706 486 710 C488 719 463 740 451 740 C448 740 431 718 406 686 L296 537 L303 530 L303 530 Z M459 129 L459 129 L524 500 L489 500 L454 500 L430 500 C429 497 428 486 428 485 L431 485 C442 485 446 463 441 428 L385 110 L385 110 L384 106 C360 67 318 41 253 41 C167 41 131 90 144 162 L204 500 L169 500 L134 500 L110 500 C110 500 109 497 108 493 C108 488 107 485 107 485 L111 485 C123 485 126 459 119 420 L120 420 L73 155 C56 59 94 -5 190 -5 C280 -5 341 31 381 87 L374 48 L369 18 L369 18 L366 0 L380 0 L464 25 L464 26 C465 31 466 34 466 34 C451 59 448 69 459 129 L459 129 L459 129 Z " />
<glyph glyph-name="ucircumflex" unicode="&#xfb;" horiz-adv-x="501" d="M459 129 L459 129 L524 500 L489 500 L454 500 L430 500 C429 497 428 486 428 485 L431 485 C442 485 446 463 441 428 L385 110 L385 110 L384 106 C360 67 318 41 253 41 C167 41 131 90 144 162 L204 500 L169 500 L134 500 L110 500 C110 500 109 497 108 493 C108 488 107 485 107 485 L111 485 C123 485 126 459 119 420 L120 420 L73 155 C56 59 94 -5 190 -5 C280 -5 341 31 381 87 L374 48 L369 18 L369 18 L366 0 L380 0 L464 25 L464 26 C465 31 466 34 466 34 C451 59 448 69 459 129 L459 129 L459 129 Z M360 675 L447 533 L455 539 L391 725 C389 731 383 745 372 745 C362 745 351 731 346 725 L216 539 L222 533 L360 675 L360 675 Z " />
<glyph glyph-name="udieresis" unicode="&#xfc;" horiz-adv-x="501" d="M433 570 C459 570 479 587 484 613 C489 639 474 656 449 656 C423 656 403 639 398 613 C394 587 408 570 433 570 L433 570 Z M249 570 C274 570 295 587 299 613 C304 639 290 656 264 656 C239 656 218 639 214 613 C209 587 223 570 249 570 L249 570 Z M459 129 L459 129 L524 500 L489 500 L454 500 L430 500 C429 497 428 486 428 485 L431 485 C442 485 446 463 441 428 L385 110 L385 110 L384 106 C360 67 318 41 253 41 C167 41 131 90 144 162 L204 500 L169 500 L134 500 L110 500 C110 500 109 497 108 493 C108 488 107 485 107 485 L111 485 C123 485 126 459 119 420 L120 420 L73 155 C56 59 94 -5 190 -5 C280 -5 341 31 381 87 L374 48 L369 18 L369 18 L366 0 L380 0 L464 25 L464 26 C465 31 466 34 466 34 C451 59 448 69 459 129 L459 129 L459 129 Z " />
<glyph glyph-name="Ydieresis" unicode="&#xff;" horiz-adv-x="405" d="M422 570 C448 570 468 587 472 613 C477 639 463 656 437 656 C412 656 392 639 387 613 C382 587 397 570 422 570 L422 570 Z M237 570 C263 570 283 587 288 613 C292 639 278 656 252 656 C227 656 207 639 202 613 C198 587 212 570 237 570 L237 570 Z M458 420 L458 420 L271 80 L206 420 L206 420 C198 459 199 485 208 485 L211 485 C211 485 212 488 213 493 C213 497 214 500 214 500 L190 500 L150 500 L110 500 L92 500 C92 500 91 497 91 493 C90 488 89 485 89 485 L93 485 C104 485 116 464 125 433 L220 -1 L182 -66 C133 -151 101 -184 66 -184 C43 -184 23 -160 -2 -160 C-23 -160 -39 -172 -42 -189 C-47 -214 -24 -230 15 -230 C82 -230 134 -186 199 -72 L234 -10 L488 435 C507 466 526 485 537 485 L540 485 C540 485 541 488 541 493 C542 497 543 500 543 500 L525 500 L513 500 L502 500 L478 500 C478 500 477 497 476 493 C476 488 475 485 475 485 L478 485 C487 485 479 459 458 420 L458 420 L458 420 Z " />
<glyph glyph-name="Amacron" unicode="&#x100;" horiz-adv-x="615" d="M271 767 L571 767 L578 806 L278 806 L271 767 L271 767 Z M559 80 L559 80 L417 675 L392 675 L68 68 C49 36 31 15 20 15 L16 15 C16 15 15 12 15 8 C14 3 13 0 13 0 L32 0 L49 0 L65 0 L100 0 C100 0 101 3 102 8 C102 12 103 15 103 15 L98 15 C83 15 90 47 115 95 L115 95 L187 234 L417 234 L450 80 L450 80 C459 41 457 15 445 15 L441 15 C442 15 439 0 439 0 L468 0 L523 0 L578 0 L597 0 C597 1 600 15 599 15 L596 15 C582 15 568 41 559 80 L559 80 L559 80 Z M411 259 L200 259 L348 544 L411 259 L411 259 Z " />
<glyph glyph-name="amacron" unicode="&#x101;" horiz-adv-x="591" d="M200 607 L500 607 L507 646 L207 646 L200 607 L200 607 Z M498 129 L498 129 C519 253 541 376 563 500 L544 500 L488 390 C483 458 435 505 359 505 C234 505 131 392 101 223 C77 86 134 -5 242 -5 C321 -5 387 35 422 100 L413 45 C410 28 407 12 404 -5 L416 -5 L472 16 L503 25 L503 26 C504 31 505 34 505 34 C490 59 487 69 498 129 L498 129 Z M428 133 C405 75 352 38 288 38 C200 38 157 123 179 250 C204 392 273 486 352 486 C435 486 480 427 466 347 C453 276 441 205 428 133 L428 133 L428 133 Z " />
<glyph glyph-name="Abreve" unicode="&#x102;" horiz-adv-x="615" d="M319 871 C324 803 364 758 420 758 C475 758 531 803 560 871 L549 874 C531 833 482 805 428 805 C373 805 335 833 332 874 L319 871 L319 871 Z M559 80 L559 80 L417 675 L392 675 L68 68 C49 36 31 15 20 15 L16 15 C16 15 15 12 15 8 C14 3 13 0 13 0 L32 0 L49 0 L65 0 L100 0 C100 0 101 3 102 8 C102 12 103 15 103 15 L98 15 C83 15 90 47 115 95 L115 95 L187 234 L417 234 L450 80 L450 80 C459 41 457 15 445 15 L441 15 C442 15 439 0 439 0 L468 0 L523 0 L578 0 L597 0 C597 1 600 15 599 15 L596 15 C582 15 568 41 559 80 L559 80 L559 80 Z M411 259 L200 259 L348 544 L411 259 L411 259 Z " />
<glyph glyph-name="abreve" unicode="&#x103;" horiz-adv-x="591" d="M243 681 C248 613 288 568 343 568 C398 568 455 613 484 681 L472 684 C454 643 406 615 351 615 C297 615 258 643 255 684 L243 681 L243 681 Z M498 129 L498 129 C519 253 541 376 563 500 L544 500 L488 390 C483 458 435 505 359 505 C234 505 131 392 101 223 C77 86 134 -5 242 -5 C321 -5 387 35 422 100 L413 45 C410 28 407 12 404 -5 L416 -5 L472 16 L503 25 L503 26 C504 31 505 34 505 34 C490 59 487 69 498 129 L498 129 Z M428 133 C405 75 352 38 288 38 C200 38 157 123 179 250 C204 392 273 486 352 486 C435 486 480 427 466 347 C453 276 441 205 428 133 L428 133 L428 133 Z " />
<glyph glyph-name="Aogonek" unicode="&#x104;" horiz-adv-x="615" d="M559 80 L559 80 L417 675 L392 675 L68 68 C49 36 31 15 20 15 L16 15 C16 15 15 12 15 8 C14 3 13 0 13 0 L32 0 L49 0 L65 0 L100 0 C100 0 101 3 102 8 C102 12 103 15 103 15 L98 15 C83 15 90 47 115 95 L115 95 L187 234 L417 234 L450 80 L450 80 C459 41 457 15 445 15 L441 15 C442 15 440 5 439 1 C383 -30 299 -98 288 -156 C280 -203 320 -234 388 -234 C421 -234 456 -221 476 -201 L472 -196 C461 -207 435 -214 407 -214 C355 -214 325 -188 332 -148 C344 -83 433 -12 468 0 L523 0 L578 0 L597 0 C597 1 600 15 599 15 L596 15 C582 15 568 41 559 80 L559 80 L559 80 Z M411 259 L200 259 L348 544 L411 259 L411 259 Z " />
<glyph glyph-name="aogonek" unicode="&#x105;" horiz-adv-x="505" d="M452 24 C446 24 439 23 431 23 C401 23 396 48 403 85 L450 357 C466 446 426 505 351 505 C203 505 116 442 134 348 L204 348 C188 431 239 486 331 486 C372 486 392 441 379 373 L358 254 L255 239 C151 225 73 170 61 103 C50 38 88 -5 158 -5 C211 -5 273 19 324 57 C321 16 334 -10 377 -10 C387 -10 396 -9 405 -8 C360 -44 316 -92 309 -135 C298 -195 336 -234 405 -234 C438 -234 473 -221 493 -201 L489 -196 C478 -207 452 -214 424 -214 C372 -214 343 -179 353 -128 C361 -80 406 -29 444 2 C462 9 476 18 490 30 L493 45 C482 41 468 34 452 24 L452 24 L452 24 Z M355 237 L327 77 C327 76 327 75 327 75 C290 54 245 42 201 42 C152 42 125 74 134 123 C142 168 189 206 251 218 L355 237 L355 237 Z " />
<glyph glyph-name="Cacute" unicode="&#x106;" horiz-adv-x="724" d="M476 690 L611 818 C640 846 659 866 660 870 C661 879 637 900 625 900 C622 900 604 878 580 846 L470 697 L476 690 L476 690 Z M749 518 L758 572 C731 628 635 665 519 665 C311 665 150 531 114 330 C79 129 193 -5 400 -5 C517 -5 626 32 673 88 L683 142 L670 142 C665 137 658 129 653 123 C608 69 526 29 449 22 L449 22 C435 21 420 20 405 20 C264 20 192 144 225 330 C258 516 374 640 514 640 C544 640 573 637 599 633 L599 632 C652 623 703 584 726 537 C729 531 733 523 736 518 L749 518 L749 518 Z " />
<glyph glyph-name="cacute" unicode="&#x107;" horiz-adv-x="503" d="M322 530 L457 658 C485 686 505 706 506 710 C507 719 483 740 471 740 C468 740 450 718 426 686 L316 537 L322 530 L322 530 Z M469 133 L461 137 C422 78 364 38 317 38 C209 38 153 127 177 260 C201 396 283 486 383 486 C429 486 456 453 452 404 C450 383 462 369 481 369 C500 369 514 382 517 400 C523 463 474 505 395 505 C246 505 127 396 98 233 C73 90 134 -5 251 -5 C328 -5 415 50 469 133 L469 133 Z " />
<glyph glyph-name="Ccircumflex" unicode="&#x108;" horiz-adv-x="724" d="M749 518 L758 572 C731 628 635 665 519 665 C311 665 150 531 114 330 C79 129 193 -5 400 -5 C517 -5 626 32 673 88 L683 142 L670 142 C665 137 658 129 653 123 C608 69 526 29 449 22 L449 22 C435 21 420 20 405 20 C264 20 192 144 225 330 C258 516 374 640 514 640 C544 640 573 637 599 633 L599 632 C652 623 703 584 726 537 C729 531 733 523 736 518 L749 518 L749 518 Z M549 835 L636 693 L644 699 L580 885 C578 891 571 905 561 905 C550 905 539 891 535 885 L405 699 L411 693 L549 835 L549 835 Z " />
<glyph glyph-name="Cdot" unicode="&#x10a;" horiz-adv-x="724" d="M530 730 C556 730 576 747 580 773 C585 799 571 816 545 816 C520 816 500 799 495 773 C491 747 505 730 530 730 L530 730 Z M749 518 L758 572 C731 628 635 665 519 665 C311 665 150 531 114 330 C79 129 193 -5 400 -5 C517 -5 626 32 673 88 L683 142 L670 142 C665 137 658 129 653 123 C608 69 526 29 449 22 L449 22 C435 21 420 20 405 20 C264 20 192 144 225 330 C258 516 374 640 514 640 C544 640 573 637 599 633 L599 632 C652 623 703 584 726 537 C729 531 733 523 736 518 L749 518 L749 518 Z " />
<glyph glyph-name="cdot" unicode="&#x10b;" horiz-adv-x="503" d="M406 570 C432 570 452 587 457 613 C461 639 447 656 421 656 C396 656 376 639 371 613 C367 587 381 570 406 570 L406 570 Z M469 133 L461 137 C422 78 364 38 317 38 C209 38 153 127 177 260 C201 396 283 486 383 486 C429 486 456 453 452 404 C450 383 462 369 481 369 C500 369 514 382 517 400 C523 463 474 505 395 505 C246 505 127 396 98 233 C73 90 134 -5 251 -5 C328 -5 415 50 469 133 L469 133 Z " />
<glyph glyph-name="Ccaron" unicode="&#x10c;" horiz-adv-x="724" d="M749 518 L758 572 C731 628 635 665 519 665 C311 665 150 531 114 330 C79 129 193 -5 400 -5 C517 -5 626 32 673 88 L683 142 L670 142 C665 137 658 129 653 123 C608 69 526 29 449 22 L449 22 C435 21 420 20 405 20 C264 20 192 144 225 330 C258 516 374 640 514 640 C544 640 573 637 599 633 L599 632 C652 623 703 584 726 537 C729 531 733 523 736 518 L749 518 L749 518 Z M540 785 L677 927 L683 921 L553 735 C549 729 538 715 527 715 C516 715 511 729 509 735 L444 921 L453 927 L540 785 L540 785 Z " />
<glyph glyph-name="ccaron" unicode="&#x10d;" horiz-adv-x="503" d="M469 133 L461 137 C422 78 364 38 317 38 C209 38 153 127 177 260 C201 396 283 486 383 486 C429 486 456 453 452 404 C450 383 462 369 481 369 C500 369 514 382 517 400 C523 463 474 505 395 505 C246 505 127 396 98 233 C73 90 134 -5 251 -5 C328 -5 415 50 469 133 L469 133 Z M416 625 L553 767 L559 761 L430 575 C425 569 415 555 404 555 C393 555 387 569 385 575 L321 761 L329 767 L416 625 L416 625 Z " />
<glyph glyph-name="Dcaron" unicode="&#x10e;" horiz-adv-x="688" d="M160 645 L164 645 C175 645 180 622 174 587 L85 80 L85 80 C78 41 65 15 53 15 L49 15 C50 15 47 0 47 0 L71 0 L121 0 L171 0 L285 641 L392 641 C543 641 622 517 589 330 C556 143 448 19 319 19 L175 19 L171 0 L315 0 C505 0 655 132 690 330 C725 528 607 660 396 660 L288 660 L237 660 L187 660 L163 660 C163 659 161 645 160 645 L160 645 L160 645 Z M439 785 L577 927 L583 921 L453 735 C449 729 438 715 427 715 C416 715 410 729 408 735 L344 921 L352 927 L439 785 L439 785 Z " />
<glyph glyph-name="dcaron" unicode="&#x10f;" horiz-adv-x="613" d="M520 129 L520 129 L605 610 L605 610 L616 676 L621 702 L621 702 L624 720 L610 720 L526 695 L526 694 C525 689 524 686 524 686 C539 661 542 651 531 591 L531 591 L504 438 C483 479 437 505 374 505 C240 505 131 392 101 223 C77 86 140 -5 258 -5 C330 -5 400 28 441 80 L435 44 L430 18 L430 18 L427 0 L441 0 L525 25 L525 26 C526 31 527 34 527 34 C512 59 509 69 520 129 L520 129 Z M731 629 C763 680 787 730 788 737 C790 748 760 753 747 753 C733 753 706 690 690 645 L630 482 L638 479 L731 629 L731 629 Z M446 110 L446 110 L444 96 C417 61 363 38 304 38 C206 38 157 123 179 250 C204 392 279 486 368 486 C440 486 486 450 497 397 L446 110 L446 110 Z " />
<glyph glyph-name="Emacron" unicode="&#x112;" horiz-adv-x="531" d="M451 312 C452 320 454 330 456 339 L456 339 L458 352 C460 363 462 377 464 388 L452 388 L448 385 C436 373 400 366 357 365 L340 365 L230 365 L282 660 L278 635 L417 635 C477 635 530 620 548 598 L554 592 L565 592 C568 609 572 631 574 647 C575 651 576 656 577 660 L567 660 L497 660 L282 660 L232 660 L181 660 L158 660 C157 660 155 645 155 645 L158 645 C170 645 174 622 168 587 L79 80 L79 80 C72 41 60 15 47 15 L44 15 C44 15 43 12 43 8 C42 3 41 0 41 0 L65 0 L115 0 L166 0 L383 0 L461 0 L463 0 C464 4 466 9 467 13 C473 29 481 51 487 68 L476 68 L467 62 C437 40 377 25 316 25 L170 25 L229 358 L226 339 L336 339 C387 339 427 330 436 316 L439 312 L451 312 L451 312 Z M243 767 L543 767 L550 806 L250 806 L243 767 L243 767 Z " />
<glyph glyph-name="emacron" unicode="&#x113;" horiz-adv-x="510" d="M196 333 C230 427 290 486 359 486 C428 486 466 443 455 378 L455 377 C451 358 436 345 418 344 C417 344 416 344 415 344 L418 344 L448 345 L196 333 L196 333 Z M234 607 L534 607 L541 646 L241 646 L234 607 L234 607 Z M476 133 L467 137 C429 78 370 38 320 38 C211 38 153 127 177 260 C181 281 186 301 192 320 L509 320 C529 431 472 505 366 505 C234 505 127 396 98 233 C73 90 135 -5 254 -5 C333 -5 422 50 476 133 L476 133 Z " />
<glyph glyph-name="Ebreve" unicode="&#x114;" horiz-adv-x="531" d="M451 312 C452 320 454 330 456 339 L456 339 L458 352 C460 363 462 377 464 388 L452 388 L448 385 C436 373 400 366 357 365 L340 365 L230 365 L282 660 L278 635 L417 635 C477 635 530 620 548 598 L554 592 L565 592 C568 609 572 631 574 647 C575 651 576 656 577 660 L567 660 L497 660 L282 660 L232 660 L181 660 L158 660 C157 660 155 645 155 645 L158 645 C170 645 174 622 168 587 L79 80 L79 80 C72 41 60 15 47 15 L44 15 C44 15 43 12 43 8 C42 3 41 0 41 0 L65 0 L115 0 L166 0 L383 0 L461 0 L463 0 C464 4 466 9 467 13 C473 29 481 51 487 68 L476 68 L467 62 C437 40 377 25 316 25 L170 25 L229 358 L226 339 L336 339 C387 339 427 330 436 316 L439 312 L451 312 L451 312 Z M291 871 C296 803 336 758 392 758 C447 758 503 803 532 871 L521 874 C503 833 454 805 400 805 C345 805 307 833 304 874 L291 871 L291 871 Z " />
<glyph glyph-name="ebreve" unicode="&#x115;" horiz-adv-x="510" d="M196 333 C230 427 290 486 359 486 C428 486 466 443 455 378 L455 377 C451 358 436 345 418 344 C417 344 416 344 415 344 L418 344 L448 345 L196 333 L196 333 Z M282 711 C287 643 327 598 383 598 C438 598 495 643 523 711 L512 714 C494 673 446 645 391 645 C336 645 298 673 295 714 L282 711 L282 711 Z M476 133 L467 137 C429 78 370 38 320 38 C211 38 153 127 177 260 C181 281 186 301 192 320 L509 320 C529 431 472 505 366 505 C234 505 127 396 98 233 C73 90 135 -5 254 -5 C333 -5 422 50 476 133 L476 133 Z " />
<glyph glyph-name="Edot" unicode="&#x116;" horiz-adv-x="531" d="M451 312 C452 320 454 330 456 339 L456 339 L458 352 C460 363 462 377 464 388 L452 388 L448 385 C436 373 400 366 357 365 L340 365 L230 365 L282 660 L278 635 L417 635 C477 635 530 620 548 598 L554 592 L565 592 C568 609 572 631 574 647 C575 651 576 656 577 660 L567 660 L497 660 L282 660 L232 660 L181 660 L158 660 C157 660 155 645 155 645 L158 645 C170 645 174 622 168 587 L79 80 L79 80 C72 41 60 15 47 15 L44 15 C44 15 43 12 43 8 C42 3 41 0 41 0 L65 0 L115 0 L166 0 L383 0 L461 0 L463 0 C464 4 466 9 467 13 C473 29 481 51 487 68 L476 68 L467 62 C437 40 377 25 316 25 L170 25 L229 358 L226 339 L336 339 C387 339 427 330 436 316 L439 312 L451 312 L451 312 Z M387 730 C412 730 433 747 437 773 C442 799 428 816 402 816 C376 816 356 799 351 773 C347 747 361 730 387 730 L387 730 Z " />
<glyph glyph-name="edot" unicode="&#x117;" horiz-adv-x="510" d="M196 333 C230 427 290 486 359 486 C428 486 466 443 455 378 L455 377 C451 358 436 345 418 344 C417 344 416 344 415 344 L418 344 L448 345 L196 333 L196 333 Z M378 570 C403 570 424 587 428 613 C433 639 419 656 393 656 C368 656 347 639 343 613 C338 587 352 570 378 570 L378 570 Z M476 133 L467 137 C429 78 370 38 320 38 C211 38 153 127 177 260 C181 281 186 301 192 320 L509 320 C529 431 472 505 366 505 C234 505 127 396 98 233 C73 90 135 -5 254 -5 C333 -5 422 50 476 133 L476 133 Z " />
<glyph glyph-name="Eogonek" unicode="&#x118;" horiz-adv-x="531" d="M451 312 C452 320 454 330 456 339 L456 339 L458 352 C460 363 462 377 464 388 L452 388 L448 385 C436 373 400 366 357 365 L340 365 L230 365 L282 660 L278 635 L417 635 C477 635 530 620 548 598 L554 592 L565 592 C568 609 572 631 574 647 C575 651 576 656 577 660 L567 660 L497 660 L282 660 L232 660 L181 660 L158 660 C157 660 155 645 155 645 L158 645 C170 645 174 622 168 587 L79 80 L79 80 C72 41 60 15 47 15 L44 15 C44 15 43 12 43 8 C42 3 41 0 41 0 L65 0 L115 0 L166 0 L383 0 L430 0 C374 -32 292 -99 281 -156 C273 -203 313 -234 381 -234 C415 -234 450 -221 469 -201 L465 -196 C454 -207 428 -214 400 -214 C349 -214 319 -188 325 -148 C337 -83 426 -12 461 0 L463 0 C464 4 466 9 467 13 C473 29 481 51 487 68 L476 68 L467 62 C437 40 377 25 316 25 L170 25 L229 358 L226 339 L336 339 C387 339 427 330 436 316 L439 312 L451 312 L451 312 Z " />
<glyph glyph-name="eogonek" unicode="&#x119;" horiz-adv-x="510" d="M196 333 C230 427 290 486 359 486 C428 486 466 443 455 378 L455 377 C451 358 436 345 418 344 C417 344 416 344 415 344 L418 344 L448 345 L196 333 L196 333 Z M192 320 L509 320 C529 431 472 505 366 505 C234 505 127 396 98 233 C73 90 135 -5 254 -5 C268 -5 281 -3 295 0 C247 -37 199 -88 191 -134 C180 -194 218 -234 287 -234 C320 -234 355 -221 375 -201 L371 -196 C360 -207 334 -214 306 -214 C254 -214 226 -179 235 -126 C245 -70 303 -11 345 17 C353 21 362 25 370 30 C371 31 371 31 372 31 L372 31 C412 56 448 91 476 133 L467 137 C429 78 370 38 320 38 C211 38 153 127 177 260 C181 281 186 301 192 320 L192 320 L192 320 Z " />
<glyph glyph-name="Ecaron" unicode="&#x11a;" horiz-adv-x="531" d="M451 312 C452 320 454 330 456 339 L456 339 L458 352 C460 363 462 377 464 388 L452 388 L448 385 C436 373 400 366 357 365 L340 365 L230 365 L282 660 L278 635 L417 635 C477 635 530 620 548 598 L554 592 L565 592 C568 609 572 631 574 647 C575 651 576 656 577 660 L567 660 L497 660 L282 660 L232 660 L181 660 L158 660 C157 660 155 645 155 645 L158 645 C170 645 174 622 168 587 L79 80 L79 80 C72 41 60 15 47 15 L44 15 C44 15 43 12 43 8 C42 3 41 0 41 0 L65 0 L115 0 L166 0 L383 0 L461 0 L463 0 C464 4 466 9 467 13 C473 29 481 51 487 68 L476 68 L467 62 C437 40 377 25 316 25 L170 25 L229 358 L226 339 L336 339 C387 339 427 330 436 316 L439 312 L451 312 L451 312 Z M397 785 L534 927 L540 921 L410 735 C406 729 395 715 384 715 C373 715 367 729 365 735 L301 921 L309 927 L397 785 L397 785 Z " />
<glyph glyph-name="ecaron" unicode="&#x11b;" horiz-adv-x="510" d="M196 333 C230 427 290 486 359 486 C428 486 466 443 455 378 L455 377 C451 358 436 345 418 344 C417 344 416 344 415 344 L418 344 L448 345 L196 333 L196 333 Z M476 133 L467 137 C429 78 370 38 320 38 C211 38 153 127 177 260 C181 281 186 301 192 320 L509 320 C529 431 472 505 366 505 C234 505 127 396 98 233 C73 90 135 -5 254 -5 C333 -5 422 50 476 133 L476 133 Z M388 625 L525 767 L531 761 L401 575 C397 569 386 555 375 555 C364 555 358 569 357 575 L292 761 L301 767 L388 625 L388 625 Z " />
<glyph glyph-name="Gcircumflex" unicode="&#x11c;" horiz-adv-x="763" d="M719 310 L695 310 L650 310 L605 310 L581 310 C581 310 580 307 580 303 C579 298 578 295 578 295 L582 295 C593 295 596 273 592 239 C575 141 562 70 558 44 C506 29 447 20 395 20 C260 20 192 144 225 330 C258 516 370 640 504 640 C533 640 560 637 585 632 C636 620 684 584 706 537 C709 531 713 523 716 518 L729 518 L738 572 C711 628 619 665 509 665 C307 665 150 531 114 330 C79 129 189 -5 390 -5 C478 -5 582 19 650 55 C651 55 664 127 683 241 C691 274 702 295 713 295 L717 295 C717 296 719 307 719 310 L719 310 Z M539 835 L626 693 L634 699 L570 885 C568 891 561 905 551 905 C540 905 529 891 525 885 L395 699 L401 693 L539 835 L539 835 Z " />
<glyph glyph-name="Gbreve" unicode="&#x11e;" horiz-adv-x="763" d="M424 871 C429 803 470 758 525 758 C581 758 637 803 665 871 L654 874 C636 833 588 805 533 805 C478 805 440 833 437 874 L424 871 L424 871 Z M719 310 L695 310 L650 310 L605 310 L581 310 C581 310 580 307 580 303 C579 298 578 295 578 295 L582 295 C593 295 596 273 592 239 C575 141 562 70 558 44 C506 29 447 20 395 20 C260 20 192 144 225 330 C258 516 370 640 504 640 C533 640 560 637 585 632 C636 620 684 584 706 537 C709 531 713 523 716 518 L729 518 L738 572 C711 628 619 665 509 665 C307 665 150 531 114 330 C79 129 189 -5 390 -5 C478 -5 582 19 650 55 C651 55 664 127 683 241 C691 274 702 295 713 295 L717 295 C717 296 719 307 719 310 L719 310 Z " />
<glyph glyph-name="gbreve" unicode="&#x11f;" horiz-adv-x="484" d="M252 711 C257 643 297 598 353 598 C408 598 465 643 494 711 L482 714 C464 673 416 645 361 645 C306 645 268 673 265 714 L252 711 L252 711 Z M566 500 L426 485 C402 498 372 505 337 505 C231 505 149 442 133 349 C120 279 150 225 211 203 C137 198 83 160 74 105 C64 54 96 19 156 10 C76 -16 18 -65 9 -118 C-4 -191 48 -240 139 -240 C305 -240 429 -161 450 -43 C463 29 400 77 292 77 L211 74 C153 71 119 94 126 132 C132 168 172 192 226 192 L281 192 C387 192 469 255 485 349 C493 394 484 432 460 459 L559 461 L566 500 L566 500 Z M199 349 C214 433 268 489 334 489 C400 489 434 433 419 349 C404 264 350 208 284 208 C218 208 184 264 199 349 L199 349 Z M177 8 C185 7 193 8 202 8 L262 11 C350 11 403 -25 393 -78 C378 -163 281 -220 150 -220 C83 -220 46 -176 58 -110 C67 -58 113 -12 177 8 L177 8 L177 8 Z " />
<glyph glyph-name="Gdot" unicode="&#x120;" horiz-adv-x="763" d="M520 730 C546 730 566 747 570 773 C575 799 561 816 535 816 C510 816 490 799 485 773 C481 747 495 730 520 730 L520 730 Z M719 310 L695 310 L650 310 L605 310 L581 310 C581 310 580 307 580 303 C579 298 578 295 578 295 L582 295 C593 295 596 273 592 239 C575 141 562 70 558 44 C506 29 447 20 395 20 C260 20 192 144 225 330 C258 516 370 640 504 640 C533 640 560 637 585 632 C636 620 684 584 706 537 C709 531 713 523 716 518 L729 518 L738 572 C711 628 619 665 509 665 C307 665 150 531 114 330 C79 129 189 -5 390 -5 C478 -5 582 19 650 55 C651 55 664 127 683 241 C691 274 702 295 713 295 L717 295 C717 296 719 307 719 310 L719 310 Z " />
<glyph glyph-name="gdot" unicode="&#x121;" horiz-adv-x="484" d="M348 570 C374 570 394 587 398 613 C403 639 389 656 363 656 C338 656 318 639 313 613 C308 587 323 570 348 570 L348 570 Z M566 500 L426 485 C402 498 372 505 337 505 C231 505 149 442 133 349 C120 279 150 225 211 203 C137 198 83 160 74 105 C64 54 96 19 156 10 C76 -16 18 -65 9 -118 C-4 -191 48 -240 139 -240 C305 -240 429 -161 450 -43 C463 29 400 77 292 77 L211 74 C153 71 119 94 126 132 C132 168 172 192 226 192 L281 192 C387 192 469 255 485 349 C493 394 484 432 460 459 L559 461 L566 500 L566 500 Z M199 349 C214 433 268 489 334 489 C400 489 434 433 419 349 C404 264 350 208 284 208 C218 208 184 264 199 349 L199 349 Z M177 8 C185 7 193 8 202 8 L262 11 C350 11 403 -25 393 -78 C378 -163 281 -220 150 -220 C83 -220 46 -176 58 -110 C67 -58 113 -12 177 8 L177 8 L177 8 Z " />
<glyph glyph-name="Hcircumflex" unicode="&#x124;" horiz-adv-x="685" d="M604 645 L608 645 C619 645 623 621 618 586 L578 360 L229 360 L268 580 L268 580 C275 619 287 645 300 645 L303 645 C303 645 304 648 305 653 C305 657 306 660 306 660 L282 660 L232 660 L181 660 L158 660 C157 660 155 645 155 645 L158 645 C170 645 174 622 168 587 L79 80 L79 80 C72 41 60 15 47 15 L44 15 C44 15 43 12 43 8 C42 3 41 0 41 0 L65 0 L115 0 L166 0 L190 0 C190 1 192 12 192 15 L189 15 C177 15 173 38 179 73 L225 334 L573 334 L525 64 C518 34 507 15 497 15 L493 15 C492 12 491 1 491 0 L514 0 L565 0 L615 0 L639 0 C639 0 640 3 640 8 C641 12 642 15 642 15 L638 15 C627 15 623 39 628 74 L721 600 C729 627 739 645 749 645 L753 645 C753 645 754 648 754 653 C755 657 756 660 755 660 L732 660 L681 660 L631 660 L607 660 C607 659 605 645 604 645 L604 645 Z M487 835 L574 693 L583 699 L519 885 C516 891 510 905 500 905 C489 905 478 891 474 885 L344 699 L350 693 L487 835 L487 835 Z " />
<glyph glyph-name="Itilde" unicode="&#x128;" horiz-adv-x="230" d="M102 755 C109 793 130 818 156 818 C216 818 262 756 322 756 C366 756 403 799 414 862 L403 862 C397 826 374 802 345 802 C285 802 239 865 180 865 C138 865 102 821 90 755 L102 755 L102 755 Z M300 660 L276 660 L226 660 L176 660 L152 660 C152 658 149 651 149 645 L153 645 C164 645 168 621 163 586 L73 80 L73 80 C66 41 54 15 42 15 L38 15 C38 15 37 12 37 8 C36 3 35 0 35 0 L59 0 L110 0 L160 0 L184 0 C184 0 185 3 185 8 C186 12 187 15 187 15 L183 15 C172 15 167 38 173 73 L262 580 L262 580 C269 619 282 645 294 645 L298 645 C298 646 300 657 300 660 L300 660 Z " />
<glyph glyph-name="itilde" unicode="&#x129;" horiz-adv-x="221" d="M75 595 C81 633 103 658 129 658 C188 658 235 596 295 596 C339 596 376 639 387 702 L376 702 C369 666 346 642 318 642 C258 642 212 705 152 705 C110 705 75 661 63 595 L75 595 L75 595 Z M146 0 L170 0 C170 1 172 12 172 15 L167 15 C156 15 149 13 146 1 L220 420 C233 491 235 505 235 505 L231 505 L140 479 C140 479 140 477 139 474 C139 471 139 469 138 469 L149 447 C151 441 152 432 146 400 L147 400 L76 0 C78 13 71 15 59 15 L55 15 C55 13 52 6 52 0 L76 0 L146 0 L146 0 Z " />
<glyph glyph-name="Imacron" unicode="&#x12a;" horiz-adv-x="230" d="M95 767 L395 767 L402 806 L102 806 L95 767 L95 767 Z M300 660 L276 660 L226 660 L176 660 L152 660 C152 658 149 651 149 645 L153 645 C164 645 168 621 163 586 L73 80 L73 80 C66 41 54 15 42 15 L38 15 C38 15 37 12 37 8 C36 3 35 0 35 0 L59 0 L110 0 L160 0 L184 0 C184 0 185 3 185 8 C186 12 187 15 187 15 L183 15 C172 15 167 38 173 73 L262 580 L262 580 C269 619 282 645 294 645 L298 645 C298 646 300 657 300 660 L300 660 Z " />
<glyph glyph-name="imacron" unicode="&#x12b;" horiz-adv-x="221" d="M68 607 L368 607 L375 646 L75 646 L68 607 L68 607 Z M146 0 L170 0 C170 1 172 12 172 15 L167 15 C156 15 149 13 146 1 L220 420 C233 491 235 505 235 505 L231 505 L140 479 C140 479 140 477 139 474 C139 471 139 469 138 469 L149 447 C151 441 152 432 146 400 L147 400 L76 0 C78 13 71 15 59 15 L55 15 C55 13 52 6 52 0 L76 0 L146 0 L146 0 Z " />
<glyph glyph-name="Ibreve" unicode="&#x12c;" horiz-adv-x="230" d="M143 871 C147 803 188 758 243 758 C299 758 355 803 384 871 L372 874 C355 833 306 805 252 805 C197 805 159 833 155 874 L143 871 L143 871 Z M300 660 L276 660 L226 660 L176 660 L152 660 C152 658 149 651 149 645 L153 645 C164 645 168 621 163 586 L73 80 L73 80 C66 41 54 15 42 15 L38 15 C38 15 37 12 37 8 C36 3 35 0 35 0 L59 0 L110 0 L160 0 L184 0 C184 0 185 3 185 8 C186 12 187 15 187 15 L183 15 C172 15 167 38 173 73 L262 580 L262 580 C269 619 282 645 294 645 L298 645 C298 646 300 657 300 660 L300 660 Z " />
<glyph glyph-name="ibreve" unicode="&#x12d;" horiz-adv-x="221" d="M116 711 C120 643 161 598 216 598 C272 598 328 643 357 711 L345 714 C328 673 279 645 224 645 C170 645 132 673 128 714 L116 711 L116 711 Z M146 0 L170 0 C170 1 172 12 172 15 L167 15 C156 15 149 13 146 1 L220 420 C233 491 235 505 235 505 L231 505 L140 479 C140 479 140 477 139 474 C139 471 139 469 138 469 L149 447 C151 441 152 432 146 400 L147 400 L76 0 C78 13 71 15 59 15 L55 15 C55 13 52 6 52 0 L76 0 L146 0 L146 0 Z " />
<glyph glyph-name="Idot" unicode="&#x130;" horiz-adv-x="230" d="M238 730 C264 730 284 747 289 773 C293 799 279 816 253 816 C228 816 208 799 203 773 C199 747 213 730 238 730 L238 730 Z M300 660 L276 660 L226 660 L176 660 L152 660 C152 658 149 651 149 645 L153 645 C164 645 168 621 163 586 L73 80 L73 80 C66 41 54 15 42 15 L38 15 C38 15 37 12 37 8 C36 3 35 0 35 0 L59 0 L110 0 L160 0 L184 0 C184 0 185 3 185 8 C186 12 187 15 187 15 L183 15 C172 15 167 38 173 73 L262 580 L262 580 C269 619 282 645 294 645 L298 645 C298 646 300 657 300 660 L300 660 Z " />
<glyph glyph-name="dotlessi" unicode="&#x131;" horiz-adv-x="221" d="M146 0 L170 0 C170 1 172 12 172 15 L167 15 C156 15 149 13 146 1 L220 420 C233 491 235 505 235 505 L231 505 L140 479 C140 479 140 477 139 474 C139 471 139 469 138 469 L149 447 C151 441 152 432 146 400 L147 400 L76 0 C78 13 71 15 59 15 L55 15 C55 13 52 6 52 0 L76 0 L146 0 L146 0 Z " />
<glyph glyph-name="Jcircumflex" unicode="&#x134;" horiz-adv-x="356" d="M275 645 L278 645 C290 645 294 623 288 588 L220 200 C196 60 172 6 135 6 C105 6 84 24 82 50 C80 69 68 81 52 81 C29 81 14 69 16 50 C18 14 57 -10 113 -10 C236 -10 299 73 336 285 L388 580 L388 580 C394 619 407 645 420 645 L423 645 C423 645 424 648 424 653 C425 657 426 660 426 660 L402 660 L352 660 L301 660 L277 660 C276 657 275 646 275 645 L275 645 Z M382 835 L469 693 L478 699 L414 885 C411 891 405 905 395 905 C384 905 373 891 369 885 L239 699 L245 693 L382 835 L382 835 Z " />
<glyph glyph-name="Lacute" unicode="&#x139;" horiz-adv-x="531" d="M213 690 L348 818 C376 846 396 866 397 870 C398 879 374 900 362 900 C359 900 342 878 317 846 L207 697 L213 690 L213 690 Z M155 645 L158 645 C170 645 174 622 168 587 L79 80 L79 80 C72 41 60 15 47 15 L44 15 C44 15 43 12 43 8 C42 3 41 0 41 0 L65 0 L115 0 L166 0 L383 0 L461 0 L463 0 C464 4 466 9 467 13 C473 30 481 53 487 70 C487 70 486 71 484 71 C475 72 469 73 469 73 L461 66 C434 42 381 25 326 25 L170 25 L268 580 L268 580 C275 619 287 645 300 645 L303 645 C303 645 304 648 305 653 C305 657 306 660 306 660 L282 660 L232 660 L181 660 L158 660 C157 660 155 645 155 645 L155 645 Z " />
<glyph glyph-name="Lcaron" unicode="&#x13d;" horiz-adv-x="531" d="M155 645 L158 645 C170 645 174 622 168 587 L79 80 L79 80 C72 41 60 15 47 15 L44 15 C44 15 43 12 43 8 C42 3 41 0 41 0 L65 0 L115 0 L166 0 L383 0 L461 0 L463 0 C464 4 466 9 467 13 C473 30 481 53 487 70 C487 70 486 71 484 71 C475 72 469 73 469 73 L461 66 C434 42 381 25 326 25 L170 25 L268 580 L268 580 C275 619 287 645 300 645 L303 645 C303 645 304 648 305 653 C305 657 306 660 306 660 L282 660 L232 660 L181 660 L158 660 C157 660 155 645 155 645 L155 645 Z M413 569 C445 620 469 670 470 677 C472 688 442 693 429 693 C414 693 388 630 372 585 L312 422 L320 419 L413 569 L413 569 Z " />
<glyph glyph-name="lcaron" unicode="&#x13e;" horiz-adv-x="221" d="M180 591 L180 591 L90 80 L90 80 C83 41 70 15 58 15 L55 15 C55 13 52 6 52 0 L76 0 L111 0 L146 0 L170 0 C170 1 172 12 172 15 L169 15 C157 15 154 37 158 71 L270 702 L270 702 L273 720 L259 720 L174 695 L174 694 C173 689 173 686 173 686 C188 661 191 651 180 591 L180 591 Z M374 599 C406 650 430 700 432 707 C434 718 404 723 391 723 C376 723 349 660 333 615 L273 452 L282 449 L374 599 L374 599 Z " />
<glyph glyph-name="Lslash" unicode="&#x141;" horiz-adv-x="531" d="M62 268 L115 285 L79 80 L79 80 C72 41 60 15 47 15 L44 15 C44 15 43 12 43 8 C42 3 41 0 41 0 L65 0 L115 0 L166 0 L383 0 L461 0 L463 0 C464 4 466 9 467 13 C473 30 481 53 487 70 C487 70 486 71 484 71 C475 72 469 73 469 73 L461 66 C434 42 381 25 326 25 L170 25 L222 319 L378 368 L382 392 L226 343 L268 580 L268 580 C275 619 287 645 300 645 L303 645 C303 645 304 648 305 653 C305 657 306 660 306 660 L282 660 L232 660 L181 660 L158 660 C157 660 155 645 155 645 L158 645 C170 645 174 622 168 587 L119 309 L66 292 L62 268 L62 268 Z " />
<glyph glyph-name="lslash" unicode="&#x142;" horiz-adv-x="221" d="M28 298 L135 335 L90 80 L90 80 C83 41 70 15 58 15 L55 15 C55 13 52 6 52 0 L76 0 L111 0 L146 0 L170 0 C170 1 172 12 172 15 L169 15 C157 15 154 37 158 71 L210 361 L316 398 L320 422 L214 385 L270 702 L270 702 L273 720 L259 720 L174 695 L174 694 C173 689 173 686 173 686 C188 661 191 651 180 591 L180 591 L139 359 L32 322 L28 298 L28 298 Z " />
<glyph glyph-name="Nacute" unicode="&#x143;" horiz-adv-x="619" d="M403 690 L538 818 C567 846 586 866 587 870 C589 879 564 900 552 900 C549 900 531 878 507 846 L397 697 L403 690 L403 690 Z M696 660 L672 660 L657 660 L642 660 L618 660 C617 657 616 646 616 645 L619 645 C631 645 635 622 629 587 L547 122 L285 660 L217 660 L202 660 L187 660 L163 660 C163 658 160 651 160 645 L164 645 C176 645 179 619 172 580 L173 580 L84 80 L84 80 C77 41 65 15 53 15 L49 15 C49 15 48 12 48 8 C47 3 46 0 46 0 L70 0 L85 0 L100 0 L124 0 C124 0 125 3 126 8 C126 12 127 15 127 15 L123 15 C111 15 107 41 115 80 L114 80 L203 581 L482 14 L497 -16 L553 -16 L565 51 L658 580 L658 580 C665 619 678 645 690 645 L694 645 C694 646 696 657 696 660 L696 660 L696 660 Z " />
<glyph glyph-name="nacute" unicode="&#x144;" horiz-adv-x="536" d="M287 530 L422 658 C450 686 470 706 471 710 C472 719 448 740 436 740 C433 740 415 718 391 686 L281 537 L287 530 L287 530 Z M492 15 L489 15 C477 15 473 40 479 77 L525 337 C543 438 521 505 433 505 C345 505 261 463 216 400 L234 500 L220 500 L135 475 C136 475 135 474 135 474 C135 469 134 466 134 466 L136 461 C147 443 150 430 144 391 L89 80 L89 80 C82 41 70 15 58 15 L54 15 C53 12 52 1 52 0 L75 0 L110 0 L145 0 L169 0 C169 0 169 3 171 8 C171 12 172 15 172 15 L168 15 C156 15 153 39 158 76 L213 385 C244 429 305 458 371 458 C447 458 468 407 454 329 L410 80 L410 80 C403 41 390 15 378 15 L375 15 C375 15 374 12 373 8 C373 3 372 0 372 0 L396 0 L431 0 L466 0 L490 0 C491 3 492 14 492 15 L492 15 Z " />
<glyph glyph-name="Ncaron" unicode="&#x147;" horiz-adv-x="619" d="M696 660 L672 660 L657 660 L642 660 L618 660 C617 657 616 646 616 645 L619 645 C631 645 635 622 629 587 L547 122 L285 660 L217 660 L202 660 L187 660 L163 660 C163 658 160 651 160 645 L164 645 C176 645 179 619 172 580 L173 580 L84 80 L84 80 C77 41 65 15 53 15 L49 15 C49 15 48 12 48 8 C47 3 46 0 46 0 L70 0 L85 0 L100 0 L124 0 C124 0 125 3 126 8 C126 12 127 15 127 15 L123 15 C111 15 107 41 115 80 L114 80 L203 581 L482 14 L497 -16 L553 -16 L565 51 L658 580 L658 580 C665 619 678 645 690 645 L694 645 C694 646 696 657 696 660 L696 660 L696 660 Z M451 785 L589 927 L595 921 L465 735 C461 729 450 715 439 715 C428 715 422 729 420 735 L356 921 L364 927 L451 785 L451 785 Z " />
<glyph glyph-name="ncaron" unicode="&#x148;" horiz-adv-x="536" d="M492 15 L489 15 C477 15 473 40 479 77 L525 337 C543 438 521 505 433 505 C345 505 261 463 216 400 L234 500 L220 500 L135 475 C136 475 135 474 135 474 C135 469 134 466 134 466 L136 461 C147 443 150 430 144 391 L89 80 L89 80 C82 41 70 15 58 15 L54 15 C53 12 52 1 52 0 L75 0 L110 0 L145 0 L169 0 C169 0 169 3 171 8 C171 12 172 15 172 15 L168 15 C156 15 153 39 158 76 L213 385 C244 429 305 458 371 458 C447 458 468 407 454 329 L410 80 L410 80 C403 41 390 15 378 15 L375 15 C375 15 374 12 373 8 C373 3 372 0 372 0 L396 0 L431 0 L466 0 L490 0 C491 3 492 14 492 15 L492 15 Z M381 625 L518 767 L524 761 L394 575 C390 569 380 555 369 555 C358 555 352 569 350 575 L286 761 L294 767 L381 625 L381 625 Z " />
<glyph glyph-name="Omacron" unicode="&#x14c;" horiz-adv-x="772" d="M371 767 L671 767 L678 806 L378 806 L371 767 L371 767 Z M390 20 C245 20 196 163 225 330 C255 497 354 640 499 640 C643 640 693 497 663 330 C634 163 534 20 390 20 L390 20 Z M114 330 C82 149 167 -5 385 -5 C603 -5 742 149 774 330 C806 511 721 665 503 665 C285 665 146 511 114 330 L114 330 Z " />
<glyph glyph-name="omacron" unicode="&#x14d;" horiz-adv-x="608" d="M261 607 L561 607 L568 646 L268 646 L261 607 L261 607 Z M306 11 C205 11 154 107 179 250 C204 393 289 489 390 489 C492 489 543 393 518 250 C493 107 408 11 306 11 L306 11 Z M101 250 C74 97 155 -5 303 -5 C451 -5 568 97 595 250 C622 403 541 505 393 505 C245 505 128 403 101 250 L101 250 Z " />
<glyph glyph-name="Obreve" unicode="&#x14e;" horiz-adv-x="772" d="M419 871 C424 803 464 758 520 758 C575 758 631 803 660 871 L649 874 C631 833 583 805 528 805 C473 805 435 833 432 874 L419 871 L419 871 Z M390 20 C245 20 196 163 225 330 C255 497 354 640 499 640 C643 640 693 497 663 330 C634 163 534 20 390 20 L390 20 Z M114 330 C82 149 167 -5 385 -5 C603 -5 742 149 774 330 C806 511 721 665 503 665 C285 665 146 511 114 330 L114 330 Z " />
<glyph glyph-name="obreve" unicode="&#x14f;" horiz-adv-x="608" d="M309 711 C314 643 354 598 410 598 C465 598 521 643 550 711 L539 714 C521 673 472 645 418 645 C363 645 325 673 322 714 L309 711 L309 711 Z M306 11 C205 11 154 107 179 250 C204 393 289 489 390 489 C492 489 543 393 518 250 C493 107 408 11 306 11 L306 11 Z M101 250 C74 97 155 -5 303 -5 C451 -5 568 97 595 250 C622 403 541 505 393 505 C245 505 128 403 101 250 L101 250 Z " />
<glyph glyph-name="Racute" unicode="&#x154;" horiz-adv-x="599" d="M338 690 L473 818 C501 846 521 866 522 870 C523 879 499 900 487 900 C484 900 467 878 442 846 L332 697 L338 690 L338 690 Z M160 645 L164 645 C175 645 180 622 174 587 L85 80 L85 80 C78 41 65 15 53 15 L49 15 C50 15 47 0 47 0 L71 0 L121 0 L171 0 L195 0 C195 0 198 14 198 15 L194 15 C183 15 179 39 184 74 L228 321 L227 315 L304 315 L418 106 C474 4 480 0 564 0 L593 0 L596 15 L591 15 C565 15 562 18 522 91 L394 321 C507 339 588 402 603 490 C621 592 543 660 407 660 L288 660 L237 660 L187 660 L163 660 C163 659 161 645 160 645 L160 645 L160 645 Z M326 335 L293 335 L230 335 L285 641 L404 641 C476 641 513 580 497 490 C481 397 413 335 326 335 L326 335 Z " />
<glyph glyph-name="Rcaron" unicode="&#x158;" horiz-adv-x="559" d="M160 645 L164 645 C175 645 180 622 174 587 L85 80 L85 80 C78 41 65 15 53 15 L49 15 C50 15 47 0 47 0 L71 0 L121 0 L171 0 L195 0 C195 0 198 14 198 15 L194 15 C183 15 179 39 184 74 L228 321 L227 315 L323 315 C348 179 437 35 545 -44 L554 -33 C501 7 443 149 410 324 C515 345 589 407 603 490 C621 592 543 660 407 660 L288 660 L237 660 L187 660 L163 660 C163 659 161 645 160 645 L160 645 L160 645 Z M432 785 L569 927 L575 921 L446 735 C442 729 431 715 420 715 C409 715 403 729 401 735 L337 921 L345 927 L432 785 L432 785 Z M230 335 L285 641 L404 641 C476 641 513 580 497 490 C481 397 413 335 326 335 L230 335 L230 335 Z " />
<glyph glyph-name="rcaron" unicode="&#x159;" horiz-adv-x="384" d="M52 0 L75 0 L110 0 L145 0 L169 0 C169 0 169 3 171 8 C171 12 172 15 172 15 L168 15 C156 15 153 39 158 76 L212 381 C236 425 272 453 309 453 C343 453 375 425 409 425 C429 425 445 438 448 458 C454 486 434 505 374 505 C310 505 249 460 214 391 L214 391 L216 402 L215 402 L224 500 L210 500 L135 475 C136 475 135 474 135 474 C135 469 134 466 134 466 L136 461 C147 443 150 430 144 391 L89 80 L89 80 C82 41 70 15 58 15 L54 15 C53 12 52 1 52 0 L52 0 Z M291 625 L428 767 L434 761 L304 575 C300 569 289 555 278 555 C267 555 261 569 260 575 L195 761 L204 767 L291 625 L291 625 Z " />
<glyph glyph-name="Sacute" unicode="&#x15a;" horiz-adv-x="521" d="M322 690 L457 818 C486 846 505 866 506 870 C507 879 483 900 471 900 C468 900 450 878 426 846 L316 697 L322 690 L322 690 Z M82 136 L69 136 L58 77 L75 87 L75 87 L58 77 C82 28 165 -5 266 -5 C387 -5 481 69 501 181 C515 261 459 336 361 369 C261 403 201 458 210 508 C224 587 284 640 360 640 C382 640 403 636 423 629 C456 616 492 569 511 524 L524 524 L535 583 L518 573 L518 573 L535 583 C511 632 445 665 369 665 C248 665 154 586 133 468 C120 394 174 323 269 291 C371 257 433 196 423 140 C410 68 349 20 270 20 C253 20 237 21 222 23 L222 24 C163 32 105 79 82 136 L82 136 Z " />
<glyph glyph-name="sacute" unicode="&#x15b;" horiz-adv-x="433" d="M240 530 L375 658 C403 686 423 706 424 710 C425 719 401 740 389 740 C386 740 368 718 344 686 L234 537 L240 530 L240 530 Z M81 102 L70 102 L62 61 C82 21 142 -5 213 -5 C311 -5 386 54 402 141 C411 191 372 244 306 275 C229 310 182 359 189 397 C199 452 247 489 310 489 C324 489 338 485 352 479 C374 466 396 439 409 408 C410 405 412 400 414 396 L426 396 L432 434 L421 427 L421 427 L432 434 C412 477 364 505 313 505 C217 505 145 452 131 373 C122 321 169 262 248 225 C310 198 346 154 339 115 C328 53 280 11 220 11 C210 11 201 12 192 13 L192 13 C148 19 100 56 81 102 L81 102 Z " />
<glyph glyph-name="Scircumflex" unicode="&#x15c;" horiz-adv-x="521" d="M82 136 L69 136 L58 77 L75 87 L75 87 L58 77 C82 28 165 -5 266 -5 C387 -5 481 69 501 181 C515 261 459 336 361 369 C261 403 201 458 210 508 C224 587 284 640 360 640 C382 640 403 636 423 629 C456 616 492 569 511 524 L524 524 L535 583 L518 573 L518 573 L535 583 C511 632 445 665 369 665 C248 665 154 586 133 468 C120 394 174 323 269 291 C371 257 433 196 423 140 C410 68 349 20 270 20 C253 20 237 21 222 23 L222 24 C163 32 105 79 82 136 L82 136 Z M394 835 L481 693 L490 699 L425 885 C423 891 417 905 407 905 C396 905 385 891 381 885 L251 699 L257 693 L394 835 L394 835 Z " />
<glyph glyph-name="Scedilla" unicode="&#x15e;" horiz-adv-x="521" d="M82 136 L69 136 L58 77 L75 87 L75 87 L58 77 C82 28 165 -5 266 -5 C387 -5 481 69 501 181 C515 261 459 336 361 369 C261 403 201 458 210 508 C224 587 284 640 360 640 C382 640 403 636 423 629 C456 616 492 569 511 524 L524 524 L535 583 L518 573 L518 573 L535 583 C511 632 445 665 369 665 C248 665 154 586 133 468 C120 394 174 323 269 291 C371 257 433 196 423 140 C410 68 349 20 270 20 C253 20 237 21 222 23 L222 24 C163 32 105 79 82 136 L82 136 Z " />
<glyph glyph-name="scedilla" unicode="&#x15f;" horiz-adv-x="433" d="M81 102 L70 102 L62 61 C82 21 142 -5 213 -5 C311 -5 386 54 402 141 C411 191 372 244 306 275 C229 310 182 359 189 397 C199 452 247 489 310 489 C324 489 338 485 352 479 C374 466 396 439 409 408 C410 405 412 400 414 396 L426 396 L432 434 L421 427 L421 427 L432 434 C412 477 364 505 313 505 C217 505 145 452 131 373 C122 321 169 262 248 225 C310 198 346 154 339 115 C328 53 280 11 220 11 C210 11 201 12 192 13 L192 13 C148 19 100 56 81 102 L81 102 Z " />
<glyph glyph-name="Scaron" unicode="&#x160;" horiz-adv-x="521" d="M82 136 L69 136 L58 77 L75 87 L75 87 L58 77 C82 28 165 -5 266 -5 C387 -5 481 69 501 181 C515 261 459 336 361 369 C261 403 201 458 210 508 C224 587 284 640 360 640 C382 640 403 636 423 629 C456 616 492 569 511 524 L524 524 L535 583 L518 573 L518 573 L535 583 C511 632 445 665 369 665 C248 665 154 586 133 468 C120 394 174 323 269 291 C371 257 433 196 423 140 C410 68 349 20 270 20 C253 20 237 21 222 23 L222 24 C163 32 105 79 82 136 L82 136 Z M386 785 L523 927 L529 921 L399 735 C395 729 384 715 373 715 C362 715 356 729 355 735 L290 921 L298 927 L386 785 L386 785 Z " />
<glyph glyph-name="scaron" unicode="&#x161;" horiz-adv-x="433" d="M81 102 L70 102 L62 61 C82 21 142 -5 213 -5 C311 -5 386 54 402 141 C411 191 372 244 306 275 C229 310 182 359 189 397 C199 452 247 489 310 489 C324 489 338 485 352 479 C374 466 396 439 409 408 C410 405 412 400 414 396 L426 396 L432 434 L421 427 L421 427 L432 434 C412 477 364 505 313 505 C217 505 145 452 131 373 C122 321 169 262 248 225 C310 198 346 154 339 115 C328 53 280 11 220 11 C210 11 201 12 192 13 L192 13 C148 19 100 56 81 102 L81 102 Z M334 625 L471 767 L477 761 L347 575 C343 569 333 555 322 555 C311 555 305 569 303 575 L239 761 L247 767 L334 625 L334 625 Z " />
<glyph glyph-name="Tcaron" unicode="&#x164;" horiz-adv-x="633" d="M716 587 C717 605 719 629 721 647 C721 651 722 656 722 660 L703 660 L642 660 L225 660 L163 660 L145 660 C144 656 142 651 141 647 C136 629 130 605 125 587 L137 587 L146 594 C177 619 230 635 278 635 L378 635 L281 78 C274 40 261 15 249 15 L245 15 C246 15 243 0 243 0 L267 0 L317 0 L367 0 L391 0 C391 0 392 3 392 8 C394 12 394 15 394 15 L390 15 C378 15 375 39 380 76 L479 635 L580 635 C628 635 675 619 697 594 L704 587 L716 587 L716 587 Z M456 785 L593 927 L599 921 L469 735 C465 729 454 715 443 715 C432 715 426 729 424 735 L360 921 L368 927 L456 785 L456 785 Z " />
<glyph glyph-name="tcaron" unicode="&#x165;" horiz-adv-x="358" d="M408 500 L265 500 L265 500 C273 547 281 593 289 640 L278 640 L200 492 L200 492 L258 603 C223 536 166 487 117 481 L115 473 L190 473 L126 112 C111 21 126 -5 195 -5 C249 -5 299 43 352 116 L346 119 C305 63 268 26 235 26 C193 26 183 42 194 100 C216 224 238 349 260 473 L403 473 L408 500 L408 500 Z M549 599 C580 650 605 700 606 707 C608 718 578 723 565 723 C550 723 523 660 508 615 L448 452 L456 449 L549 599 L549 599 Z " />
<glyph glyph-name="Utilde" unicode="&#x168;" horiz-adv-x="583" d="M287 755 C294 793 315 818 341 818 C401 818 447 756 507 756 C552 756 589 799 600 862 L588 862 C582 826 559 802 530 802 C470 802 425 865 365 865 C323 865 287 821 275 755 L287 755 L287 755 Z M591 645 L595 645 C610 645 614 615 606 570 L606 570 L539 189 C522 94 457 30 320 30 C209 30 178 95 195 192 L264 580 L264 580 C271 619 283 645 295 645 L299 645 C299 645 300 648 300 653 C301 657 302 660 302 660 L278 660 L227 660 L177 660 L153 660 C153 659 151 645 150 645 L154 645 C165 645 169 623 164 588 L98 212 C75 82 127 -5 299 -5 C464 -5 541 70 561 182 L630 570 L630 570 C638 615 652 645 666 645 L670 645 C670 645 671 648 671 653 C672 657 673 660 673 660 L646 660 L634 660 L622 660 L594 660 C593 660 591 645 591 645 L591 645 Z " />
<glyph glyph-name="utilde" unicode="&#x169;" horiz-adv-x="501" d="M204 595 C211 633 233 658 259 658 C318 658 365 596 425 596 C469 596 506 639 517 702 L506 702 C499 666 476 642 448 642 C388 642 342 705 282 705 C240 705 205 661 193 595 L204 595 L204 595 Z M459 129 L459 129 L524 500 L489 500 L454 500 L430 500 C429 497 428 486 428 485 L431 485 C442 485 446 463 441 428 L385 110 L385 110 L384 106 C360 67 318 41 253 41 C167 41 131 90 144 162 L204 500 L169 500 L134 500 L110 500 C110 500 109 497 108 493 C108 488 107 485 107 485 L111 485 C123 485 126 459 119 420 L120 420 L73 155 C56 59 94 -5 190 -5 C280 -5 341 31 381 87 L374 48 L369 18 L369 18 L366 0 L380 0 L464 25 L464 26 C465 31 466 34 466 34 C451 59 448 69 459 129 L459 129 L459 129 Z " />
<glyph glyph-name="Umacron" unicode="&#x16a;" horiz-adv-x="583" d="M280 767 L580 767 L587 806 L287 806 L280 767 L280 767 Z M591 645 L595 645 C610 645 614 615 606 570 L606 570 L539 189 C522 94 457 30 320 30 C209 30 178 95 195 192 L264 580 L264 580 C271 619 283 645 295 645 L299 645 C299 645 300 648 300 653 C301 657 302 660 302 660 L278 660 L227 660 L177 660 L153 660 C153 659 151 645 150 645 L154 645 C165 645 169 623 164 588 L98 212 C75 82 127 -5 299 -5 C464 -5 541 70 561 182 L630 570 L630 570 C638 615 652 645 666 645 L670 645 C670 645 671 648 671 653 C672 657 673 660 673 660 L646 660 L634 660 L622 660 L594 660 C593 660 591 645 591 645 L591 645 Z " />
<glyph glyph-name="umacron" unicode="&#x16b;" horiz-adv-x="501" d="M198 607 L498 607 L505 646 L205 646 L198 607 L198 607 Z M459 129 L459 129 L524 500 L489 500 L454 500 L430 500 C429 497 428 486 428 485 L431 485 C442 485 446 463 441 428 L385 110 L385 110 L384 106 C360 67 318 41 253 41 C167 41 131 90 144 162 L204 500 L169 500 L134 500 L110 500 C110 500 109 497 108 493 C108 488 107 485 107 485 L111 485 C123 485 126 459 119 420 L120 420 L73 155 C56 59 94 -5 190 -5 C280 -5 341 31 381 87 L374 48 L369 18 L369 18 L366 0 L380 0 L464 25 L464 26 C465 31 466 34 466 34 C451 59 448 69 459 129 L459 129 L459 129 Z " />
<glyph glyph-name="Ubreve" unicode="&#x16c;" horiz-adv-x="583" d="M328 871 C333 803 373 758 429 758 C484 758 540 803 569 871 L558 874 C540 833 491 805 437 805 C382 805 344 833 341 874 L328 871 L328 871 Z M591 645 L595 645 C610 645 614 615 606 570 L606 570 L539 189 C522 94 457 30 320 30 C209 30 178 95 195 192 L264 580 L264 580 C271 619 283 645 295 645 L299 645 C299 645 300 648 300 653 C301 657 302 660 302 660 L278 660 L227 660 L177 660 L153 660 C153 659 151 645 150 645 L154 645 C165 645 169 623 164 588 L98 212 C75 82 127 -5 299 -5 C464 -5 541 70 561 182 L630 570 L630 570 C638 615 652 645 666 645 L670 645 C670 645 671 648 671 653 C672 657 673 660 673 660 L646 660 L634 660 L622 660 L594 660 C593 660 591 645 591 645 L591 645 Z " />
<glyph glyph-name="ubreve" unicode="&#x16d;" horiz-adv-x="501" d="M245 711 C250 643 290 598 346 598 C401 598 458 643 487 711 L475 714 C457 673 409 645 354 645 C299 645 261 673 258 714 L245 711 L245 711 Z M459 129 L459 129 L524 500 L489 500 L454 500 L430 500 C429 497 428 486 428 485 L431 485 C442 485 446 463 441 428 L385 110 L385 110 L384 106 C360 67 318 41 253 41 C167 41 131 90 144 162 L204 500 L169 500 L134 500 L110 500 C110 500 109 497 108 493 C108 488 107 485 107 485 L111 485 C123 485 126 459 119 420 L120 420 L73 155 C56 59 94 -5 190 -5 C280 -5 341 31 381 87 L374 48 L369 18 L369 18 L366 0 L380 0 L464 25 L464 26 C465 31 466 34 466 34 C451 59 448 69 459 129 L459 129 L459 129 Z " />
<glyph glyph-name="Uring" unicode="&#x16e;" horiz-adv-x="583" d="M420 711 C380 711 351 746 359 788 C367 833 402 864 447 864 C492 864 517 833 509 788 C502 746 461 711 420 711 L420 711 Z M339 788 C330 738 366 695 417 695 C468 695 519 738 528 788 C538 843 507 880 450 880 C393 880 349 843 339 788 L339 788 Z M591 645 L595 645 C610 645 614 615 606 570 L606 570 L539 189 C522 94 457 30 320 30 C209 30 178 95 195 192 L264 580 L264 580 C271 619 283 645 295 645 L299 645 C299 645 300 648 300 653 C301 657 302 660 302 660 L278 660 L227 660 L177 660 L153 660 C153 659 151 645 150 645 L154 645 C165 645 169 623 164 588 L98 212 C75 82 127 -5 299 -5 C464 -5 541 70 561 182 L630 570 L630 570 C638 615 652 645 666 645 L670 645 C670 645 671 648 671 653 C672 657 673 660 673 660 L646 660 L634 660 L622 660 L594 660 C593 660 591 645 591 645 L591 645 Z " />
<glyph glyph-name="uring" unicode="&#x16f;" horiz-adv-x="501" d="M338 551 C297 551 269 586 276 628 C284 673 319 704 365 704 C410 704 435 673 426 628 C419 586 378 551 338 551 L338 551 Z M257 628 C248 578 284 535 335 535 C386 535 437 578 446 628 C456 683 424 720 368 720 C311 720 266 683 257 628 L257 628 Z M459 129 L459 129 L524 500 L489 500 L454 500 L430 500 C429 497 428 486 428 485 L431 485 C442 485 446 463 441 428 L385 110 L385 110 L384 106 C360 67 318 41 253 41 C167 41 131 90 144 162 L204 500 L169 500 L134 500 L110 500 C110 500 109 497 108 493 C108 488 107 485 107 485 L111 485 C123 485 126 459 119 420 L120 420 L73 155 C56 59 94 -5 190 -5 C280 -5 341 31 381 87 L374 48 L369 18 L369 18 L366 0 L380 0 L464 25 L464 26 C465 31 466 34 466 34 C451 59 448 69 459 129 L459 129 L459 129 Z " />
<glyph glyph-name="Wcircumflex" unicode="&#x174;" horiz-adv-x="902" d="M924 580 L925 580 L648 -15 L704 106 L613 670 L593 670 L316 98 L258 580 L258 580 C254 619 259 645 271 645 L274 645 C274 645 277 659 277 660 L248 660 L193 660 L137 660 L124 660 C124 660 123 657 122 653 C122 648 121 645 121 645 L124 645 C133 645 142 626 149 596 L261 -15 L281 -15 L613 670 L551 542 L648 -15 L667 -15 L952 590 C969 623 987 645 998 645 L1002 645 C1002 645 1005 660 1004 660 L985 660 L973 660 L962 660 L928 660 C928 659 925 645 926 645 L930 645 C945 645 942 619 924 580 L924 580 Z M632 835 L719 693 L728 699 L663 885 C661 891 655 905 645 905 C634 905 623 891 619 885 L489 699 L495 693 L632 835 L632 835 Z " />
<glyph glyph-name="Ycircumflex" unicode="&#x176;" horiz-adv-x="592" d="M224 0 L247 0 L298 0 L348 0 L372 0 C372 0 373 3 373 8 C374 12 375 15 375 15 L371 15 C359 15 356 40 362 77 C376 159 392 250 405 322 L616 580 L616 580 C648 619 676 645 686 645 L690 645 C689 645 690 648 691 653 C691 657 692 660 692 660 L681 660 L669 660 L658 660 L623 660 C623 660 623 657 621 653 C621 648 620 645 620 645 L624 645 C637 645 618 611 577 560 L577 560 L384 322 L374 322 L292 585 C281 621 280 645 291 645 L294 645 C294 645 297 659 297 660 L268 660 L208 660 L147 660 L138 660 C137 657 136 646 136 645 L138 645 C146 645 158 629 170 602 L296 280 C284 212 271 134 258 63 C250 34 240 15 230 15 L226 15 C227 15 224 0 224 0 L224 0 L224 0 Z M445 835 L532 693 L540 699 L476 885 C474 891 468 905 457 905 C447 905 436 891 432 885 L302 699 L308 693 L445 835 L445 835 Z " />
<glyph glyph-name="Ydieresis001" unicode="&#x178;" horiz-adv-x="592" d="M519 730 C545 730 565 747 569 773 C574 799 560 816 534 816 C508 816 488 799 484 773 C479 747 493 730 519 730 L519 730 Z M334 730 C360 730 380 747 385 773 C389 799 375 816 349 816 C324 816 304 799 299 773 C295 747 309 730 334 730 L334 730 Z M224 0 L247 0 L298 0 L348 0 L372 0 C372 0 373 3 373 8 C374 12 375 15 375 15 L371 15 C359 15 356 40 362 77 C376 159 392 250 405 322 L616 580 L616 580 C648 619 676 645 686 645 L690 645 C689 645 690 648 691 653 C691 657 692 660 692 660 L681 660 L669 660 L658 660 L623 660 C623 660 623 657 621 653 C621 648 620 645 620 645 L624 645 C637 645 618 611 577 560 L577 560 L384 322 L374 322 L292 585 C281 621 280 645 291 645 L294 645 C294 645 297 659 297 660 L268 660 L208 660 L147 660 L138 660 C137 657 136 646 136 645 L138 645 C146 645 158 629 170 602 L296 280 C284 212 271 134 258 63 C250 34 240 15 230 15 L226 15 C227 15 224 0 224 0 L224 0 L224 0 Z " />
<glyph glyph-name="Zacute" unicode="&#x179;" horiz-adv-x="590" d="M514 13 C520 31 528 54 534 72 L534 72 L534 72 L534 72 C533 72 532 72 531 72 C522 73 516 74 516 74 L508 67 C482 43 428 26 374 26 L179 26 L653 660 L595 660 L538 660 L304 660 L243 660 L224 660 C223 656 220 651 219 647 C212 632 203 612 196 597 L208 597 L218 602 C251 622 305 635 353 635 L519 635 L47 0 L103 0 L160 0 L429 0 L508 0 L509 0 C511 4 513 9 514 13 L514 13 Z M452 690 L587 818 C615 846 635 866 636 870 C637 879 613 900 601 900 C598 900 580 878 556 846 L446 697 L452 690 L452 690 Z " />
<glyph glyph-name="zacute" unicode="&#x17a;" horiz-adv-x="497" d="M285 530 L419 658 C448 686 468 706 468 710 C470 719 446 740 434 740 C430 740 413 718 389 686 L278 537 L285 530 L285 530 Z M426 8 C432 24 439 45 445 61 C445 61 444 62 442 62 C433 63 427 64 427 63 L419 56 C392 32 338 16 284 16 L152 16 L529 500 L488 500 L448 500 L246 500 L184 500 L166 500 L162 492 C157 481 151 466 146 455 L158 455 C193 471 245 484 298 484 L435 484 L57 0 L99 0 L140 0 L344 0 L420 0 L424 0 C424 2 425 6 426 8 L426 8 Z " />
<glyph glyph-name="Zdot" unicode="&#x17b;" horiz-adv-x="590" d="M514 13 C520 31 528 54 534 72 L534 72 L534 72 L534 72 C533 72 532 72 531 72 C522 73 516 74 516 74 L508 67 C482 43 428 26 374 26 L179 26 L653 660 L595 660 L538 660 L304 660 L243 660 L224 660 C223 656 220 651 219 647 C212 632 203 612 196 597 L208 597 L218 602 C251 622 305 635 353 635 L519 635 L47 0 L103 0 L160 0 L429 0 L508 0 L509 0 C511 4 513 9 514 13 L514 13 Z M460 730 C486 730 506 747 511 773 C515 799 501 816 475 816 C450 816 430 799 425 773 C421 747 435 730 460 730 L460 730 Z " />
<glyph glyph-name="zdot" unicode="&#x17c;" horiz-adv-x="497" d="M369 570 C394 570 415 587 419 613 C424 639 410 656 384 656 C359 656 338 639 334 613 C329 587 343 570 369 570 L369 570 Z M426 8 C432 24 439 45 445 61 C445 61 444 62 442 62 C433 63 427 64 427 63 L419 56 C392 32 338 16 284 16 L152 16 L529 500 L488 500 L448 500 L246 500 L184 500 L166 500 L162 492 C157 481 151 466 146 455 L158 455 C193 471 245 484 298 484 L435 484 L57 0 L99 0 L140 0 L344 0 L420 0 L424 0 C424 2 425 6 426 8 L426 8 Z " />
<glyph glyph-name="Zcaron" unicode="&#x17d;" horiz-adv-x="590" d="M514 13 C520 31 528 54 534 72 L534 72 L534 72 L534 72 C533 72 532 72 531 72 C522 73 516 74 516 74 L508 67 C482 43 428 26 374 26 L179 26 L653 660 L595 660 L538 660 L304 660 L243 660 L224 660 C223 656 220 651 219 647 C212 632 203 612 196 597 L208 597 L218 602 C251 622 305 635 353 635 L519 635 L47 0 L103 0 L160 0 L429 0 L508 0 L509 0 C511 4 513 9 514 13 L514 13 Z M470 785 L607 927 L613 921 L484 735 C480 729 469 715 458 715 C447 715 441 729 439 735 L375 921 L383 927 L470 785 L470 785 Z " />
<glyph glyph-name="zcaron" unicode="&#x17e;" horiz-adv-x="497" d="M379 625 L516 767 L522 761 L392 575 C388 569 377 555 366 555 C355 555 349 569 348 575 L283 761 L292 767 L379 625 L379 625 Z M426 8 C432 24 439 45 445 61 C445 61 444 62 442 62 C433 63 427 64 427 63 L419 56 C392 32 338 16 284 16 L152 16 L529 500 L488 500 L448 500 L246 500 L184 500 L166 500 L162 492 C157 481 151 466 146 455 L158 455 C193 471 245 484 298 484 L435 484 L57 0 L99 0 L140 0 L344 0 L420 0 L424 0 C424 2 425 6 426 8 L426 8 Z " />
<glyph glyph-name="oogonek" unicode="&#x1eb;" horiz-adv-x="712" d="M712 -51 L706 -46 C683 -69 625 -85 563 -85 C475 -85 410 -53 366 -5 C558 -1 678 127 705 277 C732 429 653 558 456 558 C259 558 135 429 108 277 C82 129 156 2 341 -5 C406 -80 476 -130 548 -130 C598 -130 664 -99 712 -51 L712 -51 Z M361 18 C230 18 183 137 208 277 C232 417 321 536 452 536 C583 536 630 417 605 277 C580 137 492 18 361 18 L361 18 Z " />
<glyph glyph-name="Adotabove" unicode="&#x226;" horiz-adv-x="615" d="M415 730 C440 730 461 747 465 773 C470 799 456 816 430 816 C404 816 384 799 379 773 C375 747 389 730 415 730 L415 730 Z M559 80 L559 80 L417 675 L392 675 L68 68 C49 36 31 15 20 15 L16 15 C16 15 15 12 15 8 C14 3 13 0 13 0 L32 0 L49 0 L65 0 L100 0 C100 0 101 3 102 8 C102 12 103 15 103 15 L98 15 C83 15 90 47 115 95 L115 95 L187 234 L417 234 L450 80 L450 80 C459 41 457 15 445 15 L441 15 C442 15 439 0 439 0 L468 0 L523 0 L578 0 L597 0 C597 1 600 15 599 15 L596 15 C582 15 568 41 559 80 L559 80 L559 80 Z M411 259 L200 259 L348 544 L411 259 L411 259 Z " />
<glyph glyph-name="LETTERSMALLCAPITALG" unicode="&#x262;" horiz-adv-x="704" d="M652 412 L661 465 L650 458 L650 458 L661 465 C634 521 552 558 457 558 C277 558 138 445 108 277 C78 108 178 -5 358 -5 C429 -5 523 19 592 55 C592 55 600 103 614 180 L614 180 C621 219 634 245 646 245 L649 245 C649 245 650 248 651 252 C651 257 652 260 652 260 L628 260 L587 260 L547 260 L523 260 C523 260 522 257 521 252 C521 248 520 245 520 245 L524 245 C535 245 539 223 534 188 C522 117 513 66 509 44 C459 28 406 18 362 18 C242 18 180 121 208 277 C235 432 333 536 453 536 C471 536 489 535 505 532 C558 521 607 483 629 433 C632 426 635 418 639 412 L652 412 L652 412 Z " />
<glyph glyph-name="LETTERSMALLCAPITALI" unicode="&#x26a;" horiz-adv-x="225" d="M110 0 L155 0 L179 0 C179 0 182 15 181 15 L178 15 C167 15 163 37 167 70 L243 494 C250 522 260 539 270 538 L274 538 C274 539 274 542 275 546 C276 551 277 554 276 553 C256 554 228 554 207 553 C186 552 159 554 138 553 C138 553 137 551 137 546 C136 542 135 539 135 538 L139 538 C150 539 154 517 149 482 L78 80 L78 80 C71 41 59 15 47 15 L43 15 C43 15 42 12 42 8 C41 3 40 0 40 0 L64 0 L110 0 L110 0 Z " />
<glyph glyph-name="LETTERSMALLCAPITALN" unicode="&#x274;" horiz-adv-x="556" d="M614 553 C603 554 588 554 577 553 C566 552 551 554 539 553 C539 553 537 539 537 538 L540 538 C552 539 556 515 550 478 L485 108 L257 553 L191 523 L191 523 L257 553 L196 553 L182 553 C171 554 156 554 145 553 C145 553 144 551 143 546 C143 542 142 539 142 538 L146 538 C158 539 161 513 154 473 L155 473 L85 80 L85 80 C78 41 66 15 53 15 L50 15 C50 15 49 12 48 8 C48 3 47 0 47 0 L71 0 L85 0 L98 0 L122 0 C122 0 123 3 123 8 C124 12 125 15 125 15 L121 15 C110 15 106 37 110 70 L184 483 L427 13 L440 -14 L491 -14 L501 46 L580 494 C588 522 598 539 608 538 L612 538 C612 539 614 553 614 553 L614 553 L614 553 Z " />
<glyph glyph-name="LETTERSMALLCAPITALR" unicode="&#x280;" horiz-adv-x="532" d="M190 15 L187 15 C175 15 171 38 177 74 L210 264 L254 264 L354 106 C418 4 424 0 499 0 L526 0 L528 14 L523 14 C498 14 495 17 448 93 L335 269 C432 285 501 338 514 412 C529 497 458 553 338 553 L261 553 L216 553 C195 554 168 554 147 553 C147 553 146 551 145 546 C145 542 144 539 144 538 L148 538 C159 539 163 515 158 478 L87 80 L87 80 C80 41 68 15 55 15 L52 15 C52 15 51 12 51 8 C50 3 49 0 49 0 L73 0 L118 0 L164 0 L188 0 C188 1 190 12 190 15 L190 15 L190 15 Z M274 281 L243 281 L213 281 L258 536 L335 536 C398 536 432 487 419 412 C405 334 347 281 274 281 L274 281 L274 281 Z " />
<glyph glyph-name="LETTERSMALLCAPITALY" unicode="&#x28f;" horiz-adv-x="522" d="M336 15 L333 15 C321 15 317 41 324 80 L324 80 C335 146 348 216 358 273 L358 273 L526 473 L526 473 C528 475 530 478 532 480 L538 488 C565 519 588 539 598 538 L601 538 C601 539 602 542 602 546 C603 551 604 554 603 553 C597 554 589 554 582 553 C569 554 551 554 537 553 C537 553 536 551 535 546 C535 542 534 539 534 538 L538 538 C551 539 531 505 489 453 L489 453 L340 273 L324 273 L264 473 L264 473 C253 513 252 539 263 538 L266 538 C267 539 269 552 269 553 C244 554 211 554 186 553 C167 554 142 554 123 553 C123 553 122 551 122 546 C121 542 120 539 120 538 L123 538 C132 539 148 513 164 473 L165 473 L261 237 C252 188 243 132 233 80 L233 80 C226 41 214 15 202 15 L198 15 C198 15 197 12 197 8 C196 3 195 0 195 0 L219 0 L265 0 L310 0 L334 0 C334 1 336 12 336 15 L336 15 Z " />
<glyph glyph-name="LETTERSMALLCAPITALB" unicode="&#x299;" horiz-adv-x="518" d="M295 302 L276 301 L217 301 L216 298 L216 298 L258 536 L335 536 C398 536 433 492 421 425 C409 357 360 309 295 302 L295 302 L295 302 Z M216 294 L215 293 L216 294 L216 294 L216 294 Z M215 291 L215 288 L273 288 C377 288 437 234 423 153 C409 72 342 18 257 18 L167 18 L215 291 L215 291 L215 291 Z M355 299 C441 316 501 363 512 425 C525 502 456 553 338 553 L261 553 L216 553 C195 554 168 554 147 553 C147 553 146 551 145 546 C145 542 144 539 144 538 L148 538 C159 539 163 515 158 478 L87 80 L87 80 C80 41 68 15 55 15 L52 15 C52 15 51 12 51 8 C50 3 49 0 49 0 L73 0 L118 0 L164 0 L261 0 C399 0 502 61 518 153 C532 230 468 285 355 299 L355 299 L355 299 Z " />
<glyph glyph-name="LETTERSMALLCAPITALH" unicode="&#x29c;" horiz-adv-x="625" d="M536 538 L539 538 C552 539 555 515 549 477 L518 304 L212 304 L242 473 L242 473 C249 513 261 539 273 538 L277 538 C277 539 278 542 278 546 C279 551 280 553 280 553 C259 554 231 554 210 553 C190 554 162 554 141 553 C141 553 139 539 139 538 L142 538 C155 539 158 515 152 477 L82 80 L82 80 C75 41 62 15 50 15 L46 15 C47 15 44 0 44 0 L68 0 L113 0 L158 0 L182 0 C182 0 183 3 183 8 C184 12 185 15 185 15 L181 15 C170 15 166 39 171 74 L208 282 L514 282 L479 80 L479 80 C472 41 459 15 447 15 L443 15 C444 15 441 0 441 0 L465 0 L510 0 L555 0 L579 0 C579 0 580 3 580 8 C581 12 582 15 582 15 L578 15 C567 15 563 39 568 74 L639 473 L639 473 C646 513 658 539 670 538 L674 538 C674 539 675 542 675 546 C676 551 677 553 677 553 C656 554 628 554 607 553 C587 554 559 554 538 553 C538 553 536 539 536 538 L536 538 L536 538 Z " />
<glyph glyph-name="LETTERSMALLCAPITALL" unicode="&#x29f;" horiz-adv-x="478" d="M139 538 L142 538 C155 539 158 515 152 477 L82 80 L82 80 C75 41 62 15 50 15 L46 15 C47 15 44 0 44 0 L68 0 L113 0 L158 0 L330 0 L408 0 L410 0 C411 4 413 8 414 11 C420 28 428 51 434 68 L430 68 C421 70 415 70 415 70 L407 63 C382 40 333 24 282 23 L273 23 L162 23 L242 473 L242 473 C249 513 261 539 273 538 L277 538 C277 539 278 542 278 546 C279 551 280 553 280 553 C259 554 231 554 210 553 C190 554 162 554 141 553 C141 553 139 539 139 538 L139 538 L139 538 Z " />
<glyph glyph-name="LETTERSMALLCAPITALA" unicode="&#x1d00;" horiz-adv-x="544" d="M529 15 L525 15 C511 15 496 41 487 80 L487 80 L364 566 L341 566 L77 80 L76 80 C55 41 33 15 21 15 L17 15 C17 15 16 12 16 8 C15 3 14 0 14 0 L33 0 L48 0 L63 0 L98 0 C98 0 101 15 100 15 L96 15 C83 15 87 40 105 80 L167 195 L361 196 L390 76 C398 39 397 15 385 15 L382 15 C382 15 381 12 381 8 C380 3 379 0 379 0 L408 0 L457 0 L507 0 L526 0 C526 1 529 15 529 15 L529 15 L529 15 Z M356 218 L179 218 L301 448 L356 218 L356 218 Z " />
<glyph glyph-name="LETTERSMALLCAPITALC" unicode="&#x1d04;" horiz-adv-x="665" d="M672 412 L681 465 L670 458 L670 458 L681 465 C654 521 568 558 467 558 C281 558 138 445 108 277 C78 108 182 -5 368 -5 C469 -5 567 32 615 88 L624 141 L611 141 C606 135 599 127 594 121 C549 66 474 27 401 19 C392 18 382 18 372 18 C246 18 180 121 208 277 C235 432 337 536 463 536 C487 536 509 534 530 530 C581 518 628 480 649 432 C652 426 655 418 659 412 L672 412 L672 412 Z " />
<glyph glyph-name="LETTERSMALLCAPITALD" unicode="&#x1d05;" horiz-adv-x="613" d="M118 0 L164 0 L265 0 C440 0 576 111 606 277 C635 442 528 553 337 553 L261 553 L216 553 C195 554 168 554 147 553 C147 553 146 551 145 546 C145 542 144 539 144 538 L148 538 C159 539 163 515 158 478 L87 80 L87 80 C80 41 68 15 55 15 L52 15 C52 15 51 12 51 8 C50 3 49 0 49 0 L73 0 L118 0 L118 0 Z M167 18 L258 536 L334 536 C470 536 542 432 515 277 C487 121 389 18 268 18 L167 18 L167 18 Z " />
<glyph glyph-name="LETTERSMALLCAPITALE" unicode="&#x1d07;" horiz-adv-x="478" d="M493 488 C495 504 499 526 502 542 C503 545 503 550 504 553 C504 554 501 554 497 553 C495 554 492 554 489 553 C470 554 444 554 424 553 L256 553 L210 553 C190 554 162 554 141 553 C141 553 139 539 139 538 L142 538 C155 539 158 515 152 477 L82 80 L82 80 C75 41 62 15 50 15 L46 15 C47 15 44 0 44 0 L68 0 L113 0 L158 0 L330 0 L408 0 L410 0 C411 4 413 8 414 11 C419 28 427 48 433 65 C433 66 433 66 433 66 L433 65 L433 65 C432 65 432 65 432 66 C426 65 422 65 422 66 L413 59 C385 38 330 24 274 23 L263 23 L162 23 L208 284 L273 284 C327 284 367 276 376 257 L388 257 C389 265 391 275 393 284 L393 284 L395 295 L397 306 L397 306 C398 314 400 323 401 330 L389 330 C371 316 334 307 277 306 L212 306 L252 531 L345 531 C405 531 458 516 476 494 L482 488 L493 488 L493 488 Z " />
<glyph glyph-name="LETTERSMALLCAPITALJ" unicode="&#x1d0a;" horiz-adv-x="300" d="M210 538 L213 538 C225 539 229 517 223 481 L168 168 C148 50 131 4 110 4 C91 4 77 22 75 50 C74 67 63 78 49 78 C28 78 14 67 16 50 C18 14 48 -10 90 -10 C190 -10 241 61 273 244 L314 476 C321 514 332 539 344 538 L348 538 C348 539 349 542 349 546 C350 551 351 553 351 553 C330 554 302 554 281 553 C261 554 233 554 212 553 C212 553 210 539 210 538 L210 538 L210 538 Z " />
<glyph glyph-name="LETTERSMALLCAPITALK" unicode="&#x1d0b;" horiz-adv-x="550" d="M535 553 C528 554 518 554 511 553 C500 554 485 554 474 553 C474 553 473 551 472 546 C472 542 471 539 471 538 L473 538 C478 539 455 516 418 481 L272 349 L272 349 L216 298 L247 473 L247 473 C254 513 267 539 279 538 L283 538 C283 539 285 553 285 553 C264 554 237 554 216 553 C195 552 168 554 147 553 C147 553 146 551 145 546 C145 542 144 539 144 538 L148 538 C159 539 163 515 158 478 L87 80 L87 80 C80 41 68 15 55 15 L52 15 C52 15 51 12 51 8 C50 3 49 0 49 0 L73 0 L118 0 L164 0 L188 0 C188 1 190 12 190 15 L187 15 C175 15 171 38 177 74 L216 298 L227 279 L227 279 L302 158 C375 41 432 -5 506 -5 L533 -5 L535 9 L530 9 C496 9 448 65 359 210 L283 331 L438 473 L438 473 L438 473 L456 490 C491 520 519 539 529 538 L532 538 C533 539 535 552 535 553 L535 553 L535 553 Z " />
<glyph glyph-name="LETTERSMALLCAPITALM" unicode="&#x1d0d;" horiz-adv-x="701" d="M758 553 C739 554 714 554 695 553 L678 553 L654 553 L376 99 L272 553 L212 553 L199 553 C187 554 172 554 161 553 L159 538 L162 538 C174 539 176 513 167 473 L80 80 C71 41 58 15 46 15 L42 15 C42 15 41 12 41 8 C40 3 39 0 39 0 L63 0 L76 0 L90 0 L125 0 L127 15 L122 15 C104 15 100 47 111 95 L191 457 L308 13 L313 -5 L335 -5 L647 503 L588 80 C583 41 572 15 559 15 L556 15 C556 15 555 12 555 8 C554 3 553 0 553 0 L577 0 L622 0 L668 0 L691 0 L693 15 L690 15 C678 15 673 41 678 80 L726 473 C730 513 741 539 752 538 L756 538 L758 553 L758 553 Z " />
<glyph glyph-name="LETTERSMALLCAPITALO" unicode="&#x1d0f;" horiz-adv-x="712" d="M361 18 C230 18 183 137 208 277 C232 417 321 536 452 536 C583 536 630 417 605 277 C580 137 492 18 361 18 L361 18 Z M108 277 C81 125 160 -5 357 -5 C554 -5 678 125 705 277 C732 429 653 558 456 558 C259 558 135 429 108 277 L108 277 Z " />
<glyph glyph-name="LETTERSMALLCAPITALP" unicode="&#x1d18;" horiz-adv-x="491" d="M190 15 L187 15 C175 15 171 38 177 74 L258 536 L344 536 C416 536 454 482 440 400 C425 320 361 266 280 266 L211 266 L208 249 L276 249 C416 249 519 310 535 400 C552 492 476 553 347 553 L261 553 L216 553 C195 554 168 554 147 553 C147 553 146 551 145 546 C145 542 144 539 144 538 L148 538 C159 539 163 515 158 478 L87 80 L87 80 C80 41 68 15 55 15 L52 15 C52 15 51 12 51 8 C50 3 49 0 49 0 L73 0 L118 0 L164 0 L188 0 C188 1 190 12 190 15 L190 15 L190 15 Z " />
<glyph glyph-name="LETTERSMALLCAPITALT" unicode="&#x1d1b;" horiz-adv-x="573" d="M218 0 L242 0 L287 0 L332 0 L356 0 C356 0 357 3 357 8 C358 12 359 15 359 15 L355 15 C344 15 340 39 345 75 L426 531 L499 531 C553 531 598 512 623 483 L635 483 C637 500 639 524 640 542 C641 545 641 550 641 553 C641 554 638 554 634 553 C632 554 629 554 626 553 C607 554 581 554 561 553 L208 553 C188 554 162 554 143 553 C140 554 137 554 135 553 C131 554 128 554 128 553 C127 550 125 545 125 542 C120 524 114 500 109 483 L121 483 L130 490 C161 515 214 531 262 531 L335 531 L256 80 L256 80 C249 41 236 15 224 15 L220 15 C221 15 218 0 218 0 L218 0 Z " />
<glyph glyph-name="LETTERSMALLCAPITALU" unicode="&#x1d1c;" horiz-adv-x="524" d="M595 553 C584 554 569 554 557 553 C546 554 530 554 518 553 C518 553 516 539 516 538 L520 538 C533 539 539 512 532 469 L476 156 C463 78 408 27 289 27 C195 27 168 79 181 156 L237 473 L237 473 C244 513 257 539 269 538 L273 538 C273 539 275 553 275 553 C254 554 227 554 206 553 C185 552 158 554 137 553 C137 553 136 551 135 546 C135 542 134 539 134 538 L138 538 C150 539 153 515 148 477 L94 174 C75 67 120 -5 270 -5 C413 -5 480 56 497 149 L554 474 C563 514 576 539 588 538 L592 538 C593 539 595 552 595 553 L595 553 L595 553 Z " />
<glyph glyph-name="LETTERSMALLCAPITALV" unicode="&#x1d20;" horiz-adv-x="536" d="M620 553 C611 554 600 554 591 553 C576 554 557 554 542 553 C542 553 540 539 540 538 L545 538 C561 539 553 501 522 443 L522 443 L327 72 L244 473 L244 473 C236 513 239 539 252 538 L256 538 C256 539 257 542 258 546 C258 551 259 553 259 553 C234 554 202 554 177 553 C159 554 134 554 115 553 C115 552 113 539 112 538 L115 538 C123 539 134 522 143 494 L281 -15 L298 -15 L558 473 L559 473 C580 513 602 539 614 538 L617 538 C618 539 620 552 620 553 L620 553 Z " />
<glyph glyph-name="LETTERSMALLCAPITALW" unicode="&#x1d21;" horiz-adv-x="771" d="M134 473 L134 473 L227 -15 L244 -15 L523 563 L472 457 L550 -15 L567 -15 L805 490 C821 520 838 539 848 538 L852 538 C851 539 852 542 853 546 C853 551 854 553 854 553 C845 554 833 554 824 553 C811 554 793 554 780 553 C780 552 777 539 778 538 L782 538 C796 539 795 516 780 479 L550 -15 L596 85 L523 563 L506 563 L227 -15 L272 79 L228 473 L228 473 C224 513 229 539 241 538 L245 538 C245 539 246 542 246 546 C247 551 248 553 248 553 C224 554 193 554 169 553 C150 554 125 554 106 553 C106 553 105 551 104 546 C104 542 103 539 103 538 L106 538 C116 539 127 513 134 473 L134 473 Z " />
<glyph glyph-name="LETTERSMALLCAPITALZ" unicode="&#x1d22;" horiz-adv-x="530" d="M456 12 C462 29 470 52 476 69 L473 69 C464 70 458 71 458 71 L450 64 C425 41 375 25 324 24 L315 24 L169 24 L574 553 L522 553 L471 553 L290 553 C271 554 245 554 225 553 C223 554 220 554 218 553 C213 554 210 554 210 553 C208 550 206 545 205 542 C198 527 189 507 183 493 L195 493 L205 498 C238 518 292 531 340 531 L454 531 L50 0 L100 0 L151 0 L372 0 L451 0 L452 0 C453 4 455 8 456 12 L456 12 Z " />
<glyph glyph-name="Wgrave" unicode="&#x1e80;" horiz-adv-x="902" d="M924 580 L925 580 L648 -15 L704 106 L613 670 L593 670 L316 98 L258 580 L258 580 C254 619 259 645 271 645 L274 645 C274 645 277 659 277 660 L248 660 L193 660 L137 660 L124 660 C124 660 123 657 122 653 C122 648 121 645 121 645 L124 645 C133 645 142 626 149 596 L261 -15 L281 -15 L613 670 L551 542 L648 -15 L667 -15 L952 590 C969 623 987 645 998 645 L1002 645 C1002 645 1005 660 1004 660 L985 660 L973 660 L962 660 L928 660 C928 659 925 645 926 645 L930 645 C945 645 942 619 924 580 L924 580 Z M628 846 C615 878 605 900 601 900 C589 900 557 879 556 870 C554 864 567 844 587 818 L680 690 L689 697 L628 846 L628 846 Z " />
<glyph glyph-name="Wacute" unicode="&#x1e82;" horiz-adv-x="902" d="M924 580 L925 580 L648 -15 L704 106 L613 670 L593 670 L316 98 L258 580 L258 580 C254 619 259 645 271 645 L274 645 C274 645 277 659 277 660 L248 660 L193 660 L137 660 L124 660 C124 660 123 657 122 653 C122 648 121 645 121 645 L124 645 C133 645 142 626 149 596 L261 -15 L281 -15 L613 670 L551 542 L648 -15 L667 -15 L952 590 C969 623 987 645 998 645 L1002 645 C1002 645 1005 660 1004 660 L985 660 L973 660 L962 660 L928 660 C928 659 925 645 926 645 L930 645 C945 645 942 619 924 580 L924 580 Z M545 690 L680 818 C708 846 728 866 729 870 C730 879 706 900 694 900 C690 900 673 878 649 846 L538 697 L545 690 L545 690 Z " />
<glyph glyph-name="Wdieresis" unicode="&#x1e84;" horiz-adv-x="902" d="M924 580 L925 580 L648 -15 L704 106 L613 670 L593 670 L316 98 L258 580 L258 580 C254 619 259 645 271 645 L274 645 C274 645 277 659 277 660 L248 660 L193 660 L137 660 L124 660 C124 660 123 657 122 653 C122 648 121 645 121 645 L124 645 C133 645 142 626 149 596 L261 -15 L281 -15 L613 670 L551 542 L648 -15 L667 -15 L952 590 C969 623 987 645 998 645 L1002 645 C1002 645 1005 660 1004 660 L985 660 L973 660 L962 660 L928 660 C928 659 925 645 926 645 L930 645 C945 645 942 619 924 580 L924 580 Z M706 730 C732 730 752 747 756 773 C761 799 747 816 721 816 C696 816 676 799 671 773 C667 747 681 730 706 730 L706 730 Z M521 730 C547 730 568 747 572 773 C577 799 563 816 537 816 C511 816 491 799 486 773 C482 747 496 730 521 730 L521 730 Z " />
<glyph glyph-name="Etilde" unicode="&#x1ebc;" horiz-adv-x="531" d="M451 312 C452 320 454 330 456 339 L456 339 L458 352 C460 363 462 377 464 388 L452 388 L448 385 C436 373 400 366 357 365 L340 365 L230 365 L282 660 L278 635 L417 635 C477 635 530 620 548 598 L554 592 L565 592 C568 609 572 631 574 647 C575 651 576 656 577 660 L567 660 L497 660 L282 660 L232 660 L181 660 L158 660 C157 660 155 645 155 645 L158 645 C170 645 174 622 168 587 L79 80 L79 80 C72 41 60 15 47 15 L44 15 C44 15 43 12 43 8 C42 3 41 0 41 0 L65 0 L115 0 L166 0 L383 0 L461 0 L463 0 C464 4 466 9 467 13 C473 29 481 51 487 68 L476 68 L467 62 C437 40 377 25 316 25 L170 25 L229 358 L226 339 L336 339 C387 339 427 330 436 316 L439 312 L451 312 L451 312 Z M250 755 C257 793 279 818 304 818 C364 818 410 756 470 756 C515 756 552 799 563 862 L551 862 C545 826 522 802 493 802 C434 802 388 865 328 865 C286 865 250 821 238 755 L250 755 L250 755 Z " />
<glyph glyph-name="Ygrave" unicode="&#x1ef2;" horiz-adv-x="592" d="M224 0 L247 0 L298 0 L348 0 L372 0 C372 0 373 3 373 8 C374 12 375 15 375 15 L371 15 C359 15 356 40 362 77 C376 159 392 250 405 322 L616 580 L616 580 C648 619 676 645 686 645 L690 645 C689 645 690 648 691 653 C691 657 692 660 692 660 L681 660 L669 660 L658 660 L623 660 C623 660 623 657 621 653 C621 648 620 645 620 645 L624 645 C637 645 618 611 577 560 L577 560 L384 322 L374 322 L292 585 C281 621 280 645 291 645 L294 645 C294 645 297 659 297 660 L268 660 L208 660 L147 660 L138 660 C137 657 136 646 136 645 L138 645 C146 645 158 629 170 602 L296 280 C284 212 271 134 258 63 C250 34 240 15 230 15 L226 15 C227 15 224 0 224 0 L224 0 L224 0 Z M441 846 C428 878 418 900 414 900 C402 900 370 879 369 870 C367 864 380 844 400 818 L493 690 L501 697 L441 846 L441 846 Z " />
<glyph glyph-name="quoteleft" unicode="&#x2018;" horiz-adv-x="233" d="M214 549 C208 549 203 548 197 547 C198 551 198 556 199 560 C206 602 235 641 270 657 L267 668 C207 641 161 584 151 525 C146 503 150 480 160 465 C167 455 180 448 197 448 C227 448 251 469 256 499 C261 529 245 549 214 549 L214 549 Z " />
<glyph glyph-name="quoteright002" unicode="&#x2019;" horiz-adv-x="233" d="M270 650 L270 650 C263 660 251 665 235 665 C204 665 181 645 175 614 C170 584 187 564 217 564 C223 564 229 565 234 566 C234 562 234 557 233 553 C225 511 197 472 161 456 L164 446 C224 472 270 529 281 588 C285 611 280 636 270 650 L270 650 L270 650 Z " />
<glyph glyph-name="quotedblleft" unicode="&#x201c;" horiz-adv-x="382" d="M310 463 L310 463 C317 454 329 448 345 448 C376 448 399 469 405 499 C410 529 393 549 363 549 C357 549 351 548 346 547 C346 551 346 556 347 560 C355 602 383 641 419 657 L416 668 C356 641 310 584 300 525 C295 502 300 477 310 463 L310 463 L310 463 Z M214 549 C208 549 203 548 197 547 C198 551 198 556 199 560 C206 602 235 641 270 657 L267 668 C207 641 161 584 151 525 C146 503 150 480 160 465 C167 455 180 448 197 448 C227 448 251 469 256 499 C261 529 245 549 214 549 L214 549 Z " />
<glyph glyph-name="quotedblright" unicode="&#x201d;" horiz-adv-x="382" d="M419 650 L419 650 C412 660 400 665 384 665 C353 665 330 645 324 614 C319 584 336 564 366 564 C372 564 378 565 383 566 C383 562 383 557 382 553 C374 511 346 472 310 456 L313 446 C373 472 419 529 429 588 C434 611 429 636 419 650 L419 650 L419 650 Z M270 650 L270 650 C263 660 251 665 235 665 C204 665 181 645 175 614 C170 584 187 564 217 564 C223 564 229 565 234 566 C234 562 234 557 233 553 C225 511 197 472 161 456 L164 446 C224 472 270 529 281 588 C285 611 280 636 270 650 L270 650 L270 650 Z " />
<glyph glyph-name="ellipsis" unicode="&#x2026;" horiz-adv-x="523" d="M432 0 C462 0 486 20 491 51 C496 81 480 101 450 101 C419 101 395 81 390 51 C385 20 401 0 432 0 L432 0 Z M262 0 C292 0 316 20 321 51 C326 81 310 101 280 101 C249 101 225 81 220 51 C215 20 231 0 262 0 L262 0 Z M92 0 C122 0 146 20 151 51 C156 81 140 101 110 101 C79 101 55 81 50 51 C45 20 61 0 92 0 L92 0 Z " />
<glyph glyph-name="guilsinglleft" unicode="&#x2039;" horiz-adv-x="301" d="M142 251 L328 457 L322 465 L72 255 L70 247 L249 37 L258 45 L142 251 L142 251 Z " />
<glyph glyph-name="guilsinglright" unicode="&#x203a;" horiz-adv-x="301" d="M248 251 L134 457 L144 465 L320 255 L318 247 L66 37 L60 45 L248 251 L248 251 Z " />
<glyph glyph-name="Euro" unicode="&#x20ac;" horiz-adv-x="666" d="M695 537 L705 598 L696 588 L696 588 L705 598 C643 638 567 665 515 665 C360 665 232 565 178 408 L136 408 L120 358 L164 358 C162 350 160 341 159 333 C158 325 156 316 155 308 L111 308 L95 257 L151 257 C149 97 241 -5 397 -5 C444 -5 530 24 612 67 L622 128 L609 128 C604 123 598 117 593 111 C562 79 522 53 482 37 C449 26 421 20 401 20 C305 20 253 112 261 257 L477 257 L492 308 L266 308 C267 316 269 325 270 333 C271 341 273 350 275 358 L501 358 L517 408 L288 408 C330 550 415 640 511 640 C519 640 528 639 537 638 C592 629 645 596 671 553 C674 548 678 542 682 537 L695 537 L695 537 Z " />
<glyph glyph-name="LETTERSMALLCAPITALF" unicode="&#xa730;" horiz-adv-x="445" d="M378 253 C379 261 381 271 383 280 L383 280 L385 291 L387 302 L387 302 C388 310 390 319 391 326 L378 326 L374 323 C361 311 317 302 267 302 L212 302 L208 280 L263 280 C313 280 354 271 363 257 L366 253 L378 253 L378 253 Z M523 488 C525 504 529 526 532 542 C533 545 533 550 534 553 C534 554 531 554 527 553 C525 554 522 554 519 553 C500 554 474 554 454 553 L256 553 L210 553 C190 554 162 554 141 553 C141 553 139 539 139 538 L142 538 C155 539 158 515 152 477 L82 80 L82 80 C75 41 62 15 50 15 L46 15 C47 15 44 0 44 0 L68 0 L113 0 L158 0 L192 0 C192 0 193 3 193 8 C194 12 195 15 195 15 L190 15 C174 15 167 39 171 75 L252 531 L375 531 C435 531 488 516 506 494 L512 488 L523 488 L523 488 Z " />
<glyph glyph-name="LETTERSMALLCAPITALS" unicode="&#xa731;" horiz-adv-x="460" d="M69 135 L59 77 C83 28 153 -5 233 -5 C337 -5 418 58 435 152 C447 218 397 281 312 310 C232 338 183 385 191 428 C202 493 251 536 313 536 C324 536 336 534 347 530 C372 520 401 488 420 446 C424 438 429 427 433 419 L446 419 L456 476 C432 525 378 558 321 558 C219 558 139 492 121 392 C110 330 155 270 234 243 C320 214 373 162 364 115 C354 57 303 18 237 18 C228 18 220 19 212 19 C163 28 116 65 92 115 L82 135 L69 135 L69 135 Z " />
<glyph glyph-name="[namenotfound]" unicode="&#xf078;" horiz-adv-x="576" d="M525 538 L528 538 C539 539 527 517 498 482 L366 334 L290 487 C277 519 274 539 284 538 L287 538 C287 539 288 542 288 546 C289 551 290 553 290 553 C265 554 231 554 206 553 C188 554 165 554 147 553 L144 538 L147 538 C154 539 168 523 182 496 L297 265 L140 75 C109 39 82 15 70 15 L66 15 C65 12 64 1 64 0 L78 0 L92 0 L106 0 L141 0 C141 0 144 15 143 15 L140 15 C127 15 140 41 172 82 L305 248 L397 63 C409 34 411 15 402 15 L399 15 C398 12 397 1 397 0 L428 0 L480 0 L532 0 L539 0 C539 0 540 3 540 8 C541 12 542 15 542 15 L539 15 C531 15 516 36 498 68 L374 318 L518 473 L518 473 C554 513 586 539 598 538 L602 538 C602 539 603 552 605 553 L605 553 L605 553 L605 553 C597 554 586 554 577 553 C562 554 542 554 527 553 C527 553 525 539 525 538 L525 538 L525 538 Z " />
</font>
</svg>
