<?xml version="1.0" encoding="UTF-8"?>
<svg xmlns="http://www.w3.org/2000/svg" xmlns:xlink="http://www.w3.org/1999/xlink" version="1.2" >
<font id="Thomas Mag Regular">
<font-face  font-family="Thomas Mag" units-per-em="1024" ascent="936" descent="-280" font-style="normal" font-weight="400" font-stretch="normal" cap-height="660" x-height="500" underline-position="0" underline-thickness="0" />
<missing-glyph  horiz-adv-x="472" d="M0 700 C0 700 432 700 432 700 C432 700 432 0 432 0 C432 0 0 0 0 0 C0 0 0 700 0 700 L0 700 Z M50 50 C50 50 382 50 382 50 C382 50 382 650 382 650 C382 650 50 650 50 650 C50 650 50 50 50 50 L50 50 Z " />
<glyph glyph-name="NULL" d="" />
<glyph glyph-name="CR" unicode="&#xd;" horiz-adv-x="256" d="" />
<glyph glyph-name="space" unicode="&#x20;" horiz-adv-x="250" d="" />
<glyph glyph-name="exclam" unicode="&#x21;" horiz-adv-x="204" d="M107 -5 C131 -5 147 11 147 35 C147 59 131 75 107 75 C83 75 67 59 67 35 C67 11 83 -5 107 -5 L107 -5 Z M137 620 C139 647 125 665 103 665 C81 665 67 647 69 620 C69 620 103 150 103 150 C103 150 111 150 111 150 C111 150 137 620 137 620 L137 620 Z " />
<glyph glyph-name="quotedbl" unicode="&#x22;" horiz-adv-x="265" d="M147 660 C147 660 178 461 178 461 C178 461 188 461 188 461 C188 461 218 660 218 660 C218 660 147 660 147 660 L147 660 Z M47 660 C47 660 77 461 77 461 C77 461 87 461 87 461 C87 461 117 660 117 660 C117 660 47 660 47 660 L47 660 Z " />
<glyph glyph-name="numbersign" unicode="&#x23;" horiz-adv-x="549" d="M397 679 C397 679 369 481 369 481 C369 481 224 481 224 481 C224 481 252 679 252 679 C252 679 230 679 230 679 C230 679 202 481 202 481 C202 481 71 481 71 481 C71 481 65 439 65 439 C65 439 196 439 196 439 C196 439 165 221 165 221 C165 221 32 221 32 221 C32 221 26 179 26 179 C26 179 159 179 159 179 C159 179 133 0 133 0 C133 0 155 0 155 0 C155 0 181 179 181 179 C181 179 326 179 326 179 C326 179 300 0 300 0 C300 0 321 0 321 0 C321 0 347 179 347 179 C347 179 472 179 472 179 C472 179 478 221 478 221 C478 221 353 221 353 221 C353 221 384 439 384 439 C384 439 517 439 517 439 C517 439 523 481 523 481 C523 481 390 481 390 481 C390 481 419 679 419 679 C419 679 397 679 397 679 L397 679 Z M218 439 C218 439 363 439 363 439 C363 439 332 221 332 221 C332 221 187 221 187 221 C187 221 218 439 218 439 L218 439 Z " />
<glyph glyph-name="dollar" unicode="&#x24;" horiz-adv-x="519" d="M275 735 C275 735 275 664 275 664 C266 665 256 665 247 665 C235 665 224 664 213 663 C213 663 213 735 213 735 C213 735 195 735 195 735 C195 735 195 659 195 659 C109 640 54 571 54 474 C54 409 109 346 195 310 C195 310 195 24 195 24 C147 39 100 72 72 114 C68 119 63 127 59 133 C59 133 46 133 46 133 C46 133 46 78 46 78 C46 78 58 86 58 86 C58 86 58 86 58 86 C58 86 46 78 46 78 C70 41 126 14 195 2 C195 2 195 -75 195 -75 C195 -75 213 -75 213 -75 C213 -75 213 -1 213 -1 C232 -4 252 -5 273 -5 C274 -5 274 -5 275 -5 C275 -5 275 -75 275 -75 C275 -75 293 -75 293 -75 C293 -75 293 -4 293 -4 C398 4 467 73 467 175 C467 253 398 326 293 360 C293 360 293 640 293 640 C299 638 304 637 310 635 C310 635 310 635 310 635 C339 626 376 593 402 553 C407 545 414 535 419 527 C419 527 432 527 432 527 C432 527 432 582 432 582 C432 582 420 574 420 574 C420 574 420 574 420 574 C420 574 432 582 432 582 C406 622 353 651 293 661 C293 661 293 735 293 735 C293 735 275 735 275 735 L275 735 Z M213 20 C213 20 213 304 213 304 C218 302 222 300 227 299 C244 294 260 288 275 281 C275 281 275 15 275 15 C274 15 274 15 273 15 C255 15 237 16 220 19 C220 19 220 19 220 19 C218 19 215 20 213 20 C213 20 213 20 213 20 L213 20 Z M213 392 C213 392 213 642 213 642 C223 644 233 645 244 645 C254 645 265 644 275 643 C275 643 275 366 275 366 C252 373 232 382 213 392 L213 392 Z M195 402 C141 433 109 471 109 506 C109 571 142 619 195 637 C195 637 195 402 195 402 L195 402 Z M293 273 C366 238 411 189 411 142 C411 72 365 24 293 16 C293 16 293 273 293 273 L293 273 Z " />
<glyph glyph-name="ampersand" unicode="&#x26;" horiz-adv-x="720" d="M592 380 C592 380 519 380 519 380 C519 380 519 365 519 365 C519 365 524 365 524 365 C538 365 548 350 548 270 C548 270 548 240 548 240 C548 187 532 141 502 105 C471 135 434 175 392 225 C346 281 307 333 277 380 C389 406 461 472 461 549 C461 619 403 665 317 665 C231 665 173 601 173 504 C173 468 191 422 222 369 C122 329 57 249 57 161 C57 61 140 -5 265 -5 C354 -5 427 20 479 63 C572 -12 639 -14 713 0 C713 0 713 9 713 9 C660 -1 608 6 512 96 C543 135 560 184 560 240 C560 240 560 270 560 270 C560 350 571 365 587 365 C587 365 592 365 592 365 C592 365 592 380 592 380 L592 380 Z M272 387 C237 444 216 492 216 528 C216 603 255 653 313 653 C376 653 418 610 418 546 C418 473 361 412 272 387 C272 387 272 387 272 387 L272 387 Z M468 72 C425 39 366 20 296 20 C184 20 109 85 109 182 C109 260 156 328 228 360 C259 309 302 252 352 192 C395 140 433 101 468 72 C468 72 468 72 468 72 L468 72 Z " />
<glyph glyph-name="quotesingle" unicode="&#x27;" horiz-adv-x="164" d="M47 660 C47 660 77 461 77 461 C77 461 87 461 87 461 C87 461 117 660 117 660 C117 660 47 660 47 660 L47 660 Z " />
<glyph glyph-name="parenleft" unicode="&#x28;" horiz-adv-x="222" d="M198 690 C119 596 67 475 67 270 C67 65 119 -56 198 -150 C198 -150 205 -144 205 -144 C148 -76 110 36 110 270 C110 504 148 616 205 684 C205 684 198 690 198 690 L198 690 Z " />
<glyph glyph-name="parenright" unicode="&#x29;" horiz-adv-x="222" d="M17 -150 C96 -56 148 65 149 270 C148 475 96 596 17 690 C17 690 10 684 10 684 C67 616 105 504 105 270 C105 36 67 -76 10 -144 C10 -144 17 -150 17 -150 L17 -150 Z " />
<glyph glyph-name="asterisk" unicode="&#x2a;" horiz-adv-x="280" d="M154 540 C154 540 45 495 45 495 C17 484 39 447 61 465 C61 465 155 536 155 536 C155 536 140 420 140 420 C138 407 145 398 157 398 C169 398 176 407 174 420 C174 420 158 537 158 537 C158 537 252 465 252 465 C263 457 274 459 280 469 C286 480 282 490 269 495 C269 495 160 540 160 540 C160 540 269 585 269 585 C297 596 276 633 252 615 C252 615 158 543 158 543 C158 543 174 660 174 660 C176 673 169 682 157 682 C145 682 138 673 140 660 C140 660 155 544 155 544 C155 544 61 615 61 615 C39 633 17 596 45 585 C45 585 154 540 154 540 L154 540 Z " />
<glyph glyph-name="plus" unicode="&#x2b;" horiz-adv-x="561" d="M268 450 C268 450 268 262 268 262 C268 262 82 262 82 262 C82 262 82 238 82 238 C82 238 268 238 268 238 C268 238 268 50 268 50 C268 50 295 50 295 50 C295 50 295 238 295 238 C295 238 482 238 482 238 C482 238 482 262 482 262 C482 262 295 262 295 262 C295 262 295 450 295 450 C295 450 268 450 268 450 L268 450 Z " />
<glyph glyph-name="comma" unicode="&#x2c;" horiz-adv-x="210" d="M137 63 C137 63 137 63 137 63 C130 71 120 75 107 75 C83 75 67 59 67 35 C67 11 83 -5 107 -5 C112 -5 116 -4 120 -3 C121 -8 121 -12 121 -17 C121 -52 104 -84 78 -97 C78 -97 82 -105 82 -105 C125 -84 154 -38 154 11 C154 31 147 52 137 63 C137 63 137 63 137 63 L137 63 Z " />
<glyph glyph-name="hyphen" unicode="&#x2d;" horiz-adv-x="286" d="M27 213 C27 213 260 213 260 213 C260 213 260 257 260 257 C260 257 27 257 27 257 C27 257 27 213 27 213 L27 213 Z " />
<glyph glyph-name="period" unicode="&#x2e;" horiz-adv-x="231" d="M125 -5 C149 -5 165 11 165 35 C165 59 149 75 125 75 C101 75 85 59 85 35 C85 11 101 -5 125 -5 L125 -5 Z " />
<glyph glyph-name="slash" unicode="&#x2f;" horiz-adv-x="341" d="M7 -145 C7 -145 32 -145 32 -145 C32 -145 342 710 342 710 C342 710 317 710 317 710 C317 710 7 -145 7 -145 L7 -145 Z " />
<glyph glyph-name="zero" unicode="0" horiz-adv-x="566" d="M283 7 C170 7 95 104 95 250 C95 396 170 493 283 493 C396 493 472 396 472 250 C472 104 396 7 283 7 L283 7 Z M33 250 C33 97 133 -5 283 -5 C433 -5 533 97 533 250 C533 403 433 505 283 505 C133 505 33 403 33 250 L33 250 Z " />
<glyph glyph-name="one" unicode="1" horiz-adv-x="220" d="M159 500 C159 500 135 500 135 500 C135 500 107 500 107 500 C107 500 80 500 80 500 C80 500 56 500 56 500 C56 500 56 485 56 485 C56 485 60 485 60 485 C72 485 80 459 80 420 C80 420 80 80 80 80 C80 41 72 15 60 15 C60 15 56 15 56 15 C56 15 56 0 56 0 C56 0 80 0 80 0 C80 0 107 0 107 0 C107 0 135 0 135 0 C135 0 159 0 159 0 C159 0 159 15 159 15 C159 15 155 15 155 15 C143 15 135 41 135 80 C135 80 135 420 135 420 C135 459 143 485 155 485 C155 485 159 485 159 485 C159 485 159 500 159 500 L159 500 Z " />
<glyph glyph-name="two" unicode="2" horiz-adv-x="495" d="M444 79 C444 79 444 76 444 76 C443 64 416 56 377 55 C377 55 118 55 118 55 C310 175 432 246 432 350 C432 443 368 505 273 505 C192 505 114 446 78 358 C78 358 85 354 85 354 C112 420 176 464 245 464 C321 464 371 411 371 331 C371 200 235 144 32 12 C32 12 32 0 32 0 C32 0 452 0 452 0 C452 0 457 52 457 52 C458 61 458 71 459 79 C459 79 444 79 444 79 L444 79 Z " />
<glyph glyph-name="three" unicode="3" horiz-adv-x="453" d="M32 -215 C261 -203 414 -101 414 41 C414 138 336 204 217 210 C312 257 370 317 370 375 C370 453 314 505 229 505 C154 505 69 453 17 376 C17 376 24 372 24 372 C62 428 133 465 201 465 C269 465 315 422 315 357 C315 297 255 235 160 195 C147 190 130 185 112 178 C112 178 112 168 112 168 C115 169 117 170 120 171 C140 176 166 180 189 180 C289 180 356 123 356 38 C356 -98 226 -196 32 -206 C32 -206 32 -215 32 -215 L32 -215 Z " />
<glyph glyph-name="four" unicode="4" horiz-adv-x="504" d="M56 25 C56 25 323 410 323 410 C323 410 322 408 322 408 C322 408 322 25 322 25 C322 25 56 25 56 25 L56 25 Z M322 0 C322 0 322 -150 322 -150 C322 -150 377 -150 377 -150 C377 -150 377 0 377 0 C377 0 487 0 487 0 C487 0 487 25 487 25 C487 25 377 25 377 25 C377 25 377 488 377 488 C377 488 377 505 377 505 C377 505 368 505 368 505 C368 505 25 10 25 10 C25 10 25 0 25 0 C25 0 36 0 36 0 C36 0 39 0 39 0 C39 0 322 0 322 0 L322 0 Z " />
<glyph glyph-name="five" unicode="5" horiz-adv-x="455" d="M393 500 C393 500 392 500 392 500 C395 508 398 517 400 524 C400 524 385 524 385 524 C385 524 384 520 384 520 C381 508 352 500 313 500 C313 500 111 500 111 500 C111 500 94 500 94 500 C94 500 74 217 74 217 C74 217 89 217 89 217 C89 217 137 217 137 217 C261 217 343 152 343 54 C343 -75 221 -165 38 -172 C38 -172 38 -182 38 -182 C255 -174 399 -73 399 72 C399 192 305 272 165 272 C165 272 93 272 93 272 C93 272 106 441 106 441 C106 441 374 441 374 441 C374 441 393 500 393 500 L393 500 Z " />
<glyph glyph-name="six" unicode="6" horiz-adv-x="530" d="M477 715 C215 706 41 539 41 298 C41 116 130 -5 264 -5 C408 -5 498 83 491 216 C491 343 411 428 292 428 C221 428 153 381 105 305 C105 309 105 313 105 317 C105 543 254 698 477 706 C477 706 477 715 477 715 L477 715 Z M104 283 C148 363 215 413 283 413 C373 413 433 333 433 213 C440 91 375 10 271 10 C170 10 103 105 103 246 C103 257 104 270 104 283 C104 283 104 283 104 283 L104 283 Z " />
<glyph glyph-name="seven" unicode="7" horiz-adv-x="453" d="M45 419 C45 419 45 423 45 423 C46 435 73 443 112 443 C112 443 408 443 408 443 C408 443 137 -140 137 -140 C137 -140 198 -140 198 -140 C277 72 357 283 436 495 C436 495 432 500 432 500 C432 500 37 500 37 500 C37 500 35 472 35 472 C35 472 34 472 34 472 C33 456 31 435 30 419 C30 419 45 419 45 419 L45 419 Z " />
<glyph glyph-name="eight" unicode="8" horiz-adv-x="505" d="M286 353 C273 357 260 360 247 363 C163 381 107 442 107 516 C107 598 161 653 242 653 C327 653 383 595 383 508 C383 429 345 369 286 353 L286 353 Z M293 350 C376 369 429 434 429 517 C429 606 355 665 245 665 C134 665 60 597 60 495 C60 419 110 354 188 321 C95 315 34 253 34 163 C34 62 119 -5 247 -5 C376 -5 461 67 461 175 C461 249 395 316 293 350 C293 350 293 350 293 350 L293 350 Z M193 319 C206 314 220 310 234 307 C339 284 409 224 409 156 C409 67 346 7 250 7 C152 7 86 73 86 172 C86 256 128 313 193 319 C193 319 193 319 193 319 L193 319 Z " />
<glyph glyph-name="nine" unicode="9" horiz-adv-x="566" d="M72 -215 C333 -206 507 -39 508 202 C507 384 418 505 284 505 C141 505 50 417 57 284 C57 157 137 72 256 72 C327 72 395 118 443 194 C443 190 443 187 443 183 C443 -43 294 -198 71 -206 C71 -206 72 -215 72 -215 L72 -215 Z M444 217 C400 137 334 87 265 87 C175 87 115 167 115 287 C109 409 174 490 278 490 C378 490 445 395 446 254 C445 243 445 230 444 217 C444 217 444 217 444 217 L444 217 Z " />
<glyph glyph-name="colon" unicode="&#x3a;" horiz-adv-x="231" d="M125 368 C149 368 165 384 165 408 C165 432 149 448 125 448 C101 448 85 432 85 408 C85 384 101 368 125 368 L125 368 Z M125 -5 C149 -5 165 11 165 35 C165 59 149 75 125 75 C101 75 85 59 85 35 C85 11 101 -5 125 -5 L125 -5 Z " />
<glyph glyph-name="semicolon" unicode="&#x3b;" horiz-adv-x="210" d="M107 368 C131 368 147 384 147 408 C147 432 131 448 107 448 C83 448 67 432 67 408 C67 384 83 368 107 368 L107 368 Z M137 63 C137 63 137 63 137 63 C130 71 120 75 107 75 C83 75 67 59 67 35 C67 11 83 -5 107 -5 C112 -5 116 -4 120 -3 C121 -8 121 -12 121 -17 C121 -52 104 -84 78 -97 C78 -97 82 -105 82 -105 C125 -84 154 -38 154 11 C154 31 147 52 137 63 C137 63 137 63 137 63 L137 63 Z " />
<glyph glyph-name="less" unicode="&#x3c;" horiz-adv-x="550" d="M468 500 C468 500 53 291 53 291 C53 291 47 288 47 288 C47 288 47 262 47 262 C47 262 53 259 53 259 C53 259 468 50 468 50 C468 50 468 78 468 78 C468 78 69 275 69 275 C69 275 468 472 468 472 C468 472 468 500 468 500 L468 500 Z " />
<glyph glyph-name="equal" unicode="&#x3d;" horiz-adv-x="542" d="M86 212 C86 212 86 188 86 188 C86 188 466 188 466 188 C466 188 466 212 466 212 C466 212 86 212 86 212 L86 212 Z M86 312 C86 312 86 288 86 288 C86 288 466 288 466 288 C466 288 466 312 466 312 C466 312 86 312 86 312 L86 312 Z " />
<glyph glyph-name="greater" unicode="&#x3e;" horiz-adv-x="543" d="M471 275 C471 275 82 78 82 78 C82 78 82 50 82 50 C82 50 487 259 487 259 C487 259 497 264 497 264 C497 264 497 286 497 286 C497 286 487 291 487 291 C487 291 82 500 82 500 C82 500 82 472 82 472 C82 472 471 275 471 275 L471 275 Z " />
<glyph glyph-name="question" unicode="&#x3f;" horiz-adv-x="380" d="M147 -5 C171 -5 187 11 187 35 C187 59 171 75 147 75 C123 75 107 59 107 35 C107 11 123 -5 147 -5 L147 -5 Z M142 368 C135 368 130 365 131 360 C131 360 143 155 143 155 C143 155 150 155 150 155 C150 155 161 326 161 326 C161 326 196 326 196 326 C316 326 339 400 339 442 C339 576 256 665 131 665 C81 665 47 639 47 599 C47 589 59 583 77 583 C105 583 121 622 149 622 C255 622 326 553 326 448 C326 419 302 368 177 368 C177 368 142 368 142 368 L142 368 Z " />
<glyph glyph-name="at" unicode="&#x40;" horiz-adv-x="1156" d="M1051 0 C984 -143 799 -238 587 -238 C298 -238 105 -39 105 259 C105 557 294 756 578 756 C862 756 1051 591 1051 343 C1051 140 975 5 860 5 C744 5 686 83 716 200 C716 200 786 480 786 480 C786 480 733 480 733 480 C733 480 711 391 711 391 C698 451 650 490 583 490 C415 490 303 372 303 196 C303 86 372 12 476 12 C552 12 620 58 656 132 C662 43 733 -14 850 -14 C997 -14 1095 129 1095 343 C1095 600 888 772 578 772 C269 772 62 567 62 259 C62 -49 272 -254 587 -254 C805 -254 998 -152 1069 0 C1069 0 1051 0 1051 0 L1051 0 Z M702 356 C702 356 663 200 663 200 C640 106 576 43 505 43 C420 43 364 109 364 207 C364 368 451 475 582 475 C654 475 702 427 702 356 L702 356 Z " />
<glyph glyph-name="A" unicode="A" horiz-adv-x="593" d="M574 15 C574 15 571 15 571 15 C558 15 539 41 524 80 C524 80 523 80 523 80 C523 80 289 675 289 675 C289 675 270 675 270 675 C270 675 61 78 61 78 C47 40 31 15 19 15 C19 15 15 15 15 15 C15 15 15 0 15 0 C15 0 34 0 34 0 C34 0 47 0 47 0 C47 0 60 0 60 0 C60 0 95 0 95 0 C95 0 95 15 95 15 C95 15 91 15 91 15 C76 15 76 42 89 84 C89 84 124 188 124 188 C124 188 354 302 354 302 C354 302 443 66 443 66 C453 35 454 15 443 15 C443 15 439 15 439 15 C439 15 439 0 439 0 C439 0 468 0 468 0 C468 0 512 0 512 0 C512 0 555 0 555 0 C555 0 574 0 574 0 C574 0 574 15 574 15 L574 15 Z M339 341 C339 341 138 230 138 230 C138 230 253 569 253 569 C253 569 339 341 339 341 L339 341 Z " />
<glyph glyph-name="B" unicode="B" horiz-adv-x="569" d="M52 645 C52 645 56 645 56 645 C68 645 76 619 76 580 C76 580 76 80 76 80 C76 41 68 15 56 15 C56 15 52 15 52 15 C52 15 52 0 52 0 C52 0 76 0 76 0 C76 0 116 0 116 0 C116 0 156 0 156 0 C156 0 307 0 307 0 C449 0 543 72 543 181 C543 273 460 339 328 354 C427 373 489 431 489 510 C489 600 406 660 282 660 C282 660 156 660 156 660 C156 660 116 660 116 660 C116 660 76 660 76 660 C76 660 52 660 52 660 C52 660 52 645 52 645 L52 645 Z M276 358 C272 358 269 358 265 358 C265 358 229 357 229 357 C229 357 156 357 156 357 C156 357 156 645 156 645 C156 645 282 645 282 645 C358 645 409 591 409 510 C409 424 356 366 276 358 L276 358 Z M156 346 C156 346 247 346 247 346 C374 346 459 280 459 181 C459 81 396 15 301 15 C301 15 156 15 156 15 C156 15 156 346 156 346 L156 346 Z " />
<glyph glyph-name="C" unicode="C" horiz-adv-x="713" d="M646 520 C646 520 646 571 646 571 C646 571 638 565 638 565 C638 565 638 565 638 566 C638 566 646 571 646 571 C609 627 504 665 385 665 C182 665 47 531 47 330 C47 129 182 -5 385 -5 C504 -5 609 33 646 89 C646 89 638 94 638 94 C638 95 638 95 638 95 C638 95 646 89 646 89 C646 89 646 140 646 140 C646 140 633 140 633 140 C630 134 624 126 620 120 C587 69 521 30 449 19 C429 16 407 15 385 15 C235 15 135 141 135 330 C135 519 235 645 385 645 C417 645 448 642 476 637 C476 637 476 637 476 637 C532 627 590 588 620 540 C624 534 630 526 633 520 C633 520 646 520 646 520 L646 520 Z " />
<glyph glyph-name="D" unicode="D" horiz-adv-x="665" d="M52 645 C52 645 56 645 56 645 C68 645 76 619 76 580 C76 580 76 80 76 80 C76 41 68 15 56 15 C56 15 52 15 52 15 C52 15 52 0 52 0 C52 0 76 0 76 0 C76 0 116 0 116 0 C116 0 156 0 156 0 C156 0 305 0 305 0 C487 0 609 132 609 330 C609 528 472 660 268 660 C268 660 156 660 156 660 C156 660 116 660 116 660 C116 660 76 660 76 660 C76 660 52 660 52 660 C52 660 52 645 52 645 L52 645 Z M156 15 C156 15 156 645 156 645 C156 645 268 645 268 645 C424 645 529 519 529 330 C529 141 439 15 305 15 C305 15 156 15 156 15 L156 15 Z " />
<glyph glyph-name="E" unicode="E" horiz-adv-x="511" d="M376 315 C376 315 376 342 376 342 C376 342 376 352 376 352 C376 352 376 362 376 362 C376 362 376 386 376 386 C376 386 364 386 364 386 C364 386 360 382 360 382 C349 370 307 362 256 362 C256 362 146 362 146 362 C146 362 146 640 146 640 C146 640 283 640 283 640 C349 640 404 624 427 597 C427 597 438 597 438 597 C438 597 438 650 438 650 C438 650 438 660 438 660 C438 660 431 660 431 660 C431 660 358 660 358 660 C358 660 146 660 146 660 C146 660 106 660 106 660 C106 660 66 660 66 660 C66 660 42 660 42 660 C42 660 42 645 42 645 C42 645 46 645 46 645 C58 645 66 619 66 580 C66 580 66 80 66 80 C66 41 58 15 46 15 C46 15 42 15 42 15 C42 15 42 0 42 0 C42 0 66 0 66 0 C66 0 106 0 106 0 C106 0 146 0 146 0 C146 0 362 0 362 0 C362 0 441 0 441 0 C441 0 442 0 442 0 C443 3 444 7 444 10 C447 26 451 47 453 63 C453 63 442 63 442 63 C415 36 357 20 291 20 C291 20 146 20 146 20 C146 20 146 342 146 342 C146 342 256 342 256 342 C307 342 349 333 360 319 C360 319 364 315 364 315 C364 315 376 315 376 315 L376 315 Z " />
<glyph glyph-name="F" unicode="F" horiz-adv-x="477" d="M366 310 C366 310 366 337 366 337 C366 337 366 347 366 347 C366 347 366 357 366 357 C366 357 366 381 366 381 C366 381 354 381 354 381 C354 381 350 377 350 377 C339 365 297 357 246 357 C246 357 146 357 146 357 C146 357 146 640 146 640 C146 640 313 640 313 640 C379 640 434 624 457 597 C457 597 468 597 468 597 C468 597 468 650 468 650 C468 650 468 660 468 660 C468 660 461 660 461 660 C461 660 388 660 388 660 C388 660 146 660 146 660 C146 660 106 660 106 660 C106 660 66 660 66 660 C66 660 42 660 42 660 C42 660 42 645 42 645 C42 645 46 645 46 645 C58 645 66 619 66 580 C66 580 66 80 66 80 C66 41 58 15 46 15 C46 15 42 15 42 15 C42 15 42 0 42 0 C42 0 66 0 66 0 C66 0 106 0 106 0 C106 0 146 0 146 0 C146 0 180 0 180 0 C180 0 180 15 180 15 C180 15 175 15 175 15 C158 15 146 41 146 80 C146 80 146 337 146 337 C146 337 246 337 246 337 C297 337 339 328 350 314 C350 314 354 310 354 310 C354 310 366 310 366 310 L366 310 Z " />
<glyph glyph-name="G" unicode="G" horiz-adv-x="695" d="M639 310 C639 310 615 310 615 310 C615 310 579 310 579 310 C579 310 543 310 543 310 C543 310 519 310 519 310 C519 310 519 295 519 295 C519 295 523 295 523 295 C535 295 543 269 543 230 C543 230 543 46 543 46 C488 27 420 15 358 15 C215 15 120 141 120 330 C120 519 215 645 358 645 C387 645 414 643 440 638 C440 638 440 638 440 638 C496 628 555 589 585 540 C589 534 595 526 598 520 C598 520 611 520 611 520 C611 520 611 571 611 571 C611 571 603 565 603 565 C603 565 603 565 603 566 C603 566 611 571 611 571 C574 627 473 665 358 665 C163 665 32 531 32 330 C32 129 163 -5 358 -5 C449 -5 552 19 615 56 C615 56 615 230 615 230 C615 269 623 295 635 295 C635 295 639 295 639 295 C639 295 639 310 639 310 L639 310 Z " />
<glyph glyph-name="H" unicode="H" horiz-adv-x="681" d="M635 660 C635 660 611 660 611 660 C611 660 571 660 571 660 C571 660 531 660 531 660 C531 660 508 660 508 660 C508 660 508 645 508 645 C508 645 511 645 511 645 C523 645 531 619 531 580 C531 580 531 357 531 357 C531 357 146 357 146 357 C146 357 146 580 146 580 C146 619 154 645 166 645 C166 645 170 645 170 645 C170 645 170 660 170 660 C170 660 146 660 146 660 C146 660 106 660 106 660 C106 660 66 660 66 660 C66 660 42 660 42 660 C42 660 42 645 42 645 C42 645 46 645 46 645 C58 645 66 619 66 580 C66 580 66 80 66 80 C66 41 58 15 46 15 C46 15 42 15 42 15 C42 15 42 0 42 0 C42 0 66 0 66 0 C66 0 106 0 106 0 C106 0 146 0 146 0 C146 0 170 0 170 0 C170 0 170 15 170 15 C170 15 166 15 166 15 C154 15 146 41 146 80 C146 80 146 337 146 337 C146 337 531 337 531 337 C531 337 531 80 531 80 C531 41 523 15 511 15 C511 15 508 15 508 15 C508 15 508 0 508 0 C508 0 531 0 531 0 C531 0 571 0 571 0 C571 0 611 0 611 0 C611 0 635 0 635 0 C635 0 635 15 635 15 C635 15 631 15 631 15 C619 15 611 41 611 80 C611 80 611 580 611 580 C611 619 619 645 631 645 C631 645 635 645 635 645 C635 645 635 660 635 660 L635 660 Z " />
<glyph glyph-name="I" unicode="I" horiz-adv-x="212" d="M165 660 C165 660 141 660 141 660 C141 660 102 660 102 660 C102 660 62 660 62 660 C62 660 38 660 38 660 C38 660 38 645 38 645 C38 645 41 645 41 645 C54 645 62 619 62 580 C62 580 62 80 62 80 C62 41 54 15 41 15 C41 15 38 15 38 15 C38 15 38 0 38 0 C38 0 62 0 62 0 C62 0 102 0 102 0 C102 0 141 0 141 0 C141 0 165 0 165 0 C165 0 165 15 165 15 C165 15 162 15 162 15 C150 15 142 41 141 80 C141 80 141 580 141 580 C142 619 150 645 162 645 C162 645 165 645 165 645 C165 645 165 660 165 660 L165 660 Z " />
<glyph glyph-name="J" unicode="J" horiz-adv-x="340" d="M294 660 C294 660 270 660 270 660 C270 660 230 660 230 660 C230 660 190 660 190 660 C190 660 166 660 166 660 C166 660 166 645 166 645 C166 645 170 645 170 645 C182 645 190 619 190 580 C190 580 190 200 190 200 C190 57 171 2 123 2 C92 2 66 21 59 50 C55 65 44 75 31 75 C13 75 3 65 7 50 C16 14 56 -10 108 -10 C225 -10 270 68 270 267 C270 267 270 580 270 580 C270 619 278 645 290 645 C290 645 294 645 294 645 C294 645 294 660 294 660 L294 660 Z " />
<glyph glyph-name="K" unicode="K" horiz-adv-x="608" d="M436 645 C436 645 437 645 437 645 C441 645 419 619 380 580 C380 580 380 580 380 580 C380 580 199 399 199 399 C199 399 199 399 199 399 C199 399 156 355 156 355 C156 355 156 580 156 580 C156 580 156 592 156 592 C157 624 165 645 176 645 C176 645 179 645 179 645 C179 645 179 660 179 660 C179 660 156 660 156 660 C156 660 116 660 116 660 C116 660 76 660 76 660 C76 660 52 660 52 660 C52 660 52 645 52 645 C52 645 56 645 56 645 C68 645 76 619 76 580 C76 580 76 80 76 80 C76 41 68 15 56 15 C56 15 52 15 52 15 C52 15 52 0 52 0 C52 0 76 0 76 0 C76 0 116 0 116 0 C116 0 156 0 156 0 C156 0 179 0 179 0 C179 0 179 15 179 15 C179 15 176 15 176 15 C165 15 157 36 156 68 C156 68 156 80 156 80 C156 80 156 355 156 355 C156 355 168 339 168 339 C168 339 169 340 169 340 C169 340 322 166 322 166 C432 43 500 -5 568 -5 C568 -5 592 -5 592 -5 C592 -5 592 7 592 7 C592 7 587 7 587 7 C557 7 495 64 366 210 C366 210 213 384 213 384 C213 384 408 580 408 580 C408 580 409 580 409 580 C448 619 482 645 494 645 C494 645 497 645 497 645 C498 645 498 648 497 653 C498 657 498 660 497 660 C497 660 488 660 488 660 C488 660 474 660 474 660 C474 660 460 660 460 660 C460 660 436 660 436 660 C436 660 436 645 436 645 L436 645 Z " />
<glyph glyph-name="L" unicode="L" horiz-adv-x="496" d="M435 68 C435 68 428 60 428 60 C406 36 355 20 301 20 C301 20 146 20 146 20 C146 20 146 580 146 580 C146 619 154 645 166 645 C166 645 170 645 170 645 C170 645 170 660 170 660 C170 660 146 660 146 660 C146 660 106 660 106 660 C106 660 66 660 66 660 C66 660 42 660 42 660 C42 660 42 645 42 645 C42 645 46 645 46 645 C58 645 66 619 66 580 C66 580 66 80 66 80 C66 41 58 15 46 15 C46 15 42 15 42 15 C42 15 42 0 42 0 C42 0 66 0 66 0 C66 0 106 0 106 0 C106 0 146 0 146 0 C146 0 362 0 362 0 C362 0 441 0 441 0 C441 0 442 0 442 0 C443 3 444 7 444 10 C447 27 451 49 454 65 C448 66 435 68 435 68 L435 68 Z " />
<glyph glyph-name="M" unicode="M" horiz-adv-x="736" d="M695 660 C695 660 672 660 672 660 C672 660 636 660 636 660 C636 660 622 660 622 660 C622 660 600 660 600 660 C600 660 369 92 369 92 C369 92 150 660 150 660 C150 660 97 660 97 660 C97 660 85 660 85 660 C85 660 73 660 73 660 C73 660 50 660 50 660 C50 660 50 645 50 645 C50 645 53 645 53 645 C64 645 71 623 70 589 C70 589 51 80 51 80 C50 41 41 15 29 15 C29 15 25 15 25 15 C25 15 25 0 25 0 C25 0 48 0 48 0 C48 0 60 0 60 0 C60 0 72 0 72 0 C72 0 107 0 107 0 C107 0 107 15 107 15 C107 15 102 15 102 15 C85 15 74 47 76 95 C76 95 94 572 94 572 C94 572 323 11 323 11 C323 11 329 -5 329 -5 C329 -5 349 -5 349 -5 C349 -5 602 610 602 610 C602 610 620 63 620 63 C619 34 612 15 602 15 C602 15 599 15 599 15 C599 15 599 0 599 0 C599 0 622 0 622 0 C622 0 662 0 662 0 C662 0 702 0 702 0 C702 0 725 0 725 0 C725 0 725 15 725 15 C725 15 722 15 722 15 C709 15 700 41 698 80 C698 80 676 580 676 580 C674 619 681 645 692 645 C692 645 695 645 695 645 C695 645 695 660 695 660 L695 660 Z " />
<glyph glyph-name="N" unicode="N" horiz-adv-x="613" d="M502 645 C502 645 506 645 506 645 C518 645 526 619 526 580 C526 580 526 97 526 97 C526 97 149 660 149 660 C149 660 96 634 96 634 C96 634 96 634 96 634 C96 634 149 660 149 660 C149 660 96 660 96 660 C96 660 84 660 84 660 C84 660 72 660 72 660 C72 660 48 660 48 660 C48 660 48 645 48 645 C48 645 52 645 52 645 C64 645 72 619 72 580 C72 580 72 80 72 80 C72 41 64 15 52 15 C52 15 48 15 48 15 C48 15 48 0 48 0 C48 0 72 0 72 0 C72 0 84 0 84 0 C84 0 96 0 96 0 C96 0 120 0 120 0 C120 0 120 15 120 15 C120 15 116 15 116 15 C104 15 96 41 96 80 C96 80 96 598 96 598 C96 598 489 11 489 11 C489 11 505 -12 505 -12 C505 -12 550 -12 550 -12 C550 -12 550 40 550 40 C550 40 550 580 550 580 C550 619 558 645 570 645 C570 645 574 645 574 645 C573 645 573 648 574 653 C573 657 573 660 574 660 C574 660 550 660 550 660 C550 660 538 660 538 660 C538 660 526 660 526 660 C526 660 502 660 502 660 C502 660 502 645 502 645 L502 645 Z " />
<glyph glyph-name="O" unicode="O" horiz-adv-x="772" d="M389 15 C231 15 150 160 150 330 C150 500 231 645 389 645 C547 645 628 500 628 330 C628 160 547 15 389 15 L389 15 Z M62 330 C62 149 173 -5 389 -5 C605 -5 716 149 716 330 C716 511 605 665 389 665 C173 665 62 511 62 330 L62 330 Z " />
<glyph glyph-name="P" unicode="P" horiz-adv-x="545" d="M52 645 C52 645 56 645 56 645 C68 645 76 619 76 580 C76 580 76 80 76 80 C76 41 68 15 56 15 C56 15 52 15 52 15 C52 15 52 0 52 0 C52 0 76 0 76 0 C76 0 116 0 116 0 C116 0 156 0 156 0 C156 0 179 0 179 0 C179 0 179 15 179 15 C179 15 176 15 176 15 C165 15 157 36 156 68 C156 68 156 80 156 80 C156 80 156 297 156 297 C156 297 267 297 267 297 C418 297 519 369 519 478 C519 587 429 660 295 660 C295 660 156 660 156 660 C156 660 116 660 116 660 C116 660 76 660 76 660 C76 660 52 660 52 660 C52 660 52 645 52 645 L52 645 Z M156 313 C156 313 156 645 156 645 C156 645 295 645 295 645 C379 645 435 578 435 478 C435 379 368 313 267 313 C267 313 156 313 156 313 L156 313 Z " />
<glyph glyph-name="Q" unicode="Q" horiz-adv-x="772" d="M808 -51 C808 -51 803 -46 803 -46 C781 -72 718 -89 645 -89 C534 -89 453 -55 397 -5 C608 -1 716 151 716 330 C716 511 605 665 389 665 C173 665 62 511 62 330 C62 153 168 2 375 -5 C453 -79 542 -129 638 -129 C701 -129 769 -98 808 -51 L808 -51 Z M389 15 C231 15 150 160 150 330 C150 500 231 645 389 645 C547 645 628 500 628 330 C628 160 547 15 389 15 L389 15 Z " />
<glyph glyph-name="R" unicode="R" horiz-adv-x="580" d="M52 645 C52 645 56 645 56 645 C68 645 76 619 76 580 C76 580 76 80 76 80 C76 41 68 15 56 15 C56 15 52 15 52 15 C52 15 52 0 52 0 C52 0 76 0 76 0 C76 0 116 0 116 0 C116 0 156 0 156 0 C156 0 179 0 179 0 C179 0 179 15 179 15 C179 15 176 15 176 15 C165 15 157 36 156 68 C156 68 156 80 156 80 C156 80 156 316 156 316 C156 316 240 316 240 316 C240 316 400 106 400 106 C477 4 483 0 550 0 C550 0 573 0 573 0 C573 0 573 12 573 12 C573 12 568 12 568 12 C548 12 544 15 484 94 C484 94 311 320 311 320 C423 335 493 399 493 490 C493 592 409 660 282 660 C282 660 156 660 156 660 C156 660 116 660 116 660 C116 660 76 660 76 660 C76 660 52 660 52 660 C52 660 52 645 52 645 L52 645 Z M257 332 C257 332 228 332 228 332 C228 332 156 332 156 332 C156 332 156 645 156 645 C156 645 282 645 282 645 C358 645 409 583 409 490 C409 395 348 332 257 332 L257 332 Z " />
<glyph glyph-name="S" unicode="S" horiz-adv-x="519" d="M46 133 C46 133 46 78 46 78 C46 78 58 86 58 86 C58 86 58 86 58 86 C58 86 46 78 46 78 C79 28 170 -5 273 -5 C389 -5 467 67 467 175 C467 254 396 328 289 361 C181 395 109 453 109 506 C109 589 163 645 244 645 C267 645 289 641 310 635 C310 635 310 635 310 635 C339 626 376 593 402 553 C407 545 414 535 419 527 C419 527 432 527 432 527 C432 527 432 582 432 582 C432 582 420 574 420 574 C420 574 420 574 420 574 C420 574 432 582 432 582 C399 632 325 665 247 665 C131 665 54 589 54 474 C54 401 123 331 227 299 C337 265 411 202 411 142 C411 66 356 15 273 15 C255 15 237 16 220 19 C220 19 220 19 220 19 C164 27 105 65 72 114 C68 119 63 127 59 133 C59 133 46 133 46 133 L46 133 Z " />
<glyph glyph-name="T" unicode="T" horiz-adv-x="633" d="M608 592 C606 610 604 633 603 650 C602 653 602 657 602 660 C602 660 587 660 587 660 C587 660 522 660 522 660 C522 660 112 660 112 660 C112 660 47 660 47 660 C47 660 32 660 32 660 C32 657 31 653 31 650 C30 633 28 610 26 592 C26 592 38 592 38 592 C38 592 46 600 46 600 C73 624 122 640 170 640 C170 640 277 640 277 640 C277 640 277 80 277 80 C277 41 269 15 257 15 C257 15 253 15 253 15 C253 15 253 0 253 0 C253 0 277 0 277 0 C277 0 317 0 317 0 C317 0 357 0 357 0 C357 0 381 0 381 0 C381 0 381 15 381 15 C381 15 377 15 377 15 C365 15 357 41 357 80 C357 80 357 640 357 640 C357 640 464 640 464 640 C512 640 561 624 588 600 C588 600 596 592 596 592 C596 592 608 592 608 592 L608 592 Z " />
<glyph glyph-name="U" unicode="U" horiz-adv-x="586" d="M485 645 C485 645 490 645 490 645 C504 645 514 615 514 570 C514 570 514 185 514 185 C514 88 458 23 316 23 C194 23 146 91 146 194 C146 194 146 580 146 580 C146 580 146 592 146 592 C147 624 155 645 166 645 C166 645 169 645 169 645 C169 645 169 660 169 660 C169 660 146 660 146 660 C146 660 106 660 106 660 C106 660 66 660 66 660 C66 660 42 660 42 660 C42 660 42 645 42 645 C42 645 46 645 46 645 C58 645 66 619 66 580 C66 580 66 209 66 209 C66 81 133 -5 304 -5 C468 -5 532 69 532 179 C532 179 532 570 532 570 C533 615 542 645 555 645 C555 645 559 645 559 645 C560 645 560 648 559 653 C560 657 560 660 559 660 C559 660 532 660 532 660 C532 660 523 660 523 660 C523 660 514 660 514 660 C514 660 485 660 485 660 C485 660 485 645 485 645 L485 645 Z " />
<glyph glyph-name="V" unicode="V" horiz-adv-x="616" d="M573 660 C573 660 554 660 554 660 C554 660 545 660 545 660 C545 660 536 660 536 660 C536 660 498 660 498 660 C498 660 498 645 498 645 C498 645 503 645 503 645 C519 645 518 607 499 550 C499 550 499 550 499 550 C499 550 339 70 339 70 C339 70 145 594 145 594 C136 625 137 645 149 645 C149 645 152 645 152 645 C152 645 152 660 152 660 C152 660 121 660 121 660 C121 660 77 660 77 660 C77 660 33 660 33 660 C33 660 20 660 20 660 C20 660 20 645 20 645 C20 645 23 645 23 645 C31 645 47 623 62 590 C62 590 310 -15 310 -15 C310 -15 326 -15 326 -15 C326 -15 527 580 527 580 C527 580 527 580 527 580 C541 619 558 645 569 645 C569 645 573 645 573 645 C573 645 573 660 573 660 L573 660 Z " />
<glyph glyph-name="W" unicode="W" horiz-adv-x="908" d="M879 660 C879 660 860 660 860 660 C860 660 851 660 851 660 C851 660 841 660 841 660 C841 660 808 660 808 660 C808 660 808 645 808 645 C808 645 812 645 812 645 C827 645 829 619 818 580 C818 580 818 580 818 580 C818 580 649 -15 649 -15 C649 -15 676 82 676 82 C676 82 487 670 487 670 C487 670 472 670 472 670 C472 670 296 76 296 76 C296 76 148 580 148 580 C148 580 149 580 149 580 C137 619 138 645 150 645 C150 645 154 645 154 645 C154 645 154 660 154 660 C154 660 125 660 125 660 C125 660 81 660 81 660 C81 660 38 660 38 660 C38 660 24 660 24 660 C24 660 24 645 24 645 C24 645 26 645 26 645 C36 645 52 619 65 580 C65 580 65 580 65 580 C65 580 269 -15 269 -15 C269 -15 285 -15 285 -15 C285 -15 487 670 487 670 C487 670 457 567 457 567 C457 567 649 -15 649 -15 C649 -15 664 -15 664 -15 C664 -15 837 580 837 580 C837 580 837 580 837 580 C848 619 864 645 876 645 C876 645 879 645 879 645 C879 645 879 660 879 660 L879 660 Z " />
<glyph glyph-name="X" unicode="X" horiz-adv-x="645" d="M570 660 C570 660 556 660 556 660 C556 660 541 660 541 660 C541 660 525 660 525 660 C525 660 490 660 490 660 C491 660 491 657 490 653 C491 648 491 645 490 645 C490 645 494 645 494 645 C505 645 500 626 482 595 C482 595 338 376 338 376 C338 376 204 580 204 580 C204 580 204 580 204 580 C178 619 168 645 179 645 C179 645 183 645 183 645 C183 645 183 660 183 660 C183 660 151 660 151 660 C151 660 105 660 105 660 C105 660 60 660 60 660 C60 660 52 660 52 660 C52 660 52 645 52 645 C52 645 55 645 55 645 C63 645 82 624 105 592 C105 592 283 321 283 321 C283 321 283 321 283 321 C283 321 131 80 131 80 C131 80 131 80 131 80 C106 41 82 15 70 15 C70 15 66 15 66 15 C66 15 66 0 66 0 C66 0 81 0 81 0 C81 0 95 0 95 0 C95 0 110 0 110 0 C110 0 145 0 145 0 C145 0 145 15 145 15 C145 15 141 15 141 15 C129 15 137 42 161 83 C161 83 296 302 296 302 C296 302 442 80 442 80 C442 80 442 80 442 80 C468 41 477 15 466 15 C466 15 463 15 463 15 C463 15 463 0 463 0 C463 0 495 0 495 0 C495 0 540 0 540 0 C540 0 585 0 585 0 C585 0 593 0 593 0 C593 0 593 15 593 15 C593 15 590 15 590 15 C582 15 559 41 533 80 C533 80 532 80 532 80 C532 80 350 358 350 358 C350 358 350 358 350 358 C350 358 501 580 501 580 C501 580 502 580 502 580 C528 619 554 645 566 645 C566 645 570 645 570 645 C570 645 570 660 570 660 L570 660 Z " />
<glyph glyph-name="Y" unicode="Y" horiz-adv-x="572" d="M355 15 C355 15 351 15 351 15 C339 15 331 41 331 80 C331 80 331 308 331 308 C331 308 330 308 330 308 C330 308 503 591 503 591 C524 624 543 645 553 645 C553 645 556 645 556 645 C556 645 556 660 556 660 C556 660 545 660 545 660 C545 660 535 660 535 660 C535 660 526 660 526 660 C526 660 491 660 491 660 C491 660 491 645 491 645 C491 645 495 645 495 645 C507 645 498 614 470 566 C470 566 466 560 466 560 C466 560 315 308 315 308 C315 308 304 308 304 308 C304 308 172 580 172 580 C172 580 172 580 172 580 C153 619 147 645 158 645 C158 645 162 645 162 645 C162 645 162 660 162 660 C162 660 133 660 133 660 C133 660 85 660 85 660 C85 660 37 660 37 660 C37 660 28 660 28 660 C28 660 28 645 28 645 C28 645 31 645 31 645 C40 645 60 619 81 580 C81 580 81 580 81 580 C81 580 251 271 251 271 C251 271 251 80 251 80 C251 41 243 15 231 15 C231 15 227 15 227 15 C227 15 227 0 227 0 C227 0 251 0 251 0 C251 0 291 0 291 0 C291 0 331 0 331 0 C331 0 355 0 355 0 C355 0 355 15 355 15 L355 15 Z " />
<glyph glyph-name="Z" unicode="Z" horiz-adv-x="590" d="M517 10 C520 27 524 50 526 66 C526 66 523 66 523 66 C514 68 508 68 508 68 C508 68 501 61 501 61 C479 37 428 21 373 21 C373 21 155 21 155 21 C155 21 536 660 536 660 C536 660 491 660 491 660 C491 660 445 660 445 660 C445 660 198 660 198 660 C198 660 133 660 133 660 C133 660 118 660 118 660 C117 657 116 653 115 650 C111 636 106 616 102 602 C102 602 114 602 114 602 C114 602 123 608 123 608 C152 627 204 640 252 640 C252 640 433 640 433 640 C433 640 53 0 53 0 C53 0 97 0 97 0 C97 0 142 0 142 0 C142 0 435 0 435 0 C435 0 514 0 514 0 C514 0 515 0 515 0 C516 3 516 7 517 10 L517 10 Z " />
<glyph glyph-name="bracketleft" unicode="&#x5b;" horiz-adv-x="248" d="M126 648 C126 648 231 648 231 648 C231 648 231 660 231 660 C231 660 126 660 126 660 C126 660 83 660 83 660 C83 660 83 -120 83 -120 C83 -120 126 -120 126 -120 C126 -120 231 -120 231 -120 C231 -120 231 -108 231 -108 C231 -108 126 -108 126 -108 C126 -108 126 648 126 648 L126 648 Z " />
<glyph glyph-name="backslash" unicode="&#x5c;" horiz-adv-x="242" d="M216 -145 C216 -145 235 -145 235 -145 C235 -145 -34 710 -34 710 C-34 710 -53 710 -53 710 C-53 710 216 -145 216 -145 L216 -145 Z " />
<glyph glyph-name="bracketright" unicode="&#x5d;" horiz-adv-x="229" d="M110 648 C110 648 110 -108 110 -108 C110 -108 5 -108 5 -108 C5 -108 5 -120 5 -120 C5 -120 110 -120 110 -120 C110 -120 153 -120 153 -120 C153 -120 153 660 153 660 C153 660 110 660 110 660 C110 660 5 660 5 660 C5 660 5 648 5 648 C5 648 110 648 110 648 L110 648 Z " />
<glyph glyph-name="underscore" unicode="&#x5f;" horiz-adv-x="461" d="M12 -50 C12 -50 12 -81 12 -81 C12 -81 450 -81 450 -81 C450 -81 450 -50 450 -50 C450 -50 12 -50 12 -50 L12 -50 Z " />
<glyph glyph-name="a" unicode="a" horiz-adv-x="498" d="M470 38 C457 25 442 17 419 17 C388 17 380 41 380 76 C380 76 380 359 380 359 C380 447 331 505 258 505 C116 505 43 445 76 354 C76 354 131 354 131 354 C102 436 148 490 246 490 C291 490 321 442 321 371 C321 371 321 251 321 251 C321 251 209 235 209 235 C109 221 42 168 42 102 C42 38 88 -5 157 -5 C214 -5 275 21 321 63 C322 19 336 -10 381 -10 C424 -10 452 6 476 30 C476 30 470 38 470 38 L470 38 Z M321 238 C321 238 321 76 321 76 C285 49 234 32 185 32 C133 32 98 66 98 118 C98 166 143 206 209 218 C209 218 321 238 321 238 L321 238 Z " />
<glyph glyph-name="b" unicode="b" horiz-adv-x="527" d="M24 690 C44 666 48 654 48 595 C48 595 48 0 48 0 C48 0 54 0 54 0 C54 0 54 1 54 1 C60 16 74 25 90 25 C131 25 168 5 217 -2 C228 -4 239 -5 251 -5 C394 -5 490 96 490 248 C490 402 404 505 275 505 C196 505 129 469 103 414 C103 414 103 610 103 610 C103 610 103 706 103 706 C103 706 103 720 103 720 C103 720 92 720 92 720 C92 720 24 699 24 699 C24 699 24 690 24 690 L24 690 Z M103 397 C122 447 174 480 232 480 C351 480 431 377 431 223 C431 95 359 10 251 10 C162 10 103 61 103 137 C103 137 103 397 103 397 L103 397 Z " />
<glyph glyph-name="c" unicode="c" horiz-adv-x="458" d="M412 124 C412 124 405 128 405 128 C377 68 323 29 269 29 C164 29 93 120 93 256 C93 396 165 490 274 490 C322 490 357 455 361 404 C362 387 373 376 389 376 C403 376 413 386 413 401 C408 463 355 505 280 505 C133 505 34 397 34 235 C34 91 110 -5 223 -5 C299 -5 375 47 412 124 L412 124 Z " />
<glyph glyph-name="d" unicode="d" horiz-adv-x="538" d="M481 30 C481 30 478 35 478 35 C461 56 458 70 457 125 C457 125 457 610 457 610 C457 610 457 706 457 706 C457 706 457 720 457 720 C457 720 446 720 446 720 C446 720 378 699 378 699 C378 699 378 690 378 690 C398 666 402 654 402 595 C402 595 402 427 402 427 C373 475 318 505 246 505 C114 505 26 393 26 225 C26 87 106 -5 225 -5 C304 -5 372 27 402 77 C402 77 402 14 402 14 C402 14 402 0 402 0 C402 0 413 0 413 0 C413 0 481 21 481 21 C481 21 481 30 481 30 L481 30 Z M402 110 C402 110 402 90 402 90 C383 53 326 29 255 29 C153 29 84 116 84 246 C84 392 148 490 244 490 C324 490 383 450 402 391 C402 391 402 110 402 110 L402 110 Z " />
<glyph glyph-name="e" unicode="e" horiz-adv-x="475" d="M418 124 C418 124 410 128 410 128 C382 68 326 29 272 29 C164 29 92 120 92 256 C92 280 94 302 97 323 C97 323 419 323 419 323 C419 432 351 505 249 505 C119 505 33 397 33 235 C33 91 110 -5 225 -5 C304 -5 381 47 418 124 L418 124 Z M99 333 C117 429 171 490 246 490 C318 490 367 442 367 369 C367 354 357 344 342 342 C342 342 99 333 99 333 L99 333 Z " />
<glyph glyph-name="f" unicode="f" horiz-adv-x="315" d="M163 15 C163 15 160 15 160 15 C148 15 140 41 139 80 C139 80 139 478 139 478 C139 478 274 478 274 478 C274 478 274 500 274 500 C274 500 139 500 139 500 C139 500 139 533 139 533 C139 638 182 708 246 708 C277 708 300 689 302 660 C303 646 314 636 330 636 C345 636 355 646 355 660 C351 696 314 720 261 720 C164 720 94 650 87 545 C87 545 84 500 84 500 C84 500 1 500 1 500 C1 500 1 478 1 478 C1 478 84 478 84 478 C84 478 84 80 84 80 C84 41 76 15 64 15 C64 15 60 15 60 15 C60 15 60 0 60 0 C60 0 84 0 84 0 C84 0 112 0 112 0 C112 0 139 0 139 0 C139 0 163 0 163 0 C163 0 163 15 163 15 L163 15 Z " />
<glyph glyph-name="g" unicode="g" horiz-adv-x="481" d="M475 500 C475 500 338 488 338 488 C313 499 284 505 251 505 C146 505 75 443 75 350 C75 277 118 223 187 203 C109 200 58 164 58 110 C58 59 98 25 161 17 C83 -9 33 -60 33 -113 C33 -189 92 -239 181 -239 C346 -239 455 -162 455 -47 C455 24 384 72 277 72 C277 72 198 69 198 69 C136 65 95 90 95 132 C95 169 136 194 196 194 C196 194 251 194 251 194 C357 194 428 256 428 350 C428 400 408 440 373 468 C373 468 475 469 475 469 C475 469 475 500 475 500 L475 500 Z M127 350 C127 436 177 493 251 493 C326 493 376 436 376 350 C376 263 326 206 251 206 C177 206 127 263 127 350 L127 350 Z M178 16 C185 16 193 16 201 16 C201 16 262 19 262 19 C354 19 415 -19 415 -75 C415 -164 324 -223 188 -223 C117 -223 70 -176 70 -106 C70 -53 112 -5 178 16 C178 16 178 16 178 16 L178 16 Z " />
<glyph glyph-name="h" unicode="h" horiz-adv-x="533" d="M486 15 C486 15 483 15 483 15 C471 15 463 41 462 80 C462 80 462 336 462 336 C462 438 427 505 337 505 C244 505 164 462 131 396 C131 396 131 610 131 610 C131 610 131 706 131 706 C131 706 131 720 131 720 C131 720 120 720 120 720 C120 720 52 699 52 699 C52 699 52 690 52 690 C52 690 55 685 55 685 C72 664 75 649 75 595 C75 595 75 80 75 80 C75 41 67 15 55 15 C55 15 52 15 52 15 C52 15 52 0 52 0 C52 0 75 0 75 0 C75 0 103 0 103 0 C103 0 131 0 131 0 C131 0 155 0 155 0 C155 0 155 15 155 15 C155 15 151 15 151 15 C139 15 131 41 131 80 C131 80 131 384 131 384 C156 435 219 468 294 468 C375 468 407 413 407 331 C407 331 407 80 407 80 C407 41 399 15 387 15 C387 15 383 15 383 15 C383 15 383 0 383 0 C383 0 407 0 407 0 C407 0 435 0 435 0 C435 0 462 0 462 0 C462 0 486 0 486 0 C486 0 486 15 486 15 L486 15 Z " />
<glyph glyph-name="i" unicode="i" horiz-adv-x="206" d="M52 470 C72 445 76 435 76 375 C76 375 76 80 76 80 C76 41 68 15 56 15 C56 15 52 15 52 15 C52 15 52 0 52 0 C52 0 76 0 76 0 C76 0 103 0 103 0 C103 0 131 0 131 0 C131 0 155 0 155 0 C155 0 155 15 155 15 C155 15 151 15 151 15 C139 15 131 41 131 80 C131 80 131 390 131 390 C131 390 131 486 131 486 C131 486 131 500 131 500 C131 500 120 500 120 500 C120 500 52 479 52 479 C52 479 52 470 52 470 L52 470 Z M100 570 C122 570 137 585 137 607 C137 629 122 644 100 644 C78 644 63 629 63 607 C63 585 78 570 100 570 L100 570 Z " />
<glyph glyph-name="j" unicode="j" horiz-adv-x="206" d="M52 470 C69 448 75 438 76 394 C76 394 75 7 75 7 C75 -131 48 -174 -34 -225 C-34 -225 -28 -233 -28 -233 C92 -158 132 -108 132 23 C132 23 131 486 131 486 C131 486 131 500 131 500 C131 500 120 500 120 500 C120 500 52 479 52 479 C52 479 52 470 52 470 L52 470 Z M100 570 C122 570 137 585 137 607 C137 629 122 644 100 644 C78 644 63 629 63 607 C63 585 78 570 100 570 L100 570 Z " />
<glyph glyph-name="k" unicode="k" horiz-adv-x="451" d="M471 15 C471 15 467 15 467 15 C455 15 424 41 388 80 C388 80 388 80 388 80 C388 80 186 304 186 304 C186 304 319 420 319 420 C319 420 319 420 319 420 C364 459 402 485 414 485 C414 485 418 485 418 485 C418 485 418 500 418 500 C418 500 411 500 411 500 C411 500 399 500 399 500 C399 500 387 500 387 500 C387 500 363 500 363 500 C363 500 363 485 363 485 C363 485 364 485 364 485 C368 485 342 459 298 420 C298 420 298 420 298 420 C298 420 138 275 138 275 C138 275 138 610 138 610 C138 610 138 706 138 706 C138 706 138 720 138 720 C138 720 127 720 127 720 C127 720 59 699 59 699 C59 699 59 690 59 690 C79 666 83 654 83 595 C83 595 83 80 83 80 C83 41 75 15 63 15 C63 15 59 15 59 15 C59 15 59 0 59 0 C59 0 83 0 83 0 C83 0 111 0 111 0 C111 0 138 0 138 0 C138 0 162 0 162 0 C162 0 162 15 162 15 C162 15 159 15 159 15 C147 15 139 41 138 80 C138 80 138 275 138 275 C138 275 144 268 144 268 C144 268 144 268 144 268 C144 268 342 54 342 54 C362 30 373 15 369 15 C369 15 368 15 368 15 C368 15 368 0 368 0 C368 0 391 0 391 0 C391 0 426 0 426 0 C426 0 460 0 460 0 C460 0 471 0 471 0 C471 0 471 15 471 15 L471 15 Z " />
<glyph glyph-name="l" unicode="l" horiz-adv-x="206" d="M52 690 C72 665 76 655 76 595 C76 595 76 80 76 80 C76 41 68 15 56 15 C56 15 52 15 52 15 C52 15 52 0 52 0 C52 0 76 0 76 0 C76 0 103 0 103 0 C103 0 131 0 131 0 C131 0 155 0 155 0 C155 0 155 15 155 15 C155 15 151 15 151 15 C139 15 131 41 131 80 C131 80 131 610 131 610 C131 610 131 706 131 706 C131 706 131 720 131 720 C131 720 120 720 120 720 C120 720 52 699 52 699 C52 699 52 690 52 690 L52 690 Z " />
<glyph glyph-name="m" unicode="m" horiz-adv-x="884" d="M734 0 C734 0 758 0 758 0 C758 0 786 0 786 0 C786 0 814 0 814 0 C814 0 838 0 838 0 C837 0 837 3 838 7 C837 12 837 15 838 15 C838 15 834 15 834 15 C822 15 814 41 814 80 C814 80 814 336 814 336 C814 438 757 505 680 505 C573 505 497 465 463 403 C444 466 399 505 343 505 C238 505 164 462 131 396 C131 396 131 406 131 406 C131 406 131 500 131 500 C131 500 120 500 120 500 C120 500 52 479 52 479 C52 479 52 470 52 470 C52 470 55 465 55 465 C72 444 75 429 75 375 C75 375 75 80 75 80 C75 41 67 15 55 15 C55 15 52 15 52 15 C52 15 52 0 52 0 C52 0 75 0 75 0 C75 0 103 0 103 0 C103 0 131 0 131 0 C131 0 155 0 155 0 C155 0 155 15 155 15 C155 15 151 15 151 15 C139 15 131 41 131 80 C131 80 131 384 131 384 C156 437 215 471 300 471 C367 471 417 415 417 331 C417 331 417 80 417 80 C417 41 409 15 397 15 C397 15 393 15 393 15 C393 15 393 0 393 0 C393 0 417 0 417 0 C417 0 445 0 445 0 C445 0 472 0 472 0 C472 0 496 0 496 0 C496 0 496 15 496 15 C496 15 493 15 493 15 C481 15 473 41 472 80 C472 80 472 336 472 336 C472 355 470 373 466 390 C491 437 551 468 638 468 C706 468 758 413 758 331 C758 331 758 80 758 80 C758 41 750 15 738 15 C738 15 734 15 734 15 C734 15 734 0 734 0 L734 0 Z " />
<glyph glyph-name="n" unicode="n" horiz-adv-x="533" d="M486 15 C486 15 483 15 483 15 C471 15 463 41 462 80 C462 80 462 336 462 336 C462 438 427 505 337 505 C244 505 164 462 131 396 C131 396 131 406 131 406 C131 406 131 500 131 500 C131 500 120 500 120 500 C120 500 52 479 52 479 C52 479 52 470 52 470 C52 470 55 465 55 465 C72 444 75 429 75 375 C75 375 75 80 75 80 C75 41 67 15 55 15 C55 15 52 15 52 15 C52 15 52 0 52 0 C52 0 75 0 75 0 C75 0 103 0 103 0 C103 0 131 0 131 0 C131 0 155 0 155 0 C155 0 155 15 155 15 C155 15 151 15 151 15 C139 15 131 41 131 80 C131 80 131 384 131 384 C156 435 219 468 294 468 C375 468 407 413 407 331 C407 331 407 80 407 80 C407 41 399 15 387 15 C387 15 383 15 383 15 C383 15 383 0 383 0 C383 0 407 0 407 0 C407 0 435 0 435 0 C435 0 462 0 462 0 C462 0 486 0 486 0 C486 0 486 15 486 15 L486 15 Z " />
<glyph glyph-name="o" unicode="o" horiz-adv-x="580" d="M290 7 C180 7 107 104 107 250 C107 396 180 493 290 493 C400 493 474 396 474 250 C474 104 400 7 290 7 L290 7 Z M45 250 C45 97 143 -5 290 -5 C437 -5 535 97 535 250 C535 403 437 505 290 505 C143 505 45 403 45 250 L45 250 Z " />
<glyph glyph-name="p" unicode="p" horiz-adv-x="574" d="M41 470 C41 470 44 465 44 465 C61 444 64 429 64 375 C64 375 64 -150 64 -150 C64 -189 56 -215 44 -215 C44 -215 41 -215 41 -215 C41 -215 41 -230 41 -230 C41 -230 64 -230 64 -230 C64 -230 92 -230 92 -230 C92 -230 120 -230 120 -230 C120 -230 144 -230 144 -230 C144 -230 144 -215 144 -215 C144 -215 140 -215 140 -215 C128 -215 120 -189 120 -150 C120 -150 120 64 120 64 C151 20 206 -5 275 -5 C425 -5 524 100 524 259 C524 406 442 505 318 505 C216 505 142 465 120 403 C120 403 120 406 120 406 C120 406 119 406 119 406 C119 406 112 500 112 500 C112 500 101 500 101 500 C101 500 41 479 41 479 C41 479 41 470 41 470 L41 470 Z M120 156 C120 156 120 378 120 378 C134 433 192 468 276 468 C392 468 469 367 469 216 C469 92 392 10 275 10 C182 10 120 68 120 156 C120 156 120 156 120 156 L120 156 Z " />
<glyph glyph-name="q" unicode="q" horiz-adv-x="553" d="M501 -215 C501 -215 498 -215 498 -215 C486 -215 477 -189 477 -150 C477 -150 477 500 477 500 C477 500 471 500 471 500 C466 483 450 471 431 471 C381 471 340 505 273 505 C137 505 46 393 46 225 C46 87 123 -5 239 -5 C320 -5 391 31 422 87 C422 87 422 -150 422 -150 C422 -189 414 -215 402 -215 C402 -215 398 -215 398 -215 C398 -215 398 -230 398 -230 C398 -230 422 -230 422 -230 C422 -230 450 -230 450 -230 C450 -230 477 -230 477 -230 C477 -230 501 -230 501 -230 C501 -230 501 -215 501 -215 L501 -215 Z M422 104 C403 59 343 29 269 29 C170 29 104 116 104 246 C104 392 171 490 273 490 C362 490 422 429 422 337 C422 337 422 104 422 104 L422 104 Z " />
<glyph glyph-name="r" unicode="r" horiz-adv-x="379" d="M52 470 C52 470 55 465 55 465 C72 444 75 429 75 375 C75 375 75 80 75 80 C75 41 67 15 55 15 C55 15 52 15 52 15 C52 15 52 0 52 0 C52 0 75 0 75 0 C75 0 103 0 103 0 C103 0 131 0 131 0 C131 0 155 0 155 0 C155 0 155 15 155 15 C155 15 151 15 151 15 C139 15 131 41 131 80 C131 80 131 380 131 380 C148 431 187 464 233 464 C265 464 304 440 336 440 C352 440 362 451 362 467 C362 490 338 505 277 505 C209 505 153 459 131 388 C131 388 131 390 131 390 C131 390 131 406 131 406 C131 406 130 406 130 406 C130 406 123 500 123 500 C123 500 112 500 112 500 C112 500 52 479 52 479 C52 479 52 470 52 470 L52 470 Z " />
<glyph glyph-name="s" unicode="s" horiz-adv-x="434" d="M356 399 C356 399 356 433 356 433 C327 476 273 505 220 505 C129 505 69 454 69 377 C69 325 127 266 214 230 C285 202 332 157 332 117 C332 52 289 8 225 8 C210 8 194 9 180 12 C135 22 89 58 64 100 C64 100 53 100 53 100 C53 100 53 62 53 62 C79 22 147 -5 222 -5 C315 -5 378 52 378 137 C378 186 328 239 253 270 C169 304 112 354 112 396 C112 454 155 493 220 493 C235 493 251 490 266 484 C291 472 319 445 337 412 C339 408 342 402 344 399 C344 399 356 399 356 399 L356 399 Z " />
<glyph glyph-name="t" unicode="t" horiz-adv-x="358" d="M320 500 C320 500 166 500 166 500 C166 500 166 640 166 640 C166 640 156 640 156 640 C156 640 137 575 137 575 C122 526 82 491 35 485 C35 485 32 485 32 485 C32 485 32 478 32 478 C32 478 110 478 110 478 C110 478 110 111 110 111 C110 21 129 -5 198 -5 C253 -5 293 41 331 109 C331 109 326 112 326 112 C295 57 264 20 225 20 C178 20 165 38 165 102 C165 102 166 478 166 478 C166 478 320 478 320 478 C320 478 320 500 320 500 L320 500 Z M138 576 C138 576 139 580 139 580 C139 579 138 578 138 576 L138 576 Z " />
<glyph glyph-name="u" unicode="u" horiz-adv-x="498" d="M456 30 C456 30 453 35 453 35 C436 56 433 70 432 125 C432 125 432 500 432 500 C432 500 405 500 405 500 C405 500 377 500 377 500 C377 500 353 500 353 500 C353 500 353 485 353 485 C353 485 357 485 357 485 C369 485 377 459 377 420 C377 420 377 110 377 110 C377 110 377 101 377 101 C358 59 316 31 239 31 C148 31 101 83 101 161 C101 161 101 500 101 500 C101 500 73 500 73 500 C73 500 45 500 45 500 C45 500 22 500 22 500 C22 500 22 485 22 485 C22 485 25 485 25 485 C37 485 45 459 45 420 C45 420 45 420 45 420 C45 420 46 156 46 156 C46 59 97 -5 195 -5 C292 -5 349 32 377 88 C377 88 377 14 377 14 C377 14 377 0 377 0 C377 0 388 0 388 0 C388 0 456 21 456 21 C456 21 456 30 456 30 L456 30 Z " />
<glyph glyph-name="v" unicode="v" horiz-adv-x="475" d="M441 500 C441 500 423 500 423 500 C423 500 414 500 414 500 C414 500 404 500 404 500 C404 500 381 500 381 500 C381 500 381 485 381 485 C381 485 383 485 383 485 C392 485 391 465 380 434 C380 434 245 62 245 62 C245 62 117 420 117 420 C117 420 118 420 118 420 C104 459 101 485 110 485 C110 485 113 485 113 485 C113 485 113 500 113 500 C113 500 89 500 89 500 C89 500 58 500 58 500 C58 500 26 500 26 500 C26 500 8 500 8 500 C8 500 8 485 8 485 C8 485 11 485 11 485 C24 485 42 459 56 420 C56 420 56 420 56 420 C56 420 219 -10 219 -10 C219 -10 229 -10 229 -10 C229 -10 393 420 393 420 C393 420 393 420 393 420 C407 459 425 485 438 485 C438 485 441 485 441 485 C441 485 441 500 441 500 L441 500 Z " />
<glyph glyph-name="w" unicode="w" horiz-adv-x="735" d="M720 500 C720 500 706 500 706 500 C706 500 688 500 688 500 C688 500 655 500 655 500 C655 500 655 485 655 485 C655 485 661 485 661 485 C674 485 678 471 650 396 C650 396 650 396 650 396 C650 396 529 60 529 60 C529 60 393 443 393 443 C383 477 387 485 397 485 C397 485 403 485 403 485 C403 485 403 500 403 500 C403 500 373 500 373 500 C373 500 309 500 309 500 C309 500 298 500 298 500 C298 500 298 485 298 485 C298 485 302 485 302 485 C309 485 318 476 336 430 C336 430 371 337 371 337 C371 337 371 337 371 337 C371 337 269 61 269 61 C269 61 145 411 145 411 C145 411 145 411 145 411 C121 473 124 485 136 485 C136 485 141 485 141 485 C141 485 141 500 141 500 C141 500 113 500 113 500 C113 500 50 500 50 500 C50 500 37 500 37 500 C37 500 37 485 37 485 C37 485 42 485 42 485 C49 485 58 476 75 434 C75 434 243 -10 243 -10 C243 -10 253 -10 253 -10 C253 -10 378 320 378 320 C378 320 503 -10 503 -10 C503 -10 512 -10 512 -10 C512 -10 669 404 669 404 C669 404 670 404 670 404 C694 472 705 485 715 485 C715 485 720 485 720 485 C720 485 720 500 720 500 L720 500 Z " />
<glyph glyph-name="x" unicode="x" horiz-adv-x="520" d="M443 500 C443 500 430 500 430 500 C430 500 421 500 421 500 C421 500 412 500 412 500 C412 500 380 500 380 500 C380 500 380 485 380 485 C380 485 383 485 383 485 C394 485 383 459 356 420 C356 420 356 420 356 420 C356 420 270 297 270 297 C270 297 167 440 167 440 C149 468 142 485 150 485 C150 485 152 485 152 485 C152 485 152 500 152 500 C152 500 124 500 124 500 C124 500 90 500 90 500 C90 500 56 500 56 500 C56 500 48 500 48 500 C48 500 48 485 48 485 C48 485 50 485 50 485 C59 485 82 462 108 428 C108 428 235 252 235 252 C235 252 111 68 111 68 C88 36 65 15 53 15 C53 15 49 15 49 15 C49 15 49 0 49 0 C49 0 66 0 66 0 C66 0 75 0 75 0 C75 0 85 0 85 0 C85 0 123 0 123 0 C123 0 123 15 123 15 C123 15 119 15 119 15 C106 15 110 35 129 67 C129 67 243 241 243 241 C243 241 359 80 359 80 C359 80 359 80 359 80 C387 41 401 15 395 15 C395 15 393 15 393 15 C393 15 393 0 393 0 C393 0 417 0 417 0 C417 0 450 0 450 0 C450 0 484 0 484 0 C484 0 489 0 489 0 C489 0 489 15 489 15 C489 15 487 15 487 15 C479 15 454 41 427 80 C427 80 426 80 426 80 C426 80 276 288 276 288 C276 288 372 420 372 420 C372 420 372 420 372 420 C400 459 427 485 440 485 C440 485 443 485 443 485 C443 485 443 500 443 500 L443 500 Z " />
<glyph glyph-name="y" unicode="y" horiz-adv-x="451" d="M453 500 C453 500 435 500 435 500 C435 500 426 500 426 500 C426 500 416 500 416 500 C416 500 393 500 393 500 C393 500 393 485 393 485 C393 485 395 485 395 485 C404 485 403 465 392 434 C392 434 257 62 257 62 C257 62 129 420 129 420 C129 420 130 420 130 420 C116 459 113 485 122 485 C122 485 125 485 125 485 C125 485 125 500 125 500 C125 500 101 500 101 500 C101 500 70 500 70 500 C70 500 38 500 38 500 C38 500 20 500 20 500 C20 500 20 485 20 485 C20 485 23 485 23 485 C36 485 54 459 68 420 C68 420 68 420 68 420 C68 420 228 -2 228 -2 C228 -2 203 -67 203 -67 C168 -158 141 -194 106 -194 C83 -194 62 -169 39 -169 C22 -169 11 -179 11 -193 C11 -215 36 -230 72 -230 C133 -230 174 -186 217 -72 C217 -72 241 -10 241 -10 C241 -10 405 420 405 420 C405 420 405 420 405 420 C419 459 437 485 450 485 C450 485 453 485 453 485 C453 485 453 500 453 500 L453 500 Z " />
<glyph glyph-name="z" unicode="z" horiz-adv-x="497" d="M284 13 C284 13 284 13 284 13 C284 13 135 12 135 12 C135 12 441 500 441 500 C441 500 409 500 409 500 C409 500 377 500 377 500 C377 500 158 500 158 500 C158 500 92 500 92 500 C92 500 78 500 78 500 C77 498 77 496 76 494 C73 483 69 469 66 458 C66 458 78 458 78 458 C78 458 87 463 87 463 C115 477 166 487 214 487 C214 487 214 487 214 487 C214 487 369 488 369 488 C369 488 62 0 62 0 C62 0 94 0 94 0 C94 0 127 0 127 0 C127 0 347 0 347 0 C347 0 425 0 425 0 C425 0 427 0 427 0 C428 2 428 4 428 6 C431 22 435 42 437 58 C437 58 434 58 434 58 C425 59 419 60 419 60 C419 60 412 53 412 53 C390 28 339 12 284 13 C284 13 284 13 284 13 L284 13 Z " />
<glyph glyph-name="braceleft" unicode="&#x7b;" horiz-adv-x="256" d="M235 -120 C235 -120 235 -111 235 -111 C235 -111 207 -111 207 -111 C149 -111 110 -64 110 6 C110 6 110 172 110 172 C110 226 83 263 42 270 C83 277 110 315 110 369 C110 369 110 534 110 534 C110 604 149 651 207 651 C207 651 235 651 235 651 C235 651 235 660 235 660 C235 660 195 660 195 660 C118 660 67 610 67 534 C67 534 67 338 67 338 C67 300 47 275 17 275 C17 275 12 275 12 275 C12 275 12 265 12 265 C12 265 17 265 17 265 C47 265 67 240 67 203 C67 203 67 6 67 6 C67 -70 118 -120 195 -120 C195 -120 235 -120 235 -120 L235 -120 Z " />
<glyph glyph-name="bar" unicode="&#x7c;" horiz-adv-x="176" d="M67 770 C67 770 67 -234 67 -234 C67 -234 110 -234 110 -234 C110 -234 110 770 110 770 C110 770 67 770 67 770 L67 770 Z " />
<glyph glyph-name="braceright" unicode="&#x7d;" horiz-adv-x="256" d="M12 660 C12 660 12 651 12 651 C12 651 40 651 40 651 C98 651 137 604 137 534 C137 534 137 368 137 368 C137 314 163 277 205 270 C163 263 137 225 137 171 C137 171 137 6 137 6 C137 -64 98 -111 40 -111 C40 -111 12 -111 12 -111 C12 -111 12 -120 12 -120 C12 -120 52 -120 52 -120 C129 -120 180 -70 180 6 C180 6 180 202 180 202 C180 240 200 265 230 265 C230 265 235 265 235 265 C235 265 235 275 235 275 C235 275 230 275 230 275 C200 275 180 300 180 337 C180 337 180 534 180 534 C180 610 129 660 52 660 C52 660 12 660 12 660 L12 660 Z " />
<glyph glyph-name="[namenotfound]" unicode="&#xa0;" horiz-adv-x="220" d="" />
<glyph glyph-name="exclamdown" unicode="&#xa1;" horiz-adv-x="204" d="M97 505 C73 505 57 489 57 465 C57 441 73 425 97 425 C121 425 137 441 137 465 C137 489 121 505 97 505 L97 505 Z M67 -120 C65 -147 79 -165 101 -165 C123 -165 137 -147 135 -120 C135 -120 101 350 101 350 C101 350 93 350 93 350 C93 350 67 -120 67 -120 L67 -120 Z " />
<glyph glyph-name="cent" unicode="&#xa2;" horiz-adv-x="493" d="M279 575 C279 575 279 504 279 504 C145 493 57 388 57 235 C57 91 133 -5 246 -5 C257 -5 268 -4 279 -2 C279 -2 279 -75 279 -75 C279 -75 298 -75 298 -75 C298 -75 298 3 298 3 C355 20 407 65 435 124 C435 124 428 128 428 128 C401 70 350 32 298 29 C298 29 298 490 298 490 C345 490 380 455 384 404 C385 387 396 376 412 376 C426 376 436 386 436 401 C431 463 378 505 303 505 C301 505 300 505 298 505 C298 505 298 575 298 575 C298 575 279 575 279 575 L279 575 Z M279 29 C181 37 116 126 116 256 C116 388 180 479 279 489 C279 489 279 29 279 29 L279 29 Z " />
<glyph glyph-name="guillemotleft" unicode="&#xab;" horiz-adv-x="464" d="M244 250 C244 250 411 458 411 458 C411 458 405 465 405 465 C405 465 186 253 186 253 C186 253 186 247 186 247 C186 247 407 35 407 35 C407 35 413 42 413 42 C413 42 244 250 244 250 L244 250 Z M85 250 C85 250 245 458 245 458 C245 458 239 465 239 465 C239 465 27 253 27 253 C27 253 27 247 27 247 C27 247 240 35 240 35 C240 35 247 42 247 42 C247 42 85 250 85 250 L85 250 Z " />
<glyph glyph-name="guillemotright" unicode="&#xbb;" horiz-adv-x="464" d="M221 250 C221 250 53 458 53 458 C53 458 60 465 60 465 C60 465 278 253 278 253 C278 253 278 247 278 247 C278 247 58 35 58 35 C58 35 52 42 52 42 C52 42 221 250 221 250 L221 250 Z M380 250 C380 250 220 458 220 458 C220 458 226 465 226 465 C226 465 438 253 438 253 C438 253 438 247 438 247 C438 247 224 35 224 35 C224 35 218 42 218 42 C218 42 380 250 380 250 L380 250 Z " />
<glyph glyph-name="questiondown" unicode="&#xbf;" horiz-adv-x="380" d="M234 505 C210 505 194 489 194 465 C194 441 210 425 234 425 C258 425 274 441 274 465 C274 489 258 505 234 505 L234 505 Z M239 132 C246 132 251 135 250 140 C250 140 238 345 238 345 C238 345 230 345 230 345 C230 345 220 174 220 174 C220 174 185 174 185 174 C65 174 42 100 42 58 C42 -76 125 -165 250 -165 C300 -165 334 -139 333 -99 C334 -89 322 -83 303 -83 C276 -83 260 -122 232 -122 C126 -122 55 -53 55 52 C55 81 79 132 204 132 C204 132 239 132 239 132 L239 132 Z " />
<glyph glyph-name="Agrave" unicode="&#xc0;" horiz-adv-x="593" d="M574 15 C574 15 571 15 571 15 C558 15 539 41 524 80 C524 80 523 80 523 80 C523 80 289 675 289 675 C289 675 270 675 270 675 C270 675 61 78 61 78 C47 40 31 15 19 15 C19 15 15 15 15 15 C15 15 15 0 15 0 C15 0 34 0 34 0 C34 0 47 0 47 0 C47 0 60 0 60 0 C60 0 95 0 95 0 C95 0 95 15 95 15 C95 15 91 15 91 15 C76 15 76 42 89 84 C89 84 140 235 140 235 C140 235 379 235 379 235 C379 235 443 66 443 66 C453 35 454 15 443 15 C443 15 439 15 439 15 C439 15 439 0 439 0 C439 0 468 0 468 0 C468 0 512 0 512 0 C512 0 555 0 555 0 C555 0 574 0 574 0 C574 0 574 15 574 15 L574 15 Z M268 842 C247 875 232 897 229 897 C219 897 197 881 197 873 C197 869 214 848 239 819 C239 819 353 691 353 691 C353 691 359 696 359 696 C359 696 268 842 268 842 L268 842 Z M372 255 C372 255 147 255 147 255 C147 255 253 569 253 569 C253 569 372 255 372 255 L372 255 Z " />
<glyph glyph-name="Aacute" unicode="&#xc1;" horiz-adv-x="593" d="M217 691 C217 691 328 819 328 819 C353 849 369 870 369 873 C369 881 347 897 337 897 C334 897 320 875 300 842 C300 842 211 696 211 696 C211 696 217 691 217 691 L217 691 Z M574 15 C574 15 571 15 571 15 C558 15 539 41 524 80 C524 80 523 80 523 80 C523 80 289 675 289 675 C289 675 270 675 270 675 C270 675 61 78 61 78 C47 40 31 15 19 15 C19 15 15 15 15 15 C15 15 15 0 15 0 C15 0 34 0 34 0 C34 0 47 0 47 0 C47 0 60 0 60 0 C60 0 95 0 95 0 C95 0 95 15 95 15 C95 15 91 15 91 15 C76 15 76 42 89 84 C89 84 140 235 140 235 C140 235 379 235 379 235 C379 235 443 66 443 66 C453 35 454 15 443 15 C443 15 439 15 439 15 C439 15 439 0 439 0 C439 0 468 0 468 0 C468 0 512 0 512 0 C512 0 555 0 555 0 C555 0 574 0 574 0 C574 0 574 15 574 15 L574 15 Z M372 255 C372 255 147 255 147 255 C147 255 253 569 253 569 C253 569 372 255 372 255 L372 255 Z " />
<glyph glyph-name="Acircumflex" unicode="&#xc2;" horiz-adv-x="593" d="M574 15 C574 15 571 15 571 15 C558 15 539 41 524 80 C524 80 523 80 523 80 C523 80 289 675 289 675 C289 675 270 675 270 675 C270 675 61 78 61 78 C47 40 31 15 19 15 C19 15 15 15 15 15 C15 15 15 0 15 0 C15 0 34 0 34 0 C34 0 47 0 47 0 C47 0 60 0 60 0 C60 0 95 0 95 0 C95 0 95 15 95 15 C95 15 91 15 91 15 C76 15 76 42 89 84 C89 84 140 235 140 235 C140 235 379 235 379 235 C379 235 443 66 443 66 C453 35 454 15 443 15 C443 15 439 15 439 15 C439 15 439 0 439 0 C439 0 468 0 468 0 C468 0 512 0 512 0 C512 0 555 0 555 0 C555 0 574 0 574 0 C574 0 574 15 574 15 L574 15 Z M280 847 C280 847 392 693 392 693 C392 693 398 698 398 698 C398 698 297 889 297 889 C295 894 288 905 280 905 C271 905 264 894 262 889 C262 889 161 698 161 698 C161 698 167 693 167 693 C167 693 280 847 280 847 L280 847 Z M372 255 C372 255 147 255 147 255 C147 255 253 569 253 569 C253 569 372 255 372 255 L372 255 Z " />
<glyph glyph-name="Atilde" unicode="&#xc3;" horiz-adv-x="593" d="M138 755 C138 795 156 821 183 821 C243 821 301 758 362 758 C403 758 430 797 430 855 C430 855 421 855 421 855 C421 819 402 795 374 795 C313 795 255 858 195 858 C155 858 129 817 129 755 C129 755 138 755 138 755 L138 755 Z M574 15 C574 15 571 15 571 15 C558 15 539 41 524 80 C524 80 523 80 523 80 C523 80 289 675 289 675 C289 675 270 675 270 675 C270 675 61 78 61 78 C47 40 31 15 19 15 C19 15 15 15 15 15 C15 15 15 0 15 0 C15 0 34 0 34 0 C34 0 47 0 47 0 C47 0 60 0 60 0 C60 0 95 0 95 0 C95 0 95 15 95 15 C95 15 91 15 91 15 C76 15 76 42 89 84 C89 84 140 235 140 235 C140 235 379 235 379 235 C379 235 443 66 443 66 C453 35 454 15 443 15 C443 15 439 15 439 15 C439 15 439 0 439 0 C439 0 468 0 468 0 C468 0 512 0 512 0 C512 0 555 0 555 0 C555 0 574 0 574 0 C574 0 574 15 574 15 L574 15 Z M372 255 C372 255 147 255 147 255 C147 255 253 569 253 569 C253 569 372 255 372 255 L372 255 Z " />
<glyph glyph-name="Adieresis" unicode="&#xc4;" horiz-adv-x="593" d="M369 730 C390 730 403 744 403 764 C403 784 390 798 369 798 C349 798 335 784 335 764 C335 744 349 730 369 730 L369 730 Z M190 730 C210 730 224 744 224 764 C224 784 210 798 190 798 C169 798 156 784 156 764 C156 744 169 730 190 730 L190 730 Z M574 15 C574 15 571 15 571 15 C558 15 539 41 524 80 C524 80 523 80 523 80 C523 80 289 675 289 675 C289 675 270 675 270 675 C270 675 61 78 61 78 C47 40 31 15 19 15 C19 15 15 15 15 15 C15 15 15 0 15 0 C15 0 34 0 34 0 C34 0 47 0 47 0 C47 0 60 0 60 0 C60 0 95 0 95 0 C95 0 95 15 95 15 C95 15 91 15 91 15 C76 15 76 42 89 84 C89 84 140 235 140 235 C140 235 379 235 379 235 C379 235 443 66 443 66 C453 35 454 15 443 15 C443 15 439 15 439 15 C439 15 439 0 439 0 C439 0 468 0 468 0 C468 0 512 0 512 0 C512 0 555 0 555 0 C555 0 574 0 574 0 C574 0 574 15 574 15 L574 15 Z M372 255 C372 255 147 255 147 255 C147 255 253 569 253 569 C253 569 372 255 372 255 L372 255 Z " />
<glyph glyph-name="Aring" unicode="&#xc5;" horiz-adv-x="593" d="M280 707 C237 707 201 744 201 788 C201 836 232 868 280 868 C327 868 358 836 358 788 C358 744 322 707 280 707 L280 707 Z M185 788 C185 738 228 695 280 695 C331 695 374 738 374 788 C374 843 336 880 280 880 C223 880 185 843 185 788 L185 788 Z M574 15 C574 15 571 15 571 15 C558 15 539 41 524 80 C524 80 523 80 523 80 C523 80 289 675 289 675 C289 675 270 675 270 675 C270 675 61 78 61 78 C47 40 31 15 19 15 C19 15 15 15 15 15 C15 15 15 0 15 0 C15 0 34 0 34 0 C34 0 47 0 47 0 C47 0 60 0 60 0 C60 0 95 0 95 0 C95 0 95 15 95 15 C95 15 91 15 91 15 C76 15 76 42 89 84 C89 84 140 235 140 235 C140 235 379 235 379 235 C379 235 443 66 443 66 C453 35 454 15 443 15 C443 15 439 15 439 15 C439 15 439 0 439 0 C439 0 468 0 468 0 C468 0 512 0 512 0 C512 0 555 0 555 0 C555 0 574 0 574 0 C574 0 574 15 574 15 L574 15 Z M372 255 C372 255 147 255 147 255 C147 255 253 569 253 569 C253 569 372 255 372 255 L372 255 Z " />
<glyph glyph-name="Ccedilla" unicode="&#xc7;" horiz-adv-x="728" d="M661 520 C661 520 661 571 661 571 C661 571 653 565 653 565 C653 565 653 565 653 566 C653 566 661 571 661 571 C624 627 519 665 400 665 C197 665 62 531 62 330 C62 129 197 -5 400 -5 C519 -5 624 33 661 89 C661 89 653 94 653 94 C653 95 653 95 653 95 C653 95 661 89 661 89 C661 89 661 140 661 140 C661 140 648 140 648 140 C645 134 639 126 635 120 C602 69 536 30 464 19 C444 16 422 15 400 15 C250 15 150 141 150 330 C150 519 250 645 400 645 C432 645 463 642 491 637 C491 637 491 637 491 637 C547 627 605 588 635 540 C639 534 645 526 648 520 C648 520 661 520 661 520 L661 520 Z " />
<glyph glyph-name="Egrave" unicode="&#xc8;" horiz-adv-x="511" d="M376 315 C376 315 376 342 376 342 C376 342 376 352 376 352 C376 352 376 362 376 362 C376 362 376 386 376 386 C376 386 364 386 364 386 C364 386 360 382 360 382 C349 370 307 362 256 362 C256 362 146 362 146 362 C146 362 146 640 146 640 C146 640 283 640 283 640 C349 640 404 624 427 597 C427 597 438 597 438 597 C438 597 438 650 438 650 C438 650 438 660 438 660 C438 660 431 660 431 660 C431 660 358 660 358 660 C358 660 146 660 146 660 C146 660 106 660 106 660 C106 660 66 660 66 660 C66 660 42 660 42 660 C42 660 42 645 42 645 C42 645 46 645 46 645 C58 645 66 619 66 580 C66 580 66 80 66 80 C66 41 58 15 46 15 C46 15 42 15 42 15 C42 15 42 0 42 0 C42 0 66 0 66 0 C66 0 106 0 106 0 C106 0 146 0 146 0 C146 0 362 0 362 0 C362 0 441 0 441 0 C441 0 442 0 442 0 C443 3 444 7 444 10 C447 26 451 47 453 63 C453 63 442 63 442 63 C415 36 357 20 291 20 C291 20 146 20 146 20 C146 20 146 342 146 342 C146 342 256 342 256 342 C307 342 349 333 360 319 C360 319 364 315 364 315 C364 315 376 315 376 315 L376 315 Z M221 842 C201 875 186 897 182 897 C173 897 150 881 151 873 C150 869 167 848 193 819 C193 819 306 691 306 691 C306 691 313 696 313 696 C313 696 221 842 221 842 L221 842 Z " />
<glyph glyph-name="Eacute" unicode="&#xc9;" horiz-adv-x="511" d="M217 691 C217 691 327 819 327 819 C352 849 369 870 369 873 C369 881 346 897 337 897 C334 897 319 875 299 842 C299 842 211 696 211 696 C211 696 217 691 217 691 L217 691 Z M376 315 C376 315 376 342 376 342 C376 342 376 352 376 352 C376 352 376 362 376 362 C376 362 376 386 376 386 C376 386 364 386 364 386 C364 386 360 382 360 382 C349 370 307 362 256 362 C256 362 146 362 146 362 C146 362 146 640 146 640 C146 640 283 640 283 640 C349 640 404 624 427 597 C427 597 438 597 438 597 C438 597 438 650 438 650 C438 650 438 660 438 660 C438 660 431 660 431 660 C431 660 358 660 358 660 C358 660 146 660 146 660 C146 660 106 660 106 660 C106 660 66 660 66 660 C66 660 42 660 42 660 C42 660 42 645 42 645 C42 645 46 645 46 645 C58 645 66 619 66 580 C66 580 66 80 66 80 C66 41 58 15 46 15 C46 15 42 15 42 15 C42 15 42 0 42 0 C42 0 66 0 66 0 C66 0 106 0 106 0 C106 0 146 0 146 0 C146 0 362 0 362 0 C362 0 441 0 441 0 C441 0 442 0 442 0 C443 3 444 7 444 10 C447 26 451 47 453 63 C453 63 442 63 442 63 C415 36 357 20 291 20 C291 20 146 20 146 20 C146 20 146 342 146 342 C146 342 256 342 256 342 C307 342 349 333 360 319 C360 319 364 315 364 315 C364 315 376 315 376 315 L376 315 Z " />
<glyph glyph-name="Ecircumflex" unicode="&#xca;" horiz-adv-x="511" d="M376 315 C376 315 376 342 376 342 C376 342 376 352 376 352 C376 352 376 362 376 362 C376 362 376 386 376 386 C376 386 364 386 364 386 C364 386 360 382 360 382 C349 370 307 362 256 362 C256 362 146 362 146 362 C146 362 146 640 146 640 C146 640 283 640 283 640 C349 640 404 624 427 597 C427 597 438 597 438 597 C438 597 438 650 438 650 C438 650 438 660 438 660 C438 660 431 660 431 660 C431 660 358 660 358 660 C358 660 146 660 146 660 C146 660 106 660 106 660 C106 660 66 660 66 660 C66 660 42 660 42 660 C42 660 42 645 42 645 C42 645 46 645 46 645 C58 645 66 619 66 580 C66 580 66 80 66 80 C66 41 58 15 46 15 C46 15 42 15 42 15 C42 15 42 0 42 0 C42 0 66 0 66 0 C66 0 106 0 106 0 C106 0 146 0 146 0 C146 0 362 0 362 0 C362 0 441 0 441 0 C441 0 442 0 442 0 C443 3 444 7 444 10 C447 26 451 47 453 63 C453 63 442 63 442 63 C415 36 357 20 291 20 C291 20 146 20 146 20 C146 20 146 342 146 342 C146 342 256 342 256 342 C307 342 349 333 360 319 C360 319 364 315 364 315 C364 315 376 315 376 315 L376 315 Z M249 847 C249 847 361 693 361 693 C361 693 367 698 367 698 C367 698 266 889 266 889 C264 894 257 905 249 905 C240 905 233 894 231 889 C231 889 130 698 130 698 C130 698 136 693 136 693 C136 693 249 847 249 847 L249 847 Z " />
<glyph glyph-name="Edieresis" unicode="&#xcb;" horiz-adv-x="511" d="M338 730 C359 730 372 744 372 764 C372 784 359 798 338 798 C318 798 305 784 305 764 C305 744 318 730 338 730 L338 730 Z M159 730 C179 730 193 744 193 764 C193 784 179 798 159 798 C139 798 125 784 125 764 C125 744 139 730 159 730 L159 730 Z M376 315 C376 315 376 342 376 342 C376 342 376 352 376 352 C376 352 376 362 376 362 C376 362 376 386 376 386 C376 386 364 386 364 386 C364 386 360 382 360 382 C349 370 307 362 256 362 C256 362 146 362 146 362 C146 362 146 640 146 640 C146 640 283 640 283 640 C349 640 404 624 427 597 C427 597 438 597 438 597 C438 597 438 650 438 650 C438 650 438 660 438 660 C438 660 431 660 431 660 C431 660 358 660 358 660 C358 660 146 660 146 660 C146 660 106 660 106 660 C106 660 66 660 66 660 C66 660 42 660 42 660 C42 660 42 645 42 645 C42 645 46 645 46 645 C58 645 66 619 66 580 C66 580 66 80 66 80 C66 41 58 15 46 15 C46 15 42 15 42 15 C42 15 42 0 42 0 C42 0 66 0 66 0 C66 0 106 0 106 0 C106 0 146 0 146 0 C146 0 362 0 362 0 C362 0 441 0 441 0 C441 0 442 0 442 0 C443 3 444 7 444 10 C447 26 451 47 453 63 C453 63 442 63 442 63 C415 36 357 20 291 20 C291 20 146 20 146 20 C146 20 146 342 146 342 C146 342 256 342 256 342 C307 342 349 333 360 319 C360 319 364 315 364 315 C364 315 376 315 376 315 L376 315 Z " />
<glyph glyph-name="Igrave" unicode="&#xcc;" horiz-adv-x="212" d="M165 660 C165 660 141 660 141 660 C141 660 102 660 102 660 C102 660 62 660 62 660 C62 660 38 660 38 660 C38 660 38 645 38 645 C38 645 41 645 41 645 C54 645 62 619 62 580 C62 580 62 80 62 80 C62 41 54 15 41 15 C41 15 38 15 38 15 C38 15 38 0 38 0 C38 0 62 0 62 0 C62 0 102 0 102 0 C102 0 141 0 141 0 C141 0 165 0 165 0 C165 0 165 15 165 15 C165 15 162 15 162 15 C150 15 142 41 141 80 C141 80 141 580 141 580 C142 619 150 645 162 645 C162 645 165 645 165 645 C165 645 165 660 165 660 L165 660 Z M90 842 C69 875 54 897 51 897 C41 897 19 881 19 873 C19 869 36 848 61 819 C61 819 175 691 175 691 C175 691 181 696 181 696 C181 696 90 842 90 842 L90 842 Z " />
<glyph glyph-name="Iacute" unicode="&#xcd;" horiz-adv-x="212" d="M39 691 C39 691 150 819 150 819 C175 849 191 870 191 873 C191 881 169 897 159 897 C156 897 142 875 122 842 C122 842 33 696 33 696 C33 696 39 691 39 691 L39 691 Z M165 660 C165 660 141 660 141 660 C141 660 102 660 102 660 C102 660 62 660 62 660 C62 660 38 660 38 660 C38 660 38 645 38 645 C38 645 41 645 41 645 C54 645 62 619 62 580 C62 580 62 80 62 80 C62 41 54 15 41 15 C41 15 38 15 38 15 C38 15 38 0 38 0 C38 0 62 0 62 0 C62 0 102 0 102 0 C102 0 141 0 141 0 C141 0 165 0 165 0 C165 0 165 15 165 15 C165 15 162 15 162 15 C150 15 142 41 141 80 C141 80 141 580 141 580 C142 619 150 645 162 645 C162 645 165 645 165 645 C165 645 165 660 165 660 L165 660 Z " />
<glyph glyph-name="Icircumflex" unicode="&#xce;" horiz-adv-x="212" d="M165 660 C165 660 141 660 141 660 C141 660 102 660 102 660 C102 660 62 660 62 660 C62 660 38 660 38 660 C38 660 38 645 38 645 C38 645 41 645 41 645 C54 645 62 619 62 580 C62 580 62 80 62 80 C62 41 54 15 41 15 C41 15 38 15 38 15 C38 15 38 0 38 0 C38 0 62 0 62 0 C62 0 102 0 102 0 C102 0 141 0 141 0 C141 0 165 0 165 0 C165 0 165 15 165 15 C165 15 162 15 162 15 C150 15 142 41 141 80 C141 80 141 580 141 580 C142 619 150 645 162 645 C162 645 165 645 165 645 C165 645 165 660 165 660 L165 660 Z M102 847 C102 847 214 693 214 693 C214 693 220 698 220 698 C220 698 119 889 119 889 C117 894 110 905 102 905 C93 905 86 894 84 889 C84 889 -17 698 -17 698 C-17 698 -11 693 -11 693 C-11 693 102 847 102 847 L102 847 Z " />
<glyph glyph-name="Idieresis" unicode="&#xcf;" horiz-adv-x="212" d="M191 730 C212 730 225 744 225 764 C225 784 212 798 191 798 C171 798 157 784 157 764 C157 744 171 730 191 730 L191 730 Z M12 730 C32 730 46 744 46 764 C46 784 32 798 12 798 C-8 798 -22 784 -22 764 C-22 744 -8 730 12 730 L12 730 Z M165 660 C165 660 141 660 141 660 C141 660 102 660 102 660 C102 660 62 660 62 660 C62 660 38 660 38 660 C38 660 38 645 38 645 C38 645 41 645 41 645 C54 645 62 619 62 580 C62 580 62 80 62 80 C62 41 54 15 41 15 C41 15 38 15 38 15 C38 15 38 0 38 0 C38 0 62 0 62 0 C62 0 102 0 102 0 C102 0 141 0 141 0 C141 0 165 0 165 0 C165 0 165 15 165 15 C165 15 162 15 162 15 C150 15 142 41 141 80 C141 80 141 580 141 580 C142 619 150 645 162 645 C162 645 165 645 165 645 C165 645 165 660 165 660 L165 660 Z " />
<glyph glyph-name="Ntilde" unicode="&#xd1;" horiz-adv-x="613" d="M169 755 C169 795 187 821 214 821 C274 821 332 758 393 758 C434 758 462 797 462 855 C462 855 452 855 452 855 C452 819 433 795 405 795 C344 795 286 858 226 858 C186 858 160 817 160 755 C160 755 169 755 169 755 L169 755 Z M502 645 C502 645 506 645 506 645 C518 645 526 619 526 580 C526 580 526 97 526 97 C526 97 149 660 149 660 C149 660 96 634 96 634 C96 634 96 634 96 634 C96 634 149 660 149 660 C149 660 96 660 96 660 C96 660 84 660 84 660 C84 660 72 660 72 660 C72 660 48 660 48 660 C48 660 48 645 48 645 C48 645 52 645 52 645 C64 645 72 619 72 580 C72 580 72 80 72 80 C72 41 64 15 52 15 C52 15 48 15 48 15 C48 15 48 0 48 0 C48 0 72 0 72 0 C72 0 84 0 84 0 C84 0 96 0 96 0 C96 0 120 0 120 0 C120 0 120 15 120 15 C120 15 116 15 116 15 C104 15 96 41 96 80 C96 80 96 598 96 598 C96 598 489 11 489 11 C489 11 505 -12 505 -12 C505 -12 550 -12 550 -12 C550 -12 550 40 550 40 C550 40 550 580 550 580 C550 619 558 645 570 645 C570 645 574 645 574 645 C573 645 573 648 574 653 C573 657 573 660 574 660 C574 660 550 660 550 660 C550 660 538 660 538 660 C538 660 526 660 526 660 C526 660 502 660 502 660 C502 660 502 645 502 645 L502 645 Z " />
<glyph glyph-name="Ograve" unicode="&#xd2;" horiz-adv-x="772" d="M389 15 C231 15 150 160 150 330 C150 500 231 645 389 645 C547 645 628 500 628 330 C628 160 547 15 389 15 L389 15 Z M62 330 C62 149 173 -5 389 -5 C605 -5 716 149 716 330 C716 511 605 665 389 665 C173 665 62 511 62 330 L62 330 Z M377 842 C357 875 342 897 338 897 C329 897 307 881 306 873 C307 869 324 848 349 819 C349 819 462 691 462 691 C462 691 469 696 469 696 C469 696 377 842 377 842 L377 842 Z " />
<glyph glyph-name="Oacute" unicode="&#xd3;" horiz-adv-x="772" d="M365 691 C365 691 475 819 475 819 C500 849 516 870 516 873 C516 881 494 897 485 897 C482 897 468 875 447 842 C447 842 359 696 359 696 C359 696 365 691 365 691 L365 691 Z M389 15 C231 15 150 160 150 330 C150 500 231 645 389 645 C547 645 628 500 628 330 C628 160 547 15 389 15 L389 15 Z M62 330 C62 149 173 -5 389 -5 C605 -5 716 149 716 330 C716 511 605 665 389 665 C173 665 62 511 62 330 L62 330 Z " />
<glyph glyph-name="Ocircumflex" unicode="&#xd4;" horiz-adv-x="772" d="M389 15 C231 15 150 160 150 330 C150 500 231 645 389 645 C547 645 628 500 628 330 C628 160 547 15 389 15 L389 15 Z M62 330 C62 149 173 -5 389 -5 C605 -5 716 149 716 330 C716 511 605 665 389 665 C173 665 62 511 62 330 L62 330 Z M389 847 C389 847 502 693 502 693 C502 693 507 698 507 698 C507 698 407 889 407 889 C404 894 397 905 389 905 C380 905 374 894 371 889 C371 889 271 698 271 698 C271 698 276 693 276 693 C276 693 389 847 389 847 L389 847 Z " />
<glyph glyph-name="Otilde" unicode="&#xd5;" horiz-adv-x="772" d="M247 755 C247 795 265 821 292 821 C352 821 411 758 471 758 C512 758 540 797 540 855 C540 855 531 855 531 855 C531 819 512 795 483 795 C423 795 364 858 304 858 C264 858 238 817 238 755 C238 755 247 755 247 755 L247 755 Z M389 15 C231 15 150 160 150 330 C150 500 231 645 389 645 C547 645 628 500 628 330 C628 160 547 15 389 15 L389 15 Z M62 330 C62 149 173 -5 389 -5 C605 -5 716 149 716 330 C716 511 605 665 389 665 C173 665 62 511 62 330 L62 330 Z " />
<glyph glyph-name="Odieresis" unicode="&#xd6;" horiz-adv-x="772" d="M479 730 C499 730 513 744 513 764 C513 784 499 798 479 798 C458 798 445 784 445 764 C445 744 458 730 479 730 L479 730 Z M299 730 C319 730 333 744 333 764 C333 784 319 798 299 798 C279 798 265 784 265 764 C265 744 279 730 299 730 L299 730 Z M389 15 C231 15 150 160 150 330 C150 500 231 645 389 645 C547 645 628 500 628 330 C628 160 547 15 389 15 L389 15 Z M62 330 C62 149 173 -5 389 -5 C605 -5 716 149 716 330 C716 511 605 665 389 665 C173 665 62 511 62 330 L62 330 Z " />
<glyph glyph-name="Oslash" unicode="&#xd8;" horiz-adv-x="772" d="M75 -18 C75 -18 165 74 165 74 C219 25 294 -5 389 -5 C605 -5 716 149 716 330 C716 418 690 499 639 559 C639 559 729 652 729 652 C729 652 703 678 703 678 C703 678 613 586 613 586 C559 635 484 665 389 665 C173 665 62 511 62 330 C62 242 88 161 139 101 C139 101 49 8 49 8 C49 8 75 -18 75 -18 L75 -18 Z M389 15 C307 15 246 54 206 116 C206 116 591 511 591 511 C616 459 628 396 628 330 C628 160 547 15 389 15 L389 15 Z M187 149 C162 201 150 264 150 330 C150 500 231 645 389 645 C471 645 532 606 572 544 C572 544 187 149 187 149 L187 149 Z " />
<glyph glyph-name="Ugrave" unicode="&#xd9;" horiz-adv-x="586" d="M485 645 C485 645 490 645 490 645 C504 645 514 615 514 570 C514 570 514 185 514 185 C514 88 458 23 316 23 C194 23 146 91 146 194 C146 194 146 580 146 580 C146 580 146 592 146 592 C147 624 155 645 166 645 C166 645 169 645 169 645 C169 645 169 660 169 660 C169 660 146 660 146 660 C146 660 106 660 106 660 C106 660 66 660 66 660 C66 660 42 660 42 660 C42 660 42 645 42 645 C42 645 46 645 46 645 C58 645 66 619 66 580 C66 580 66 209 66 209 C66 81 133 -5 304 -5 C468 -5 532 69 532 179 C532 179 532 570 532 570 C533 615 542 645 555 645 C555 645 559 645 559 645 C560 645 560 648 559 653 C560 657 560 660 559 660 C559 660 532 660 532 660 C532 660 523 660 523 660 C523 660 514 660 514 660 C514 660 485 660 485 660 C485 660 485 645 485 645 L485 645 Z M287 842 C267 875 252 897 248 897 C239 897 217 881 217 873 C217 869 234 848 259 819 C259 819 373 691 373 691 C373 691 379 696 379 696 C379 696 287 842 287 842 L287 842 Z " />
<glyph glyph-name="Uacute" unicode="&#xda;" horiz-adv-x="586" d="M298 691 C298 691 408 819 408 819 C433 849 449 870 449 873 C449 881 427 897 418 897 C415 897 400 875 380 842 C380 842 292 696 292 696 C292 696 298 691 298 691 L298 691 Z M485 645 C485 645 490 645 490 645 C504 645 514 615 514 570 C514 570 514 185 514 185 C514 88 458 23 316 23 C194 23 146 91 146 194 C146 194 146 580 146 580 C146 580 146 592 146 592 C147 624 155 645 166 645 C166 645 169 645 169 645 C169 645 169 660 169 660 C169 660 146 660 146 660 C146 660 106 660 106 660 C106 660 66 660 66 660 C66 660 42 660 42 660 C42 660 42 645 42 645 C42 645 46 645 46 645 C58 645 66 619 66 580 C66 580 66 209 66 209 C66 81 133 -5 304 -5 C468 -5 532 69 532 179 C532 179 532 570 532 570 C533 615 542 645 555 645 C555 645 559 645 559 645 C560 645 560 648 559 653 C560 657 560 660 559 660 C559 660 532 660 532 660 C532 660 523 660 523 660 C523 660 514 660 514 660 C514 660 485 660 485 660 C485 660 485 645 485 645 L485 645 Z " />
<glyph glyph-name="Ucircumflex" unicode="&#xdb;" horiz-adv-x="586" d="M485 645 C485 645 490 645 490 645 C504 645 514 615 514 570 C514 570 514 185 514 185 C514 88 458 23 316 23 C194 23 146 91 146 194 C146 194 146 580 146 580 C146 580 146 592 146 592 C147 624 155 645 166 645 C166 645 169 645 169 645 C169 645 169 660 169 660 C169 660 146 660 146 660 C146 660 106 660 106 660 C106 660 66 660 66 660 C66 660 42 660 42 660 C42 660 42 645 42 645 C42 645 46 645 46 645 C58 645 66 619 66 580 C66 580 66 209 66 209 C66 81 133 -5 304 -5 C468 -5 532 69 532 179 C532 179 532 570 532 570 C533 615 542 645 555 645 C555 645 559 645 559 645 C560 645 560 648 559 653 C560 657 560 660 559 660 C559 660 532 660 532 660 C532 660 523 660 523 660 C523 660 514 660 514 660 C514 660 485 660 485 660 C485 660 485 645 485 645 L485 645 Z M299 847 C299 847 412 693 412 693 C412 693 418 698 418 698 C418 698 317 889 317 889 C314 894 308 905 299 905 C291 905 284 894 282 889 C282 889 181 698 181 698 C181 698 186 693 186 693 C186 693 299 847 299 847 L299 847 Z " />
<glyph glyph-name="Udieresis" unicode="&#xdc;" horiz-adv-x="586" d="M389 730 C409 730 423 744 423 764 C423 784 409 798 389 798 C369 798 355 784 355 764 C355 744 369 730 389 730 L389 730 Z M209 730 C230 730 243 744 243 764 C243 784 230 798 209 798 C189 798 175 784 175 764 C175 744 189 730 209 730 L209 730 Z M485 645 C485 645 490 645 490 645 C504 645 514 615 514 570 C514 570 514 185 514 185 C514 88 458 23 316 23 C194 23 146 91 146 194 C146 194 146 580 146 580 C146 580 146 592 146 592 C147 624 155 645 166 645 C166 645 169 645 169 645 C169 645 169 660 169 660 C169 660 146 660 146 660 C146 660 106 660 106 660 C106 660 66 660 66 660 C66 660 42 660 42 660 C42 660 42 645 42 645 C42 645 46 645 46 645 C58 645 66 619 66 580 C66 580 66 209 66 209 C66 81 133 -5 304 -5 C468 -5 532 69 532 179 C532 179 532 570 532 570 C533 615 542 645 555 645 C555 645 559 645 559 645 C560 645 560 648 559 653 C560 657 560 660 559 660 C559 660 532 660 532 660 C532 660 523 660 523 660 C523 660 514 660 514 660 C514 660 485 660 485 660 C485 660 485 645 485 645 L485 645 Z " />
<glyph glyph-name="Yacute" unicode="&#xdd;" horiz-adv-x="572" d="M290 691 C290 691 400 819 400 819 C425 849 441 870 441 873 C441 881 419 897 410 897 C407 897 392 875 372 842 C372 842 283 696 283 696 C283 696 290 691 290 691 L290 691 Z M355 15 C355 15 351 15 351 15 C339 15 331 41 331 80 C331 80 331 308 331 308 C331 308 330 308 330 308 C330 308 503 591 503 591 C524 624 543 645 553 645 C553 645 556 645 556 645 C556 645 556 660 556 660 C556 660 545 660 545 660 C545 660 535 660 535 660 C535 660 526 660 526 660 C526 660 491 660 491 660 C491 660 491 645 491 645 C491 645 495 645 495 645 C507 645 498 614 470 566 C470 566 466 560 466 560 C466 560 315 308 315 308 C315 308 304 308 304 308 C304 308 172 580 172 580 C172 580 172 580 172 580 C153 619 147 645 158 645 C158 645 162 645 162 645 C162 645 162 660 162 660 C162 660 133 660 133 660 C133 660 85 660 85 660 C85 660 37 660 37 660 C37 660 28 660 28 660 C28 660 28 645 28 645 C28 645 31 645 31 645 C40 645 60 619 81 580 C81 580 81 580 81 580 C81 580 251 271 251 271 C251 271 251 80 251 80 C251 41 243 15 231 15 C231 15 227 15 227 15 C227 15 227 0 227 0 C227 0 251 0 251 0 C251 0 291 0 291 0 C291 0 331 0 331 0 C331 0 355 0 355 0 C355 0 355 15 355 15 L355 15 Z " />
<glyph glyph-name="agrave" unicode="&#xe0;" horiz-adv-x="588" d="M495 30 C495 30 492 35 492 35 C475 56 472 70 471 125 C471 125 471 500 471 500 C471 500 456 500 456 500 C456 500 426 387 426 387 C410 456 351 505 268 505 C144 505 62 393 62 225 C62 87 136 -5 247 -5 C332 -5 394 37 416 104 C416 104 416 0 416 0 C416 0 416 -5 416 -5 C416 -5 425 -5 425 -5 C425 -5 467 12 467 12 C467 12 495 21 495 21 C495 21 495 30 495 30 L495 30 Z M235 682 C214 715 199 737 196 737 C186 737 164 721 164 713 C164 709 181 688 206 659 C206 659 320 531 320 531 C320 531 326 536 326 536 C326 536 235 682 235 682 L235 682 Z M416 131 C403 69 351 29 277 29 C183 29 120 116 120 246 C120 392 178 490 265 490 C356 490 416 429 416 347 C416 347 416 131 416 131 L416 131 Z " />
<glyph glyph-name="aacute" unicode="&#xe1;" horiz-adv-x="498" d="M196 531 C196 531 307 659 307 659 C331 689 348 710 348 713 C348 721 326 737 316 737 C314 737 299 715 278 682 C278 682 190 536 190 536 C190 536 196 531 196 531 L196 531 Z M470 38 C457 25 442 17 419 17 C388 17 380 41 380 76 C380 76 380 359 380 359 C380 447 331 505 258 505 C116 505 43 445 76 354 C76 354 131 354 131 354 C102 436 148 490 246 490 C291 490 321 442 321 371 C321 371 321 251 321 251 C321 251 209 235 209 235 C109 221 42 168 42 102 C42 38 88 -5 157 -5 C214 -5 275 21 321 63 C322 19 336 -10 381 -10 C424 -10 452 6 476 30 C476 30 470 38 470 38 L470 38 Z M321 238 C321 238 321 76 321 76 C285 49 234 32 185 32 C133 32 98 66 98 118 C98 166 143 206 209 218 C209 218 321 238 321 238 L321 238 Z " />
<glyph glyph-name="acircumflex" unicode="&#xe2;" horiz-adv-x="588" d="M495 30 C495 30 492 35 492 35 C475 56 472 70 471 125 C471 125 471 500 471 500 C471 500 456 500 456 500 C456 500 426 387 426 387 C410 456 351 505 268 505 C144 505 62 393 62 225 C62 87 136 -5 247 -5 C332 -5 394 37 416 104 C416 104 416 0 416 0 C416 0 416 -5 416 -5 C416 -5 425 -5 425 -5 C425 -5 467 12 467 12 C467 12 495 21 495 21 C495 21 495 30 495 30 L495 30 Z M247 687 C247 687 359 533 359 533 C359 533 365 538 365 538 C365 538 264 729 264 729 C262 734 255 745 247 745 C238 745 231 734 229 729 C229 729 128 538 128 538 C128 538 134 533 134 533 C134 533 247 687 247 687 L247 687 Z M416 131 C403 69 351 29 277 29 C183 29 120 116 120 246 C120 392 178 490 265 490 C356 490 416 429 416 347 C416 347 416 131 416 131 L416 131 Z " />
<glyph glyph-name="atilde" unicode="&#xe3;" horiz-adv-x="588" d="M105 595 C105 635 123 661 150 661 C210 661 268 598 329 598 C370 598 397 637 397 695 C397 695 388 695 388 695 C388 659 369 635 341 635 C280 635 222 698 162 698 C122 698 96 657 96 595 C96 595 105 595 105 595 L105 595 Z M495 30 C495 30 492 35 492 35 C475 56 472 70 471 125 C471 125 471 500 471 500 C471 500 456 500 456 500 C456 500 426 387 426 387 C410 456 351 505 268 505 C144 505 62 393 62 225 C62 87 136 -5 247 -5 C332 -5 394 37 416 104 C416 104 416 0 416 0 C416 0 416 -5 416 -5 C416 -5 425 -5 425 -5 C425 -5 467 12 467 12 C467 12 495 21 495 21 C495 21 495 30 495 30 L495 30 Z M416 131 C403 69 351 29 277 29 C183 29 120 116 120 246 C120 392 178 490 265 490 C356 490 416 429 416 347 C416 347 416 131 416 131 L416 131 Z " />
<glyph glyph-name="adieresis" unicode="&#xe4;" horiz-adv-x="588" d="M336 570 C357 570 370 584 370 604 C370 624 357 638 336 638 C316 638 302 624 302 604 C302 584 316 570 336 570 L336 570 Z M157 570 C177 570 191 584 191 604 C191 624 177 638 157 638 C136 638 123 624 123 604 C123 584 136 570 157 570 L157 570 Z M495 30 C495 30 492 35 492 35 C475 56 472 70 471 125 C471 125 471 500 471 500 C471 500 456 500 456 500 C456 500 426 387 426 387 C410 456 351 505 268 505 C144 505 62 393 62 225 C62 87 136 -5 247 -5 C332 -5 394 37 416 104 C416 104 416 0 416 0 C416 0 416 -5 416 -5 C416 -5 425 -5 425 -5 C425 -5 467 12 467 12 C467 12 495 21 495 21 C495 21 495 30 495 30 L495 30 Z M416 131 C403 69 351 29 277 29 C183 29 120 116 120 246 C120 392 178 490 265 490 C356 490 416 429 416 347 C416 347 416 131 416 131 L416 131 Z " />
<glyph glyph-name="aring" unicode="&#xe5;" horiz-adv-x="588" d="M247 547 C204 547 168 584 168 628 C168 676 199 708 247 708 C294 708 325 676 325 628 C325 584 289 547 247 547 L247 547 Z M152 628 C152 578 195 535 247 535 C298 535 341 578 341 628 C341 683 303 720 247 720 C190 720 152 683 152 628 L152 628 Z M495 30 C495 30 492 35 492 35 C475 56 472 70 471 125 C471 125 471 500 471 500 C471 500 456 500 456 500 C456 500 426 387 426 387 C410 456 351 505 268 505 C144 505 62 393 62 225 C62 87 136 -5 247 -5 C332 -5 394 37 416 104 C416 104 416 0 416 0 C416 0 416 -5 416 -5 C416 -5 425 -5 425 -5 C425 -5 467 12 467 12 C467 12 495 21 495 21 C495 21 495 30 495 30 L495 30 Z M416 131 C403 69 351 29 277 29 C183 29 120 116 120 246 C120 392 178 490 265 490 C356 490 416 429 416 347 C416 347 416 131 416 131 L416 131 Z " />
<glyph glyph-name="ccedilla" unicode="&#xe7;" horiz-adv-x="493" d="M435 124 C435 124 428 128 428 128 C400 68 346 29 292 29 C187 29 116 120 116 256 C116 396 188 490 297 490 C345 490 380 455 384 404 C385 387 396 376 412 376 C426 376 436 386 436 401 C431 463 378 505 303 505 C156 505 57 397 57 235 C57 91 133 -5 246 -5 C322 -5 398 47 435 124 L435 124 Z " />
<glyph glyph-name="egrave" unicode="&#xe8;" horiz-adv-x="499" d="M442 124 C442 124 434 128 434 128 C406 68 350 29 296 29 C188 29 116 120 116 256 C116 280 118 302 121 323 C121 323 443 323 443 323 C443 432 375 505 273 505 C143 505 57 397 57 235 C57 91 134 -5 249 -5 C328 -5 405 47 442 124 L442 124 Z M261 682 C240 715 226 737 222 737 C212 737 190 721 190 713 C190 709 207 688 233 659 C233 659 346 531 346 531 C346 531 352 536 352 536 C352 536 261 682 261 682 L261 682 Z M123 333 C141 429 195 490 270 490 C342 490 391 442 391 369 C391 354 381 344 366 342 C366 342 123 333 123 333 L123 333 Z " />
<glyph glyph-name="eacute" unicode="&#xe9;" horiz-adv-x="499" d="M241 531 C241 531 351 659 351 659 C376 689 393 710 393 713 C393 721 370 737 361 737 C358 737 343 715 323 682 C323 682 235 536 235 536 C235 536 241 531 241 531 L241 531 Z M442 124 C442 124 434 128 434 128 C406 68 350 29 296 29 C188 29 116 120 116 256 C116 280 118 302 121 323 C121 323 443 323 443 323 C443 432 375 505 273 505 C143 505 57 397 57 235 C57 91 134 -5 249 -5 C328 -5 405 47 442 124 L442 124 Z M123 333 C141 429 195 490 270 490 C342 490 391 442 391 369 C391 354 381 344 366 342 C366 342 123 333 123 333 L123 333 Z " />
<glyph glyph-name="ecircumflex" unicode="&#xea;" horiz-adv-x="499" d="M442 124 C442 124 434 128 434 128 C406 68 350 29 296 29 C188 29 116 120 116 256 C116 280 118 302 121 323 C121 323 443 323 443 323 C443 432 375 505 273 505 C143 505 57 397 57 235 C57 91 134 -5 249 -5 C328 -5 405 47 442 124 L442 124 Z M273 687 C273 687 385 533 385 533 C385 533 391 538 391 538 C391 538 290 729 290 729 C288 734 281 745 273 745 C264 745 257 734 255 729 C255 729 154 538 154 538 C154 538 160 533 160 533 C160 533 273 687 273 687 L273 687 Z M123 333 C141 429 195 490 270 490 C342 490 391 442 391 369 C391 354 381 344 366 342 C366 342 123 333 123 333 L123 333 Z " />
<glyph glyph-name="edieresis" unicode="&#xeb;" horiz-adv-x="499" d="M362 570 C383 570 396 584 396 604 C396 624 383 638 362 638 C342 638 329 624 329 604 C329 584 342 570 362 570 L362 570 Z M183 570 C203 570 217 584 217 604 C217 624 203 638 183 638 C163 638 149 624 149 604 C149 584 163 570 183 570 L183 570 Z M442 124 C442 124 434 128 434 128 C406 68 350 29 296 29 C188 29 116 120 116 256 C116 280 118 302 121 323 C121 323 443 323 443 323 C443 432 375 505 273 505 C143 505 57 397 57 235 C57 91 134 -5 249 -5 C328 -5 405 47 442 124 L442 124 Z M123 333 C141 429 195 490 270 490 C342 490 391 442 391 369 C391 354 381 344 366 342 C366 342 123 333 123 333 L123 333 Z " />
<glyph glyph-name="igrave" unicode="&#xec;" horiz-adv-x="206" d="M131 0 C131 0 155 0 155 0 C155 0 155 15 155 15 C155 15 150 15 150 15 C139 15 131 13 131 0 C131 0 131 420 131 420 C131 420 131 505 131 505 C131 505 128 505 128 505 C128 505 56 483 56 483 C56 483 56 473 56 473 C56 473 70 451 70 451 C74 446 76 436 76 404 C76 404 76 0 76 0 C76 13 68 15 57 15 C57 15 52 15 52 15 C52 15 52 0 52 0 C52 0 76 0 76 0 C76 0 76 404 76 404 C76 404 76 420 76 420 C76 420 131 420 131 420 C131 420 131 0 131 0 L131 0 Z M92 682 C71 715 56 737 53 737 C43 737 21 721 21 713 C21 709 38 688 63 659 C63 659 177 531 177 531 C177 531 183 536 183 536 C183 536 92 682 92 682 L92 682 Z " />
<glyph glyph-name="iacute" unicode="&#xed;" horiz-adv-x="206" d="M131 0 C131 0 155 0 155 0 C155 0 155 15 155 15 C155 15 150 15 150 15 C139 15 131 13 131 0 C131 0 131 420 131 420 C131 420 131 505 131 505 C131 505 128 505 128 505 C128 505 56 483 56 483 C56 483 56 473 56 473 C56 473 70 451 70 451 C74 446 76 436 76 404 C76 404 76 0 76 0 C76 13 68 15 57 15 C57 15 52 15 52 15 C52 15 52 0 52 0 C52 0 76 0 76 0 C76 0 76 404 76 404 C76 404 76 420 76 420 C76 420 131 420 131 420 C131 420 131 0 131 0 L131 0 Z M26 531 C26 531 137 659 137 659 C162 689 178 710 178 713 C178 721 156 737 146 737 C143 737 129 715 108 682 C108 682 20 536 20 536 C20 536 26 531 26 531 L26 531 Z " />
<glyph glyph-name="icircumflex" unicode="&#xee;" horiz-adv-x="206" d="M131 0 C131 0 155 0 155 0 C155 0 155 15 155 15 C155 15 150 15 150 15 C139 15 131 13 131 0 C131 0 131 420 131 420 C131 420 131 505 131 505 C131 505 128 505 128 505 C128 505 56 483 56 483 C56 483 56 473 56 473 C56 473 70 451 70 451 C74 446 76 436 76 404 C76 404 76 0 76 0 C76 13 68 15 57 15 C57 15 52 15 52 15 C52 15 52 0 52 0 C52 0 76 0 76 0 C76 0 76 404 76 404 C76 404 76 420 76 420 C76 420 131 420 131 420 C131 420 131 0 131 0 L131 0 Z M121 729 C119 734 112 745 103 745 C95 745 88 734 86 729 C86 729 -15 538 -15 538 C-15 538 -9 533 -9 533 C-9 533 104 687 104 687 C104 687 216 533 216 533 C216 533 222 538 222 538 C222 538 121 729 121 729 L121 729 Z " />
<glyph glyph-name="idieresis" unicode="&#xef;" horiz-adv-x="206" d="M131 0 C131 0 155 0 155 0 C155 0 155 15 155 15 C155 15 150 15 150 15 C139 15 131 13 131 0 C131 0 131 420 131 420 C131 420 131 505 131 505 C131 505 128 505 128 505 C128 505 56 483 56 483 C56 483 56 473 56 473 C56 473 70 451 70 451 C74 446 76 436 76 404 C76 404 76 0 76 0 C76 13 68 15 57 15 C57 15 52 15 52 15 C52 15 52 0 52 0 C52 0 76 0 76 0 C76 0 76 404 76 404 C76 404 76 420 76 420 C76 420 131 420 131 420 C131 420 131 0 131 0 L131 0 Z M193 570 C214 570 227 584 227 604 C227 624 214 638 193 638 C173 638 159 624 159 604 C159 584 173 570 193 570 L193 570 Z M14 570 C34 570 48 584 48 604 C48 624 34 638 14 638 C-7 638 -20 624 -20 604 C-20 584 -7 570 14 570 L14 570 Z " />
<glyph glyph-name="ntilde" unicode="&#xf1;" horiz-adv-x="533" d="M127 595 C127 635 145 661 172 661 C232 661 290 598 351 598 C392 598 420 637 420 695 C420 695 411 695 411 695 C411 659 392 635 363 635 C302 635 244 698 184 698 C144 698 118 657 118 595 C118 595 127 595 127 595 L127 595 Z M486 15 C486 15 483 15 483 15 C471 15 463 41 462 80 C462 80 462 336 462 336 C462 438 427 505 337 505 C244 505 164 462 131 396 C131 396 131 406 131 406 C131 406 131 500 131 500 C131 500 120 500 120 500 C120 500 52 479 52 479 C52 479 52 470 52 470 C52 470 55 465 55 465 C72 444 75 429 75 375 C75 375 75 80 75 80 C75 41 67 15 55 15 C55 15 52 15 52 15 C52 15 52 0 52 0 C52 0 75 0 75 0 C75 0 103 0 103 0 C103 0 131 0 131 0 C131 0 155 0 155 0 C155 0 155 15 155 15 C155 15 151 15 151 15 C139 15 131 41 131 80 C131 80 131 384 131 384 C156 435 219 468 294 468 C375 468 407 413 407 331 C407 331 407 80 407 80 C407 41 399 15 387 15 C387 15 383 15 383 15 C383 15 383 0 383 0 C383 0 407 0 407 0 C407 0 435 0 435 0 C435 0 462 0 462 0 C462 0 486 0 486 0 C486 0 486 15 486 15 L486 15 Z " />
<glyph glyph-name="ograve" unicode="&#xf2;" horiz-adv-x="604" d="M302 7 C192 7 119 104 119 250 C119 396 192 493 302 493 C412 493 486 396 486 250 C486 104 412 7 302 7 L302 7 Z M57 250 C57 97 155 -5 302 -5 C449 -5 547 97 547 250 C547 403 449 505 302 505 C155 505 57 403 57 250 L57 250 Z M290 682 C270 715 255 737 251 737 C242 737 220 721 220 713 C220 709 237 688 262 659 C262 659 376 531 376 531 C376 531 382 536 382 536 C382 536 290 682 290 682 L290 682 Z " />
<glyph glyph-name="oacute" unicode="&#xf3;" horiz-adv-x="604" d="M270 531 C270 531 381 659 381 659 C405 689 422 710 422 713 C422 721 400 737 390 737 C388 737 373 715 353 682 C353 682 264 536 264 536 C264 536 270 531 270 531 L270 531 Z M302 7 C192 7 119 104 119 250 C119 396 192 493 302 493 C412 493 486 396 486 250 C486 104 412 7 302 7 L302 7 Z M57 250 C57 97 155 -5 302 -5 C449 -5 547 97 547 250 C547 403 449 505 302 505 C155 505 57 403 57 250 L57 250 Z " />
<glyph glyph-name="ocircumflex" unicode="&#xf4;" horiz-adv-x="604" d="M302 7 C192 7 119 104 119 250 C119 396 192 493 302 493 C412 493 486 396 486 250 C486 104 412 7 302 7 L302 7 Z M57 250 C57 97 155 -5 302 -5 C449 -5 547 97 547 250 C547 403 449 505 302 505 C155 505 57 403 57 250 L57 250 Z M302 687 C302 687 415 533 415 533 C415 533 421 538 421 538 C421 538 320 729 320 729 C317 734 311 745 302 745 C294 745 287 734 285 729 C285 729 184 538 184 538 C184 538 189 533 189 533 C189 533 302 687 302 687 L302 687 Z " />
<glyph glyph-name="otilde" unicode="&#xf5;" horiz-adv-x="604" d="M160 595 C160 635 178 661 205 661 C266 661 324 598 384 598 C425 598 453 637 453 695 C453 695 444 695 444 695 C444 659 425 635 396 635 C336 635 278 698 217 698 C177 698 151 657 151 595 C151 595 160 595 160 595 L160 595 Z M302 7 C192 7 119 104 119 250 C119 396 192 493 302 493 C412 493 486 396 486 250 C486 104 412 7 302 7 L302 7 Z M57 250 C57 97 155 -5 302 -5 C449 -5 547 97 547 250 C547 403 449 505 302 505 C155 505 57 403 57 250 L57 250 Z " />
<glyph glyph-name="odieresis" unicode="&#xf6;" horiz-adv-x="604" d="M392 570 C412 570 426 584 426 604 C426 624 412 638 392 638 C372 638 358 624 358 604 C358 584 372 570 392 570 L392 570 Z M212 570 C233 570 246 584 246 604 C246 624 233 638 212 638 C192 638 178 624 178 604 C178 584 192 570 212 570 L212 570 Z M302 7 C192 7 119 104 119 250 C119 396 192 493 302 493 C412 493 486 396 486 250 C486 104 412 7 302 7 L302 7 Z M57 250 C57 97 155 -5 302 -5 C449 -5 547 97 547 250 C547 403 449 505 302 505 C155 505 57 403 57 250 L57 250 Z " />
<glyph glyph-name="oslash" unicode="&#xf8;" horiz-adv-x="604" d="M64 -11 C64 -11 131 59 131 59 C173 18 232 -5 302 -5 C449 -5 547 97 547 250 C547 323 525 384 486 428 C486 428 554 499 554 499 C554 499 541 511 541 511 C541 511 474 441 474 441 C431 482 372 505 302 505 C155 505 57 403 57 250 C57 177 79 116 118 72 C118 72 50 1 50 1 C50 1 64 -11 64 -11 L64 -11 Z M302 7 C241 7 191 37 159 88 C159 88 455 395 455 395 C475 356 486 307 486 250 C486 104 412 7 302 7 L302 7 Z M150 105 C130 144 119 193 119 250 C119 396 192 493 302 493 C363 493 413 463 445 412 C445 412 150 105 150 105 L150 105 Z " />
<glyph glyph-name="ugrave" unicode="&#xf9;" horiz-adv-x="498" d="M456 30 C456 30 453 35 453 35 C436 56 433 70 432 125 C432 125 432 500 432 500 C432 500 405 500 405 500 C405 500 377 500 377 500 C377 500 353 500 353 500 C353 500 353 485 353 485 C353 485 357 485 357 485 C369 485 377 459 377 420 C377 420 377 110 377 110 C377 110 377 101 377 101 C358 59 316 31 239 31 C148 31 101 83 101 161 C101 161 101 500 101 500 C101 500 73 500 73 500 C73 500 45 500 45 500 C45 500 22 500 22 500 C22 500 22 485 22 485 C22 485 25 485 25 485 C37 485 45 459 45 420 C45 420 45 420 45 420 C45 420 46 156 46 156 C46 59 97 -5 195 -5 C292 -5 349 32 377 88 C377 88 377 14 377 14 C377 14 377 0 377 0 C377 0 388 0 388 0 C388 0 456 21 456 21 C456 21 456 30 456 30 L456 30 Z M227 682 C207 715 192 737 188 737 C178 737 156 721 156 713 C156 709 173 688 199 659 C199 659 312 531 312 531 C312 531 318 536 318 536 C318 536 227 682 227 682 L227 682 Z " />
<glyph glyph-name="uacute" unicode="&#xfa;" horiz-adv-x="498" d="M207 531 C207 531 318 659 318 659 C342 689 359 710 359 713 C359 721 337 737 327 737 C325 737 310 715 289 682 C289 682 201 536 201 536 C201 536 207 531 207 531 L207 531 Z M456 30 C456 30 453 35 453 35 C436 56 433 70 432 125 C432 125 432 500 432 500 C432 500 405 500 405 500 C405 500 377 500 377 500 C377 500 353 500 353 500 C353 500 353 485 353 485 C353 485 357 485 357 485 C369 485 377 459 377 420 C377 420 377 110 377 110 C377 110 377 101 377 101 C358 59 316 31 239 31 C148 31 101 83 101 161 C101 161 101 500 101 500 C101 500 73 500 73 500 C73 500 45 500 45 500 C45 500 22 500 22 500 C22 500 22 485 22 485 C22 485 25 485 25 485 C37 485 45 459 45 420 C45 420 45 420 45 420 C45 420 46 156 46 156 C46 59 97 -5 195 -5 C292 -5 349 32 377 88 C377 88 377 14 377 14 C377 14 377 0 377 0 C377 0 388 0 388 0 C388 0 456 21 456 21 C456 21 456 30 456 30 L456 30 Z " />
<glyph glyph-name="ucircumflex" unicode="&#xfb;" horiz-adv-x="498" d="M456 30 C456 30 453 35 453 35 C436 56 433 70 432 125 C432 125 432 500 432 500 C432 500 405 500 405 500 C405 500 377 500 377 500 C377 500 353 500 353 500 C353 500 353 485 353 485 C353 485 357 485 357 485 C369 485 377 459 377 420 C377 420 377 110 377 110 C377 110 377 101 377 101 C358 59 316 31 239 31 C148 31 101 83 101 161 C101 161 101 500 101 500 C101 500 73 500 73 500 C73 500 45 500 45 500 C45 500 22 500 22 500 C22 500 22 485 22 485 C22 485 25 485 25 485 C37 485 45 459 45 420 C45 420 45 420 45 420 C45 420 46 156 46 156 C46 59 97 -5 195 -5 C292 -5 349 32 377 88 C377 88 377 14 377 14 C377 14 377 0 377 0 C377 0 388 0 388 0 C388 0 456 21 456 21 C456 21 456 30 456 30 L456 30 Z M239 688 C239 688 352 533 352 533 C352 533 357 538 357 538 C357 538 257 729 257 729 C254 734 247 745 239 745 C230 745 224 734 221 729 C221 729 120 538 120 538 C120 538 126 533 126 533 C126 533 239 688 239 688 L239 688 Z " />
<glyph glyph-name="udieresis" unicode="&#xfc;" horiz-adv-x="498" d="M329 570 C349 570 363 584 363 604 C363 624 349 638 329 638 C308 638 295 624 295 604 C295 584 308 570 329 570 L329 570 Z M149 570 C169 570 183 584 183 604 C183 624 169 638 149 638 C129 638 115 624 115 604 C115 584 129 570 149 570 L149 570 Z M456 30 C456 30 453 35 453 35 C436 56 433 70 432 125 C432 125 432 500 432 500 C432 500 405 500 405 500 C405 500 377 500 377 500 C377 500 353 500 353 500 C353 500 353 485 353 485 C353 485 357 485 357 485 C369 485 377 459 377 420 C377 420 377 110 377 110 C377 110 377 101 377 101 C358 59 316 31 239 31 C148 31 101 83 101 161 C101 161 101 500 101 500 C101 500 73 500 73 500 C73 500 45 500 45 500 C45 500 22 500 22 500 C22 500 22 485 22 485 C22 485 25 485 25 485 C37 485 45 459 45 420 C45 420 45 420 45 420 C45 420 46 156 46 156 C46 59 97 -5 195 -5 C292 -5 349 32 377 88 C377 88 377 14 377 14 C377 14 377 0 377 0 C377 0 388 0 388 0 C388 0 456 21 456 21 C456 21 456 30 456 30 L456 30 Z " />
<glyph glyph-name="ydieresis" unicode="&#xff;" horiz-adv-x="391" d="M314 570 C334 570 348 584 348 604 C348 624 334 638 314 638 C294 638 280 624 280 604 C280 584 294 570 314 570 L314 570 Z M135 570 C155 570 169 584 169 604 C169 624 155 638 135 638 C114 638 101 624 101 604 C101 584 114 570 135 570 L135 570 Z M441 500 C441 500 423 500 423 500 C423 500 414 500 414 500 C414 500 404 500 404 500 C404 500 381 500 381 500 C381 500 381 485 381 485 C381 485 383 485 383 485 C392 485 391 465 380 434 C380 434 245 62 245 62 C245 62 117 420 117 420 C117 420 118 420 118 420 C104 459 101 485 110 485 C110 485 113 485 113 485 C113 485 113 500 113 500 C113 500 89 500 89 500 C89 500 58 500 58 500 C58 500 26 500 26 500 C26 500 8 500 8 500 C8 500 8 485 8 485 C8 485 11 485 11 485 C24 485 42 459 56 420 C56 420 56 420 56 420 C56 420 216 -2 216 -2 C216 -2 191 -67 191 -67 C156 -158 129 -194 94 -194 C71 -194 50 -169 27 -169 C10 -169 -1 -179 -1 -193 C-1 -215 24 -230 60 -230 C121 -230 162 -186 205 -72 C205 -72 229 -10 229 -10 C229 -10 393 420 393 420 C393 420 393 420 393 420 C407 459 425 485 438 485 C438 485 441 485 441 485 C441 485 441 500 441 500 L441 500 Z " />
<glyph glyph-name="Amacron" unicode="&#x100;" horiz-adv-x="593" d="M130 769 C130 769 430 769 430 769 C430 769 430 800 430 800 C430 800 130 800 130 800 C130 800 130 769 130 769 L130 769 Z M574 15 C574 15 571 15 571 15 C558 15 539 41 524 80 C524 80 523 80 523 80 C523 80 289 675 289 675 C289 675 270 675 270 675 C270 675 61 78 61 78 C47 40 31 15 19 15 C19 15 15 15 15 15 C15 15 15 0 15 0 C15 0 34 0 34 0 C34 0 47 0 47 0 C47 0 60 0 60 0 C60 0 95 0 95 0 C95 0 95 15 95 15 C95 15 91 15 91 15 C76 15 76 42 89 84 C89 84 140 235 140 235 C140 235 379 235 379 235 C379 235 443 66 443 66 C453 35 454 15 443 15 C443 15 439 15 439 15 C439 15 439 0 439 0 C439 0 468 0 468 0 C468 0 512 0 512 0 C512 0 555 0 555 0 C555 0 574 0 574 0 C574 0 574 15 574 15 L574 15 Z M372 255 C372 255 147 255 147 255 C147 255 253 569 253 569 C253 569 372 255 372 255 L372 255 Z " />
<glyph glyph-name="amacron" unicode="&#x101;" horiz-adv-x="588" d="M97 609 C97 609 397 609 397 609 C397 609 397 640 397 640 C397 640 97 640 97 640 C97 640 97 609 97 609 L97 609 Z M495 30 C495 30 492 35 492 35 C475 56 472 70 471 125 C471 125 471 500 471 500 C471 500 456 500 456 500 C456 500 426 387 426 387 C410 456 351 505 268 505 C144 505 62 393 62 225 C62 87 136 -5 247 -5 C332 -5 394 37 416 104 C416 104 416 0 416 0 C416 0 416 -5 416 -5 C416 -5 425 -5 425 -5 C425 -5 467 12 467 12 C467 12 495 21 495 21 C495 21 495 30 495 30 L495 30 Z M416 131 C403 69 351 29 277 29 C183 29 120 116 120 246 C120 392 178 490 265 490 C356 490 416 429 416 347 C416 347 416 131 416 131 L416 131 Z " />
<glyph glyph-name="Abreve" unicode="&#x102;" horiz-adv-x="593" d="M163 872 C176 808 222 765 280 765 C337 765 384 808 396 872 C396 872 387 873 387 873 C378 831 336 802 280 802 C223 802 181 831 172 873 C172 873 163 872 163 872 L163 872 Z M574 15 C574 15 571 15 571 15 C558 15 539 41 524 80 C524 80 523 80 523 80 C523 80 289 675 289 675 C289 675 270 675 270 675 C270 675 61 78 61 78 C47 40 31 15 19 15 C19 15 15 15 15 15 C15 15 15 0 15 0 C15 0 34 0 34 0 C34 0 47 0 47 0 C47 0 60 0 60 0 C60 0 95 0 95 0 C95 0 95 15 95 15 C95 15 91 15 91 15 C76 15 76 42 89 84 C89 84 140 235 140 235 C140 235 379 235 379 235 C379 235 443 66 443 66 C453 35 454 15 443 15 C443 15 439 15 439 15 C439 15 439 0 439 0 C439 0 468 0 468 0 C468 0 512 0 512 0 C512 0 555 0 555 0 C555 0 574 0 574 0 C574 0 574 15 574 15 L574 15 Z M372 255 C372 255 147 255 147 255 C147 255 253 569 253 569 C253 569 372 255 372 255 L372 255 Z " />
<glyph glyph-name="abreve" unicode="&#x103;" horiz-adv-x="588" d="M130 682 C143 618 189 575 247 575 C304 575 351 618 363 682 C363 682 354 683 354 683 C345 641 303 612 247 612 C190 612 148 641 139 683 C139 683 130 682 130 682 L130 682 Z M495 30 C495 30 492 35 492 35 C475 56 472 70 471 125 C471 125 471 500 471 500 C471 500 456 500 456 500 C456 500 426 387 426 387 C410 456 351 505 268 505 C144 505 62 393 62 225 C62 87 136 -5 247 -5 C332 -5 394 37 416 104 C416 104 416 0 416 0 C416 0 416 -5 416 -5 C416 -5 425 -5 425 -5 C425 -5 467 12 467 12 C467 12 495 21 495 21 C495 21 495 30 495 30 L495 30 Z M416 131 C403 69 351 29 277 29 C183 29 120 116 120 246 C120 392 178 490 265 490 C356 490 416 429 416 347 C416 347 416 131 416 131 L416 131 Z " />
<glyph glyph-name="Aogonek" unicode="&#x104;" horiz-adv-x="593" d="M574 15 C574 15 571 15 571 15 C558 15 539 41 524 80 C524 80 523 80 523 80 C523 80 289 675 289 675 C289 675 270 675 270 675 C270 675 61 78 61 78 C47 40 31 15 19 15 C19 15 15 15 15 15 C15 15 15 0 15 0 C15 0 34 0 34 0 C34 0 47 0 47 0 C47 0 60 0 60 0 C60 0 95 0 95 0 C95 0 95 15 95 15 C95 15 91 15 91 15 C76 15 76 42 89 84 C89 84 140 235 140 235 C140 235 379 235 379 235 C379 235 443 66 443 66 C453 35 454 15 443 15 C443 15 439 15 439 15 C439 15 439 0 439 0 C439 0 444 0 444 0 C396 -29 323 -98 323 -156 C323 -202 365 -233 429 -233 C461 -233 493 -220 510 -200 C510 -200 506 -195 506 -195 C495 -209 469 -218 441 -218 C391 -218 357 -191 357 -150 C357 -85 435 -12 468 0 C468 0 512 0 512 0 C512 0 555 0 555 0 C555 0 574 0 574 0 C574 0 574 15 574 15 L574 15 Z M372 255 C372 255 147 255 147 255 C147 255 253 569 253 569 C253 569 372 255 372 255 L372 255 Z " />
<glyph glyph-name="aogonek" unicode="&#x105;" horiz-adv-x="498" d="M436 19 C431 18 425 17 419 17 C388 17 380 41 380 76 C380 76 380 359 380 359 C380 447 331 505 258 505 C116 505 43 445 76 354 C76 354 131 354 131 354 C102 436 148 490 246 490 C291 490 321 442 321 371 C321 371 321 251 321 251 C321 251 209 235 209 235 C109 221 42 168 42 102 C42 38 88 -5 157 -5 C214 -5 275 21 321 63 C322 19 336 -10 381 -10 C389 -10 397 -9 404 -8 C366 -44 331 -92 331 -135 C331 -194 373 -233 437 -233 C469 -233 501 -220 518 -200 C518 -200 514 -195 514 -195 C503 -209 477 -218 449 -218 C399 -218 365 -183 365 -129 C365 -81 400 -31 433 0 C450 7 463 17 476 30 C476 30 476 42 476 42 C465 38 451 30 436 19 C436 19 436 19 436 19 L436 19 Z M321 238 C321 238 321 76 321 76 C285 49 234 32 185 32 C133 32 98 66 98 118 C98 166 143 206 209 218 C209 218 321 238 321 238 L321 238 Z " />
<glyph glyph-name="Cacute" unicode="&#x106;" horiz-adv-x="728" d="M353 691 C353 691 463 819 463 819 C488 849 504 870 504 873 C504 881 482 897 473 897 C470 897 455 875 435 842 C435 842 346 696 346 696 C346 696 353 691 353 691 L353 691 Z M661 520 C661 520 661 571 661 571 C661 571 653 565 653 565 C653 565 653 565 653 566 C653 566 661 571 661 571 C624 627 519 665 400 665 C197 665 62 531 62 330 C62 129 197 -5 400 -5 C519 -5 624 33 661 89 C661 89 653 94 653 94 C653 95 653 95 653 95 C653 95 661 89 661 89 C661 89 661 140 661 140 C661 140 648 140 648 140 C645 134 639 126 635 120 C602 69 536 30 464 19 C444 16 422 15 400 15 C250 15 150 141 150 330 C150 519 250 645 400 645 C432 645 463 642 491 637 C491 637 491 637 491 637 C547 627 605 588 635 540 C639 534 645 526 648 520 C648 520 661 520 661 520 L661 520 Z " />
<glyph glyph-name="cacute" unicode="&#x107;" horiz-adv-x="493" d="M226 531 C226 531 337 659 337 659 C362 689 378 710 378 713 C378 721 356 737 346 737 C343 737 329 715 308 682 C308 682 220 536 220 536 C220 536 226 531 226 531 L226 531 Z M435 124 C435 124 428 128 428 128 C400 68 346 29 292 29 C187 29 116 120 116 256 C116 396 188 490 297 490 C345 490 380 455 384 404 C385 387 396 376 412 376 C426 376 436 386 436 401 C431 463 378 505 303 505 C156 505 57 397 57 235 C57 91 133 -5 246 -5 C322 -5 398 47 435 124 L435 124 Z " />
<glyph glyph-name="Ccircumflex" unicode="&#x108;" horiz-adv-x="728" d="M661 520 C661 520 661 571 661 571 C661 571 653 565 653 565 C653 565 653 565 653 566 C653 566 661 571 661 571 C624 627 519 665 400 665 C197 665 62 531 62 330 C62 129 197 -5 400 -5 C519 -5 624 33 661 89 C661 89 653 94 653 94 C653 95 653 95 653 95 C653 95 661 89 661 89 C661 89 661 140 661 140 C661 140 648 140 648 140 C645 134 639 126 635 120 C602 69 536 30 464 19 C444 16 422 15 400 15 C250 15 150 141 150 330 C150 519 250 645 400 645 C432 645 463 642 491 637 C491 637 491 637 491 637 C547 627 605 588 635 540 C639 534 645 526 648 520 C648 520 661 520 661 520 L661 520 Z M400 847 C400 847 512 693 512 693 C512 693 518 698 518 698 C518 698 417 889 417 889 C415 894 408 905 400 905 C391 905 384 894 382 889 C382 889 281 698 281 698 C281 698 287 693 287 693 C287 693 400 847 400 847 L400 847 Z " />
<glyph glyph-name="Cdotaccent" unicode="&#x10a;" horiz-adv-x="728" d="M400 730 C420 730 434 744 434 764 C434 784 420 798 400 798 C379 798 366 784 366 764 C366 744 379 730 400 730 L400 730 Z M661 520 C661 520 661 571 661 571 C661 571 653 565 653 565 C653 565 653 565 653 566 C653 566 661 571 661 571 C624 627 519 665 400 665 C197 665 62 531 62 330 C62 129 197 -5 400 -5 C519 -5 624 33 661 89 C661 89 653 94 653 94 C653 95 653 95 653 95 C653 95 661 89 661 89 C661 89 661 140 661 140 C661 140 648 140 648 140 C645 134 639 126 635 120 C602 69 536 30 464 19 C444 16 422 15 400 15 C250 15 150 141 150 330 C150 519 250 645 400 645 C432 645 463 642 491 637 C491 637 491 637 491 637 C547 627 605 588 635 540 C639 534 645 526 648 520 C648 520 661 520 661 520 L661 520 Z " />
<glyph glyph-name="cdotaccent" unicode="&#x10b;" horiz-adv-x="493" d="M303 570 C324 570 337 584 337 604 C337 624 324 638 303 638 C283 638 270 624 270 604 C270 584 283 570 303 570 L303 570 Z M435 124 C435 124 428 128 428 128 C400 68 346 29 292 29 C187 29 116 120 116 256 C116 396 188 490 297 490 C345 490 380 455 384 404 C385 387 396 376 412 376 C426 376 436 386 436 401 C431 463 378 505 303 505 C156 505 57 397 57 235 C57 91 133 -5 246 -5 C322 -5 398 47 435 124 L435 124 Z " />
<glyph glyph-name="Ccaron" unicode="&#x10c;" horiz-adv-x="728" d="M661 520 C661 520 661 571 661 571 C661 571 653 565 653 565 C653 565 653 565 653 566 C653 566 661 571 661 571 C624 627 519 665 400 665 C197 665 62 531 62 330 C62 129 197 -5 400 -5 C519 -5 624 33 661 89 C661 89 653 94 653 94 C653 95 653 95 653 95 C653 95 661 89 661 89 C661 89 661 140 661 140 C661 140 648 140 648 140 C645 134 639 126 635 120 C602 69 536 30 464 19 C444 16 422 15 400 15 C250 15 150 141 150 330 C150 519 250 645 400 645 C432 645 463 642 491 637 C491 637 491 637 491 637 C547 627 605 588 635 540 C639 534 645 526 648 520 C648 520 661 520 661 520 L661 520 Z M400 773 C400 773 512 927 512 927 C512 927 518 922 518 922 C518 922 417 731 417 731 C415 726 408 715 400 715 C391 715 384 726 382 731 C382 731 281 922 281 922 C281 922 287 927 287 927 C287 927 400 773 400 773 L400 773 Z " />
<glyph glyph-name="ccaron" unicode="&#x10d;" horiz-adv-x="493" d="M435 124 C435 124 428 128 428 128 C400 68 346 29 292 29 C187 29 116 120 116 256 C116 396 188 490 297 490 C345 490 380 455 384 404 C385 387 396 376 412 376 C426 376 436 386 436 401 C431 463 378 505 303 505 C156 505 57 397 57 235 C57 91 133 -5 246 -5 C322 -5 398 47 435 124 L435 124 Z M304 613 C304 613 416 767 416 767 C416 767 422 762 422 762 C422 762 321 571 321 571 C319 566 312 555 303 555 C295 555 288 566 286 571 C286 571 185 762 185 762 C185 762 191 767 191 767 C191 767 304 613 304 613 L304 613 Z " />
<glyph glyph-name="Dcaron" unicode="&#x10e;" horiz-adv-x="665" d="M52 645 C52 645 56 645 56 645 C68 645 76 619 76 580 C76 580 76 80 76 80 C76 41 68 15 56 15 C56 15 52 15 52 15 C52 15 52 0 52 0 C52 0 76 0 76 0 C76 0 116 0 116 0 C116 0 156 0 156 0 C156 0 305 0 305 0 C487 0 609 132 609 330 C609 528 472 660 268 660 C268 660 156 660 156 660 C156 660 116 660 116 660 C116 660 76 660 76 660 C76 660 52 660 52 660 C52 660 52 645 52 645 L52 645 Z M303 773 C303 773 415 927 415 927 C415 927 421 922 421 922 C421 922 320 731 320 731 C318 726 311 715 302 715 C294 715 287 726 285 731 C285 731 184 922 184 922 C184 922 190 927 190 927 C190 927 303 773 303 773 L303 773 Z M156 15 C156 15 156 645 156 645 C156 645 268 645 268 645 C424 645 529 519 529 330 C529 141 439 15 305 15 C305 15 156 15 156 15 L156 15 Z " />
<glyph glyph-name="dcaron" unicode="&#x10f;" horiz-adv-x="610" d="M517 30 C517 30 514 35 514 35 C497 56 494 70 493 125 C493 125 493 610 493 610 C493 610 493 706 493 706 C493 706 493 720 493 720 C493 720 482 720 482 720 C482 720 414 699 414 699 C414 699 414 690 414 690 C434 666 438 654 438 595 C438 595 438 427 438 427 C409 475 354 505 282 505 C150 505 62 393 62 225 C62 87 142 -5 261 -5 C340 -5 408 27 438 77 C438 77 438 14 438 14 C438 14 438 0 438 0 C438 0 449 0 449 0 C449 0 517 21 517 21 C517 21 517 30 517 30 L517 30 Z M610 634 C631 686 645 735 645 741 C645 750 621 753 611 753 C598 753 583 691 575 646 C575 646 542 484 542 484 C542 484 549 482 549 482 C549 482 610 634 610 634 L610 634 Z M438 110 C438 110 438 90 438 90 C419 53 362 29 291 29 C189 29 120 116 120 246 C120 392 184 490 280 490 C360 490 419 450 438 391 C438 391 438 110 438 110 L438 110 Z " />
<glyph glyph-name="Emacron" unicode="&#x112;" horiz-adv-x="511" d="M99 769 C99 769 399 769 399 769 C399 769 399 800 399 800 C399 800 99 800 99 800 C99 800 99 769 99 769 L99 769 Z M376 315 C376 315 376 342 376 342 C376 342 376 352 376 352 C376 352 376 362 376 362 C376 362 376 386 376 386 C376 386 364 386 364 386 C364 386 360 382 360 382 C349 370 307 362 256 362 C256 362 146 362 146 362 C146 362 146 640 146 640 C146 640 283 640 283 640 C349 640 404 624 427 597 C427 597 438 597 438 597 C438 597 438 650 438 650 C438 650 438 660 438 660 C438 660 431 660 431 660 C431 660 358 660 358 660 C358 660 146 660 146 660 C146 660 106 660 106 660 C106 660 66 660 66 660 C66 660 42 660 42 660 C42 660 42 645 42 645 C42 645 46 645 46 645 C58 645 66 619 66 580 C66 580 66 80 66 80 C66 41 58 15 46 15 C46 15 42 15 42 15 C42 15 42 0 42 0 C42 0 66 0 66 0 C66 0 106 0 106 0 C106 0 146 0 146 0 C146 0 362 0 362 0 C362 0 441 0 441 0 C441 0 442 0 442 0 C443 3 444 7 444 10 C447 26 451 47 453 63 C453 63 442 63 442 63 C415 36 357 20 291 20 C291 20 146 20 146 20 C146 20 146 342 146 342 C146 342 256 342 256 342 C307 342 349 333 360 319 C360 319 364 315 364 315 C364 315 376 315 376 315 L376 315 Z " />
<glyph glyph-name="emacron" unicode="&#x113;" horiz-adv-x="499" d="M123 609 C123 609 423 609 423 609 C423 609 423 640 423 640 C423 640 123 640 123 640 C123 640 123 609 123 609 L123 609 Z M442 124 C442 124 434 128 434 128 C406 68 350 29 296 29 C188 29 116 120 116 256 C116 280 118 302 121 323 C121 323 443 323 443 323 C443 432 375 505 273 505 C143 505 57 397 57 235 C57 91 134 -5 249 -5 C328 -5 405 47 442 124 L442 124 Z M123 333 C141 429 195 490 270 490 C342 490 391 442 391 369 C391 354 381 344 366 342 C366 342 123 333 123 333 L123 333 Z " />
<glyph glyph-name="Ebreve" unicode="&#x114;" horiz-adv-x="511" d="M132 872 C145 808 191 765 249 765 C306 765 353 808 365 872 C365 872 356 873 356 873 C347 831 305 802 249 802 C193 802 150 831 142 873 C142 873 132 872 132 872 L132 872 Z M376 315 C376 315 376 342 376 342 C376 342 376 352 376 352 C376 352 376 362 376 362 C376 362 376 386 376 386 C376 386 364 386 364 386 C364 386 360 382 360 382 C349 370 307 362 256 362 C256 362 146 362 146 362 C146 362 146 640 146 640 C146 640 283 640 283 640 C349 640 404 624 427 597 C427 597 438 597 438 597 C438 597 438 650 438 650 C438 650 438 660 438 660 C438 660 431 660 431 660 C431 660 358 660 358 660 C358 660 146 660 146 660 C146 660 106 660 106 660 C106 660 66 660 66 660 C66 660 42 660 42 660 C42 660 42 645 42 645 C42 645 46 645 46 645 C58 645 66 619 66 580 C66 580 66 80 66 80 C66 41 58 15 46 15 C46 15 42 15 42 15 C42 15 42 0 42 0 C42 0 66 0 66 0 C66 0 106 0 106 0 C106 0 146 0 146 0 C146 0 362 0 362 0 C362 0 441 0 441 0 C441 0 442 0 442 0 C443 3 444 7 444 10 C447 26 451 47 453 63 C453 63 442 63 442 63 C415 36 357 20 291 20 C291 20 146 20 146 20 C146 20 146 342 146 342 C146 342 256 342 256 342 C307 342 349 333 360 319 C360 319 364 315 364 315 C364 315 376 315 376 315 L376 315 Z " />
<glyph glyph-name="ebreve" unicode="&#x115;" horiz-adv-x="499" d="M156 712 C169 648 215 605 273 605 C330 605 377 648 389 712 C389 712 380 713 380 713 C371 671 329 642 273 642 C217 642 174 671 166 713 C166 713 156 712 156 712 L156 712 Z M442 124 C442 124 434 128 434 128 C406 68 350 29 296 29 C188 29 116 120 116 256 C116 280 118 302 121 323 C121 323 443 323 443 323 C443 432 375 505 273 505 C143 505 57 397 57 235 C57 91 134 -5 249 -5 C328 -5 405 47 442 124 L442 124 Z M123 333 C141 429 195 490 270 490 C342 490 391 442 391 369 C391 354 381 344 366 342 C366 342 123 333 123 333 L123 333 Z " />
<glyph glyph-name="Edotaccent" unicode="&#x116;" horiz-adv-x="511" d="M249 730 C269 730 283 744 283 764 C283 784 269 798 249 798 C228 798 215 784 215 764 C215 744 228 730 249 730 L249 730 Z M376 315 C376 315 376 342 376 342 C376 342 376 352 376 352 C376 352 376 362 376 362 C376 362 376 386 376 386 C376 386 364 386 364 386 C364 386 360 382 360 382 C349 370 307 362 256 362 C256 362 146 362 146 362 C146 362 146 640 146 640 C146 640 283 640 283 640 C349 640 404 624 427 597 C427 597 438 597 438 597 C438 597 438 650 438 650 C438 650 438 660 438 660 C438 660 431 660 431 660 C431 660 358 660 358 660 C358 660 146 660 146 660 C146 660 106 660 106 660 C106 660 66 660 66 660 C66 660 42 660 42 660 C42 660 42 645 42 645 C42 645 46 645 46 645 C58 645 66 619 66 580 C66 580 66 80 66 80 C66 41 58 15 46 15 C46 15 42 15 42 15 C42 15 42 0 42 0 C42 0 66 0 66 0 C66 0 106 0 106 0 C106 0 146 0 146 0 C146 0 362 0 362 0 C362 0 441 0 441 0 C441 0 442 0 442 0 C443 3 444 7 444 10 C447 26 451 47 453 63 C453 63 442 63 442 63 C415 36 357 20 291 20 C291 20 146 20 146 20 C146 20 146 342 146 342 C146 342 256 342 256 342 C307 342 349 333 360 319 C360 319 364 315 364 315 C364 315 376 315 376 315 L376 315 Z " />
<glyph glyph-name="edotaccent" unicode="&#x117;" horiz-adv-x="499" d="M273 570 C293 570 307 584 307 604 C307 624 293 638 273 638 C252 638 239 624 239 604 C239 584 252 570 273 570 L273 570 Z M442 124 C442 124 434 128 434 128 C406 68 350 29 296 29 C188 29 116 120 116 256 C116 280 118 302 121 323 C121 323 443 323 443 323 C443 432 375 505 273 505 C143 505 57 397 57 235 C57 91 134 -5 249 -5 C328 -5 405 47 442 124 L442 124 Z M123 333 C141 429 195 490 270 490 C342 490 391 442 391 369 C391 354 381 344 366 342 C366 342 123 333 123 333 L123 333 Z " />
<glyph glyph-name="Eogonek" unicode="&#x118;" horiz-adv-x="511" d="M376 315 C376 315 376 342 376 342 C376 342 376 352 376 352 C376 352 376 362 376 362 C376 362 376 386 376 386 C376 386 364 386 364 386 C364 386 360 382 360 382 C349 370 307 362 256 362 C256 362 146 362 146 362 C146 362 146 640 146 640 C146 640 283 640 283 640 C349 640 404 624 427 597 C427 597 438 597 438 597 C438 597 438 650 438 650 C438 650 438 660 438 660 C438 660 431 660 431 660 C431 660 358 660 358 660 C358 660 146 660 146 660 C146 660 106 660 106 660 C106 660 66 660 66 660 C66 660 42 660 42 660 C42 660 42 645 42 645 C42 645 46 645 46 645 C58 645 66 619 66 580 C66 580 66 80 66 80 C66 41 58 15 46 15 C46 15 42 15 42 15 C42 15 42 0 42 0 C42 0 66 0 66 0 C66 0 106 0 106 0 C106 0 146 0 146 0 C146 0 362 0 362 0 C362 0 417 0 417 0 C369 -29 296 -98 296 -156 C296 -202 338 -233 402 -233 C434 -233 466 -220 483 -200 C483 -200 479 -195 479 -195 C467 -209 441 -218 414 -218 C363 -218 330 -191 330 -150 C330 -85 408 -12 441 0 C441 0 442 0 442 0 C443 3 444 7 444 10 C447 26 451 47 453 63 C453 63 442 63 442 63 C415 36 357 20 291 20 C291 20 146 20 146 20 C146 20 146 342 146 342 C146 342 256 342 256 342 C307 342 349 333 360 319 C360 319 364 315 364 315 C364 315 376 315 376 315 L376 315 Z " />
<glyph glyph-name="eogonek" unicode="&#x119;" horiz-adv-x="499" d="M123 333 C141 429 195 490 270 490 C342 490 391 442 391 369 C391 354 381 344 366 342 C366 342 123 333 123 333 L123 333 Z M121 323 C121 323 443 323 443 323 C443 432 375 505 273 505 C143 505 57 397 57 235 C57 91 134 -5 249 -5 C264 -5 278 -3 293 0 C248 -35 201 -91 201 -141 C201 -196 244 -233 307 -233 C340 -233 372 -220 388 -200 C388 -200 384 -195 384 -195 C373 -209 347 -218 319 -218 C269 -218 235 -185 235 -135 C235 -74 294 -10 332 14 C378 36 418 75 442 124 C442 124 434 128 434 128 C406 68 350 29 296 29 C188 29 116 120 116 256 C116 280 118 302 121 323 L121 323 Z " />
<glyph glyph-name="Ecaron" unicode="&#x11a;" horiz-adv-x="511" d="M376 315 C376 315 376 342 376 342 C376 342 376 352 376 352 C376 352 376 362 376 362 C376 362 376 386 376 386 C376 386 364 386 364 386 C364 386 360 382 360 382 C349 370 307 362 256 362 C256 362 146 362 146 362 C146 362 146 640 146 640 C146 640 283 640 283 640 C349 640 404 624 427 597 C427 597 438 597 438 597 C438 597 438 650 438 650 C438 650 438 660 438 660 C438 660 431 660 431 660 C431 660 358 660 358 660 C358 660 146 660 146 660 C146 660 106 660 106 660 C106 660 66 660 66 660 C66 660 42 660 42 660 C42 660 42 645 42 645 C42 645 46 645 46 645 C58 645 66 619 66 580 C66 580 66 80 66 80 C66 41 58 15 46 15 C46 15 42 15 42 15 C42 15 42 0 42 0 C42 0 66 0 66 0 C66 0 106 0 106 0 C106 0 146 0 146 0 C146 0 362 0 362 0 C362 0 441 0 441 0 C441 0 442 0 442 0 C443 3 444 7 444 10 C447 26 451 47 453 63 C453 63 442 63 442 63 C415 36 357 20 291 20 C291 20 146 20 146 20 C146 20 146 342 146 342 C146 342 256 342 256 342 C307 342 349 333 360 319 C360 319 364 315 364 315 C364 315 376 315 376 315 L376 315 Z M249 773 C249 773 361 927 361 927 C361 927 367 922 367 922 C367 922 266 731 266 731 C264 726 257 715 249 715 C240 715 233 726 231 731 C231 731 130 922 130 922 C130 922 136 927 136 927 C136 927 249 773 249 773 L249 773 Z " />
<glyph glyph-name="ecaron" unicode="&#x11b;" horiz-adv-x="499" d="M442 124 C442 124 434 128 434 128 C406 68 350 29 296 29 C188 29 116 120 116 256 C116 280 118 302 121 323 C121 323 443 323 443 323 C443 432 375 505 273 505 C143 505 57 397 57 235 C57 91 134 -5 249 -5 C328 -5 405 47 442 124 L442 124 Z M273 613 C273 613 385 767 385 767 C385 767 391 762 391 762 C391 762 290 571 290 571 C288 566 281 555 273 555 C264 555 257 566 255 571 C255 571 154 762 154 762 C154 762 160 767 160 767 C160 767 273 613 273 613 L273 613 Z M123 333 C141 429 195 490 270 490 C342 490 391 442 391 369 C391 354 381 344 366 342 C366 342 123 333 123 333 L123 333 Z " />
<glyph glyph-name="Gcircumflex" unicode="&#x11c;" horiz-adv-x="767" d="M669 310 C669 310 645 310 645 310 C645 310 609 310 609 310 C609 310 573 310 573 310 C573 310 549 310 549 310 C549 310 549 295 549 295 C549 295 553 295 553 295 C565 295 573 269 573 230 C573 230 573 46 573 46 C518 27 450 15 388 15 C245 15 150 141 150 330 C150 519 245 645 388 645 C417 645 444 643 470 638 C470 638 470 638 470 638 C526 628 585 589 615 540 C619 534 625 526 628 520 C628 520 641 520 641 520 C641 520 641 571 641 571 C641 571 633 565 633 565 C633 565 633 565 633 566 C633 566 641 571 641 571 C604 627 503 665 388 665 C193 665 62 531 62 330 C62 129 193 -5 388 -5 C479 -5 582 19 645 56 C645 56 645 230 645 230 C645 269 653 295 665 295 C665 295 669 295 669 295 C669 295 669 310 669 310 L669 310 Z M389 847 C389 847 501 693 501 693 C501 693 507 698 507 698 C507 698 406 889 406 889 C404 894 397 905 388 905 C380 905 373 894 371 889 C371 889 270 698 270 698 C270 698 276 693 276 693 C276 693 389 847 389 847 L389 847 Z " />
<glyph glyph-name="Gbreve" unicode="&#x11e;" horiz-adv-x="767" d="M272 872 C284 808 331 765 388 765 C446 765 492 808 505 872 C505 872 495 873 495 873 C487 831 445 802 388 802 C332 802 290 831 281 873 C281 873 272 872 272 872 L272 872 Z M669 310 C669 310 645 310 645 310 C645 310 609 310 609 310 C609 310 573 310 573 310 C573 310 549 310 549 310 C549 310 549 295 549 295 C549 295 553 295 553 295 C565 295 573 269 573 230 C573 230 573 46 573 46 C518 27 450 15 388 15 C245 15 150 141 150 330 C150 519 245 645 388 645 C417 645 444 643 470 638 C470 638 470 638 470 638 C526 628 585 589 615 540 C619 534 625 526 628 520 C628 520 641 520 641 520 C641 520 641 571 641 571 C641 571 633 565 633 565 C633 565 633 565 633 566 C633 566 641 571 641 571 C604 627 503 665 388 665 C193 665 62 531 62 330 C62 129 193 -5 388 -5 C479 -5 582 19 645 56 C645 56 645 230 645 230 C645 269 653 295 665 295 C665 295 669 295 669 295 C669 295 669 310 669 310 L669 310 Z " />
<glyph glyph-name="gbreve" unicode="&#x11f;" horiz-adv-x="481" d="M135 712 C147 648 194 605 251 605 C309 605 355 648 368 712 C368 712 359 713 359 713 C350 671 308 642 251 642 C195 642 153 671 144 713 C144 713 135 712 135 712 L135 712 Z M475 500 C475 500 338 488 338 488 C313 499 284 505 251 505 C146 505 75 443 75 350 C75 277 118 223 187 203 C109 200 58 164 58 110 C58 59 98 25 161 17 C83 -9 33 -60 33 -113 C33 -189 92 -239 181 -239 C346 -239 455 -162 455 -47 C455 24 384 72 277 72 C277 72 198 69 198 69 C136 65 95 90 95 132 C95 169 136 194 196 194 C196 194 251 194 251 194 C357 194 428 256 428 350 C428 400 408 440 373 468 C373 468 475 469 475 469 C475 469 475 500 475 500 L475 500 Z M127 350 C127 436 177 493 251 493 C326 493 376 436 376 350 C376 263 326 206 251 206 C177 206 127 263 127 350 L127 350 Z M178 16 C185 16 193 16 201 16 C201 16 262 19 262 19 C354 19 415 -19 415 -75 C415 -164 324 -223 188 -223 C117 -223 70 -176 70 -106 C70 -53 112 -5 178 16 C178 16 178 16 178 16 L178 16 Z " />
<glyph glyph-name="Gdotaccent" unicode="&#x120;" horiz-adv-x="767" d="M388 730 C409 730 422 744 422 764 C422 784 409 798 388 798 C368 798 355 784 355 764 C355 744 368 730 388 730 L388 730 Z M669 310 C669 310 645 310 645 310 C645 310 609 310 609 310 C609 310 573 310 573 310 C573 310 549 310 549 310 C549 310 549 295 549 295 C549 295 553 295 553 295 C565 295 573 269 573 230 C573 230 573 46 573 46 C518 27 450 15 388 15 C245 15 150 141 150 330 C150 519 245 645 388 645 C417 645 444 643 470 638 C470 638 470 638 470 638 C526 628 585 589 615 540 C619 534 625 526 628 520 C628 520 641 520 641 520 C641 520 641 571 641 571 C641 571 633 565 633 565 C633 565 633 565 633 566 C633 566 641 571 641 571 C604 627 503 665 388 665 C193 665 62 531 62 330 C62 129 193 -5 388 -5 C479 -5 582 19 645 56 C645 56 645 230 645 230 C645 269 653 295 665 295 C665 295 669 295 669 295 C669 295 669 310 669 310 L669 310 Z " />
<glyph glyph-name="gdotaccent" unicode="&#x121;" horiz-adv-x="481" d="M251 570 C272 570 285 584 285 604 C285 624 272 638 251 638 C231 638 218 624 218 604 C218 584 231 570 251 570 L251 570 Z M475 500 C475 500 338 488 338 488 C313 499 284 505 251 505 C146 505 75 443 75 350 C75 277 118 223 187 203 C109 200 58 164 58 110 C58 59 98 25 161 17 C83 -9 33 -60 33 -113 C33 -189 92 -239 181 -239 C346 -239 455 -162 455 -47 C455 24 384 72 277 72 C277 72 198 69 198 69 C136 65 95 90 95 132 C95 169 136 194 196 194 C196 194 251 194 251 194 C357 194 428 256 428 350 C428 400 408 440 373 468 C373 468 475 469 475 469 C475 469 475 500 475 500 L475 500 Z M127 350 C127 436 177 493 251 493 C326 493 376 436 376 350 C376 263 326 206 251 206 C177 206 127 263 127 350 L127 350 Z M178 16 C185 16 193 16 201 16 C201 16 262 19 262 19 C354 19 415 -19 415 -75 C415 -164 324 -223 188 -223 C117 -223 70 -176 70 -106 C70 -53 112 -5 178 16 C178 16 178 16 178 16 L178 16 Z " />
<glyph glyph-name="Hcircumflex" unicode="&#x124;" horiz-adv-x="681" d="M635 660 C635 660 611 660 611 660 C611 660 571 660 571 660 C571 660 531 660 531 660 C531 660 508 660 508 660 C508 660 508 645 508 645 C508 645 511 645 511 645 C523 645 531 619 531 580 C531 580 531 357 531 357 C531 357 146 357 146 357 C146 357 146 580 146 580 C146 619 154 645 166 645 C166 645 170 645 170 645 C170 645 170 660 170 660 C170 660 146 660 146 660 C146 660 106 660 106 660 C106 660 66 660 66 660 C66 660 42 660 42 660 C42 660 42 645 42 645 C42 645 46 645 46 645 C58 645 66 619 66 580 C66 580 66 80 66 80 C66 41 58 15 46 15 C46 15 42 15 42 15 C42 15 42 0 42 0 C42 0 66 0 66 0 C66 0 106 0 106 0 C106 0 146 0 146 0 C146 0 170 0 170 0 C170 0 170 15 170 15 C170 15 166 15 166 15 C154 15 146 41 146 80 C146 80 146 337 146 337 C146 337 531 337 531 337 C531 337 531 80 531 80 C531 41 523 15 511 15 C511 15 508 15 508 15 C508 15 508 0 508 0 C508 0 531 0 531 0 C531 0 571 0 571 0 C571 0 611 0 611 0 C611 0 635 0 635 0 C635 0 635 15 635 15 C635 15 631 15 631 15 C619 15 611 41 611 80 C611 80 611 580 611 580 C611 619 619 645 631 645 C631 645 635 645 635 645 C635 645 635 660 635 660 L635 660 Z M339 847 C339 847 451 693 451 693 C451 693 457 698 457 698 C457 698 356 889 356 889 C354 894 347 905 339 905 C330 905 323 894 321 889 C321 889 220 698 220 698 C220 698 226 693 226 693 C226 693 339 847 339 847 L339 847 Z " />
<glyph glyph-name="Itilde" unicode="&#x128;" horiz-adv-x="212" d="M-40 755 C-40 795 -22 821 5 821 C65 821 123 758 184 758 C225 758 253 797 253 855 C253 855 243 855 243 855 C243 819 224 795 196 795 C135 795 77 858 17 858 C-23 858 -49 817 -49 755 C-49 755 -40 755 -40 755 L-40 755 Z M165 660 C165 660 141 660 141 660 C141 660 102 660 102 660 C102 660 62 660 62 660 C62 660 38 660 38 660 C38 660 38 645 38 645 C38 645 41 645 41 645 C54 645 62 619 62 580 C62 580 62 80 62 80 C62 41 54 15 41 15 C41 15 38 15 38 15 C38 15 38 0 38 0 C38 0 62 0 62 0 C62 0 102 0 102 0 C102 0 141 0 141 0 C141 0 165 0 165 0 C165 0 165 15 165 15 C165 15 162 15 162 15 C150 15 142 41 141 80 C141 80 141 580 141 580 C142 619 150 645 162 645 C162 645 165 645 165 645 C165 645 165 660 165 660 L165 660 Z " />
<glyph glyph-name="itilde" unicode="&#x129;" horiz-adv-x="206" d="M131 0 C131 0 155 0 155 0 C155 0 155 15 155 15 C155 15 150 15 150 15 C139 15 131 13 131 0 C131 0 131 420 131 420 C131 420 131 505 131 505 C131 505 128 505 128 505 C128 505 56 483 56 483 C56 483 56 473 56 473 C56 473 70 451 70 451 C74 446 76 436 76 404 C76 404 76 0 76 0 C76 13 68 15 57 15 C57 15 52 15 52 15 C52 15 52 0 52 0 C52 0 76 0 76 0 C76 0 76 404 76 404 C76 404 76 420 76 420 C76 420 131 420 131 420 C131 420 131 0 131 0 L131 0 Z M-38 595 C-38 635 -20 661 6 661 C67 661 125 598 185 598 C227 598 254 637 254 695 C254 695 245 695 245 695 C245 659 226 635 197 635 C137 635 79 698 18 698 C-21 698 -47 657 -47 595 C-47 595 -38 595 -38 595 L-38 595 Z " />
<glyph glyph-name="Imacron" unicode="&#x12a;" horiz-adv-x="212" d="M-48 769 C-48 769 252 769 252 769 C252 769 252 800 252 800 C252 800 -48 800 -48 800 C-48 800 -48 769 -48 769 L-48 769 Z M165 660 C165 660 141 660 141 660 C141 660 102 660 102 660 C102 660 62 660 62 660 C62 660 38 660 38 660 C38 660 38 645 38 645 C38 645 41 645 41 645 C54 645 62 619 62 580 C62 580 62 80 62 80 C62 41 54 15 41 15 C41 15 38 15 38 15 C38 15 38 0 38 0 C38 0 62 0 62 0 C62 0 102 0 102 0 C102 0 141 0 141 0 C141 0 165 0 165 0 C165 0 165 15 165 15 C165 15 162 15 162 15 C150 15 142 41 141 80 C141 80 141 580 141 580 C142 619 150 645 162 645 C162 645 165 645 165 645 C165 645 165 660 165 660 L165 660 Z " />
<glyph glyph-name="imacron" unicode="&#x12b;" horiz-adv-x="206" d="M131 0 C131 0 155 0 155 0 C155 0 155 15 155 15 C155 15 150 15 150 15 C139 15 131 13 131 0 C131 0 131 420 131 420 C131 420 131 505 131 505 C131 505 128 505 128 505 C128 505 56 483 56 483 C56 483 56 473 56 473 C56 473 70 451 70 451 C74 446 76 436 76 404 C76 404 76 0 76 0 C76 13 68 15 57 15 C57 15 52 15 52 15 C52 15 52 0 52 0 C52 0 76 0 76 0 C76 0 76 404 76 404 C76 404 76 420 76 420 C76 420 131 420 131 420 C131 420 131 0 131 0 L131 0 Z M-47 609 C-47 609 253 609 253 609 C253 609 253 640 253 640 C253 640 -47 640 -47 640 C-47 640 -47 609 -47 609 L-47 609 Z " />
<glyph glyph-name="Ibreve" unicode="&#x12c;" horiz-adv-x="212" d="M-15 872 C-2 808 44 765 102 765 C159 765 206 808 218 872 C218 872 209 873 209 873 C200 831 158 802 102 802 C45 802 3 831 -5 873 C-5 873 -15 872 -15 872 L-15 872 Z M165 660 C165 660 141 660 141 660 C141 660 102 660 102 660 C102 660 62 660 62 660 C62 660 38 660 38 660 C38 660 38 645 38 645 C38 645 41 645 41 645 C54 645 62 619 62 580 C62 580 62 80 62 80 C62 41 54 15 41 15 C41 15 38 15 38 15 C38 15 38 0 38 0 C38 0 62 0 62 0 C62 0 102 0 102 0 C102 0 141 0 141 0 C141 0 165 0 165 0 C165 0 165 15 165 15 C165 15 162 15 162 15 C150 15 142 41 141 80 C141 80 141 580 141 580 C142 619 150 645 162 645 C162 645 165 645 165 645 C165 645 165 660 165 660 L165 660 Z " />
<glyph glyph-name="ibreve" unicode="&#x12d;" horiz-adv-x="206" d="M131 0 C131 0 155 0 155 0 C155 0 155 15 155 15 C155 15 150 15 150 15 C139 15 131 13 131 0 C131 0 131 420 131 420 C131 420 131 505 131 505 C131 505 128 505 128 505 C128 505 56 483 56 483 C56 483 56 473 56 473 C56 473 70 451 70 451 C74 446 76 436 76 404 C76 404 76 0 76 0 C76 13 68 15 57 15 C57 15 52 15 52 15 C52 15 52 0 52 0 C52 0 76 0 76 0 C76 0 76 404 76 404 C76 404 76 420 76 420 C76 420 131 420 131 420 C131 420 131 0 131 0 L131 0 Z M-13 712 C0 648 46 605 103 605 C161 605 207 648 220 712 C220 712 211 713 211 713 C202 671 160 642 103 642 C47 642 5 671 -4 713 C-4 713 -13 712 -13 712 L-13 712 Z " />
<glyph glyph-name="Idotaccent" unicode="&#x130;" horiz-adv-x="212" d="M102 730 C122 730 135 744 135 764 C135 784 122 798 102 798 C81 798 68 784 68 764 C68 744 81 730 102 730 L102 730 Z M165 660 C165 660 141 660 141 660 C141 660 102 660 102 660 C102 660 62 660 62 660 C62 660 38 660 38 660 C38 660 38 645 38 645 C38 645 41 645 41 645 C54 645 62 619 62 580 C62 580 62 80 62 80 C62 41 54 15 41 15 C41 15 38 15 38 15 C38 15 38 0 38 0 C38 0 62 0 62 0 C62 0 102 0 102 0 C102 0 141 0 141 0 C141 0 165 0 165 0 C165 0 165 15 165 15 C165 15 162 15 162 15 C150 15 142 41 141 80 C141 80 141 580 141 580 C142 619 150 645 162 645 C162 645 165 645 165 645 C165 645 165 660 165 660 L165 660 Z " />
<glyph glyph-name="dotlessi" unicode="&#x131;" horiz-adv-x="206" d="M131 0 C131 0 155 0 155 0 C155 0 155 15 155 15 C155 15 150 15 150 15 C139 15 131 13 131 0 C131 0 131 420 131 420 C131 420 131 505 131 505 C131 505 128 505 128 505 C128 505 56 483 56 483 C56 483 56 473 56 473 C56 473 70 451 70 451 C74 446 76 436 76 404 C76 404 76 0 76 0 C76 13 68 15 57 15 C57 15 52 15 52 15 C52 15 52 0 52 0 C52 0 76 0 76 0 C76 0 76 404 76 404 C76 404 76 420 76 420 C76 420 131 420 131 420 C131 420 131 0 131 0 L131 0 Z " />
<glyph glyph-name="Jcircumflex" unicode="&#x134;" horiz-adv-x="340" d="M294 660 C294 660 270 660 270 660 C270 660 230 660 230 660 C230 660 190 660 190 660 C190 660 166 660 166 660 C166 660 166 645 166 645 C166 645 170 645 170 645 C182 645 190 619 190 580 C190 580 190 200 190 200 C190 57 171 2 123 2 C92 2 66 21 59 50 C55 65 44 75 31 75 C13 75 3 65 7 50 C16 14 56 -10 108 -10 C225 -10 270 68 270 267 C270 267 270 580 270 580 C270 619 278 645 290 645 C290 645 294 645 294 645 C294 645 294 660 294 660 L294 660 Z M230 847 C230 847 343 693 343 693 C343 693 348 698 348 698 C348 698 248 889 248 889 C245 894 238 905 230 905 C221 905 215 894 212 889 C212 889 112 698 112 698 C112 698 117 693 117 693 C117 693 230 847 230 847 L230 847 Z " />
<glyph glyph-name="Lacute" unicode="&#x139;" horiz-adv-x="511" d="M82 691 C82 691 192 819 192 819 C217 849 233 870 234 873 C233 881 211 897 202 897 C199 897 185 875 164 842 C164 842 76 696 76 696 C76 696 82 691 82 691 L82 691 Z M435 68 C435 68 428 60 428 60 C406 36 355 20 301 20 C301 20 146 20 146 20 C146 20 146 580 146 580 C146 619 154 645 166 645 C166 645 170 645 170 645 C170 645 170 660 170 660 C170 660 146 660 146 660 C146 660 106 660 106 660 C106 660 66 660 66 660 C66 660 42 660 42 660 C42 660 42 645 42 645 C42 645 46 645 46 645 C58 645 66 619 66 580 C66 580 66 80 66 80 C66 41 58 15 46 15 C46 15 42 15 42 15 C42 15 42 0 42 0 C42 0 66 0 66 0 C66 0 106 0 106 0 C106 0 146 0 146 0 C146 0 362 0 362 0 C362 0 441 0 441 0 C441 0 442 0 442 0 C443 3 444 7 444 10 C447 27 451 49 454 65 C448 66 435 68 435 68 L435 68 Z " />
<glyph glyph-name="Lcaron" unicode="&#x13d;" horiz-adv-x="511" d="M435 68 C435 68 428 60 428 60 C406 36 355 20 301 20 C301 20 146 20 146 20 C146 20 146 580 146 580 C146 619 154 645 166 645 C166 645 170 645 170 645 C170 645 170 660 170 660 C170 660 146 660 146 660 C146 660 106 660 106 660 C106 660 66 660 66 660 C66 660 42 660 42 660 C42 660 42 645 42 645 C42 645 46 645 46 645 C58 645 66 619 66 580 C66 580 66 80 66 80 C66 41 58 15 46 15 C46 15 42 15 42 15 C42 15 42 0 42 0 C42 0 66 0 66 0 C66 0 106 0 106 0 C106 0 146 0 146 0 C146 0 362 0 362 0 C362 0 441 0 441 0 C441 0 442 0 442 0 C443 3 444 7 444 10 C447 27 451 49 454 65 C448 66 435 68 435 68 L435 68 Z M286 574 C308 626 322 675 322 681 C322 690 297 693 287 693 C275 693 260 631 251 586 C251 586 218 424 218 424 C218 424 225 422 225 422 C225 422 286 574 286 574 L286 574 Z " />
<glyph glyph-name="lcaron" unicode="&#x13e;" horiz-adv-x="206" d="M52 690 C72 665 76 655 76 595 C76 595 76 80 76 80 C76 41 68 15 56 15 C56 15 52 15 52 15 C52 15 52 0 52 0 C52 0 76 0 76 0 C76 0 103 0 103 0 C103 0 131 0 131 0 C131 0 155 0 155 0 C155 0 155 15 155 15 C155 15 151 15 151 15 C139 15 131 41 131 80 C131 80 131 610 131 610 C131 610 131 706 131 706 C131 706 131 720 131 720 C131 720 120 720 120 720 C120 720 52 699 52 699 C52 699 52 690 52 690 L52 690 Z M247 604 C269 656 283 705 283 711 C283 720 259 723 248 723 C236 723 221 661 213 616 C213 616 179 454 179 454 C179 454 186 452 186 452 C186 452 247 604 247 604 L247 604 Z " />
<glyph glyph-name="Lslash" unicode="&#x141;" horiz-adv-x="511" d="M16 271 C16 271 66 289 66 289 C66 289 66 80 66 80 C66 41 58 15 46 15 C46 15 42 15 42 15 C42 15 42 0 42 0 C42 0 66 0 66 0 C66 0 106 0 106 0 C106 0 146 0 146 0 C146 0 362 0 362 0 C362 0 441 0 441 0 C441 0 442 0 442 0 C443 3 444 7 444 10 C447 27 451 49 454 65 C448 66 435 68 435 68 C435 68 428 60 428 60 C406 36 355 20 301 20 C301 20 146 20 146 20 C146 20 146 318 146 318 C146 318 294 371 294 371 C294 371 294 389 294 389 C294 389 146 336 146 336 C146 336 146 580 146 580 C146 619 154 645 166 645 C166 645 170 645 170 645 C170 645 170 660 170 660 C170 660 146 660 146 660 C146 660 106 660 106 660 C106 660 66 660 66 660 C66 660 42 660 42 660 C42 660 42 645 42 645 C42 645 46 645 46 645 C58 645 66 619 66 580 C66 580 66 307 66 307 C66 307 16 289 16 289 C16 289 16 271 16 271 L16 271 Z " />
<glyph glyph-name="lslash" unicode="&#x142;" horiz-adv-x="206" d="M-24 301 C-24 301 76 340 76 340 C76 340 76 80 76 80 C76 41 68 15 56 15 C56 15 52 15 52 15 C52 15 52 0 52 0 C52 0 76 0 76 0 C76 0 103 0 103 0 C103 0 131 0 131 0 C131 0 155 0 155 0 C155 0 155 15 155 15 C155 15 151 15 151 15 C139 15 131 41 131 80 C131 80 131 362 131 362 C131 362 231 401 231 401 C231 401 231 419 231 419 C231 419 131 380 131 380 C131 380 131 610 131 610 C131 610 131 706 131 706 C131 706 131 720 131 720 C131 720 120 720 120 720 C120 720 52 699 52 699 C52 699 52 690 52 690 C72 665 76 655 76 595 C76 595 76 358 76 358 C76 358 -24 319 -24 319 C-24 319 -24 301 -24 301 L-24 301 Z " />
<glyph glyph-name="Nacute" unicode="&#x143;" horiz-adv-x="613" d="M279 691 C279 691 389 819 389 819 C414 849 431 870 431 873 C431 881 408 897 399 897 C397 897 382 875 361 842 C361 842 273 696 273 696 C273 696 279 691 279 691 L279 691 Z M502 645 C502 645 506 645 506 645 C518 645 526 619 526 580 C526 580 526 97 526 97 C526 97 149 660 149 660 C149 660 96 634 96 634 C96 634 96 634 96 634 C96 634 149 660 149 660 C149 660 96 660 96 660 C96 660 84 660 84 660 C84 660 72 660 72 660 C72 660 48 660 48 660 C48 660 48 645 48 645 C48 645 52 645 52 645 C64 645 72 619 72 580 C72 580 72 80 72 80 C72 41 64 15 52 15 C52 15 48 15 48 15 C48 15 48 0 48 0 C48 0 72 0 72 0 C72 0 84 0 84 0 C84 0 96 0 96 0 C96 0 120 0 120 0 C120 0 120 15 120 15 C120 15 116 15 116 15 C104 15 96 41 96 80 C96 80 96 598 96 598 C96 598 489 11 489 11 C489 11 505 -12 505 -12 C505 -12 550 -12 550 -12 C550 -12 550 40 550 40 C550 40 550 580 550 580 C550 619 558 645 570 645 C570 645 574 645 574 645 C573 645 573 648 574 653 C573 657 573 660 574 660 C574 660 550 660 550 660 C550 660 538 660 538 660 C538 660 526 660 526 660 C526 660 502 660 502 660 C502 660 502 645 502 645 L502 645 Z " />
<glyph glyph-name="nacute" unicode="&#x144;" horiz-adv-x="533" d="M192 531 C192 531 302 659 302 659 C327 689 343 710 343 713 C343 721 321 737 312 737 C309 737 294 715 274 682 C274 682 185 536 185 536 C185 536 192 531 192 531 L192 531 Z M486 15 C486 15 483 15 483 15 C471 15 463 41 462 80 C462 80 462 336 462 336 C462 438 427 505 337 505 C244 505 164 462 131 396 C131 396 131 406 131 406 C131 406 131 500 131 500 C131 500 120 500 120 500 C120 500 52 479 52 479 C52 479 52 470 52 470 C52 470 55 465 55 465 C72 444 75 429 75 375 C75 375 75 80 75 80 C75 41 67 15 55 15 C55 15 52 15 52 15 C52 15 52 0 52 0 C52 0 75 0 75 0 C75 0 103 0 103 0 C103 0 131 0 131 0 C131 0 155 0 155 0 C155 0 155 15 155 15 C155 15 151 15 151 15 C139 15 131 41 131 80 C131 80 131 384 131 384 C156 435 219 468 294 468 C375 468 407 413 407 331 C407 331 407 80 407 80 C407 41 399 15 387 15 C387 15 383 15 383 15 C383 15 383 0 383 0 C383 0 407 0 407 0 C407 0 435 0 435 0 C435 0 462 0 462 0 C462 0 486 0 486 0 C486 0 486 15 486 15 L486 15 Z " />
<glyph glyph-name="Ncaron" unicode="&#x147;" horiz-adv-x="613" d="M502 645 C502 645 506 645 506 645 C518 645 526 619 526 580 C526 580 526 97 526 97 C526 97 149 660 149 660 C149 660 96 634 96 634 C96 634 96 634 96 634 C96 634 149 660 149 660 C149 660 96 660 96 660 C96 660 84 660 84 660 C84 660 72 660 72 660 C72 660 48 660 48 660 C48 660 48 645 48 645 C48 645 52 645 52 645 C64 645 72 619 72 580 C72 580 72 80 72 80 C72 41 64 15 52 15 C52 15 48 15 48 15 C48 15 48 0 48 0 C48 0 72 0 72 0 C72 0 84 0 84 0 C84 0 96 0 96 0 C96 0 120 0 120 0 C120 0 120 15 120 15 C120 15 116 15 116 15 C104 15 96 41 96 80 C96 80 96 598 96 598 C96 598 489 11 489 11 C489 11 505 -12 505 -12 C505 -12 550 -12 550 -12 C550 -12 550 40 550 40 C550 40 550 580 550 580 C550 619 558 645 570 645 C570 645 574 645 574 645 C573 645 573 648 574 653 C573 657 573 660 574 660 C574 660 550 660 550 660 C550 660 538 660 538 660 C538 660 526 660 526 660 C526 660 502 660 502 660 C502 660 502 645 502 645 L502 645 Z M311 773 C311 773 423 927 423 927 C423 927 429 922 429 922 C429 922 328 731 328 731 C326 726 319 715 311 715 C302 715 296 726 293 731 C293 731 192 922 192 922 C192 922 198 927 198 927 C198 927 311 773 311 773 L311 773 Z " />
<glyph glyph-name="ncaron" unicode="&#x148;" horiz-adv-x="533" d="M486 15 C486 15 483 15 483 15 C471 15 463 41 462 80 C462 80 462 336 462 336 C462 438 427 505 337 505 C244 505 164 462 131 396 C131 396 131 406 131 406 C131 406 131 500 131 500 C131 500 120 500 120 500 C120 500 52 479 52 479 C52 479 52 470 52 470 C52 470 55 465 55 465 C72 444 75 429 75 375 C75 375 75 80 75 80 C75 41 67 15 55 15 C55 15 52 15 52 15 C52 15 52 0 52 0 C52 0 75 0 75 0 C75 0 103 0 103 0 C103 0 131 0 131 0 C131 0 155 0 155 0 C155 0 155 15 155 15 C155 15 151 15 151 15 C139 15 131 41 131 80 C131 80 131 384 131 384 C156 435 219 468 294 468 C375 468 407 413 407 331 C407 331 407 80 407 80 C407 41 399 15 387 15 C387 15 383 15 383 15 C383 15 383 0 383 0 C383 0 407 0 407 0 C407 0 435 0 435 0 C435 0 462 0 462 0 C462 0 486 0 486 0 C486 0 486 15 486 15 L486 15 Z M269 612 C269 612 382 767 382 767 C382 767 387 762 387 762 C387 762 287 571 287 571 C284 566 277 555 269 555 C260 555 254 566 251 571 C251 571 150 762 150 762 C150 762 156 767 156 767 C156 767 269 612 269 612 L269 612 Z " />
<glyph glyph-name="Omacron" unicode="&#x14c;" horiz-adv-x="772" d="M239 769 C239 769 539 769 539 769 C539 769 539 800 539 800 C539 800 239 800 239 800 C239 800 239 769 239 769 L239 769 Z M389 15 C231 15 150 160 150 330 C150 500 231 645 389 645 C547 645 628 500 628 330 C628 160 547 15 389 15 L389 15 Z M62 330 C62 149 173 -5 389 -5 C605 -5 716 149 716 330 C716 511 605 665 389 665 C173 665 62 511 62 330 L62 330 Z " />
<glyph glyph-name="omacron" unicode="&#x14d;" horiz-adv-x="604" d="M152 609 C152 609 452 609 452 609 C452 609 452 640 452 640 C452 640 152 640 152 640 C152 640 152 609 152 609 L152 609 Z M302 7 C192 7 119 104 119 250 C119 396 192 493 302 493 C412 493 486 396 486 250 C486 104 412 7 302 7 L302 7 Z M57 250 C57 97 155 -5 302 -5 C449 -5 547 97 547 250 C547 403 449 505 302 505 C155 505 57 403 57 250 L57 250 Z " />
<glyph glyph-name="Obreve" unicode="&#x14e;" horiz-adv-x="772" d="M272 872 C285 808 331 765 389 765 C447 765 493 808 506 872 C506 872 496 873 496 873 C488 831 445 802 389 802 C333 802 290 831 282 873 C282 873 272 872 272 872 L272 872 Z M389 15 C231 15 150 160 150 330 C150 500 231 645 389 645 C547 645 628 500 628 330 C628 160 547 15 389 15 L389 15 Z M62 330 C62 149 173 -5 389 -5 C605 -5 716 149 716 330 C716 511 605 665 389 665 C173 665 62 511 62 330 L62 330 Z " />
<glyph glyph-name="obreve" unicode="&#x14f;" horiz-adv-x="604" d="M185 712 C198 648 244 605 302 605 C360 605 406 648 419 712 C419 712 409 713 409 713 C401 671 358 642 302 642 C246 642 203 671 195 713 C195 713 185 712 185 712 L185 712 Z M302 7 C192 7 119 104 119 250 C119 396 192 493 302 493 C412 493 486 396 486 250 C486 104 412 7 302 7 L302 7 Z M57 250 C57 97 155 -5 302 -5 C449 -5 547 97 547 250 C547 403 449 505 302 505 C155 505 57 403 57 250 L57 250 Z " />
<glyph glyph-name="Racute" unicode="&#x154;" horiz-adv-x="580" d="M207 691 C207 691 317 819 317 819 C342 849 358 870 359 873 C358 881 336 897 327 897 C324 897 310 875 289 842 C289 842 201 696 201 696 C201 696 207 691 207 691 L207 691 Z M52 645 C52 645 56 645 56 645 C68 645 76 619 76 580 C76 580 76 80 76 80 C76 41 68 15 56 15 C56 15 52 15 52 15 C52 15 52 0 52 0 C52 0 76 0 76 0 C76 0 116 0 116 0 C116 0 156 0 156 0 C156 0 179 0 179 0 C179 0 179 15 179 15 C179 15 176 15 176 15 C165 15 157 36 156 68 C156 68 156 80 156 80 C156 80 156 316 156 316 C156 316 240 316 240 316 C240 316 400 106 400 106 C477 4 483 0 550 0 C550 0 573 0 573 0 C573 0 573 12 573 12 C573 12 568 12 568 12 C548 12 544 15 484 94 C484 94 311 320 311 320 C423 335 493 399 493 490 C493 592 409 660 282 660 C282 660 156 660 156 660 C156 660 116 660 116 660 C116 660 76 660 76 660 C76 660 52 660 52 660 C52 660 52 645 52 645 L52 645 Z M257 332 C257 332 228 332 228 332 C228 332 156 332 156 332 C156 332 156 645 156 645 C156 645 282 645 282 645 C358 645 409 583 409 490 C409 395 348 332 257 332 L257 332 Z " />
<glyph glyph-name="Rcaron" unicode="&#x158;" horiz-adv-x="536" d="M52 645 C52 645 56 645 56 645 C68 645 76 619 76 580 C76 580 76 80 76 80 C76 41 68 15 56 15 C56 15 52 15 52 15 C52 15 52 0 52 0 C52 0 76 0 76 0 C76 0 116 0 116 0 C116 0 156 0 156 0 C156 0 179 0 179 0 C179 0 179 15 179 15 C179 15 176 15 176 15 C165 15 157 36 156 68 C156 68 156 80 156 80 C156 80 156 316 156 316 C156 316 257 316 257 316 C309 173 418 29 529 -43 C529 -43 535 -34 535 -34 C471 7 387 149 325 322 C428 341 493 403 493 490 C493 592 409 660 282 660 C282 660 156 660 156 660 C156 660 116 660 116 660 C116 660 76 660 76 660 C76 660 52 660 52 660 C52 660 52 645 52 645 L52 645 Z M285 773 C285 773 397 927 397 927 C397 927 403 922 403 922 C403 922 302 731 302 731 C300 726 293 715 284 715 C276 715 269 726 267 731 C267 731 166 922 166 922 C166 922 172 927 172 927 C172 927 285 773 285 773 L285 773 Z M156 332 C156 332 156 645 156 645 C156 645 282 645 282 645 C358 645 409 583 409 490 C409 395 348 332 257 332 C257 332 156 332 156 332 L156 332 Z " />
<glyph glyph-name="rcaron" unicode="&#x159;" horiz-adv-x="379" d="M52 470 C52 470 55 465 55 465 C72 444 75 429 75 375 C75 375 75 80 75 80 C75 41 67 15 55 15 C55 15 52 15 52 15 C52 15 52 0 52 0 C52 0 75 0 75 0 C75 0 103 0 103 0 C103 0 131 0 131 0 C131 0 155 0 155 0 C155 0 155 15 155 15 C155 15 151 15 151 15 C139 15 131 41 131 80 C131 80 131 380 131 380 C148 431 187 464 233 464 C265 464 304 440 336 440 C352 440 362 451 362 467 C362 490 338 505 277 505 C209 505 153 459 131 388 C131 388 131 390 131 390 C131 390 131 406 131 406 C131 406 130 406 130 406 C130 406 123 500 123 500 C123 500 112 500 112 500 C112 500 52 479 52 479 C52 479 52 470 52 470 L52 470 Z M176 613 C176 613 289 767 289 767 C289 767 295 762 295 762 C295 762 194 571 194 571 C191 566 185 555 176 555 C168 555 161 566 159 571 C159 571 58 762 58 762 C58 762 63 767 63 767 C63 767 176 613 176 613 L176 613 Z " />
<glyph glyph-name="Sacute" unicode="&#x15a;" horiz-adv-x="519" d="M197 691 C197 691 307 819 307 819 C332 849 349 870 349 873 C349 881 326 897 317 897 C314 897 300 875 279 842 C279 842 191 696 191 696 C191 696 197 691 197 691 L197 691 Z M46 133 C46 133 46 78 46 78 C46 78 58 86 58 86 C58 86 58 86 58 86 C58 86 46 78 46 78 C79 28 170 -5 273 -5 C389 -5 467 67 467 175 C467 254 396 328 289 361 C181 395 109 453 109 506 C109 589 163 645 244 645 C267 645 289 641 310 635 C310 635 310 635 310 635 C339 626 376 593 402 553 C407 545 414 535 419 527 C419 527 432 527 432 527 C432 527 432 582 432 582 C432 582 420 574 420 574 C420 574 420 574 420 574 C420 574 432 582 432 582 C399 632 325 665 247 665 C131 665 54 589 54 474 C54 401 123 331 227 299 C337 265 411 202 411 142 C411 66 356 15 273 15 C255 15 237 16 220 19 C220 19 220 19 220 19 C164 27 105 65 72 114 C68 119 63 127 59 133 C59 133 46 133 46 133 L46 133 Z " />
<glyph glyph-name="sacute" unicode="&#x15b;" horiz-adv-x="434" d="M143 531 C143 531 253 659 253 659 C278 689 294 710 294 713 C294 721 272 737 263 737 C260 737 245 715 225 682 C225 682 137 536 137 536 C137 536 143 531 143 531 L143 531 Z M356 399 C356 399 356 433 356 433 C327 476 273 505 220 505 C129 505 69 454 69 377 C69 325 127 266 214 230 C285 202 332 157 332 117 C332 52 289 8 225 8 C210 8 194 9 180 12 C135 22 89 58 64 100 C64 100 53 100 53 100 C53 100 53 62 53 62 C79 22 147 -5 222 -5 C315 -5 378 52 378 137 C378 186 328 239 253 270 C169 304 112 354 112 396 C112 454 155 493 220 493 C235 493 251 490 266 484 C291 472 319 445 337 412 C339 408 342 402 344 399 C344 399 356 399 356 399 L356 399 Z " />
<glyph glyph-name="Scircumflex" unicode="&#x15c;" horiz-adv-x="519" d="M46 133 C46 133 46 78 46 78 C46 78 58 86 58 86 C58 86 58 86 58 86 C58 86 46 78 46 78 C79 28 170 -5 273 -5 C389 -5 467 67 467 175 C467 254 396 328 289 361 C181 395 109 453 109 506 C109 589 163 645 244 645 C267 645 289 641 310 635 C310 635 310 635 310 635 C339 626 376 593 402 553 C407 545 414 535 419 527 C419 527 432 527 432 527 C432 527 432 582 432 582 C432 582 420 574 420 574 C420 574 420 574 420 574 C420 574 432 582 432 582 C399 632 325 665 247 665 C131 665 54 589 54 474 C54 401 123 331 227 299 C337 265 411 202 411 142 C411 66 356 15 273 15 C255 15 237 16 220 19 C220 19 220 19 220 19 C164 27 105 65 72 114 C68 119 63 127 59 133 C59 133 46 133 46 133 L46 133 Z M244 848 C244 848 357 693 357 693 C357 693 362 698 362 698 C362 698 262 889 262 889 C259 894 252 905 244 905 C235 905 229 894 226 889 C226 889 126 698 126 698 C126 698 131 693 131 693 C131 693 244 848 244 848 L244 848 Z " />
<glyph glyph-name="Scedilla" unicode="&#x15e;" horiz-adv-x="519" d="M46 133 C46 133 46 78 46 78 C46 78 58 86 58 86 C58 86 58 86 58 86 C58 86 46 78 46 78 C79 28 170 -5 273 -5 C389 -5 467 67 467 175 C467 254 396 328 289 361 C181 395 109 453 109 506 C109 589 163 645 244 645 C267 645 289 641 310 635 C310 635 310 635 310 635 C339 626 376 593 402 553 C407 545 414 535 419 527 C419 527 432 527 432 527 C432 527 432 582 432 582 C432 582 420 574 420 574 C420 574 420 574 420 574 C420 574 432 582 432 582 C399 632 325 665 247 665 C131 665 54 589 54 474 C54 401 123 331 227 299 C337 265 411 202 411 142 C411 66 356 15 273 15 C255 15 237 16 220 19 C220 19 220 19 220 19 C164 27 105 65 72 114 C68 119 63 127 59 133 C59 133 46 133 46 133 L46 133 Z " />
<glyph glyph-name="scedilla" unicode="&#x15f;" horiz-adv-x="434" d="M356 399 C356 399 356 433 356 433 C327 476 273 505 220 505 C129 505 69 454 69 377 C69 325 127 266 214 230 C285 202 332 157 332 117 C332 52 289 8 225 8 C210 8 194 9 180 12 C135 22 89 58 64 100 C64 100 53 100 53 100 C53 100 53 62 53 62 C79 22 147 -5 222 -5 C315 -5 378 52 378 137 C378 186 328 239 253 270 C169 304 112 354 112 396 C112 454 155 493 220 493 C235 493 251 490 266 484 C291 472 319 445 337 412 C339 408 342 402 344 399 C344 399 356 399 356 399 L356 399 Z " />
<glyph glyph-name="Scaron" unicode="&#x160;" horiz-adv-x="519" d="M46 133 C46 133 46 78 46 78 C46 78 58 86 58 86 C58 86 58 86 58 86 C58 86 46 78 46 78 C79 28 170 -5 273 -5 C389 -5 467 67 467 175 C467 254 396 328 289 361 C181 395 109 453 109 506 C109 589 163 645 244 645 C267 645 289 641 310 635 C310 635 310 635 310 635 C339 626 376 593 402 553 C407 545 414 535 419 527 C419 527 432 527 432 527 C432 527 432 582 432 582 C432 582 420 574 420 574 C420 574 420 574 420 574 C420 574 432 582 432 582 C399 632 325 665 247 665 C131 665 54 589 54 474 C54 401 123 331 227 299 C337 265 411 202 411 142 C411 66 356 15 273 15 C255 15 237 16 220 19 C220 19 220 19 220 19 C164 27 105 65 72 114 C68 119 63 127 59 133 C59 133 46 133 46 133 L46 133 Z M244 772 C244 772 357 927 357 927 C357 927 362 922 362 922 C362 922 262 731 262 731 C259 726 252 715 244 715 C235 715 229 726 226 731 C226 731 126 922 126 922 C126 922 131 927 131 927 C131 927 244 772 244 772 L244 772 Z " />
<glyph glyph-name="scaron" unicode="&#x161;" horiz-adv-x="434" d="M356 399 C356 399 356 433 356 433 C327 476 273 505 220 505 C129 505 69 454 69 377 C69 325 127 266 214 230 C285 202 332 157 332 117 C332 52 289 8 225 8 C210 8 194 9 180 12 C135 22 89 58 64 100 C64 100 53 100 53 100 C53 100 53 62 53 62 C79 22 147 -5 222 -5 C315 -5 378 52 378 137 C378 186 328 239 253 270 C169 304 112 354 112 396 C112 454 155 493 220 493 C235 493 251 490 266 484 C291 472 319 445 337 412 C339 408 342 402 344 399 C344 399 356 399 356 399 L356 399 Z M220 613 C220 613 333 767 333 767 C333 767 338 762 338 762 C338 762 238 571 238 571 C235 566 228 555 220 555 C212 555 205 566 202 571 C202 571 102 762 102 762 C102 762 107 767 107 767 C107 767 220 613 220 613 L220 613 Z " />
<glyph glyph-name="Tcaron" unicode="&#x164;" horiz-adv-x="633" d="M608 592 C606 610 604 633 603 650 C602 653 602 657 602 660 C602 660 587 660 587 660 C587 660 522 660 522 660 C522 660 112 660 112 660 C112 660 47 660 47 660 C47 660 32 660 32 660 C32 657 31 653 31 650 C30 633 28 610 26 592 C26 592 38 592 38 592 C38 592 46 600 46 600 C73 624 122 640 170 640 C170 640 277 640 277 640 C277 640 277 80 277 80 C277 41 269 15 257 15 C257 15 253 15 253 15 C253 15 253 0 253 0 C253 0 277 0 277 0 C277 0 317 0 317 0 C317 0 357 0 357 0 C357 0 381 0 381 0 C381 0 381 15 381 15 C381 15 377 15 377 15 C365 15 357 41 357 80 C357 80 357 640 357 640 C357 640 464 640 464 640 C512 640 561 624 588 600 C588 600 596 592 596 592 C596 592 608 592 608 592 L608 592 Z M317 772 C317 772 430 927 430 927 C430 927 435 922 435 922 C435 922 335 731 335 731 C332 726 325 715 317 715 C308 715 302 726 299 731 C299 731 199 922 199 922 C199 922 204 927 204 927 C204 927 317 772 317 772 L317 772 Z " />
<glyph glyph-name="tcaron" unicode="&#x165;" horiz-adv-x="358" d="M320 500 C320 500 166 500 166 500 C166 500 166 640 166 640 C166 640 156 640 156 640 C156 640 137 575 137 575 C122 526 82 491 35 485 C35 485 32 485 32 485 C32 485 32 478 32 478 C32 478 110 478 110 478 C110 478 110 111 110 111 C110 21 129 -5 198 -5 C253 -5 293 41 331 109 C331 109 326 112 326 112 C295 57 264 20 225 20 C178 20 165 38 165 102 C165 102 166 478 166 478 C166 478 320 478 320 478 C320 478 320 500 320 500 L320 500 Z M436 604 C458 656 472 705 472 711 C472 720 448 723 437 723 C425 723 410 661 401 616 C401 616 368 454 368 454 C368 454 375 452 375 452 C375 452 436 604 436 604 L436 604 Z M138 576 C138 576 139 580 139 580 C139 579 138 578 138 576 L138 576 Z " />
<glyph glyph-name="Utilde" unicode="&#x168;" horiz-adv-x="586" d="M157 755 C157 795 175 821 202 821 C263 821 321 758 381 758 C422 758 450 797 450 855 C450 855 441 855 441 855 C441 819 422 795 393 795 C333 795 275 858 214 858 C174 858 148 817 148 755 C148 755 157 755 157 755 L157 755 Z M485 645 C485 645 490 645 490 645 C504 645 514 615 514 570 C514 570 514 185 514 185 C514 88 458 23 316 23 C194 23 146 91 146 194 C146 194 146 580 146 580 C146 580 146 592 146 592 C147 624 155 645 166 645 C166 645 169 645 169 645 C169 645 169 660 169 660 C169 660 146 660 146 660 C146 660 106 660 106 660 C106 660 66 660 66 660 C66 660 42 660 42 660 C42 660 42 645 42 645 C42 645 46 645 46 645 C58 645 66 619 66 580 C66 580 66 209 66 209 C66 81 133 -5 304 -5 C468 -5 532 69 532 179 C532 179 532 570 532 570 C533 615 542 645 555 645 C555 645 559 645 559 645 C560 645 560 648 559 653 C560 657 560 660 559 660 C559 660 532 660 532 660 C532 660 523 660 523 660 C523 660 514 660 514 660 C514 660 485 660 485 660 C485 660 485 645 485 645 L485 645 Z " />
<glyph glyph-name="utilde" unicode="&#x169;" horiz-adv-x="498" d="M97 595 C97 635 115 661 142 661 C202 661 260 598 321 598 C362 598 390 637 390 695 C390 695 381 695 381 695 C381 659 362 635 333 635 C272 635 214 698 154 698 C114 698 88 657 88 595 C88 595 97 595 97 595 L97 595 Z M456 30 C456 30 453 35 453 35 C436 56 433 70 432 125 C432 125 432 500 432 500 C432 500 405 500 405 500 C405 500 377 500 377 500 C377 500 353 500 353 500 C353 500 353 485 353 485 C353 485 357 485 357 485 C369 485 377 459 377 420 C377 420 377 110 377 110 C377 110 377 101 377 101 C358 59 316 31 239 31 C148 31 101 83 101 161 C101 161 101 500 101 500 C101 500 73 500 73 500 C73 500 45 500 45 500 C45 500 22 500 22 500 C22 500 22 485 22 485 C22 485 25 485 25 485 C37 485 45 459 45 420 C45 420 45 420 45 420 C45 420 46 156 46 156 C46 59 97 -5 195 -5 C292 -5 349 32 377 88 C377 88 377 14 377 14 C377 14 377 0 377 0 C377 0 388 0 388 0 C388 0 456 21 456 21 C456 21 456 30 456 30 L456 30 Z " />
<glyph glyph-name="Umacron" unicode="&#x16a;" horiz-adv-x="586" d="M149 769 C149 769 449 769 449 769 C449 769 449 800 449 800 C449 800 149 800 149 800 C149 800 149 769 149 769 L149 769 Z M485 645 C485 645 490 645 490 645 C504 645 514 615 514 570 C514 570 514 185 514 185 C514 88 458 23 316 23 C194 23 146 91 146 194 C146 194 146 580 146 580 C146 580 146 592 146 592 C147 624 155 645 166 645 C166 645 169 645 169 645 C169 645 169 660 169 660 C169 660 146 660 146 660 C146 660 106 660 106 660 C106 660 66 660 66 660 C66 660 42 660 42 660 C42 660 42 645 42 645 C42 645 46 645 46 645 C58 645 66 619 66 580 C66 580 66 209 66 209 C66 81 133 -5 304 -5 C468 -5 532 69 532 179 C532 179 532 570 532 570 C533 615 542 645 555 645 C555 645 559 645 559 645 C560 645 560 648 559 653 C560 657 560 660 559 660 C559 660 532 660 532 660 C532 660 523 660 523 660 C523 660 514 660 514 660 C514 660 485 660 485 660 C485 660 485 645 485 645 L485 645 Z " />
<glyph glyph-name="umacron" unicode="&#x16b;" horiz-adv-x="498" d="M89 609 C89 609 389 609 389 609 C389 609 389 640 389 640 C389 640 89 640 89 640 C89 640 89 609 89 609 L89 609 Z M456 30 C456 30 453 35 453 35 C436 56 433 70 432 125 C432 125 432 500 432 500 C432 500 405 500 405 500 C405 500 377 500 377 500 C377 500 353 500 353 500 C353 500 353 485 353 485 C353 485 357 485 357 485 C369 485 377 459 377 420 C377 420 377 110 377 110 C377 110 377 101 377 101 C358 59 316 31 239 31 C148 31 101 83 101 161 C101 161 101 500 101 500 C101 500 73 500 73 500 C73 500 45 500 45 500 C45 500 22 500 22 500 C22 500 22 485 22 485 C22 485 25 485 25 485 C37 485 45 459 45 420 C45 420 45 420 45 420 C45 420 46 156 46 156 C46 59 97 -5 195 -5 C292 -5 349 32 377 88 C377 88 377 14 377 14 C377 14 377 0 377 0 C377 0 388 0 388 0 C388 0 456 21 456 21 C456 21 456 30 456 30 L456 30 Z " />
<glyph glyph-name="Ubreve" unicode="&#x16c;" horiz-adv-x="586" d="M182 872 C195 808 241 765 299 765 C357 765 403 808 416 872 C416 872 406 873 406 873 C398 831 355 802 299 802 C243 802 200 831 192 873 C192 873 182 872 182 872 L182 872 Z M485 645 C485 645 490 645 490 645 C504 645 514 615 514 570 C514 570 514 185 514 185 C514 88 458 23 316 23 C194 23 146 91 146 194 C146 194 146 580 146 580 C146 580 146 592 146 592 C147 624 155 645 166 645 C166 645 169 645 169 645 C169 645 169 660 169 660 C169 660 146 660 146 660 C146 660 106 660 106 660 C106 660 66 660 66 660 C66 660 42 660 42 660 C42 660 42 645 42 645 C42 645 46 645 46 645 C58 645 66 619 66 580 C66 580 66 209 66 209 C66 81 133 -5 304 -5 C468 -5 532 69 532 179 C532 179 532 570 532 570 C533 615 542 645 555 645 C555 645 559 645 559 645 C560 645 560 648 559 653 C560 657 560 660 559 660 C559 660 532 660 532 660 C532 660 523 660 523 660 C523 660 514 660 514 660 C514 660 485 660 485 660 C485 660 485 645 485 645 L485 645 Z " />
<glyph glyph-name="ubreve" unicode="&#x16d;" horiz-adv-x="498" d="M122 712 C135 648 181 605 239 605 C297 605 343 648 356 712 C356 712 346 713 346 713 C338 671 295 642 239 642 C183 642 140 671 132 713 C132 713 122 712 122 712 L122 712 Z M456 30 C456 30 453 35 453 35 C436 56 433 70 432 125 C432 125 432 500 432 500 C432 500 405 500 405 500 C405 500 377 500 377 500 C377 500 353 500 353 500 C353 500 353 485 353 485 C353 485 357 485 357 485 C369 485 377 459 377 420 C377 420 377 110 377 110 C377 110 377 101 377 101 C358 59 316 31 239 31 C148 31 101 83 101 161 C101 161 101 500 101 500 C101 500 73 500 73 500 C73 500 45 500 45 500 C45 500 22 500 22 500 C22 500 22 485 22 485 C22 485 25 485 25 485 C37 485 45 459 45 420 C45 420 45 420 45 420 C45 420 46 156 46 156 C46 59 97 -5 195 -5 C292 -5 349 32 377 88 C377 88 377 14 377 14 C377 14 377 0 377 0 C377 0 388 0 388 0 C388 0 456 21 456 21 C456 21 456 30 456 30 L456 30 Z " />
<glyph glyph-name="Uring" unicode="&#x16e;" horiz-adv-x="586" d="M299 707 C256 707 220 744 220 788 C220 836 252 868 299 868 C346 868 378 836 378 788 C378 744 342 707 299 707 L299 707 Z M205 788 C205 738 248 695 299 695 C350 695 393 738 393 788 C393 843 355 880 299 880 C243 880 205 843 205 788 L205 788 Z M485 645 C485 645 490 645 490 645 C504 645 514 615 514 570 C514 570 514 185 514 185 C514 88 458 23 316 23 C194 23 146 91 146 194 C146 194 146 580 146 580 C146 580 146 592 146 592 C147 624 155 645 166 645 C166 645 169 645 169 645 C169 645 169 660 169 660 C169 660 146 660 146 660 C146 660 106 660 106 660 C106 660 66 660 66 660 C66 660 42 660 42 660 C42 660 42 645 42 645 C42 645 46 645 46 645 C58 645 66 619 66 580 C66 580 66 209 66 209 C66 81 133 -5 304 -5 C468 -5 532 69 532 179 C532 179 532 570 532 570 C533 615 542 645 555 645 C555 645 559 645 559 645 C560 645 560 648 559 653 C560 657 560 660 559 660 C559 660 532 660 532 660 C532 660 523 660 523 660 C523 660 514 660 514 660 C514 660 485 660 485 660 C485 660 485 645 485 645 L485 645 Z " />
<glyph glyph-name="uring" unicode="&#x16f;" horiz-adv-x="498" d="M239 547 C196 547 160 584 160 628 C160 676 192 708 239 708 C286 708 318 676 318 628 C318 584 282 547 239 547 L239 547 Z M145 628 C145 578 188 535 239 535 C290 535 333 578 333 628 C333 683 295 720 239 720 C183 720 145 683 145 628 L145 628 Z M456 30 C456 30 453 35 453 35 C436 56 433 70 432 125 C432 125 432 500 432 500 C432 500 405 500 405 500 C405 500 377 500 377 500 C377 500 353 500 353 500 C353 500 353 485 353 485 C353 485 357 485 357 485 C369 485 377 459 377 420 C377 420 377 110 377 110 C377 110 377 101 377 101 C358 59 316 31 239 31 C148 31 101 83 101 161 C101 161 101 500 101 500 C101 500 73 500 73 500 C73 500 45 500 45 500 C45 500 22 500 22 500 C22 500 22 485 22 485 C22 485 25 485 25 485 C37 485 45 459 45 420 C45 420 45 420 45 420 C45 420 46 156 46 156 C46 59 97 -5 195 -5 C292 -5 349 32 377 88 C377 88 377 14 377 14 C377 14 377 0 377 0 C377 0 388 0 388 0 C388 0 456 21 456 21 C456 21 456 30 456 30 L456 30 Z " />
<glyph glyph-name="Wcircumflex" unicode="&#x174;" horiz-adv-x="878" d="M864 660 C864 660 845 660 845 660 C845 660 836 660 836 660 C836 660 826 660 826 660 C826 660 793 660 793 660 C793 660 793 645 793 645 C793 645 797 645 797 645 C812 645 814 619 803 580 C803 580 803 580 803 580 C803 580 634 -15 634 -15 C634 -15 661 82 661 82 C661 82 472 670 472 670 C472 670 457 670 457 670 C457 670 281 76 281 76 C281 76 133 580 133 580 C133 580 134 580 134 580 C122 619 123 645 135 645 C135 645 139 645 139 645 C139 645 139 660 139 660 C139 660 110 660 110 660 C110 660 66 660 66 660 C66 660 23 660 23 660 C23 660 9 660 9 660 C9 660 9 645 9 645 C9 645 11 645 11 645 C21 645 37 619 50 580 C50 580 50 580 50 580 C50 580 254 -15 254 -15 C254 -15 270 -15 270 -15 C270 -15 472 670 472 670 C472 670 442 567 442 567 C442 567 634 -15 634 -15 C634 -15 649 -15 649 -15 C649 -15 822 580 822 580 C822 580 822 580 822 580 C833 619 849 645 861 645 C861 645 864 645 864 645 C864 645 864 660 864 660 L864 660 Z M465 847 C465 847 577 693 577 693 C577 693 583 698 583 698 C583 698 482 889 482 889 C480 894 473 905 464 905 C456 905 449 894 447 889 C447 889 346 698 346 698 C346 698 352 693 352 693 C352 693 465 847 465 847 L465 847 Z " />
<glyph glyph-name="Ycircumflex" unicode="&#x176;" horiz-adv-x="572" d="M355 15 C355 15 351 15 351 15 C339 15 331 41 331 80 C331 80 331 308 331 308 C331 308 330 308 330 308 C330 308 503 591 503 591 C524 624 543 645 553 645 C553 645 556 645 556 645 C556 645 556 660 556 660 C556 660 545 660 545 660 C545 660 535 660 535 660 C535 660 526 660 526 660 C526 660 491 660 491 660 C491 660 491 645 491 645 C491 645 495 645 495 645 C507 645 498 614 470 566 C470 566 466 560 466 560 C466 560 315 308 315 308 C315 308 304 308 304 308 C304 308 172 580 172 580 C172 580 172 580 172 580 C153 619 147 645 158 645 C158 645 162 645 162 645 C162 645 162 660 162 660 C162 660 133 660 133 660 C133 660 85 660 85 660 C85 660 37 660 37 660 C37 660 28 660 28 660 C28 660 28 645 28 645 C28 645 31 645 31 645 C40 645 60 619 81 580 C81 580 81 580 81 580 C81 580 251 271 251 271 C251 271 251 80 251 80 C251 41 243 15 231 15 C231 15 227 15 227 15 C227 15 227 0 227 0 C227 0 251 0 251 0 C251 0 291 0 291 0 C291 0 331 0 331 0 C331 0 355 0 355 0 C355 0 355 15 355 15 L355 15 Z M291 847 C291 847 404 693 404 693 C404 693 409 698 409 698 C409 698 309 889 309 889 C306 894 299 905 291 905 C283 905 276 894 273 889 C273 889 173 698 173 698 C173 698 178 693 178 693 C178 693 291 847 291 847 L291 847 Z " />
<glyph glyph-name="Ydieresis" unicode="&#x178;" horiz-adv-x="572" d="M381 730 C401 730 415 744 415 764 C415 784 401 798 381 798 C361 798 347 784 347 764 C347 744 361 730 381 730 L381 730 Z M201 730 C221 730 235 744 235 764 C235 784 221 798 201 798 C181 798 167 784 167 764 C167 744 181 730 201 730 L201 730 Z M355 15 C355 15 351 15 351 15 C339 15 331 41 331 80 C331 80 331 308 331 308 C331 308 330 308 330 308 C330 308 503 591 503 591 C524 624 543 645 553 645 C553 645 556 645 556 645 C556 645 556 660 556 660 C556 660 545 660 545 660 C545 660 535 660 535 660 C535 660 526 660 526 660 C526 660 491 660 491 660 C491 660 491 645 491 645 C491 645 495 645 495 645 C507 645 498 614 470 566 C470 566 466 560 466 560 C466 560 315 308 315 308 C315 308 304 308 304 308 C304 308 172 580 172 580 C172 580 172 580 172 580 C153 619 147 645 158 645 C158 645 162 645 162 645 C162 645 162 660 162 660 C162 660 133 660 133 660 C133 660 85 660 85 660 C85 660 37 660 37 660 C37 660 28 660 28 660 C28 660 28 645 28 645 C28 645 31 645 31 645 C40 645 60 619 81 580 C81 580 81 580 81 580 C81 580 251 271 251 271 C251 271 251 80 251 80 C251 41 243 15 231 15 C231 15 227 15 227 15 C227 15 227 0 227 0 C227 0 251 0 251 0 C251 0 291 0 291 0 C291 0 331 0 331 0 C331 0 355 0 355 0 C355 0 355 15 355 15 L355 15 Z " />
<glyph glyph-name="Zacute" unicode="&#x179;" horiz-adv-x="590" d="M333 691 C333 691 444 819 444 819 C468 849 485 870 485 873 C485 881 463 897 453 897 C450 897 435 875 415 842 C415 842 327 696 327 696 C327 696 333 691 333 691 L333 691 Z M517 10 C520 27 524 50 526 66 C526 66 523 66 523 66 C514 68 508 68 508 68 C508 68 501 61 501 61 C479 37 428 21 373 21 C373 21 155 21 155 21 C155 21 536 660 536 660 C536 660 491 660 491 660 C491 660 445 660 445 660 C445 660 198 660 198 660 C198 660 133 660 133 660 C133 660 118 660 118 660 C117 657 116 653 115 650 C111 636 106 616 102 602 C102 602 114 602 114 602 C114 602 123 608 123 608 C152 627 204 640 252 640 C252 640 433 640 433 640 C433 640 53 0 53 0 C53 0 97 0 97 0 C97 0 142 0 142 0 C142 0 435 0 435 0 C435 0 514 0 514 0 C514 0 515 0 515 0 C516 3 516 7 517 10 L517 10 Z " />
<glyph glyph-name="zacute" unicode="&#x17a;" horiz-adv-x="497" d="M189 531 C189 531 300 659 300 659 C325 689 341 710 341 713 C341 721 319 737 309 737 C306 737 292 715 271 682 C271 682 183 536 183 536 C183 536 189 531 189 531 L189 531 Z M284 13 C284 13 284 13 284 13 C284 13 135 12 135 12 C135 12 441 500 441 500 C441 500 409 500 409 500 C409 500 377 500 377 500 C377 500 158 500 158 500 C158 500 92 500 92 500 C92 500 78 500 78 500 C77 498 77 496 76 494 C73 483 69 469 66 458 C66 458 78 458 78 458 C78 458 87 463 87 463 C115 477 166 487 214 487 C214 487 214 487 214 487 C214 487 369 488 369 488 C369 488 62 0 62 0 C62 0 94 0 94 0 C94 0 127 0 127 0 C127 0 347 0 347 0 C347 0 425 0 425 0 C425 0 427 0 427 0 C428 2 428 4 428 6 C431 22 435 42 437 58 C437 58 434 58 434 58 C425 59 419 60 419 60 C419 60 412 53 412 53 C390 28 339 12 284 13 C284 13 284 13 284 13 L284 13 Z " />
<glyph glyph-name="Zdotaccent" unicode="&#x17b;" horiz-adv-x="590" d="M334 730 C355 730 368 744 368 764 C368 784 355 798 334 798 C314 798 301 784 301 764 C301 744 314 730 334 730 L334 730 Z M517 10 C520 27 524 50 526 66 C526 66 523 66 523 66 C514 68 508 68 508 68 C508 68 501 61 501 61 C479 37 428 21 373 21 C373 21 155 21 155 21 C155 21 536 660 536 660 C536 660 491 660 491 660 C491 660 445 660 445 660 C445 660 198 660 198 660 C198 660 133 660 133 660 C133 660 118 660 118 660 C117 657 116 653 115 650 C111 636 106 616 102 602 C102 602 114 602 114 602 C114 602 123 608 123 608 C152 627 204 640 252 640 C252 640 433 640 433 640 C433 640 53 0 53 0 C53 0 97 0 97 0 C97 0 142 0 142 0 C142 0 435 0 435 0 C435 0 514 0 514 0 C514 0 515 0 515 0 C516 3 516 7 517 10 L517 10 Z " />
<glyph glyph-name="zdotaccent" unicode="&#x17c;" horiz-adv-x="497" d="M267 570 C287 570 300 584 300 604 C300 624 287 638 267 638 C246 638 233 624 233 604 C233 584 246 570 267 570 L267 570 Z M284 13 C284 13 284 13 284 13 C284 13 135 12 135 12 C135 12 441 500 441 500 C441 500 409 500 409 500 C409 500 377 500 377 500 C377 500 158 500 158 500 C158 500 92 500 92 500 C92 500 78 500 78 500 C77 498 77 496 76 494 C73 483 69 469 66 458 C66 458 78 458 78 458 C78 458 87 463 87 463 C115 477 166 487 214 487 C214 487 214 487 214 487 C214 487 369 488 369 488 C369 488 62 0 62 0 C62 0 94 0 94 0 C94 0 127 0 127 0 C127 0 347 0 347 0 C347 0 425 0 425 0 C425 0 427 0 427 0 C428 2 428 4 428 6 C431 22 435 42 437 58 C437 58 434 58 434 58 C425 59 419 60 419 60 C419 60 412 53 412 53 C390 28 339 12 284 13 C284 13 284 13 284 13 L284 13 Z " />
<glyph glyph-name="Zcaron" unicode="&#x17d;" horiz-adv-x="590" d="M335 773 C335 773 447 927 447 927 C447 927 453 922 453 922 C453 922 352 731 352 731 C350 726 343 715 334 715 C326 715 319 726 317 731 C317 731 216 922 216 922 C216 922 222 927 222 927 C222 927 335 773 335 773 L335 773 Z M517 10 C520 27 524 50 526 66 C526 66 523 66 523 66 C514 68 508 68 508 68 C508 68 501 61 501 61 C479 37 428 21 373 21 C373 21 155 21 155 21 C155 21 536 660 536 660 C536 660 491 660 491 660 C491 660 445 660 445 660 C445 660 198 660 198 660 C198 660 133 660 133 660 C133 660 118 660 118 660 C117 657 116 653 115 650 C111 636 106 616 102 602 C102 602 114 602 114 602 C114 602 123 608 123 608 C152 627 204 640 252 640 C252 640 433 640 433 640 C433 640 53 0 53 0 C53 0 97 0 97 0 C97 0 142 0 142 0 C142 0 435 0 435 0 C435 0 514 0 514 0 C514 0 515 0 515 0 C516 3 516 7 517 10 L517 10 Z " />
<glyph glyph-name="zcaron" unicode="&#x17e;" horiz-adv-x="497" d="M284 13 C284 13 284 13 284 13 C284 13 135 12 135 12 C135 12 441 500 441 500 C441 500 409 500 409 500 C409 500 377 500 377 500 C377 500 158 500 158 500 C158 500 92 500 92 500 C92 500 78 500 78 500 C77 498 77 496 76 494 C73 483 69 469 66 458 C66 458 78 458 78 458 C78 458 87 463 87 463 C115 477 166 487 214 487 C214 487 214 487 214 487 C214 487 369 488 369 488 C369 488 62 0 62 0 C62 0 94 0 94 0 C94 0 127 0 127 0 C127 0 347 0 347 0 C347 0 425 0 425 0 C425 0 427 0 427 0 C428 2 428 4 428 6 C431 22 435 42 437 58 C437 58 434 58 434 58 C425 59 419 60 419 60 C419 60 412 53 412 53 C390 28 339 12 284 13 C284 13 284 13 284 13 L284 13 Z M267 613 C267 613 379 767 379 767 C379 767 385 762 385 762 C385 762 284 571 284 571 C282 566 275 555 267 555 C258 555 251 566 249 571 C249 571 148 762 148 762 C148 762 154 767 154 767 C154 767 267 613 267 613 L267 613 Z " />
<glyph glyph-name="SmallLetterOwithogon" unicode="&#x1eb;" horiz-adv-x="712" d="M721 -51 C721 -51 716 -47 716 -47 C693 -74 639 -92 580 -92 C494 -92 424 -58 367 -5 C557 -2 656 127 656 277 C656 429 555 558 360 558 C165 558 64 429 64 277 C64 128 161 0 348 -5 C424 -79 503 -128 574 -128 C623 -128 682 -97 721 -51 L721 -51 Z M360 13 C217 13 143 134 143 277 C143 419 217 540 360 540 C503 540 577 419 577 277 C577 134 503 13 360 13 L360 13 Z " />
<glyph glyph-name="CapitalLetterAwithdo" unicode="&#x226;" horiz-adv-x="593" d="M280 730 C300 730 313 744 313 764 C313 784 300 798 280 798 C259 798 246 784 246 764 C246 744 259 730 280 730 L280 730 Z M574 15 C574 15 571 15 571 15 C558 15 539 41 524 80 C524 80 523 80 523 80 C523 80 289 675 289 675 C289 675 270 675 270 675 C270 675 61 78 61 78 C47 40 31 15 19 15 C19 15 15 15 15 15 C15 15 15 0 15 0 C15 0 34 0 34 0 C34 0 47 0 47 0 C47 0 60 0 60 0 C60 0 95 0 95 0 C95 0 95 15 95 15 C95 15 91 15 91 15 C76 15 76 42 89 84 C89 84 140 235 140 235 C140 235 379 235 379 235 C379 235 443 66 443 66 C453 35 454 15 443 15 C443 15 439 15 439 15 C439 15 439 0 439 0 C439 0 468 0 468 0 C468 0 512 0 512 0 C512 0 555 0 555 0 C555 0 574 0 574 0 C574 0 574 15 574 15 L574 15 Z M372 255 C372 255 147 255 147 255 C147 255 253 569 253 569 C253 569 372 255 372 255 L372 255 Z " />
<glyph glyph-name="LETTERSMALLCAPITALG" unicode="&#x262;" horiz-adv-x="709" d="M611 260 C611 260 587 260 587 260 C587 260 555 260 555 260 C555 260 522 260 522 260 C522 260 498 260 498 260 C498 260 498 245 498 245 C498 245 502 245 502 245 C514 245 522 219 522 180 C522 180 522 46 522 46 C469 25 408 13 357 13 C229 13 143 118 143 277 C143 435 229 540 357 540 C381 540 405 538 428 533 C478 519 528 482 557 435 C561 429 566 421 570 414 C570 414 583 414 583 414 C583 414 583 464 583 464 C546 520 455 558 357 558 C181 558 64 445 64 277 C64 108 181 -5 357 -5 C431 -5 523 19 587 56 C587 56 587 180 587 180 C587 219 595 245 607 245 C607 245 611 245 611 245 C611 245 611 260 611 260 L611 260 Z " />
<glyph glyph-name="LETTERSMALLCAPITALI" unicode="&#x26a;" horiz-adv-x="208" d="M161 553 C143 554 119 554 102 553 C84 554 60 554 42 553 C42 553 42 538 42 538 C42 538 45 538 45 538 C58 539 66 513 66 473 C66 473 66 80 66 80 C66 41 58 15 45 15 C45 15 42 15 42 15 C42 15 42 0 42 0 C42 0 66 0 66 0 C66 0 102 0 102 0 C102 0 137 0 137 0 C137 0 161 0 161 0 C161 0 161 15 161 15 C161 15 158 15 158 15 C146 15 138 41 137 80 C137 80 137 473 137 473 C138 513 146 539 158 538 C158 538 161 538 161 538 C161 538 161 553 161 553 L161 553 Z " />
<glyph glyph-name="LETTERSMALLCAPITALN" unicode="&#x274;" horiz-adv-x="551" d="M511 553 C501 554 487 554 477 553 C466 554 452 554 442 553 C442 553 442 538 442 538 C442 538 446 538 446 538 C458 539 466 513 466 473 C466 473 466 86 466 86 C466 86 142 553 142 553 C142 553 94 530 94 530 C94 530 94 530 94 530 C94 530 142 553 142 553 C142 553 94 553 94 553 C94 553 83 553 83 553 C73 554 59 554 49 553 C49 553 49 538 49 538 C49 538 52 538 52 538 C64 539 72 513 72 473 C72 473 72 80 72 80 C72 41 64 15 52 15 C52 15 49 15 49 15 C49 15 49 0 49 0 C49 0 72 0 72 0 C72 0 83 0 83 0 C83 0 94 0 94 0 C94 0 118 0 118 0 C118 0 118 15 118 15 C118 15 114 15 114 15 C102 15 94 41 94 80 C94 80 94 499 94 499 C94 499 433 10 433 10 C433 10 448 -11 448 -11 C448 -11 487 -11 487 -11 C487 -11 487 36 487 36 C487 36 487 473 487 473 C488 513 496 539 508 538 C508 538 511 538 511 538 C511 538 511 553 511 553 L511 553 Z " />
<glyph glyph-name="LETTERSMALLCAPITALR" unicode="&#x280;" horiz-adv-x="525" d="M54 538 C54 538 58 538 58 538 C70 539 78 513 78 473 C78 473 78 80 78 80 C78 41 70 15 58 15 C58 15 54 15 54 15 C54 15 54 0 54 0 C54 0 78 0 78 0 C78 0 114 0 114 0 C114 0 150 0 150 0 C150 0 173 0 173 0 C173 0 173 15 173 15 C173 15 170 15 170 15 C159 15 151 36 150 68 C150 68 150 80 150 80 C150 80 150 265 150 265 C150 265 202 265 202 265 C202 265 343 106 343 106 C432 4 438 0 497 0 C497 0 519 0 519 0 C519 0 519 11 519 11 C519 11 514 11 514 11 C494 11 490 14 418 95 C418 95 266 268 266 268 C364 282 426 336 426 412 C426 497 349 553 234 553 C234 553 150 553 150 553 C150 553 114 553 114 553 C96 554 72 554 54 553 C54 553 54 538 54 538 L54 538 Z M217 279 C217 279 190 279 190 279 C190 279 150 279 150 279 C150 279 150 539 150 539 C150 539 234 539 234 539 C304 539 351 488 351 412 C351 332 297 279 217 279 L217 279 Z " />
<glyph glyph-name="LETTERSMALLCAPITALY" unicode="&#x28f;" horiz-adv-x="504" d="M318 15 C318 15 315 15 315 15 C303 15 294 41 294 80 C294 80 294 261 294 261 C294 261 427 473 427 473 C427 473 427 473 427 473 C452 513 475 539 485 538 C485 538 488 538 488 538 C488 538 488 553 488 553 C482 554 474 554 469 553 C456 554 439 554 426 553 C425 553 425 553 425 553 C425 553 425 553 426 553 C426 553 426 553 426 553 C426 552 426 550 425 546 C426 542 426 539 425 538 C425 538 429 538 429 538 C440 539 433 513 410 472 C410 472 280 261 280 261 C280 261 265 261 265 261 C265 261 160 483 160 483 C144 517 141 539 151 538 C151 538 154 538 154 538 C155 539 155 542 154 546 C155 551 155 554 154 553 C133 554 104 554 83 553 C67 554 46 554 31 553 C30 554 30 551 31 546 C30 542 30 539 31 538 C31 538 33 538 33 538 C41 539 59 518 79 484 C79 484 222 229 222 229 C222 229 222 80 222 80 C222 41 214 15 202 15 C202 15 199 15 199 15 C199 15 199 0 199 0 C199 0 222 0 222 0 C222 0 258 0 258 0 C258 0 294 0 294 0 C294 0 318 0 318 0 C318 0 318 15 318 15 L318 15 Z " />
<glyph glyph-name="LETTERSMALLCAPITALB" unicode="&#x299;" horiz-adv-x="503" d="M54 538 C54 538 58 538 58 538 C70 539 78 513 78 473 C78 473 78 80 78 80 C78 41 70 15 58 15 C58 15 54 15 54 15 C54 15 54 0 54 0 C54 0 78 0 78 0 C78 0 114 0 114 0 C114 0 150 0 150 0 C150 0 255 0 255 0 C388 0 476 61 476 152 C476 229 403 284 288 298 C371 314 423 362 423 427 C423 502 347 553 234 553 C234 553 150 553 150 553 C150 553 114 553 114 553 C96 554 72 554 54 553 C54 553 54 538 54 538 L54 538 Z M236 301 C233 301 231 301 229 301 C229 301 203 300 203 300 C203 300 150 300 150 300 C150 300 150 539 150 539 C150 539 234 539 234 539 C304 539 351 494 351 427 C351 357 305 308 236 301 C236 301 236 301 236 301 L236 301 Z M150 290 C150 290 213 290 213 290 C326 290 401 235 401 152 C401 69 340 14 249 14 C249 14 150 14 150 14 C150 14 150 290 150 290 L150 290 Z " />
<glyph glyph-name="LETTERSMALLCAPITALH" unicode="&#x29c;" horiz-adv-x="621" d="M575 553 C557 554 533 554 515 553 C497 552 473 554 456 553 C456 553 456 538 456 538 C456 538 459 538 459 538 C471 539 479 513 479 473 C479 473 479 302 479 302 C479 302 140 302 140 302 C140 302 140 473 140 473 C140 513 148 539 160 538 C160 538 164 538 164 538 C164 538 164 553 164 553 C146 554 122 554 104 553 C86 552 62 554 44 553 C44 553 44 538 44 538 C44 538 48 538 48 538 C60 539 68 513 68 473 C68 473 68 80 68 80 C68 41 60 15 48 15 C48 15 44 15 44 15 C44 15 44 0 44 0 C44 0 68 0 68 0 C68 0 104 0 104 0 C104 0 140 0 140 0 C140 0 164 0 164 0 C164 0 164 15 164 15 C164 15 160 15 160 15 C148 15 140 41 140 80 C140 80 140 284 140 284 C140 284 479 284 479 284 C479 284 479 80 479 80 C479 41 471 15 459 15 C459 15 456 15 456 15 C456 15 456 0 456 0 C456 0 479 0 479 0 C479 0 515 0 515 0 C515 0 551 0 551 0 C551 0 575 0 575 0 C575 0 575 15 575 15 C575 15 571 15 571 15 C559 15 551 41 551 80 C551 80 551 473 551 473 C551 513 559 539 571 538 C571 538 575 538 575 538 C575 538 575 553 575 553 L575 553 Z " />
<glyph glyph-name="LETTERSMALLCAPITALL" unicode="&#x29f;" horiz-adv-x="460" d="M384 66 C384 66 377 58 377 58 C354 34 303 18 249 18 C249 18 140 18 140 18 C140 18 140 473 140 473 C140 513 148 539 160 538 C160 538 164 538 164 538 C164 538 164 553 164 553 C146 554 122 554 104 553 C86 552 62 554 44 553 C44 553 44 538 44 538 C44 538 48 538 48 538 C60 539 68 513 68 473 C68 473 68 80 68 80 C68 41 60 15 48 15 C48 15 44 15 44 15 C44 15 44 0 44 0 C44 0 68 0 68 0 C68 0 104 0 104 0 C104 0 140 0 140 0 C140 0 311 0 311 0 C311 0 390 0 390 0 C390 0 391 0 391 0 C392 2 392 6 393 9 C396 25 400 47 402 63 C396 64 384 66 384 66 L384 66 Z " />
<glyph glyph-name="LETTERSMALLCAPITALA" unicode="&#x1d00;" horiz-adv-x="524" d="M506 15 C506 15 502 15 502 15 C490 15 474 35 460 67 C460 67 256 566 256 566 C256 566 238 566 238 566 C238 566 59 70 59 70 C46 37 31 15 19 15 C19 15 16 15 16 15 C16 15 16 0 16 0 C16 0 34 0 34 0 C34 0 46 0 46 0 C46 0 58 0 58 0 C58 0 93 0 93 0 C93 0 93 15 93 15 C93 15 89 15 89 15 C75 15 74 41 86 81 C86 81 127 197 127 197 C127 197 331 197 331 197 C331 197 384 61 384 61 C393 33 393 15 383 15 C383 15 379 15 379 15 C379 15 379 0 379 0 C379 0 408 0 408 0 C408 0 448 0 448 0 C448 0 487 0 487 0 C487 0 506 0 506 0 C506 0 506 15 506 15 L506 15 Z M324 215 C324 215 133 215 133 215 C133 215 223 472 223 472 C223 472 324 215 324 215 L324 215 Z " />
<glyph glyph-name="LETTERSMALLCAPITALC" unicode="&#x1d04;" horiz-adv-x="670" d="M603 414 C603 414 603 464 603 464 C566 520 472 558 368 558 C186 558 64 445 64 277 C64 108 186 -5 368 -5 C472 -5 566 33 603 89 C603 89 603 139 603 139 C603 139 590 139 590 139 C586 133 581 125 577 118 C543 64 477 25 407 15 C394 14 381 13 368 13 C233 13 143 118 143 277 C143 435 233 540 368 540 C397 540 425 537 451 531 C501 517 549 480 577 435 C581 429 586 421 590 414 C590 414 603 414 603 414 L603 414 Z " />
<glyph glyph-name="LETTERSMALLCAPITALD" unicode="&#x1d05;" horiz-adv-x="599" d="M54 538 C54 538 58 538 58 538 C70 539 78 513 78 473 C78 473 78 80 78 80 C78 41 70 15 58 15 C58 15 54 15 54 15 C54 15 54 0 54 0 C54 0 78 0 78 0 C78 0 114 0 114 0 C114 0 150 0 150 0 C150 0 257 0 257 0 C429 0 543 111 543 277 C543 442 418 553 230 553 C230 553 150 553 150 553 C150 553 114 553 114 553 C96 554 72 554 54 553 C54 553 54 538 54 538 L54 538 Z M150 14 C150 14 150 539 150 539 C150 539 230 539 230 539 C375 539 471 434 471 277 C471 119 385 14 257 14 C257 14 150 14 150 14 L150 14 Z " />
<glyph glyph-name="LETTERSMALLCAPITALE" unicode="&#x1d07;" horiz-adv-x="460" d="M325 259 C325 259 325 286 325 286 C325 286 325 295 325 295 C325 295 325 304 325 304 C325 304 325 328 325 328 C325 328 313 328 313 328 C313 328 309 324 309 324 C298 312 256 304 205 304 C205 304 140 304 140 304 C140 304 140 535 140 535 C140 535 232 535 232 535 C292 535 347 521 369 499 C369 499 376 492 376 492 C376 492 387 492 387 492 C387 492 387 544 387 544 C387 544 387 553 387 553 C387 554 384 554 379 553 C377 554 374 554 372 553 C353 554 327 554 307 553 C307 553 140 553 140 553 C140 553 104 553 104 553 C86 554 62 554 44 553 C44 553 44 538 44 538 C44 538 48 538 48 538 C60 539 68 513 68 473 C68 473 68 80 68 80 C68 41 60 15 48 15 C48 15 44 15 44 15 C44 15 44 0 44 0 C44 0 68 0 68 0 C68 0 104 0 104 0 C104 0 140 0 140 0 C140 0 311 0 311 0 C311 0 390 0 390 0 C390 0 391 0 391 0 C392 2 392 6 393 9 C396 25 399 45 402 61 C402 61 391 61 391 61 C391 61 383 54 383 54 C357 33 299 18 239 18 C239 18 140 18 140 18 C140 18 140 286 140 286 C140 286 205 286 205 286 C256 286 298 277 309 263 C309 263 313 259 313 259 C313 259 325 259 325 259 L325 259 Z " />
<glyph glyph-name="LETTERSMALLCAPITALJ" unicode="&#x1d0a;" horiz-adv-x="279" d="M232 553 C215 554 191 554 172 553 C155 554 131 554 113 553 C113 553 113 538 113 538 C113 538 116 538 116 538 C129 539 137 513 137 473 C137 473 137 168 137 168 C137 48 126 1 97 1 C79 1 61 21 54 50 C50 63 40 72 29 72 C12 72 3 63 7 50 C16 14 47 -10 84 -10 C174 -10 209 57 209 228 C209 228 208 479 208 479 C210 516 218 539 229 538 C229 538 232 538 232 538 C232 538 232 553 232 553 L232 553 Z " />
<glyph glyph-name="LETTERSMALLCAPITALK" unicode="&#x1d0b;" horiz-adv-x="541" d="M378 538 C378 538 379 538 379 538 C383 539 368 521 340 491 C340 491 188 337 188 337 C188 337 188 337 188 337 C188 337 150 298 150 298 C150 298 150 473 150 473 C150 473 150 485 150 485 C151 518 159 539 170 538 C170 538 173 538 173 538 C173 538 173 553 173 553 C155 554 131 554 114 553 C96 554 72 554 54 553 C54 553 54 538 54 538 C54 538 58 538 58 538 C70 539 78 513 78 473 C78 473 78 80 78 80 C78 41 70 15 58 15 C58 15 54 15 54 15 C54 15 54 0 54 0 C54 0 78 0 78 0 C78 0 114 0 114 0 C114 0 150 0 150 0 C150 0 173 0 173 0 C173 0 173 15 173 15 C173 15 170 15 170 15 C159 15 151 36 150 68 C150 68 150 80 150 80 C150 80 150 298 150 298 C150 298 161 283 161 283 C161 283 162 284 162 284 C162 284 261 170 261 170 C371 44 439 -5 503 -5 C503 -5 525 -5 525 -5 C525 -5 525 6 525 6 C525 6 520 6 520 6 C489 6 427 63 299 210 C299 210 200 323 200 323 C200 323 345 473 345 473 C345 473 346 473 346 473 C383 513 416 539 429 538 C429 538 432 538 432 538 C432 538 432 553 432 553 C426 554 418 554 412 553 C402 554 388 554 378 553 C378 553 378 538 378 538 L378 538 Z " />
<glyph glyph-name="LETTERSMALLCAPITALM" unicode="&#x1d0d;" horiz-adv-x="683" d="M672 15 C672 15 669 15 669 15 C657 15 647 41 645 80 C645 80 624 473 624 473 C621 513 628 539 639 538 C639 538 642 538 642 538 C642 538 643 542 642 546 C643 551 642 553 642 553 C626 554 604 554 587 553 C587 553 574 553 574 553 C574 553 555 553 555 553 C555 553 352 78 352 78 C352 78 158 553 158 553 C158 553 111 553 111 553 C111 553 100 553 100 553 C89 554 75 554 65 553 C65 553 65 538 65 538 C65 538 69 538 69 538 C80 539 87 513 85 473 C85 473 67 67 67 67 C64 35 55 15 44 15 C44 15 41 15 41 15 C41 15 41 0 41 0 C41 0 64 0 64 0 C64 0 75 0 75 0 C75 0 86 0 86 0 C86 0 120 0 120 0 C120 0 120 15 120 15 C120 15 115 15 115 15 C99 15 90 42 90 83 C90 83 107 475 107 475 C107 475 309 10 309 10 C309 10 316 -5 316 -5 C316 -5 334 -5 334 -5 C334 -5 557 513 557 513 C557 513 574 80 574 80 C576 41 569 15 557 15 C557 15 554 15 554 15 C554 15 554 0 554 0 C554 0 578 0 578 0 C578 0 613 0 613 0 C613 0 649 0 649 0 C649 0 672 0 672 0 C672 0 672 15 672 15 L672 15 Z " />
<glyph glyph-name="LETTERSMALLCAPITALO" unicode="&#x1d0f;" horiz-adv-x="712" d="M360 13 C217 13 143 134 143 277 C143 419 217 540 360 540 C503 540 577 419 577 277 C577 134 503 13 360 13 L360 13 Z M64 277 C64 125 165 -5 360 -5 C555 -5 656 125 656 277 C656 429 555 558 360 558 C165 558 64 429 64 277 L64 277 Z " />
<glyph glyph-name="LETTERSMALLCAPITALP" unicode="&#x1d18;" horiz-adv-x="481" d="M54 538 C54 538 58 538 58 538 C70 539 78 513 78 473 C78 473 78 80 78 80 C78 41 70 15 58 15 C58 15 54 15 54 15 C54 15 54 0 54 0 C54 0 78 0 78 0 C78 0 114 0 114 0 C114 0 150 0 150 0 C150 0 173 0 173 0 C173 0 173 15 173 15 C173 15 170 15 170 15 C159 15 151 36 150 68 C150 68 150 80 150 80 C150 80 150 250 150 250 C150 250 226 250 226 250 C363 250 454 310 454 400 C454 492 371 553 246 553 C246 553 150 553 150 553 C150 553 114 553 114 553 C96 554 72 554 54 553 C54 553 54 538 54 538 L54 538 Z M150 264 C150 264 150 539 150 539 C150 539 246 539 246 539 C326 539 379 484 379 400 C379 319 318 264 226 264 C226 264 150 264 150 264 L150 264 Z " />
<glyph glyph-name="LETTERSMALLCAPITALT" unicode="&#x1d1b;" horiz-adv-x="573" d="M347 15 C347 15 343 15 343 15 C331 15 323 41 323 80 C323 80 323 535 323 535 C323 535 402 535 402 535 C450 535 500 519 526 495 C526 495 534 488 534 488 C534 488 546 488 546 488 C545 505 543 527 541 544 C541 547 541 551 540 553 C540 554 537 554 533 553 C531 554 528 554 525 553 C506 554 480 554 460 553 C460 553 114 553 114 553 C94 554 68 554 49 553 C46 554 43 554 41 553 C37 554 34 554 34 553 C33 551 33 547 33 544 C31 527 29 505 28 488 C28 488 40 488 40 488 C40 488 48 495 48 495 C74 519 124 535 172 535 C172 535 251 535 251 535 C251 535 251 80 251 80 C251 41 243 15 231 15 C231 15 227 15 227 15 C227 15 227 0 227 0 C227 0 251 0 251 0 C251 0 287 0 287 0 C287 0 323 0 323 0 C323 0 347 0 347 0 C347 0 347 15 347 15 L347 15 Z " />
<glyph glyph-name="LETTERSMALLCAPITALU" unicode="&#x1d1c;" horiz-adv-x="527" d="M501 553 C490 554 476 554 466 553 C454 554 440 554 429 553 C429 553 429 538 429 538 C429 538 433 538 433 538 C447 539 457 509 457 463 C457 463 457 153 457 153 C457 73 409 20 286 20 C181 20 140 75 140 159 C140 159 140 473 140 473 C140 473 140 485 140 485 C141 518 149 539 160 538 C160 538 163 538 163 538 C163 538 163 553 163 553 C145 554 121 554 104 553 C86 554 62 554 44 553 C44 553 44 538 44 538 C44 538 48 538 48 538 C60 539 68 513 68 473 C68 473 68 173 68 173 C68 66 126 -5 275 -5 C418 -5 474 56 474 147 C474 147 474 463 474 463 C474 509 483 539 497 538 C497 538 501 538 501 538 C501 538 501 553 501 553 L501 553 Z " />
<glyph glyph-name="LETTERSMALLCAPITALV" unicode="&#x1d20;" horiz-adv-x="519" d="M506 553 C498 554 487 554 479 553 C465 554 446 554 432 553 C432 553 432 538 432 538 C432 538 437 538 437 538 C454 539 452 501 433 443 C433 443 434 443 434 443 C434 443 302 55 302 55 C302 55 143 477 143 477 C130 515 129 539 142 538 C142 538 146 538 146 538 C146 538 146 553 146 553 C124 554 96 554 75 553 C59 554 38 554 22 553 C22 553 22 538 22 538 C22 538 25 538 25 538 C35 539 52 513 69 473 C69 473 69 473 69 473 C69 473 278 -15 278 -15 C278 -15 292 -15 292 -15 C292 -15 460 473 460 473 C460 473 460 473 460 473 C473 513 490 539 502 538 C502 538 506 538 506 538 C506 538 506 553 506 553 L506 553 Z " />
<glyph glyph-name="LETTERSMALLCAPITALW" unicode="&#x1d21;" horiz-adv-x="749" d="M735 553 C727 554 716 554 707 553 C695 554 678 554 666 553 C666 553 666 538 666 538 C666 538 670 538 670 538 C685 539 688 513 676 473 C676 473 676 473 676 473 C676 473 560 65 560 65 C560 65 404 563 404 563 C404 563 390 563 390 563 C390 563 243 60 243 60 C243 60 125 473 125 473 C125 473 125 473 125 473 C114 513 114 539 127 538 C127 538 131 538 131 538 C131 538 131 553 131 553 C111 554 83 554 63 553 C47 554 25 554 9 553 C9 553 9 538 9 538 C9 538 12 538 12 538 C21 539 35 517 48 482 C48 482 221 -15 221 -15 C221 -15 234 -15 234 -15 C234 -15 379 478 379 478 C379 478 537 -15 537 -15 C537 -15 551 -15 551 -15 C551 -15 693 473 693 473 C693 473 693 473 693 473 C704 513 719 539 732 538 C732 538 735 538 735 538 C735 538 735 553 735 553 L735 553 Z " />
<glyph glyph-name="LETTERSMALLCAPITALZ" unicode="&#x1d22;" horiz-adv-x="530" d="M459 9 C462 26 465 47 468 64 C468 64 465 64 465 64 C456 66 450 66 449 66 C426 39 381 20 325 19 C325 19 315 19 315 19 C315 19 147 19 147 19 C147 19 476 553 476 553 C476 553 435 553 435 553 C435 553 394 553 394 553 C394 553 201 553 201 553 C182 554 156 554 136 553 C134 554 131 554 129 553 C124 554 121 554 121 553 C121 551 120 547 119 544 C115 530 110 511 106 497 C106 497 118 497 118 497 C118 497 127 503 127 503 C157 522 208 535 257 535 C257 535 383 535 383 535 C383 535 55 0 55 0 C55 0 95 0 95 0 C95 0 135 0 135 0 C135 0 377 0 377 0 C377 0 456 0 456 0 C456 0 457 0 457 0 C458 3 458 7 459 9 L459 9 Z " />
<glyph glyph-name="Wgrave" unicode="&#x1e80;" horiz-adv-x="878" d="M864 660 C864 660 845 660 845 660 C845 660 836 660 836 660 C836 660 826 660 826 660 C826 660 793 660 793 660 C793 660 793 645 793 645 C793 645 797 645 797 645 C812 645 814 619 803 580 C803 580 803 580 803 580 C803 580 634 -15 634 -15 C634 -15 661 82 661 82 C661 82 472 670 472 670 C472 670 457 670 457 670 C457 670 281 76 281 76 C281 76 133 580 133 580 C133 580 134 580 134 580 C122 619 123 645 135 645 C135 645 139 645 139 645 C139 645 139 660 139 660 C139 660 110 660 110 660 C110 660 66 660 66 660 C66 660 23 660 23 660 C23 660 9 660 9 660 C9 660 9 645 9 645 C9 645 11 645 11 645 C21 645 37 619 50 580 C50 580 50 580 50 580 C50 580 254 -15 254 -15 C254 -15 270 -15 270 -15 C270 -15 472 670 472 670 C472 670 442 567 442 567 C442 567 634 -15 634 -15 C634 -15 649 -15 649 -15 C649 -15 822 580 822 580 C822 580 822 580 822 580 C833 619 849 645 861 645 C861 645 864 645 864 645 C864 645 864 660 864 660 L864 660 Z M453 842 C432 875 417 897 414 897 C404 897 382 881 382 873 C382 869 399 848 424 819 C424 819 538 691 538 691 C538 691 544 696 544 696 C544 696 453 842 453 842 L453 842 Z " />
<glyph glyph-name="Wacute" unicode="&#x1e82;" horiz-adv-x="878" d="M864 660 C864 660 845 660 845 660 C845 660 836 660 836 660 C836 660 826 660 826 660 C826 660 793 660 793 660 C793 660 793 645 793 645 C793 645 797 645 797 645 C812 645 814 619 803 580 C803 580 803 580 803 580 C803 580 634 -15 634 -15 C634 -15 661 82 661 82 C661 82 472 670 472 670 C472 670 457 670 457 670 C457 670 281 76 281 76 C281 76 133 580 133 580 C133 580 134 580 134 580 C122 619 123 645 135 645 C135 645 139 645 139 645 C139 645 139 660 139 660 C139 660 110 660 110 660 C110 660 66 660 66 660 C66 660 23 660 23 660 C23 660 9 660 9 660 C9 660 9 645 9 645 C9 645 11 645 11 645 C21 645 37 619 50 580 C50 580 50 580 50 580 C50 580 254 -15 254 -15 C254 -15 270 -15 270 -15 C270 -15 472 670 472 670 C472 670 442 567 442 567 C442 567 634 -15 634 -15 C634 -15 649 -15 649 -15 C649 -15 822 580 822 580 C822 580 822 580 822 580 C833 619 849 645 861 645 C861 645 864 645 864 645 C864 645 864 660 864 660 L864 660 Z M402 691 C402 691 513 819 513 819 C538 849 554 870 554 873 C554 881 532 897 522 897 C519 897 505 875 485 842 C485 842 396 696 396 696 C396 696 402 691 402 691 L402 691 Z " />
<glyph glyph-name="Wdieresis" unicode="&#x1e84;" horiz-adv-x="878" d="M864 660 C864 660 845 660 845 660 C845 660 836 660 836 660 C836 660 826 660 826 660 C826 660 793 660 793 660 C793 660 793 645 793 645 C793 645 797 645 797 645 C812 645 814 619 803 580 C803 580 803 580 803 580 C803 580 634 -15 634 -15 C634 -15 661 82 661 82 C661 82 472 670 472 670 C472 670 457 670 457 670 C457 670 281 76 281 76 C281 76 133 580 133 580 C133 580 134 580 134 580 C122 619 123 645 135 645 C135 645 139 645 139 645 C139 645 139 660 139 660 C139 660 110 660 110 660 C110 660 66 660 66 660 C66 660 23 660 23 660 C23 660 9 660 9 660 C9 660 9 645 9 645 C9 645 11 645 11 645 C21 645 37 619 50 580 C50 580 50 580 50 580 C50 580 254 -15 254 -15 C254 -15 270 -15 270 -15 C270 -15 472 670 472 670 C472 670 442 567 442 567 C442 567 634 -15 634 -15 C634 -15 649 -15 649 -15 C649 -15 822 580 822 580 C822 580 822 580 822 580 C833 619 849 645 861 645 C861 645 864 645 864 645 C864 645 864 660 864 660 L864 660 Z M554 730 C574 730 588 744 588 764 C588 784 574 798 554 798 C534 798 520 784 520 764 C520 744 534 730 554 730 L554 730 Z M375 730 C395 730 409 744 409 764 C409 784 395 798 375 798 C354 798 341 784 341 764 C341 744 354 730 375 730 L375 730 Z " />
<glyph glyph-name="CapitalLetterEWITHTI" unicode="&#x1ebc;" horiz-adv-x="511" d="M107 755 C107 795 125 821 152 821 C212 821 270 758 331 758 C372 758 400 797 400 855 C400 855 390 855 390 855 C390 819 371 795 343 795 C282 795 224 858 164 858 C124 858 98 817 98 755 C98 755 107 755 107 755 L107 755 Z M376 315 C376 315 376 342 376 342 C376 342 376 352 376 352 C376 352 376 362 376 362 C376 362 376 386 376 386 C376 386 364 386 364 386 C364 386 360 382 360 382 C349 370 307 362 256 362 C256 362 146 362 146 362 C146 362 146 640 146 640 C146 640 283 640 283 640 C349 640 404 624 427 597 C427 597 438 597 438 597 C438 597 438 650 438 650 C438 650 438 660 438 660 C438 660 431 660 431 660 C431 660 358 660 358 660 C358 660 146 660 146 660 C146 660 106 660 106 660 C106 660 66 660 66 660 C66 660 42 660 42 660 C42 660 42 645 42 645 C42 645 46 645 46 645 C58 645 66 619 66 580 C66 580 66 80 66 80 C66 41 58 15 46 15 C46 15 42 15 42 15 C42 15 42 0 42 0 C42 0 66 0 66 0 C66 0 106 0 106 0 C106 0 146 0 146 0 C146 0 362 0 362 0 C362 0 441 0 441 0 C441 0 442 0 442 0 C443 3 444 7 444 10 C447 26 451 47 453 63 C453 63 442 63 442 63 C415 36 357 20 291 20 C291 20 146 20 146 20 C146 20 146 342 146 342 C146 342 256 342 256 342 C307 342 349 333 360 319 C360 319 364 315 364 315 C364 315 376 315 376 315 L376 315 Z " />
<glyph glyph-name="Ygrave" unicode="&#x1ef2;" horiz-adv-x="572" d="M355 15 C355 15 351 15 351 15 C339 15 331 41 331 80 C331 80 331 308 331 308 C331 308 330 308 330 308 C330 308 503 591 503 591 C524 624 543 645 553 645 C553 645 556 645 556 645 C556 645 556 660 556 660 C556 660 545 660 545 660 C545 660 535 660 535 660 C535 660 526 660 526 660 C526 660 491 660 491 660 C491 660 491 645 491 645 C491 645 495 645 495 645 C507 645 498 614 470 566 C470 566 466 560 466 560 C466 560 315 308 315 308 C315 308 304 308 304 308 C304 308 172 580 172 580 C172 580 172 580 172 580 C153 619 147 645 158 645 C158 645 162 645 162 645 C162 645 162 660 162 660 C162 660 133 660 133 660 C133 660 85 660 85 660 C85 660 37 660 37 660 C37 660 28 660 28 660 C28 660 28 645 28 645 C28 645 31 645 31 645 C40 645 60 619 81 580 C81 580 81 580 81 580 C81 580 251 271 251 271 C251 271 251 80 251 80 C251 41 243 15 231 15 C231 15 227 15 227 15 C227 15 227 0 227 0 C227 0 251 0 251 0 C251 0 291 0 291 0 C291 0 331 0 331 0 C331 0 355 0 355 0 C355 0 355 15 355 15 L355 15 Z M279 842 C259 875 244 897 240 897 C231 897 209 881 209 873 C209 869 226 848 251 819 C251 819 364 691 364 691 C364 691 371 696 371 696 C371 696 279 842 279 842 L279 842 Z " />
<glyph glyph-name="quoteleft" unicode="&#x2018;" horiz-adv-x="210" d="M77 499 C77 499 77 499 77 499 C84 491 94 487 107 487 C131 487 147 503 147 527 C147 551 131 567 107 567 C102 567 98 566 94 565 C93 570 93 574 93 579 C93 614 110 646 136 659 C136 659 132 667 132 667 C89 646 60 600 60 551 C60 531 67 510 77 499 C77 499 77 499 77 499 L77 499 Z " />
<glyph glyph-name="quoteright" unicode="&#x2019;" horiz-adv-x="210" d="M137 653 C137 653 137 653 137 653 C130 661 120 665 107 665 C83 665 67 649 67 625 C67 601 83 585 107 585 C112 585 116 586 120 587 C121 582 121 578 121 573 C121 538 104 506 78 493 C78 493 82 485 82 485 C125 506 154 552 154 601 C154 621 147 642 137 653 C137 653 137 653 137 653 L137 653 Z " />
<glyph glyph-name="quotedblleft" unicode="&#x201c;" horiz-adv-x="328" d="M195 499 C195 499 195 499 195 499 C202 491 212 487 225 487 C249 487 265 503 265 527 C265 551 249 567 225 567 C220 567 216 566 212 565 C211 570 211 574 211 579 C211 614 228 646 254 659 C254 659 250 667 250 667 C207 646 178 600 178 551 C178 531 185 510 195 499 C195 499 195 499 195 499 L195 499 Z M77 499 C77 499 77 499 77 499 C84 491 94 487 107 487 C131 487 147 503 147 527 C147 551 131 567 107 567 C102 567 98 566 94 565 C93 570 93 574 93 579 C93 614 110 646 136 659 C136 659 132 667 132 667 C89 646 60 600 60 551 C60 531 67 510 77 499 C77 499 77 499 77 499 L77 499 Z " />
<glyph glyph-name="quotedblright" unicode="&#x201d;" horiz-adv-x="328" d="M255 653 C255 653 255 653 255 653 C248 661 238 665 225 665 C201 665 185 649 185 625 C185 601 201 585 225 585 C230 585 234 586 238 587 C239 582 239 578 239 573 C239 538 222 506 196 493 C196 493 200 485 200 485 C243 506 272 552 272 601 C272 621 265 642 255 653 C255 653 255 653 255 653 L255 653 Z M137 653 C137 653 137 653 137 653 C130 661 120 665 107 665 C83 665 67 649 67 625 C67 601 83 585 107 585 C112 585 116 586 120 587 C121 582 121 578 121 573 C121 538 104 506 78 493 C78 493 82 485 82 485 C125 506 154 552 154 601 C154 621 147 642 137 653 C137 653 137 653 137 653 L137 653 Z " />
<glyph glyph-name="ellipsis" unicode="&#x2026;" horiz-adv-x="480" d="M396 0 C420 0 436 16 436 40 C436 64 420 80 396 80 C371 80 355 64 355 40 C355 16 371 0 396 0 L396 0 Z M240 0 C264 0 280 16 280 40 C280 64 264 80 240 80 C216 80 200 64 200 40 C200 16 216 0 240 0 L240 0 Z M85 0 C109 0 125 16 125 40 C125 64 109 80 85 80 C61 80 45 64 45 40 C45 16 61 0 85 0 L85 0 Z " />
<glyph glyph-name="guilsinglleft" unicode="&#x2039;" horiz-adv-x="300" d="M85 251 C85 251 247 458 247 458 C247 458 240 465 240 465 C240 465 27 254 27 254 C27 254 27 248 27 248 C27 248 242 37 242 37 C242 37 248 43 248 43 C248 43 85 251 85 251 L85 251 Z " />
<glyph glyph-name="guilsinglright" unicode="&#x203a;" horiz-adv-x="300" d="M215 251 C215 251 53 458 53 458 C53 458 60 465 60 465 C60 465 273 254 273 254 C273 254 273 248 273 248 C273 248 58 37 58 37 C58 37 52 43 52 43 C52 43 215 251 215 251 L215 251 Z " />
</font>
</svg>
