<?xml version="1.0" encoding="UTF-8"?>
<svg xmlns="http://www.w3.org/2000/svg" xmlns:xlink="http://www.w3.org/1999/xlink" version="1.2" >
<font id="Thomas Mag Thin">
<font-face  font-family="Thomas Mag" units-per-em="1024" ascent="936" descent="-280" font-style="normal" font-weight="100" font-stretch="normal" cap-height="660" x-height="500" underline-position="0" underline-thickness="0" />
<missing-glyph  horiz-adv-x="472" d="M0 700 C0 700 432 700 432 700 C432 700 432 0 432 0 C432 0 0 0 0 0 C0 0 0 700 0 700 L0 700 Z M50 50 C50 50 382 50 382 50 C382 50 382 650 382 650 C382 650 50 650 50 650 C50 650 50 50 50 50 L50 50 Z " />
<glyph glyph-name="NULL" d="" />
<glyph glyph-name="CR" unicode="&#xd;" horiz-adv-x="256" d="" />
<glyph glyph-name="space" unicode="&#x20;" horiz-adv-x="250" d="" />
<glyph glyph-name="exclam" unicode="&#x21;" horiz-adv-x="166" d="M81 -5 C93 -5 101 3 101 15 C101 27 93 35 81 35 C69 35 61 27 61 15 C61 3 69 -5 81 -5 L81 -5 Z M100 620 C101 647 93 665 80 665 C67 665 59 647 60 620 C60 620 80 110 80 110 C80 110 83 110 83 110 C83 110 100 620 100 620 L100 620 Z " />
<glyph glyph-name="quotedbl" unicode="&#x22;" horiz-adv-x="225" d="M128 660 C128 660 150 489 150 489 C150 489 157 489 157 489 C157 489 179 660 179 660 C179 660 128 660 128 660 L128 660 Z M47 660 C47 660 69 489 69 489 C69 489 76 489 76 489 C76 489 98 660 98 660 C98 660 47 660 47 660 L47 660 Z " />
<glyph glyph-name="numbersign" unicode="&#x23;" horiz-adv-x="539" d="M397 692 C397 692 366 468 366 468 C366 468 212 468 212 468 C212 468 243 692 243 692 C243 692 235 692 235 692 C235 692 204 468 204 468 C204 468 68 468 68 468 C68 468 65 452 65 452 C65 452 202 452 202 452 C202 452 169 208 169 208 C169 208 30 208 30 208 C30 208 28 192 28 192 C28 192 166 192 166 192 C166 192 140 0 140 0 C140 0 148 0 148 0 C148 0 174 192 174 192 C174 192 328 192 328 192 C328 192 302 0 302 0 C302 0 310 0 310 0 C310 0 336 192 336 192 C336 192 467 192 467 192 C467 192 469 208 469 208 C469 208 339 208 339 208 C339 208 372 452 372 452 C372 452 510 452 510 452 C510 452 512 468 512 468 C512 468 374 468 374 468 C374 468 405 692 405 692 C405 692 397 692 397 692 L397 692 Z M210 452 C210 452 364 452 364 452 C364 452 331 208 331 208 C331 208 177 208 177 208 C177 208 210 452 210 452 L210 452 Z " />
<glyph glyph-name="dollar" unicode="&#x24;" horiz-adv-x="513" d="M269 735 C269 735 269 663 269 663 C258 664 248 665 237 665 C225 665 214 664 203 662 C203 662 203 735 203 735 C203 735 189 735 189 735 C189 735 189 660 189 660 C112 641 63 578 63 489 C63 432 111 377 189 341 C189 341 189 15 189 15 C143 31 100 64 76 104 C72 111 67 119 63 126 C63 126 50 126 50 126 C50 126 50 80 50 80 C73 45 124 19 189 5 C189 5 189 -75 189 -75 C189 -75 203 -75 203 -75 C203 -75 203 2 203 2 C224 -1 246 -4 269 -5 C269 -5 269 -75 269 -75 C269 -75 283 -75 283 -75 C283 -75 283 -5 283 -5 C285 -5 286 -5 288 -5 C392 -5 462 61 462 161 C462 233 391 303 283 337 C283 337 283 654 283 654 C292 652 301 651 309 648 C309 648 309 648 309 648 C341 640 377 608 399 568 C405 558 413 544 419 534 C419 534 432 534 432 534 C432 534 432 580 432 580 C404 621 348 652 283 662 C283 662 283 735 283 735 C283 735 269 735 269 735 L269 735 Z M203 10 C203 10 203 335 203 335 C217 329 233 324 249 319 C256 317 262 315 269 313 C269 313 269 2 269 2 C249 3 230 5 212 8 C209 9 206 10 203 10 C203 10 203 10 203 10 L203 10 Z M203 367 C203 367 203 655 203 655 C213 657 224 658 236 658 C247 658 258 657 269 656 C269 656 269 342 269 342 C245 349 223 357 203 367 C203 367 203 367 203 367 L203 367 Z M189 374 C123 408 83 455 83 501 C83 578 124 634 189 652 C189 652 189 374 189 374 L189 374 Z M283 308 C379 271 441 210 441 149 C441 61 380 2 288 2 C286 2 285 2 283 2 C283 2 283 308 283 308 L283 308 Z " />
<glyph glyph-name="ampersand" unicode="&#x26;" horiz-adv-x="706" d="M590 380 C590 380 525 380 525 380 C525 380 525 365 525 365 C525 365 530 365 530 365 C544 365 554 350 554 270 C554 270 554 240 554 240 C554 176 532 122 492 82 C458 113 419 154 373 209 C323 269 280 325 249 375 C372 397 454 466 454 549 C454 619 399 665 317 665 C235 665 180 602 180 508 C180 471 199 424 232 369 C127 333 57 251 57 162 C57 62 141 -5 268 -5 C358 -5 432 21 483 67 C574 -9 634 -11 700 0 C700 0 700 3 700 3 C641 -7 587 -3 496 79 C536 120 558 175 558 240 C558 240 558 270 558 270 C558 350 569 365 585 365 C585 365 590 365 590 365 C590 365 590 380 590 380 L590 380 Z M248 378 C214 433 195 481 195 517 C195 603 243 661 316 661 C389 661 438 616 438 548 C438 466 362 398 248 378 C248 378 248 378 248 378 L248 378 Z M480 70 C432 28 362 4 279 4 C157 4 76 70 76 170 C76 256 139 333 233 366 C264 315 307 257 358 197 C405 141 445 100 480 70 C480 70 480 70 480 70 L480 70 Z " />
<glyph glyph-name="quotesingle" unicode="&#x27;" horiz-adv-x="144" d="M47 660 C47 660 69 489 69 489 C69 489 76 489 76 489 C76 489 98 660 98 660 C98 660 47 660 47 660 L47 660 Z " />
<glyph glyph-name="parenleft" unicode="&#x28;" horiz-adv-x="178" d="M159 690 C104 624 67 512 67 270 C67 28 104 -84 159 -150 C159 -150 162 -148 162 -148 C114 -91 82 18 82 270 C82 522 114 631 162 688 C162 688 159 690 159 690 L159 690 Z " />
<glyph glyph-name="parenright" unicode="&#x29;" horiz-adv-x="178" d="M17 -150 C72 -84 109 28 109 270 C109 512 72 624 17 690 C17 690 14 688 14 688 C62 631 94 522 94 270 C94 18 62 -91 14 -148 C14 -148 17 -150 17 -150 L17 -150 Z " />
<glyph glyph-name="asterisk" unicode="&#x2a;" horiz-adv-x="252" d="M156 541 C156 541 56 605 56 605 C47 612 41 599 50 595 C50 595 156 541 156 541 C156 541 156 540 156 540 C156 540 156 539 156 539 C156 539 50 485 50 485 C41 481 47 468 56 475 C56 475 156 539 156 539 C156 539 151 420 151 420 C150 415 153 412 157 412 C161 412 163 415 163 420 C163 420 157 540 157 540 C157 540 258 475 258 475 C267 468 273 481 264 485 C264 485 157 540 157 540 C157 540 264 595 264 595 C273 599 267 612 258 605 C258 605 157 540 157 540 C157 540 163 660 163 660 C163 665 161 668 157 668 C153 668 150 665 151 660 C151 660 156 541 156 541 L156 541 Z " />
<glyph glyph-name="plus" unicode="&#x2b;" horiz-adv-x="561" d="M277 450 C277 450 277 254 277 254 C277 254 82 254 82 254 C82 254 82 246 82 246 C82 246 277 246 277 246 C277 246 277 50 277 50 C277 50 287 50 287 50 C287 50 287 246 287 246 C287 246 482 246 482 246 C482 246 482 254 482 254 C482 254 287 254 287 254 C287 254 287 450 287 450 C287 450 277 450 277 450 L277 450 Z " />
<glyph glyph-name="comma" unicode="&#x2c;" horiz-adv-x="164" d="M137 63 C137 63 122 49 122 49 C119 53 116 55 113 56 C104 58 97 50 94 31 C92 32 89 33 86 33 C74 33 67 25 67 14 C67 3 74 -5 86 -5 C88 -5 90 -5 92 -4 C91 -35 83 -58 72 -64 C72 -64 74 -68 74 -68 C94 -58 108 -26 108 13 C108 31 110 46 113 56 C117 71 126 75 137 63 L137 63 Z " />
<glyph glyph-name="hyphen" unicode="&#x2d;" horiz-adv-x="286" d="M27 227 C27 227 260 227 260 227 C260 227 260 243 260 243 C260 243 27 243 27 243 C27 243 27 227 27 227 L27 227 Z " />
<glyph glyph-name="period" unicode="&#x2e;" horiz-adv-x="211" d="M125 -5 C137 -5 145 3 145 15 C145 27 137 35 125 35 C113 35 105 27 105 15 C105 3 113 -5 125 -5 L125 -5 Z " />
<glyph glyph-name="slash" unicode="&#x2f;" horiz-adv-x="325" d="M7 -145 C7 -145 16 -145 16 -145 C16 -145 326 710 326 710 C326 710 317 710 317 710 C317 710 7 -145 7 -145 L7 -145 Z " />
<glyph glyph-name="zero" unicode="0" horiz-adv-x="556" d="M278 -1 C144 -1 55 99 55 250 C55 401 144 501 278 501 C412 501 501 401 501 250 C501 99 412 -1 278 -1 L278 -1 Z M33 250 C33 97 131 -5 278 -5 C425 -5 523 97 523 250 C523 403 425 505 278 505 C131 505 33 403 33 250 L33 250 Z " />
<glyph glyph-name="one" unicode="1" horiz-adv-x="185" d="M124 500 C124 500 100 500 100 500 C100 500 90 500 90 500 C90 500 80 500 80 500 C80 500 56 500 56 500 C56 500 56 485 56 485 C56 485 60 485 60 485 C72 485 80 459 80 420 C80 420 80 80 80 80 C80 41 72 15 60 15 C60 15 56 15 56 15 C56 15 56 0 56 0 C56 0 80 0 80 0 C80 0 90 0 90 0 C90 0 100 0 100 0 C100 0 124 0 124 0 C124 0 124 15 124 15 C124 15 120 15 120 15 C108 15 100 41 100 80 C100 80 100 420 100 420 C100 459 108 485 120 485 C120 485 124 485 124 485 C124 485 124 500 124 500 L124 500 Z " />
<glyph glyph-name="two" unicode="2" horiz-adv-x="492" d="M441 44 C441 44 440 40 440 40 C440 28 413 20 374 20 C374 20 63 20 63 20 C281 159 423 230 423 347 C423 442 361 505 268 505 C191 505 115 446 79 357 C79 357 82 356 82 356 C114 436 185 490 258 490 C343 490 400 430 400 340 C400 218 264 153 57 20 C57 20 56 20 56 20 C56 20 53 18 53 18 C46 13 39 9 32 4 C32 4 32 0 32 0 C32 0 452 0 452 0 C452 0 453 10 453 10 C453 10 454 20 454 20 C454 20 454 20 454 20 C455 28 455 37 456 44 C456 44 441 44 441 44 L441 44 Z " />
<glyph glyph-name="three" unicode="3" horiz-adv-x="445" d="M33 -215 C257 -203 406 -101 406 40 C406 142 325 210 203 210 C193 210 180 208 166 205 C280 250 353 317 353 379 C353 455 300 505 219 505 C151 505 71 453 18 375 C18 375 21 374 21 374 C68 444 143 490 209 490 C283 490 333 443 333 373 C333 308 256 240 138 198 C130 196 121 193 113 190 C113 190 113 187 113 187 C116 188 118 189 121 189 C141 195 171 199 199 199 C310 199 385 135 385 39 C385 -100 244 -200 33 -212 C33 -212 33 -215 33 -215 L33 -215 Z " />
<glyph glyph-name="four" unicode="4" horiz-adv-x="503" d="M38 9 C38 9 38 9 38 9 C38 9 38 9 38 9 C38 9 34 3 34 3 C34 3 34 0 34 0 C34 0 38 0 38 0 C38 0 39 0 39 0 C39 0 357 0 357 0 C357 0 357 -150 357 -150 C357 -150 377 -150 377 -150 C377 -150 377 0 377 0 C377 0 487 0 487 0 C487 0 487 9 487 9 C487 9 377 9 377 9 C377 9 377 499 377 499 C377 499 377 505 377 505 C377 505 374 505 374 505 C374 505 38 9 38 9 L38 9 Z M45 9 C45 9 358 471 358 471 C358 471 357 469 357 469 C357 469 357 9 357 9 C357 9 45 9 45 9 L45 9 Z " />
<glyph glyph-name="five" unicode="5" horiz-adv-x="446" d="M388 500 C388 500 388 500 388 500 C390 508 393 517 395 524 C395 524 380 524 380 524 C380 524 379 520 379 520 C376 508 347 500 308 500 C308 500 103 500 103 500 C103 500 97 500 97 500 C97 500 77 243 77 243 C77 243 82 243 82 243 C82 243 150 243 150 243 C282 243 370 169 370 58 C370 -77 237 -171 38 -178 C38 -178 38 -182 38 -182 C249 -175 390 -76 390 64 C390 184 298 263 160 263 C160 263 84 263 84 263 C84 263 101 479 101 479 C101 479 381 479 381 479 C381 479 388 500 388 500 L388 500 Z " />
<glyph glyph-name="six" unicode="6" horiz-adv-x="531" d="M487 715 C225 706 51 541 51 301 C51 118 138 -5 268 -5 C410 -5 499 83 492 215 C492 341 413 425 295 425 C141 425 64 331 102 189 C102 189 107 189 107 189 C69 328 143 420 292 420 C399 420 471 338 471 214 C478 86 397 1 270 1 C152 1 73 114 73 283 C73 290 74 300 74 308 C74 541 239 703 487 712 C487 712 487 715 487 715 L487 715 Z " />
<glyph glyph-name="seven" unicode="7" horiz-adv-x="450" d="M48 456 C48 456 48 459 48 459 C50 472 76 480 115 480 C115 480 422 480 422 480 C422 480 146 -140 146 -140 C146 -140 169 -140 169 -140 C257 73 346 285 433 498 C433 498 432 500 432 500 C432 500 37 500 37 500 C37 500 36 490 36 490 C36 490 35 480 35 480 C35 480 35 480 35 480 C34 472 34 463 33 456 C33 456 48 456 48 456 L48 456 Z " />
<glyph glyph-name="eight" unicode="8" horiz-adv-x="505" d="M196 321 C104 321 42 258 42 164 C42 63 126 -5 252 -5 C377 -5 461 66 461 172 C461 265 375 335 245 345 C149 353 84 417 84 506 C84 599 150 661 248 661 C348 661 414 602 414 513 C414 420 358 356 273 353 C273 353 273 352 273 352 C367 355 430 421 430 516 C430 605 358 665 249 665 C140 665 68 598 68 498 C68 402 138 333 244 325 C363 315 442 251 442 165 C442 65 366 -1 253 -1 C138 -1 61 66 61 167 C61 259 115 320 197 320 C197 320 196 321 196 321 L196 321 Z " />
<glyph glyph-name="nine" unicode="9" horiz-adv-x="567" d="M62 -215 C324 -206 498 -41 498 199 C498 382 411 505 281 505 C140 505 50 417 57 285 C57 159 136 75 254 75 C408 75 486 169 447 311 C447 311 443 311 443 311 C480 172 406 80 258 80 C150 80 78 162 78 286 C72 414 152 499 279 499 C397 499 476 386 476 217 C476 210 475 200 475 192 C475 -41 310 -203 62 -212 C62 -212 62 -215 62 -215 L62 -215 Z " />
<glyph glyph-name="colon" unicode="&#x3a;" horiz-adv-x="211" d="M125 352 C137 352 145 360 145 372 C145 384 137 392 125 392 C113 392 105 384 105 372 C105 360 113 352 125 352 L125 352 Z M125 -5 C137 -5 145 3 145 15 C145 27 137 35 125 35 C113 35 105 27 105 15 C105 3 113 -5 125 -5 L125 -5 Z " />
<glyph glyph-name="semicolon" unicode="&#x3b;" horiz-adv-x="164" d="M137 63 C137 63 122 49 122 49 C119 53 116 55 113 56 C104 58 97 50 94 31 C92 32 89 33 86 33 C74 33 67 25 67 14 C67 3 74 -5 86 -5 C88 -5 90 -5 92 -4 C91 -35 83 -58 72 -64 C72 -64 74 -68 74 -68 C94 -58 108 -26 108 13 C108 31 110 46 113 56 C117 71 126 75 137 63 L137 63 Z M86 345 C98 345 106 353 106 365 C106 377 98 385 86 385 C74 385 66 377 66 365 C66 353 74 345 86 345 L86 345 Z " />
<glyph glyph-name="less" unicode="&#x3c;" horiz-adv-x="546" d="M464 500 C464 500 49 281 49 281 C49 281 47 280 47 280 C47 280 47 270 47 270 C47 270 49 269 49 269 C49 269 464 50 464 50 C464 50 464 60 464 60 C464 60 55 275 55 275 C55 275 464 490 464 490 C464 490 464 500 464 500 L464 500 Z " />
<glyph glyph-name="equal" unicode="&#x3d;" horiz-adv-x="536" d="M80 204 C80 204 80 196 80 196 C80 196 460 196 460 196 C460 196 460 204 460 204 C460 204 80 204 80 204 L80 204 Z M80 304 C80 304 80 296 80 296 C80 296 460 296 460 296 C460 296 460 304 460 304 C460 304 80 304 80 304 L80 304 Z " />
<glyph glyph-name="greater" unicode="&#x3e;" horiz-adv-x="543" d="M481 275 C481 275 82 60 82 60 C82 60 82 50 82 50 C82 50 487 269 487 269 C487 269 497 275 497 275 C497 275 487 281 487 281 C487 281 82 500 82 500 C82 500 82 490 82 490 C82 490 481 275 481 275 L481 275 Z " />
<glyph glyph-name="question" unicode="&#x3f;" horiz-adv-x="379" d="M149 -5 C161 -5 169 3 169 15 C169 27 161 35 149 35 C137 35 129 27 129 15 C129 3 137 -5 149 -5 L149 -5 Z M155 348 C155 348 189 348 189 348 C313 348 337 418 337 458 C337 582 257 665 136 665 C86 665 52 637 52 596 C52 594 57 593 64 593 C99 593 107 649 142 649 C257 649 333 573 333 460 C333 425 309 363 183 363 C183 363 148 363 148 363 C145 363 143 362 143 360 C143 360 148 104 148 104 C148 104 150 104 150 104 C150 104 155 348 155 348 L155 348 Z " />
<glyph glyph-name="at" unicode="&#x40;" horiz-adv-x="1135" d="M1053 0 C986 -145 792 -241 569 -241 C274 -241 78 -41 78 259 C78 559 274 759 568 759 C862 759 1058 593 1058 343 C1058 138 977 2 856 2 C716 2 642 81 672 200 C672 200 742 480 742 480 C742 480 723 480 723 480 C723 480 695 370 695 370 C690 442 643 490 573 490 C416 490 312 375 312 201 C312 91 379 17 480 17 C551 17 614 72 647 159 C642 59 720 -5 853 -5 C985 -5 1074 134 1074 343 C1074 596 872 764 568 764 C264 764 62 562 62 259 C62 -44 265 -246 569 -246 C795 -246 991 -148 1060 0 C1060 0 1053 0 1053 0 L1053 0 Z M692 356 C692 356 653 200 653 200 C627 97 562 28 490 28 C396 28 334 99 334 205 C334 372 429 484 572 484 C644 484 692 432 692 356 L692 356 Z " />
<glyph glyph-name="A" unicode="A" horiz-adv-x="538" d="M520 15 C520 15 516 15 516 15 C505 15 490 36 477 69 C477 69 268 675 268 675 C268 675 260 675 260 675 C260 675 103 199 103 199 C103 199 102 198 102 198 C102 198 103 196 103 196 C103 196 64 80 64 80 C64 80 64 80 64 80 C52 41 35 15 23 15 C23 15 19 15 19 15 C19 15 19 0 19 0 C19 0 38 0 38 0 C38 0 43 0 43 0 C43 0 47 0 47 0 C47 0 82 0 82 0 C82 0 82 15 82 15 C82 15 78 15 78 15 C63 15 63 45 77 90 C77 90 109 190 109 190 C109 190 358 330 358 330 C358 330 444 77 444 77 C455 40 456 15 443 15 C443 15 440 15 440 15 C440 15 440 0 440 0 C440 0 470 0 470 0 C470 0 485 0 485 0 C485 0 501 0 501 0 C501 0 520 0 520 0 C520 0 520 15 520 15 L520 15 Z M353 345 C353 345 114 205 114 205 C114 205 255 635 255 635 C255 635 353 345 353 345 L353 345 Z " />
<glyph glyph-name="B" unicode="B" horiz-adv-x="529" d="M65 645 C65 645 68 645 68 645 C81 645 89 619 89 580 C89 580 89 80 89 80 C89 41 81 15 68 15 C68 15 65 15 65 15 C65 15 65 0 65 0 C65 0 89 0 89 0 C89 0 103 0 103 0 C103 0 117 0 117 0 C117 0 295 0 295 0 C420 0 503 71 503 179 C503 272 420 338 289 353 C388 368 450 429 450 515 C450 602 378 660 270 660 C270 660 117 660 117 660 C117 660 103 660 103 660 C103 660 89 660 89 660 C89 660 65 660 65 660 C65 660 65 645 65 645 L65 645 Z M269 355 C257 356 244 356 231 356 C231 356 117 355 117 355 C117 355 117 654 117 654 C117 654 270 654 270 654 C361 654 422 598 422 515 C422 427 362 365 269 355 C269 355 269 355 269 355 L269 355 Z M266 350 C391 338 472 273 472 179 C472 75 400 6 293 6 C293 6 117 6 117 6 C117 6 117 349 117 349 C117 349 239 349 239 349 C248 349 257 349 266 350 L266 350 Z " />
<glyph glyph-name="C" unicode="C" horiz-adv-x="724" d="M658 525 C658 525 658 569 658 569 C619 627 515 665 397 665 C195 665 61 531 61 330 C61 129 195 -5 397 -5 C515 -5 619 33 658 91 C658 91 658 135 658 135 C658 135 645 135 645 135 C641 128 635 119 632 112 C599 57 528 14 452 5 C434 3 416 2 397 2 C215 2 93 133 93 330 C93 527 215 658 397 658 C428 658 458 655 486 650 C486 650 486 650 486 650 C544 640 602 599 632 548 C635 541 641 532 645 525 C645 525 658 525 658 525 L658 525 Z " />
<glyph glyph-name="D" unicode="D" horiz-adv-x="627" d="M65 645 C65 645 68 645 68 645 C81 645 89 619 89 580 C89 580 89 80 89 80 C89 41 81 15 68 15 C68 15 65 15 65 15 C65 15 65 0 65 0 C65 0 89 0 89 0 C89 0 103 0 103 0 C103 0 117 0 117 0 C117 0 287 0 287 0 C457 0 570 132 570 330 C570 528 440 660 245 660 C245 660 117 660 117 660 C117 660 103 660 103 660 C103 660 89 660 89 660 C89 660 65 660 65 660 C65 660 65 645 65 645 L65 645 Z M117 6 C117 6 117 654 117 654 C117 654 245 654 245 654 C423 654 542 524 542 330 C542 136 440 6 287 6 C287 6 117 6 117 6 L117 6 Z " />
<glyph glyph-name="E" unicode="E" horiz-adv-x="463" d="M328 321 C328 321 328 348 328 348 C328 348 328 352 328 352 C328 352 328 356 328 356 C328 356 328 379 328 379 C328 379 316 379 316 379 C316 379 312 376 312 376 C302 364 268 357 225 356 C225 356 208 356 208 356 C208 356 98 356 98 356 C98 356 98 653 98 653 C98 653 231 653 231 653 C291 653 346 638 368 616 C368 616 375 610 375 610 C375 610 386 610 386 610 C386 610 386 656 386 656 C386 656 386 660 386 660 C386 660 383 660 383 660 C383 660 306 660 306 660 C306 660 98 660 98 660 C98 660 84 660 84 660 C84 660 69 660 69 660 C69 660 45 660 45 660 C45 660 45 645 45 645 C45 645 49 645 49 645 C61 645 69 619 69 580 C69 580 69 80 69 80 C69 41 61 15 49 15 C49 15 45 15 45 15 C45 15 45 0 45 0 C45 0 69 0 69 0 C69 0 84 0 84 0 C84 0 98 0 98 0 C98 0 313 0 313 0 C313 0 393 0 393 0 C394 1 394 3 394 4 C397 17 400 36 402 50 C402 50 391 50 391 50 C361 24 307 7 240 7 C240 7 98 7 98 7 C98 7 98 348 98 348 C98 348 208 348 208 348 C259 348 301 339 312 325 C312 325 316 321 316 321 C316 321 328 321 328 321 L328 321 Z " />
<glyph glyph-name="F" unicode="F" horiz-adv-x="429" d="M318 316 C318 316 318 343 318 343 C318 343 318 347 318 347 C318 347 318 351 318 351 C318 351 318 374 318 374 C318 374 306 374 306 374 C306 374 302 371 302 371 C292 359 258 352 215 351 C215 351 198 351 198 351 C198 351 98 351 98 351 C98 351 98 653 98 653 C98 653 261 653 261 653 C321 653 376 638 398 616 C398 616 405 610 405 610 C405 610 416 610 416 610 C416 610 416 656 416 656 C416 656 416 660 416 660 C416 660 413 660 413 660 C413 660 336 660 336 660 C336 660 98 660 98 660 C98 660 84 660 84 660 C84 660 69 660 69 660 C69 660 45 660 45 660 C45 660 45 645 45 645 C45 645 49 645 49 645 C61 645 69 619 69 580 C69 580 69 80 69 80 C69 41 61 15 49 15 C49 15 45 15 45 15 C45 15 45 0 45 0 C45 0 69 0 69 0 C69 0 84 0 84 0 C84 0 98 0 98 0 C98 0 132 0 132 0 C132 0 132 15 132 15 C132 15 127 15 127 15 C109 15 98 41 98 80 C98 80 98 343 98 343 C98 343 198 343 198 343 C249 343 291 334 302 320 C302 320 306 316 306 316 C306 316 318 316 318 316 L318 316 Z " />
<glyph glyph-name="G" unicode="G" horiz-adv-x="707" d="M651 310 C651 310 627 310 627 310 C627 310 614 310 614 310 C614 310 601 310 601 310 C601 310 577 310 577 310 C577 310 577 295 577 295 C577 295 581 295 581 295 C593 295 601 269 601 230 C601 230 601 53 601 53 C536 22 448 2 371 2 C195 2 78 133 78 330 C78 527 195 658 371 658 C398 658 425 656 450 651 C450 651 450 651 450 651 C508 642 567 600 597 548 C600 541 606 532 610 525 C610 525 623 525 623 525 C623 525 623 569 623 569 C584 627 484 665 371 665 C176 665 46 531 46 330 C46 129 176 -5 371 -5 C459 -5 561 20 627 58 C627 58 627 230 627 230 C627 269 635 295 647 295 C647 295 651 295 651 295 C651 295 651 310 651 310 L651 310 Z " />
<glyph glyph-name="H" unicode="H" horiz-adv-x="672" d="M625 660 C625 660 601 660 601 660 C601 660 587 660 587 660 C587 660 573 660 573 660 C573 660 549 660 549 660 C549 660 549 645 549 645 C549 645 552 645 552 645 C565 645 573 619 573 580 C573 580 573 351 573 351 C573 351 98 351 98 351 C98 351 98 580 98 580 C98 619 106 645 118 645 C118 645 122 645 122 645 C122 645 122 660 122 660 C122 660 98 660 98 660 C98 660 84 660 84 660 C84 660 69 660 69 660 C69 660 45 660 45 660 C45 660 45 645 45 645 C45 645 49 645 49 645 C61 645 69 619 69 580 C69 580 69 80 69 80 C69 41 61 15 49 15 C49 15 45 15 45 15 C45 15 45 0 45 0 C45 0 69 0 69 0 C69 0 84 0 84 0 C84 0 98 0 98 0 C98 0 122 0 122 0 C122 0 122 15 122 15 C122 15 118 15 118 15 C106 15 98 41 98 80 C98 80 98 343 98 343 C98 343 573 343 573 343 C573 343 573 80 573 80 C573 41 565 15 552 15 C552 15 549 15 549 15 C549 15 549 0 549 0 C549 0 573 0 573 0 C573 0 587 0 587 0 C587 0 601 0 601 0 C601 0 625 0 625 0 C625 0 625 15 625 15 C625 15 622 15 622 15 C610 15 602 41 601 80 C601 80 601 580 601 580 C602 619 610 645 622 645 C622 645 625 645 625 645 C625 645 625 660 625 660 L625 660 Z " />
<glyph glyph-name="I" unicode="I" horiz-adv-x="167" d="M120 660 C120 660 96 660 96 660 C96 660 82 660 82 660 C82 660 67 660 67 660 C67 660 44 660 44 660 C44 660 44 645 44 645 C44 645 47 645 47 645 C59 645 67 619 67 580 C67 580 67 80 67 80 C67 41 59 15 47 15 C47 15 44 15 44 15 C44 15 44 0 44 0 C44 0 67 0 67 0 C67 0 82 0 82 0 C82 0 96 0 96 0 C96 0 120 0 120 0 C120 0 120 15 120 15 C120 15 117 15 117 15 C105 15 96 41 96 80 C96 80 96 580 96 580 C96 619 105 645 117 645 C117 645 120 645 120 645 C120 645 120 660 120 660 L120 660 Z " />
<glyph glyph-name="J" unicode="J" horiz-adv-x="302" d="M255 660 C255 660 232 660 232 660 C232 660 217 660 217 660 C217 660 203 660 203 660 C203 660 179 660 179 660 C179 660 179 645 179 645 C179 645 183 645 183 645 C195 645 203 619 203 580 C203 580 203 200 203 200 C203 52 174 -6 98 -6 C63 -6 34 16 26 50 C25 55 21 59 16 59 C9 59 6 55 7 50 C16 14 50 -10 93 -10 C193 -10 232 56 232 224 C232 224 232 580 232 580 C232 580 232 593 232 593 C233 625 240 645 252 645 C252 645 255 645 255 645 C255 645 255 660 255 660 L255 660 Z " />
<glyph glyph-name="K" unicode="K" horiz-adv-x="583" d="M440 645 C440 645 441 645 441 645 C444 645 428 629 399 603 C399 603 134 370 134 370 C134 370 134 370 134 370 C134 370 117 355 117 355 C117 355 117 580 117 580 C118 619 126 645 138 645 C138 645 141 645 141 645 C141 645 141 660 141 660 C141 660 117 660 117 660 C117 660 103 660 103 660 C103 660 89 660 89 660 C89 660 65 660 65 660 C65 660 65 645 65 645 C65 645 68 645 68 645 C81 645 89 619 89 580 C89 580 89 80 89 80 C89 41 81 15 68 15 C68 15 65 15 65 15 C65 15 65 0 65 0 C65 0 89 0 89 0 C89 0 103 0 103 0 C103 0 117 0 117 0 C117 0 141 0 141 0 C141 0 141 15 141 15 C141 15 138 15 138 15 C126 15 118 41 117 80 C117 80 117 355 117 355 C117 355 122 349 122 349 C122 349 123 350 123 350 C123 350 291 195 291 195 C447 51 521 -5 555 -5 C555 -5 566 -5 566 -5 C566 -5 566 -1 566 -1 C566 -1 561 -1 561 -1 C543 -1 472 58 307 210 C307 210 140 365 140 365 C140 365 398 593 398 593 C436 624 466 645 478 645 C478 645 481 645 481 645 C481 645 481 660 481 660 C481 660 475 660 475 660 C475 660 469 660 469 660 C469 660 464 660 464 660 C464 660 440 660 440 660 C440 660 440 645 440 645 L440 645 Z " />
<glyph glyph-name="L" unicode="L" horiz-adv-x="448" d="M122 660 C122 660 98 660 98 660 C98 660 84 660 84 660 C84 660 69 660 69 660 C69 660 45 660 45 660 C45 660 45 645 45 645 C45 645 49 645 49 645 C61 645 69 619 69 580 C69 580 69 80 69 80 C69 41 61 15 49 15 C49 15 45 15 45 15 C45 15 45 0 45 0 C45 0 69 0 69 0 C69 0 84 0 84 0 C84 0 98 0 98 0 C98 0 313 0 313 0 C313 0 393 0 393 0 C394 1 394 3 394 4 C397 18 400 38 403 53 C403 53 403 53 403 53 C403 53 403 53 403 53 C403 53 403 53 403 53 C403 52 401 53 399 53 C390 54 384 55 384 55 C384 55 377 48 377 48 C355 24 304 7 250 7 C250 7 98 7 98 7 C98 7 98 580 98 580 C98 619 106 645 118 645 C118 645 122 645 122 645 C122 645 122 660 122 660 L122 660 Z " />
<glyph glyph-name="M" unicode="M" horiz-adv-x="686" d="M646 660 C646 660 622 660 622 660 C622 660 609 660 609 660 C609 660 604 660 604 660 C604 660 597 660 597 660 C597 660 351 31 351 31 C351 31 105 660 105 660 C105 660 86 660 86 660 C86 660 82 660 82 660 C82 660 77 660 77 660 C77 660 53 660 53 660 C53 660 53 645 53 645 C53 645 57 645 57 645 C68 645 75 623 74 589 C74 589 55 80 55 80 C54 41 45 15 32 15 C32 15 29 15 29 15 C29 15 29 0 29 0 C29 0 52 0 52 0 C52 0 57 0 57 0 C57 0 61 0 61 0 C61 0 96 0 96 0 C96 0 96 15 96 15 C96 15 91 15 91 15 C75 15 65 39 64 76 C64 76 85 627 85 627 C85 627 333 4 333 4 C333 4 337 -5 337 -5 C337 -5 344 -5 344 -5 C344 -5 598 644 598 644 C598 644 620 80 620 80 C622 41 615 15 603 15 C603 15 600 15 600 15 C600 15 600 0 600 0 C600 0 624 0 624 0 C624 0 638 0 638 0 C638 0 652 0 652 0 C652 0 676 0 676 0 C676 0 676 15 676 15 C676 15 672 15 672 15 C660 15 651 41 648 80 C648 80 626 580 626 580 C624 619 631 645 642 645 C642 645 646 645 646 645 C646 645 646 660 646 660 L646 660 Z " />
<glyph glyph-name="N" unicode="N" horiz-adv-x="598" d="M558 660 C558 660 534 660 534 660 C534 660 530 660 530 660 C530 660 526 660 526 660 C526 660 502 660 502 660 C502 660 502 645 502 645 C502 645 506 645 506 645 C518 645 526 619 526 580 C526 580 526 34 526 34 C526 34 104 660 104 660 C104 660 84 650 84 650 C84 650 84 651 84 651 C84 651 104 660 104 660 C104 660 84 660 84 660 C84 660 80 660 80 660 C80 660 76 660 76 660 C76 660 52 660 52 660 C52 660 52 645 52 645 C52 645 55 645 55 645 C68 645 76 619 76 580 C76 580 76 80 76 80 C76 41 68 15 55 15 C55 15 52 15 52 15 C52 15 52 0 52 0 C52 0 76 0 76 0 C76 0 80 0 80 0 C80 0 84 0 84 0 C84 0 108 0 108 0 C108 0 108 15 108 15 C108 15 105 15 105 15 C92 15 84 41 84 80 C84 80 84 638 84 638 C84 638 513 4 513 4 C513 4 518 -4 518 -4 C518 -4 534 -4 534 -4 C534 -4 534 15 534 15 C534 15 534 580 534 580 C535 619 543 645 555 645 C555 645 558 645 558 645 C558 645 558 660 558 660 L558 660 Z " />
<glyph glyph-name="O" unicode="O" horiz-adv-x="772" d="M396 2 C206 2 108 153 108 330 C108 507 206 658 396 658 C586 658 684 507 684 330 C684 153 586 2 396 2 L396 2 Z M76 330 C76 149 185 -5 396 -5 C607 -5 716 149 716 330 C716 511 607 665 396 665 C185 665 76 511 76 330 L76 330 Z " />
<glyph glyph-name="P" unicode="P" horiz-adv-x="518" d="M65 645 C65 645 68 645 68 645 C81 645 89 619 89 580 C89 580 89 80 89 80 C89 41 81 15 68 15 C68 15 65 15 65 15 C65 15 65 0 65 0 C65 0 89 0 89 0 C89 0 103 0 103 0 C103 0 117 0 117 0 C117 0 141 0 141 0 C141 0 141 15 141 15 C141 15 138 15 138 15 C126 15 118 41 117 80 C117 80 117 300 117 300 C117 300 255 300 255 300 C397 300 491 371 491 478 C491 587 410 660 289 660 C289 660 117 660 117 660 C117 660 103 660 103 660 C103 660 89 660 89 660 C89 660 65 660 65 660 C65 660 65 645 65 645 L65 645 Z M117 305 C117 305 117 654 117 654 C117 654 289 654 289 654 C392 654 461 583 461 478 C461 374 379 305 255 305 C255 305 117 305 117 305 L117 305 Z " />
<glyph glyph-name="Q" unicode="Q" horiz-adv-x="772" d="M807 -50 C807 -50 805 -49 805 -49 C776 -84 713 -108 650 -108 C545 -108 463 -67 399 -5 C608 -4 716 150 716 330 C716 511 607 665 396 665 C185 665 76 511 76 330 C76 150 183 -3 391 -5 C463 -76 550 -123 647 -123 C707 -123 771 -94 807 -50 L807 -50 Z M396 2 C206 2 108 153 108 330 C108 507 206 658 396 658 C586 658 684 507 684 330 C684 153 586 2 396 2 L396 2 Z " />
<glyph glyph-name="R" unicode="R" horiz-adv-x="557" d="M65 645 C65 645 68 645 68 645 C81 645 89 619 89 580 C89 580 89 80 89 80 C89 41 81 15 68 15 C68 15 65 15 65 15 C65 15 65 0 65 0 C65 0 89 0 89 0 C89 0 103 0 103 0 C103 0 117 0 117 0 C117 0 141 0 141 0 C141 0 141 15 141 15 C141 15 138 15 138 15 C126 15 118 41 117 80 C117 80 117 319 117 319 C117 319 227 319 227 319 C227 319 419 106 419 106 C510 4 515 0 539 0 C539 0 550 0 550 0 C550 0 550 4 550 4 C550 4 545 4 545 4 C537 4 533 8 449 102 C449 102 253 319 253 319 C374 324 453 391 453 490 C453 592 380 660 270 660 C270 660 117 660 117 660 C117 660 103 660 103 660 C103 660 89 660 89 660 C89 660 65 660 65 660 C65 660 65 645 65 645 L65 645 Z M239 324 C239 324 223 324 223 324 C223 324 117 324 117 324 C117 324 117 654 117 654 C117 654 270 654 270 654 C361 654 422 588 422 490 C422 390 349 324 239 324 L239 324 Z " />
<glyph glyph-name="S" unicode="S" horiz-adv-x="513" d="M50 126 C50 126 50 80 50 80 C84 29 179 -5 288 -5 C392 -5 462 61 462 161 C462 236 386 308 271 341 C158 374 83 438 83 501 C83 595 144 658 236 658 C261 658 286 655 309 648 C309 648 309 648 309 648 C341 640 377 608 399 568 C405 558 413 544 419 534 C419 534 432 534 432 534 C432 534 432 580 432 580 C398 631 320 665 237 665 C133 665 63 595 63 489 C63 419 137 351 249 319 C364 285 441 217 441 149 C441 61 380 2 288 2 C262 2 236 4 212 8 C157 20 104 57 76 104 C72 111 67 119 63 126 C63 126 50 126 50 126 L50 126 Z " />
<glyph glyph-name="T" unicode="T" horiz-adv-x="633" d="M355 15 C355 15 352 15 352 15 C340 15 332 41 331 80 C331 80 331 653 331 653 C331 653 453 653 453 653 C501 653 551 637 577 612 C577 612 585 605 585 605 C585 605 597 605 597 605 C596 621 594 641 593 656 C593 657 592 659 592 660 C592 660 587 660 587 660 C587 660 512 660 512 660 C512 660 122 660 122 660 C122 660 47 660 47 660 C47 660 42 660 42 660 C41 659 41 657 41 656 C40 641 38 621 37 605 C37 605 49 605 49 605 C49 605 57 612 57 612 C83 637 133 653 181 653 C181 653 303 653 303 653 C303 653 303 80 303 80 C303 41 295 15 282 15 C282 15 279 15 279 15 C279 15 279 0 279 0 C279 0 303 0 303 0 C303 0 317 0 317 0 C317 0 331 0 331 0 C331 0 355 0 355 0 C355 0 355 15 355 15 L355 15 Z " />
<glyph glyph-name="U" unicode="U" horiz-adv-x="596" d="M569 660 C569 660 542 660 542 660 C542 660 539 660 539 660 C539 660 536 660 536 660 C536 660 507 660 507 660 C507 660 507 645 507 645 C507 645 511 645 511 645 C525 645 534 619 536 580 C536 580 535 176 535 176 C535 73 475 5 319 5 C166 5 107 82 107 198 C107 198 107 580 107 580 C108 619 116 645 128 645 C128 645 131 645 131 645 C131 645 131 660 131 660 C131 660 107 660 107 660 C107 660 93 660 93 660 C93 660 79 660 79 660 C79 660 55 660 55 660 C55 660 55 645 55 645 C55 645 58 645 58 645 C71 645 79 619 79 580 C79 580 79 203 79 203 C79 78 145 -5 315 -5 C478 -5 542 66 542 173 C542 173 542 570 542 570 C542 615 552 645 565 645 C565 645 569 645 569 645 C569 645 569 660 569 660 L569 660 Z " />
<glyph glyph-name="V" unicode="V" horiz-adv-x="571" d="M528 660 C528 660 509 660 509 660 C509 660 506 660 506 660 C506 660 503 660 503 660 C503 660 464 660 464 660 C464 660 464 645 464 645 C464 645 469 645 469 645 C487 645 487 607 469 550 C469 550 469 550 469 550 C469 550 307 17 307 17 C307 17 103 593 103 593 C93 625 95 645 106 645 C106 645 110 645 110 645 C110 645 110 660 110 660 C110 660 79 660 79 660 C79 660 63 660 63 660 C63 660 47 660 47 660 C47 660 33 660 33 660 C34 660 34 657 33 653 C34 648 34 645 33 645 C33 645 36 645 36 645 C45 645 59 624 72 592 C72 592 297 -15 297 -15 C297 -15 303 -15 303 -15 C303 -15 485 580 485 580 C485 580 485 580 485 580 C497 619 513 645 525 645 C525 645 528 645 528 645 C528 645 528 660 528 660 L528 660 Z " />
<glyph glyph-name="W" unicode="W" horiz-adv-x="850" d="M821 660 C821 660 802 660 802 660 C802 660 798 660 798 660 C798 660 795 660 795 660 C795 660 762 660 762 660 C762 660 762 645 762 645 C762 645 766 645 766 645 C780 645 783 623 775 589 C775 589 618 21 618 21 C618 21 432 670 432 670 C432 670 426 670 426 670 C426 670 254 19 254 19 C254 19 91 597 91 597 C85 626 87 645 98 645 C98 645 101 645 101 645 C101 645 101 660 101 660 C101 660 73 660 73 660 C73 660 57 660 57 660 C57 660 41 660 41 660 C41 660 26 660 26 660 C27 660 27 657 26 653 C27 648 27 645 26 645 C26 645 29 645 29 645 C39 645 54 619 65 580 C65 580 65 580 65 580 C65 580 245 -15 245 -15 C245 -15 251 -15 251 -15 C251 -15 432 670 432 670 C432 670 422 632 422 632 C422 632 608 -15 608 -15 C608 -15 613 -15 613 -15 C613 -15 784 597 784 597 C795 627 807 645 818 645 C818 645 821 645 821 645 C821 645 821 660 821 660 L821 660 Z " />
<glyph glyph-name="X" unicode="X" horiz-adv-x="616" d="M500 645 C500 645 503 645 503 645 C516 645 507 619 480 580 C480 580 480 580 480 580 C480 580 320 346 320 346 C320 346 161 580 161 580 C161 580 162 580 162 580 C135 619 125 645 136 645 C136 645 139 645 139 645 C139 645 139 660 139 660 C139 660 107 660 107 660 C107 660 91 660 91 660 C91 660 74 660 74 660 C74 660 67 660 67 660 C67 660 67 645 67 645 C67 645 70 645 70 645 C78 645 96 626 118 596 C118 596 301 327 301 327 C301 327 301 327 301 327 C301 327 149 80 149 80 C149 80 149 80 149 80 C125 41 101 15 89 15 C89 15 85 15 85 15 C85 15 85 0 85 0 C85 0 100 0 100 0 C100 0 105 0 105 0 C105 0 110 0 110 0 C110 0 145 0 145 0 C145 0 145 15 145 15 C145 15 142 15 142 15 C130 15 138 44 164 89 C164 89 306 320 306 320 C306 320 469 80 469 80 C469 80 469 80 469 80 C495 41 506 15 495 15 C495 15 492 15 492 15 C492 15 492 0 492 0 C492 0 524 0 524 0 C524 0 540 0 540 0 C540 0 556 0 556 0 C556 0 564 0 564 0 C564 0 564 15 564 15 C564 15 561 15 561 15 C552 15 528 41 502 80 C502 80 502 80 502 80 C502 80 325 340 325 340 C325 340 325 340 325 340 C325 340 491 580 491 580 C491 580 491 580 491 580 C518 619 544 645 556 645 C556 645 559 645 559 645 C560 645 560 648 559 653 C560 657 560 660 559 660 C559 660 546 660 546 660 C546 660 540 660 540 660 C540 660 535 660 535 660 C535 660 500 660 500 660 C500 660 500 645 500 645 L500 645 Z " />
<glyph glyph-name="Y" unicode="Y" horiz-adv-x="523" d="M312 15 C312 15 309 15 309 15 C297 15 290 35 289 67 C289 67 289 80 289 80 C289 80 289 265 289 265 C289 265 458 588 458 588 C477 623 496 645 505 645 C505 645 509 645 509 645 C509 645 509 660 509 660 C509 660 496 660 496 660 C496 660 492 660 492 660 C492 660 489 660 489 660 C489 660 454 660 454 660 C454 660 454 645 454 645 C454 645 458 645 458 645 C470 645 465 618 445 576 C445 576 283 266 283 266 C283 266 277 266 277 266 C277 266 126 580 126 580 C126 580 126 580 126 580 C107 619 102 645 113 645 C113 645 116 645 116 645 C115 645 115 648 116 653 C115 657 115 660 116 660 C116 660 87 660 87 660 C87 660 70 660 70 660 C70 660 53 660 53 660 C53 660 43 660 43 660 C42 660 42 657 43 653 C42 648 42 645 43 645 C43 645 45 645 45 645 C54 645 73 619 93 580 C93 580 93 580 93 580 C93 580 260 249 260 249 C260 249 260 80 260 80 C260 41 252 15 240 15 C240 15 236 15 236 15 C236 15 236 0 236 0 C236 0 260 0 260 0 C260 0 274 0 274 0 C274 0 289 0 289 0 C289 0 312 0 312 0 C312 0 312 15 312 15 L312 15 Z " />
<glyph glyph-name="Z" unicode="Z" horiz-adv-x="590" d="M529 4 C532 18 535 38 538 53 C538 53 534 53 534 53 C525 54 519 55 519 55 C519 55 512 48 512 48 C490 24 439 8 385 7 C385 7 104 7 104 7 C104 7 536 660 536 660 C536 660 520 660 520 660 C520 660 503 660 503 660 C503 660 222 660 222 660 C222 660 147 660 147 660 C147 660 142 660 142 660 C141 659 141 657 141 656 C137 644 133 627 129 615 C129 615 141 615 141 615 C141 615 150 620 150 620 C180 640 232 653 280 653 C280 653 498 653 498 653 C498 653 67 0 67 0 C67 0 83 0 83 0 C83 0 99 0 99 0 C99 0 448 0 448 0 C448 0 528 0 528 0 C529 1 529 3 529 4 L529 4 Z " />
<glyph glyph-name="bracketleft" unicode="&#x5b;" horiz-adv-x="227" d="M106 656 C106 656 211 656 211 656 C211 656 211 660 211 660 C211 660 106 660 106 660 C106 660 90 660 90 660 C90 660 90 -120 90 -120 C90 -120 106 -120 106 -120 C106 -120 211 -120 211 -120 C211 -120 211 -116 211 -116 C211 -116 106 -116 106 -116 C106 -116 106 656 106 656 L106 656 Z " />
<glyph glyph-name="backslash" unicode="&#x5c;" horiz-adv-x="217" d="M204 -145 C204 -145 211 -145 211 -145 C211 -145 -46 710 -46 710 C-46 710 -53 710 -53 710 C-53 710 204 -145 204 -145 L204 -145 Z " />
<glyph glyph-name="bracketright" unicode="&#x5d;" horiz-adv-x="202" d="M110 656 C110 656 110 -116 110 -116 C110 -116 5 -116 5 -116 C5 -116 5 -120 5 -120 C5 -120 110 -120 110 -120 C110 -120 125 -120 125 -120 C125 -120 125 660 125 660 C125 660 110 660 110 660 C110 660 5 660 5 660 C5 660 5 656 5 656 C5 656 110 656 110 656 L110 656 Z " />
<glyph glyph-name="underscore" unicode="&#x5f;" horiz-adv-x="461" d="M12 -50 C12 -50 12 -61 12 -61 C12 -61 450 -61 450 -61 C450 -61 450 -50 450 -50 C450 -50 12 -50 12 -50 L12 -50 Z " />
<glyph glyph-name="a" unicode="a" horiz-adv-x="482" d="M454 34 C433 14 415 0 399 0 C369 0 361 22 361 54 C361 54 361 363 361 363 C361 448 317 505 250 505 C121 505 55 451 84 369 C84 369 104 369 104 369 C76 447 132 499 246 499 C302 499 340 446 340 367 C340 367 340 245 340 245 C340 245 201 226 201 226 C106 213 42 162 42 100 C42 37 86 -5 153 -5 C220 -5 293 30 340 82 C340 82 340 52 340 52 C340 15 350 -10 385 -10 C408 -10 431 7 456 31 C456 31 454 34 454 34 L454 34 Z M340 240 C340 240 340 86 340 86 C297 39 228 8 163 8 C102 8 62 47 62 106 C62 162 118 207 201 219 C201 219 340 240 340 240 L340 240 Z " />
<glyph glyph-name="b" unicode="b" horiz-adv-x="526" d="M33 699 C54 678 57 662 57 605 C57 605 57 0 57 0 C57 0 59 0 59 0 C61 12 66 20 72 20 C116 20 158 4 211 -2 C224 -4 238 -5 253 -5 C395 -5 489 95 489 246 C489 401 398 505 261 505 C176 505 103 465 77 405 C77 405 77 610 77 610 C77 610 77 715 77 715 C77 715 77 720 77 720 C77 720 73 720 73 720 C73 720 33 708 33 708 C33 708 33 699 33 699 L33 699 Z M77 397 C99 456 167 496 246 496 C379 496 468 392 468 237 C468 95 382 1 253 1 C147 1 77 46 77 113 C77 113 77 397 77 397 L77 397 Z " />
<glyph glyph-name="c" unicode="c" horiz-adv-x="433" d="M386 103 C386 103 383 104 383 104 C355 46 293 7 227 7 C124 7 55 103 55 246 C55 398 142 499 273 499 C326 499 364 461 369 403 C370 397 374 393 379 393 C385 393 388 397 388 402 C383 464 337 505 275 505 C130 505 34 398 34 238 C34 92 104 -5 210 -5 C284 -5 355 38 386 103 L386 103 Z " />
<glyph glyph-name="d" unicode="d" horiz-adv-x="529" d="M473 21 C452 42 449 58 449 115 C449 115 449 610 449 610 C449 610 449 715 449 715 C449 715 449 720 449 720 C449 720 445 720 445 720 C445 720 405 708 405 708 C405 708 405 699 405 699 C426 678 429 662 429 605 C429 605 429 395 429 395 C406 460 336 505 239 505 C111 505 26 394 26 228 C26 88 108 -5 231 -5 C328 -5 406 24 429 68 C429 68 429 5 429 5 C429 5 429 0 429 0 C429 0 433 0 433 0 C433 0 473 12 473 12 C473 12 473 21 473 21 L473 21 Z M429 110 C429 110 429 73 429 73 C411 33 337 7 242 7 C125 7 47 98 47 236 C47 394 123 500 238 500 C343 500 416 447 429 371 C429 371 429 110 429 110 L429 110 Z " />
<glyph glyph-name="e" unicode="e" horiz-adv-x="450" d="M392 103 C392 103 389 104 389 104 C361 46 297 7 229 7 C124 7 54 103 54 246 C54 277 57 305 63 331 C63 331 394 331 394 331 C394 435 331 505 237 505 C115 505 33 398 33 238 C33 92 105 -5 212 -5 C289 -5 361 38 392 103 L392 103 Z M63 334 C86 436 150 499 236 499 C319 499 375 438 375 347 C375 342 371 338 366 338 C366 338 375 338 375 338 C375 338 63 334 63 334 L63 334 Z " />
<glyph glyph-name="f" unicode="f" horiz-adv-x="263" d="M137 15 C137 15 133 15 133 15 C121 15 113 41 113 80 C113 80 113 492 113 492 C113 492 248 492 248 492 C248 492 248 500 248 500 C248 500 113 500 113 500 C113 500 113 533 113 533 C113 643 157 716 224 716 C257 716 281 694 284 660 C285 655 289 652 294 652 C299 652 303 655 303 660 C300 696 271 720 230 720 C151 720 97 647 94 537 C94 537 93 500 93 500 C93 500 1 500 1 500 C1 500 1 492 1 492 C1 492 93 492 93 492 C93 492 93 80 93 80 C93 41 85 15 73 15 C73 15 69 15 69 15 C69 15 69 0 69 0 C69 0 93 0 93 0 C93 0 103 0 103 0 C103 0 113 0 113 0 C113 0 137 0 137 0 C137 0 137 15 137 15 L137 15 Z " />
<glyph glyph-name="g" unicode="g" horiz-adv-x="475" d="M469 500 C469 500 331 495 331 495 C310 502 286 505 261 505 C154 505 83 444 83 352 C83 272 137 215 221 202 C221 202 206 202 206 202 C121 202 64 170 64 122 C64 67 118 33 200 37 C200 37 266 40 266 40 C367 40 434 -3 434 -69 C434 -166 334 -231 185 -231 C105 -231 52 -178 52 -98 C52 -50 107 -3 188 19 C188 19 186 21 186 21 C98 -3 39 -52 39 -100 C39 -182 96 -236 182 -236 C342 -236 449 -165 449 -59 C449 12 378 59 272 59 C272 59 199 56 199 56 C126 52 77 81 77 130 C77 171 129 199 206 199 C206 199 261 199 261 199 C368 199 439 260 439 352 C439 415 405 464 349 488 C349 488 469 489 469 489 C469 489 469 500 469 500 L469 500 Z M102 352 C102 441 166 501 261 501 C286 501 309 497 329 489 C329 489 329 488 329 488 C329 488 332 488 332 488 C386 466 420 417 420 352 C420 263 356 203 261 203 C166 203 102 263 102 352 C102 352 102 352 102 352 L102 352 Z " />
<glyph glyph-name="h" unicode="h" horiz-adv-x="524" d="M410 0 C410 0 434 0 434 0 C434 0 444 0 444 0 C444 0 454 0 454 0 C454 0 478 0 478 0 C477 0 477 3 478 7 C477 12 477 15 478 15 C478 15 474 15 474 15 C463 15 455 36 454 68 C454 68 454 80 454 80 C454 80 454 336 454 336 C454 437 417 505 320 505 C216 505 128 458 96 387 C96 387 96 610 96 610 C96 610 96 715 96 715 C96 715 96 720 96 720 C96 720 92 720 92 720 C92 720 52 708 52 708 C52 708 52 699 52 699 C71 674 76 664 76 605 C76 605 76 80 76 80 C76 41 68 15 55 15 C55 15 52 15 52 15 C52 15 52 0 52 0 C52 0 76 0 76 0 C76 0 86 0 86 0 C86 0 96 0 96 0 C96 0 120 0 120 0 C119 0 119 3 120 8 C119 12 119 15 120 15 C120 15 116 15 116 15 C105 15 97 36 96 68 C96 68 96 80 96 80 C96 80 96 383 96 383 C124 448 206 492 305 492 C398 492 434 429 434 333 C434 333 434 80 434 80 C434 41 426 15 413 15 C413 15 410 15 410 15 C410 15 410 0 410 0 L410 0 Z " />
<glyph glyph-name="i" unicode="i" horiz-adv-x="171" d="M52 479 C73 458 76 442 76 385 C76 385 76 80 76 80 C76 41 68 15 56 15 C56 15 52 15 52 15 C52 15 52 0 52 0 C52 0 76 0 76 0 C76 0 86 0 86 0 C86 0 96 0 96 0 C96 0 120 0 120 0 C120 0 120 15 120 15 C120 15 116 15 116 15 C104 15 96 41 96 80 C96 80 96 390 96 390 C96 390 96 495 96 495 C96 495 96 500 96 500 C96 500 92 500 92 500 C92 500 52 488 52 488 C52 488 52 479 52 479 L52 479 Z M85 570 C97 570 105 578 105 590 C105 602 97 610 85 610 C73 610 65 602 65 590 C65 578 73 570 85 570 L85 570 Z " />
<glyph glyph-name="j" unicode="j" horiz-adv-x="171" d="M52 479 C73 458 76 442 76 385 C76 385 76 12 76 12 C76 -132 49 -176 -33 -226 C-33 -226 -31 -229 -31 -229 C64 -170 96 -123 96 18 C96 18 96 390 96 390 C96 390 96 495 96 495 C96 495 96 500 96 500 C96 500 92 500 92 500 C92 500 52 488 52 488 C52 488 52 479 52 479 L52 479 Z M85 570 C97 570 105 578 105 590 C105 602 97 610 85 610 C73 610 65 602 65 590 C65 578 73 570 85 570 L85 570 Z " />
<glyph glyph-name="k" unicode="k" horiz-adv-x="429" d="M446 15 C446 15 442 15 442 15 C430 15 394 41 352 80 C352 80 351 80 351 80 C351 80 130 285 130 285 C130 285 322 438 322 438 C360 467 391 485 401 485 C401 485 405 485 405 485 C405 485 405 500 405 500 C405 500 400 500 400 500 C400 500 395 500 395 500 C395 500 391 500 391 500 C391 500 367 500 367 500 C367 500 367 485 367 485 C367 485 368 485 368 485 C370 485 340 459 291 420 C291 420 292 420 292 420 C292 420 112 275 112 275 C112 275 112 610 112 610 C112 610 112 715 112 715 C112 715 112 720 112 720 C112 720 108 720 108 720 C108 720 68 708 68 708 C68 708 68 699 68 699 C89 678 92 662 92 605 C92 605 92 80 92 80 C92 41 84 15 72 15 C72 15 68 15 68 15 C68 15 68 0 68 0 C68 0 92 0 92 0 C92 0 102 0 102 0 C102 0 112 0 112 0 C112 0 136 0 136 0 C136 0 136 15 136 15 C136 15 132 15 132 15 C120 15 112 41 112 80 C112 80 112 275 112 275 C112 275 114 272 114 272 C114 272 115 273 115 273 C115 273 348 60 348 60 C377 32 393 15 391 15 C391 15 390 15 390 15 C390 15 390 0 390 0 C390 0 413 0 413 0 C413 0 426 0 426 0 C426 0 438 0 438 0 C438 0 446 0 446 0 C446 0 446 15 446 15 L446 15 Z " />
<glyph glyph-name="l" unicode="l" horiz-adv-x="171" d="M52 699 C73 678 76 662 76 605 C76 605 76 80 76 80 C76 41 68 15 56 15 C56 15 52 15 52 15 C52 15 52 0 52 0 C52 0 76 0 76 0 C76 0 86 0 86 0 C86 0 96 0 96 0 C96 0 120 0 120 0 C120 0 120 15 120 15 C120 15 116 15 116 15 C104 15 96 41 96 80 C96 80 96 610 96 610 C96 610 96 715 96 715 C96 715 96 720 96 720 C96 720 92 720 92 720 C92 720 52 708 52 708 C52 708 52 699 52 699 L52 699 Z " />
<glyph glyph-name="m" unicode="m" horiz-adv-x="902" d="M855 15 C855 15 852 15 852 15 C841 15 833 36 832 68 C832 68 832 80 832 80 C832 80 832 336 832 336 C832 437 771 505 690 505 C571 505 490 463 456 398 C437 464 388 505 327 505 C208 505 127 458 96 387 C96 387 96 390 96 390 C96 390 96 415 96 415 C96 415 96 500 96 500 C96 500 92 500 92 500 C92 500 52 488 52 488 C52 488 52 479 52 479 C71 454 76 444 76 385 C76 385 76 80 76 80 C76 41 68 15 55 15 C55 15 52 15 52 15 C52 15 52 0 52 0 C52 0 76 0 76 0 C76 0 86 0 86 0 C86 0 96 0 96 0 C96 0 120 0 120 0 C119 0 119 3 120 8 C119 12 119 15 120 15 C120 15 116 15 116 15 C105 15 97 36 96 68 C96 68 96 80 96 80 C96 80 96 383 96 383 C124 449 200 493 311 493 C387 493 444 429 444 333 C444 333 444 80 444 80 C444 41 436 15 423 15 C423 15 420 15 420 15 C420 15 420 0 420 0 C420 0 444 0 444 0 C444 0 454 0 454 0 C454 0 464 0 464 0 C464 0 488 0 488 0 C487 0 487 3 488 7 C487 12 487 15 488 15 C488 15 484 15 484 15 C473 15 465 36 464 68 C464 68 464 80 464 80 C464 80 464 336 464 336 C464 357 462 376 457 393 C488 453 564 492 674 492 C753 492 812 429 812 333 C812 333 812 80 812 80 C812 41 804 15 791 15 C791 15 788 15 788 15 C788 15 788 0 788 0 C788 0 812 0 812 0 C812 0 822 0 822 0 C822 0 832 0 832 0 C832 0 855 0 855 0 C855 0 855 15 855 15 L855 15 Z " />
<glyph glyph-name="n" unicode="n" horiz-adv-x="524" d="M410 0 C410 0 434 0 434 0 C434 0 444 0 444 0 C444 0 454 0 454 0 C454 0 478 0 478 0 C477 0 477 3 478 7 C477 12 477 15 478 15 C478 15 474 15 474 15 C463 15 455 36 454 68 C454 68 454 80 454 80 C454 80 454 336 454 336 C454 437 417 505 320 505 C216 505 128 458 96 387 C96 387 96 390 96 390 C96 390 96 415 96 415 C96 415 96 500 96 500 C96 500 92 500 92 500 C92 500 52 488 52 488 C52 488 52 479 52 479 C71 454 76 444 76 385 C76 385 76 80 76 80 C76 41 68 15 55 15 C55 15 52 15 52 15 C52 15 52 0 52 0 C52 0 76 0 76 0 C76 0 86 0 86 0 C86 0 96 0 96 0 C96 0 120 0 120 0 C119 0 119 3 120 8 C119 12 119 15 120 15 C120 15 116 15 116 15 C105 15 97 36 96 68 C96 68 96 80 96 80 C96 80 96 383 96 383 C124 448 206 492 305 492 C398 492 434 429 434 333 C434 333 434 80 434 80 C434 41 426 15 413 15 C413 15 410 15 410 15 C410 15 410 0 410 0 L410 0 Z " />
<glyph glyph-name="o" unicode="o" horiz-adv-x="570" d="M285 -1 C154 -1 67 99 67 250 C67 401 154 501 285 501 C416 501 503 401 503 250 C503 99 416 -1 285 -1 L285 -1 Z M45 250 C45 97 141 -5 285 -5 C429 -5 525 97 525 250 C525 403 429 505 285 505 C141 505 45 403 45 250 L45 250 Z " />
<glyph glyph-name="p" unicode="p" horiz-adv-x="565" d="M41 479 C60 454 65 444 65 385 C65 385 65 -150 65 -150 C65 -189 57 -215 44 -215 C44 -215 41 -215 41 -215 C41 -215 41 -230 41 -230 C41 -230 65 -230 65 -230 C65 -230 75 -230 75 -230 C75 -230 85 -230 85 -230 C85 -230 109 -230 109 -230 C108 -230 108 -227 109 -222 C108 -218 108 -215 109 -215 C109 -215 105 -215 105 -215 C94 -215 86 -194 85 -162 C85 -162 85 -150 85 -150 C85 -150 85 97 85 97 C110 34 178 -5 269 -5 C417 -5 516 98 516 252 C516 404 429 505 299 505 C183 505 101 459 85 387 C85 387 85 390 85 390 C85 390 85 415 85 415 C85 415 84 415 84 415 C84 415 82 500 82 500 C82 500 78 500 78 500 C78 500 41 488 41 488 C41 488 41 479 41 479 L41 479 Z M85 156 C85 156 85 372 85 372 C95 445 172 492 283 492 C411 492 496 390 496 236 C496 95 405 1 269 1 C159 1 85 63 85 156 C85 156 85 156 85 156 L85 156 Z " />
<glyph glyph-name="q" unicode="q" horiz-adv-x="553" d="M434 -230 C434 -230 458 -230 458 -230 C458 -230 468 -230 468 -230 C468 -230 478 -230 478 -230 C478 -230 502 -230 502 -230 C502 -230 501 -227 502 -222 C501 -218 502 -215 502 -215 C502 -215 498 -215 498 -215 C486 -215 478 -189 478 -150 C478 -150 478 500 478 500 C478 500 475 500 475 500 C473 485 468 475 461 475 C416 475 373 495 319 502 C314 503 310 503 305 504 C297 505 288 505 279 505 C145 505 56 394 56 228 C56 88 137 -5 258 -5 C354 -5 432 30 458 83 C458 83 458 -150 458 -150 C458 -189 450 -215 437 -215 C437 -215 434 -215 434 -215 C434 -215 434 -230 434 -230 L434 -230 Z M458 91 C438 41 363 7 269 7 C154 7 77 98 77 236 C77 394 158 499 279 499 C386 499 458 443 458 360 C458 360 458 91 458 91 L458 91 Z " />
<glyph glyph-name="r" unicode="r" horiz-adv-x="366" d="M52 479 C71 454 76 444 76 385 C76 385 76 80 76 80 C76 41 68 15 55 15 C55 15 52 15 52 15 C52 15 52 0 52 0 C52 0 76 0 76 0 C76 0 86 0 86 0 C86 0 96 0 96 0 C96 0 120 0 120 0 C119 0 119 3 120 8 C119 12 119 15 120 15 C120 15 116 15 116 15 C105 15 97 36 96 68 C96 68 96 80 96 80 C96 80 96 372 96 372 C115 444 171 490 240 490 C273 490 308 460 340 460 C346 460 350 464 350 470 C350 491 324 505 256 505 C178 505 116 454 96 376 C96 376 96 390 96 390 C96 390 96 415 96 415 C96 415 95 415 95 415 C95 415 93 500 93 500 C93 500 89 500 89 500 C89 500 52 488 52 488 C52 488 52 479 52 479 L52 479 Z " />
<glyph glyph-name="s" unicode="s" horiz-adv-x="436" d="M55 94 C55 94 55 63 55 63 C83 22 157 -5 241 -5 C324 -5 380 48 380 128 C380 175 325 226 243 257 C153 290 94 344 94 392 C94 457 141 501 211 501 C227 501 243 499 258 494 C258 494 258 494 258 494 C289 485 320 455 337 419 C339 414 342 408 344 404 C344 404 356 404 356 404 C356 404 356 432 356 432 C327 476 269 505 211 505 C132 505 79 457 79 385 C79 334 139 277 228 243 C309 213 363 164 363 120 C363 48 315 0 242 0 C221 0 201 2 182 5 C141 14 101 42 77 78 C74 83 70 89 66 94 C66 94 55 94 55 94 L55 94 Z " />
<glyph glyph-name="t" unicode="t" horiz-adv-x="357" d="M320 500 C320 500 139 500 139 500 C139 500 139 640 139 640 C139 640 136 640 136 640 C136 640 123 523 123 523 C118 508 83 497 32 494 C32 494 32 492 32 492 C32 492 119 492 119 492 C119 492 119 110 119 110 C119 20 137 -5 202 -5 C260 -5 298 35 330 94 C330 94 329 95 329 95 C298 40 263 4 212 4 C155 4 139 27 139 106 C139 106 139 492 139 492 C139 492 320 492 320 492 C320 492 320 500 320 500 L320 500 Z " />
<glyph glyph-name="u" unicode="u" horiz-adv-x="489" d="M380 485 C380 485 383 485 383 485 C396 485 404 459 404 420 C404 420 404 110 404 110 C404 110 404 91 404 91 C385 41 330 8 223 8 C119 8 66 68 66 159 C66 159 66 500 66 500 C66 500 56 500 56 500 C56 500 46 500 46 500 C46 500 22 500 22 500 C22 500 22 485 22 485 C22 485 25 485 25 485 C38 485 46 459 46 420 C46 420 46 156 46 156 C46 60 101 -5 207 -5 C321 -5 380 31 404 86 C404 86 404 5 404 5 C404 5 404 0 404 0 C404 0 408 0 408 0 C408 0 448 12 448 12 C447 12 447 12 448 13 C447 17 447 21 448 21 C431 38 425 52 424 88 C424 88 424 115 424 115 C424 115 424 500 424 500 C424 500 414 500 414 500 C414 500 404 500 404 500 C404 500 380 500 380 500 C380 500 380 485 380 485 L380 485 Z " />
<glyph glyph-name="v" unicode="v" horiz-adv-x="442" d="M408 500 C408 500 390 500 390 500 C390 500 386 500 386 500 C386 500 383 500 383 500 C383 500 359 500 359 500 C359 500 359 485 359 485 C359 485 362 485 362 485 C371 485 369 459 355 420 C355 420 356 420 356 420 C356 420 217 16 217 16 C217 16 82 429 82 429 C72 463 71 485 80 485 C80 485 83 485 83 485 C83 485 83 500 83 500 C83 500 59 500 59 500 C59 500 47 500 47 500 C47 500 36 500 36 500 C36 500 17 500 17 500 C17 500 17 485 17 485 C17 485 21 485 21 485 C33 485 49 461 61 424 C61 424 208 -10 208 -10 C208 -10 211 -10 211 -10 C211 -10 362 420 362 420 C362 420 362 420 362 420 C375 459 392 485 405 485 C405 485 408 485 408 485 C408 485 408 500 408 500 L408 500 Z " />
<glyph glyph-name="w" unicode="w" horiz-adv-x="661" d="M646 500 C646 500 632 500 632 500 C632 500 626 500 626 500 C626 500 592 500 592 500 C592 500 592 485 592 485 C592 485 599 485 599 485 C612 485 616 471 590 396 C590 396 590 396 590 396 C590 396 460 16 460 16 C460 16 331 411 331 411 C331 411 331 411 331 411 C331 411 331 411 331 411 C331 411 326 427 326 427 C311 475 315 485 326 485 C326 485 332 485 332 485 C332 485 332 500 332 500 C332 500 302 500 302 500 C302 500 279 500 279 500 C279 500 267 500 267 500 C267 500 267 485 267 485 C267 485 271 485 271 485 C279 485 288 473 310 408 C310 408 310 408 310 408 C310 408 342 313 342 313 C342 313 342 313 342 313 C342 313 232 -10 232 -10 C232 -10 240 15 240 15 C240 15 112 411 112 411 C112 411 112 411 112 411 C91 473 94 485 105 485 C105 485 111 485 111 485 C111 485 111 500 111 500 C111 500 83 500 83 500 C83 500 60 500 60 500 C60 500 46 500 46 500 C46 500 46 485 46 485 C46 485 51 485 51 485 C59 485 69 473 91 408 C91 408 91 408 91 408 C91 408 232 -10 232 -10 C232 -10 235 -10 235 -10 C235 -10 344 307 344 307 C344 307 451 -10 451 -10 C451 -10 454 -10 454 -10 C454 -10 598 403 598 403 C598 403 599 404 599 404 C623 472 633 485 641 485 C641 485 646 485 646 485 C646 485 646 500 646 500 L646 500 Z " />
<glyph glyph-name="x" unicode="x" horiz-adv-x="519" d="M434 500 C434 500 420 500 420 500 C420 500 417 500 417 500 C417 500 414 500 414 500 C414 500 382 500 382 500 C382 500 382 485 382 485 C382 485 385 485 385 485 C396 485 386 459 360 420 C360 420 265 279 265 279 C265 279 154 420 154 420 C154 420 154 420 154 420 C123 459 109 485 117 485 C117 485 120 485 120 485 C120 485 120 500 120 500 C120 500 91 500 91 500 C91 500 79 500 79 500 C79 500 67 500 67 500 C67 500 59 500 59 500 C59 500 59 485 59 485 C59 485 62 485 62 485 C72 485 99 459 129 420 C129 420 130 420 130 420 C130 420 253 262 253 262 C253 262 252 260 252 260 C252 260 251 260 251 260 C251 260 125 68 125 68 C102 36 80 15 67 15 C67 15 63 15 63 15 C63 15 63 0 63 0 C63 0 80 0 80 0 C80 0 83 0 83 0 C83 0 87 0 87 0 C87 0 125 0 125 0 C125 0 125 15 125 15 C125 15 121 15 121 15 C107 15 112 38 134 73 C134 73 139 80 139 80 C139 80 256 259 256 259 C256 259 396 80 396 80 C396 80 396 80 396 80 C427 41 443 15 437 15 C437 15 435 15 435 15 C435 15 435 0 435 0 C435 0 459 0 459 0 C459 0 471 0 471 0 C471 0 483 0 483 0 C483 0 487 0 487 0 C487 0 487 15 487 15 C487 15 485 15 485 15 C477 15 451 41 421 80 C421 80 420 80 420 80 C420 80 267 275 267 275 C267 275 366 420 366 420 C366 420 366 420 366 420 C392 459 418 485 430 485 C430 485 434 485 434 485 C434 485 434 500 434 500 L434 500 Z " />
<glyph glyph-name="y" unicode="y" horiz-adv-x="418" d="M420 500 C420 500 402 500 402 500 C402 500 398 500 398 500 C398 500 395 500 395 500 C395 500 371 500 371 500 C371 500 371 485 371 485 C371 485 374 485 374 485 C383 485 381 459 367 420 C367 420 368 420 368 420 C368 420 229 16 229 16 C229 16 94 429 94 429 C84 463 83 485 92 485 C92 485 95 485 95 485 C95 485 95 500 95 500 C95 500 71 500 71 500 C71 500 59 500 59 500 C59 500 48 500 48 500 C48 500 29 500 29 500 C29 500 29 485 29 485 C29 485 33 485 33 485 C45 485 61 461 73 424 C73 424 219 -7 219 -7 C219 -7 196 -70 196 -70 C159 -176 131 -217 96 -217 C76 -217 60 -193 40 -193 C34 -193 30 -197 30 -202 C30 -219 51 -230 83 -230 C128 -230 162 -186 201 -72 C201 -72 223 -10 223 -10 C223 -10 374 420 374 420 C374 420 374 420 374 420 C387 459 404 485 417 485 C417 485 420 485 420 485 C420 485 420 500 420 500 L420 500 Z " />
<glyph glyph-name="z" unicode="z" horiz-adv-x="497" d="M292 5 C292 5 292 5 292 5 C292 5 99 4 99 4 C99 4 441 500 441 500 C441 500 429 500 429 500 C429 500 418 500 418 500 C418 500 158 500 158 500 C158 500 83 500 83 500 C83 500 78 500 78 500 C78 499 77 498 77 498 C75 488 71 476 69 467 C69 467 81 467 81 467 C113 483 163 495 217 495 C217 495 217 495 217 495 C217 495 415 496 415 496 C415 496 72 0 72 0 C72 0 84 0 84 0 C84 0 96 0 96 0 C96 0 356 0 356 0 C356 0 435 0 435 0 C435 0 436 0 436 0 C436 0 436 2 436 2 C439 17 442 36 445 50 C445 50 441 50 441 50 C432 51 426 52 426 52 C426 52 419 45 419 45 C397 20 346 4 292 5 C292 5 292 5 292 5 L292 5 Z " />
<glyph glyph-name="braceleft" unicode="&#x7b;" horiz-adv-x="249" d="M228 -120 C228 -120 228 -117 228 -117 C228 -117 192 -117 192 -117 C127 -117 83 -70 82 0 C82 0 82 192 82 192 C83 239 58 270 21 270 C-16 270 83 302 82 349 C82 349 82 540 82 540 C83 610 127 657 192 657 C192 657 228 657 228 657 C228 657 228 660 228 660 C228 660 188 660 188 660 C115 660 67 612 67 540 C67 540 67 338 67 338 C67 298 47 272 17 272 C17 272 12 272 12 272 C12 272 12 268 12 268 C12 268 17 268 17 268 C47 268 67 242 67 203 C67 203 67 0 67 0 C67 -72 115 -120 188 -120 C188 -120 228 -120 228 -120 L228 -120 Z " />
<glyph glyph-name="bar" unicode="&#x7c;" horiz-adv-x="149" d="M67 770 C67 770 67 -234 67 -234 C67 -234 82 -234 82 -234 C82 -234 82 770 82 770 C82 770 67 770 67 770 L67 770 Z " />
<glyph glyph-name="braceright" unicode="&#x7d;" horiz-adv-x="249" d="M12 660 C12 660 12 657 12 657 C12 657 47 657 47 657 C113 657 157 610 157 540 C157 540 157 348 157 348 C157 301 182 270 218 270 C254 270 157 238 157 191 C157 191 157 0 157 0 C157 -70 113 -117 47 -117 C47 -117 12 -117 12 -117 C12 -117 12 -120 12 -120 C12 -120 52 -120 52 -120 C125 -120 173 -72 173 0 C173 0 173 202 173 202 C173 242 193 268 223 268 C223 268 228 268 228 268 C228 268 228 272 228 272 C228 272 223 272 223 272 C193 272 173 298 173 337 C173 337 173 540 173 540 C173 612 125 660 52 660 C52 660 12 660 12 660 L12 660 Z " />
<glyph glyph-name="[namenotfound]" unicode="&#xa0;" horiz-adv-x="220" d="" />
<glyph glyph-name="exclamdown" unicode="&#xa1;" horiz-adv-x="166" d="M86 505 C74 505 66 497 66 485 C66 473 74 465 86 465 C98 465 106 473 106 485 C106 497 98 505 86 505 L86 505 Z M67 -120 C66 -147 74 -165 87 -165 C100 -165 108 -147 107 -120 C107 -120 87 390 87 390 C87 390 84 390 84 390 C84 390 67 -120 67 -120 L67 -120 Z " />
<glyph glyph-name="cent" unicode="&#xa2;" horiz-adv-x="468" d="M276 575 C276 575 276 504 276 504 C143 494 57 390 57 238 C57 92 127 -5 233 -5 C248 -5 262 -3 276 0 C276 0 276 -75 276 -75 C276 -75 290 -75 290 -75 C290 -75 290 4 290 4 C342 19 386 55 409 103 C409 103 406 104 406 104 C384 58 340 24 290 12 C290 12 290 499 290 499 C292 499 294 499 296 499 C349 499 387 461 392 403 C393 397 397 393 402 393 C408 393 411 397 411 402 C406 464 360 505 298 505 C295 505 293 505 290 505 C290 505 290 575 290 575 C290 575 276 575 276 575 L276 575 Z M276 9 C267 8 259 7 250 7 C147 7 78 103 78 246 C78 390 156 488 276 498 C276 498 276 9 276 9 L276 9 Z " />
<glyph glyph-name="guillemotleft" unicode="&#xab;" horiz-adv-x="462" d="M210 250 C210 250 410 461 410 461 C410 461 408 464 408 464 C408 464 187 251 187 251 C187 251 187 249 187 249 C187 249 409 36 409 36 C409 36 411 39 411 39 C411 39 210 250 210 250 L210 250 Z M49 250 C49 250 243 461 243 461 C243 461 241 464 241 464 C241 464 27 251 27 251 C27 251 27 249 27 249 C27 249 241 36 241 36 C241 36 244 39 244 39 C244 39 49 250 49 250 L49 250 Z " />
<glyph glyph-name="guillemotright" unicode="&#xbb;" horiz-adv-x="462" d="M253 250 C253 250 52 461 52 461 C52 461 55 464 55 464 C55 464 276 251 276 251 C276 251 276 249 276 249 C276 249 54 36 54 36 C54 36 52 39 52 39 C52 39 253 250 253 250 L253 250 Z M413 250 C413 250 220 461 220 461 C220 461 222 464 222 464 C222 464 436 251 436 251 C436 251 436 249 436 249 C436 249 221 36 221 36 C221 36 219 39 219 39 C219 39 413 250 413 250 L413 250 Z " />
<glyph glyph-name="questiondown" unicode="&#xbf;" horiz-adv-x="379" d="M230 505 C218 505 210 497 210 485 C210 473 218 465 230 465 C242 465 250 473 250 485 C250 497 242 505 230 505 L230 505 Z M236 140 C236 140 232 396 232 396 C232 396 229 396 229 396 C229 396 225 152 225 152 C225 152 190 152 190 152 C66 152 42 82 42 42 C42 -82 123 -165 243 -165 C294 -165 327 -137 327 -96 C327 -94 323 -93 315 -93 C280 -93 272 -149 237 -149 C122 -149 46 -73 47 40 C46 75 70 137 197 137 C197 137 232 137 232 137 C234 137 236 138 236 140 L236 140 Z " />
<glyph glyph-name="Agrave" unicode="&#xc0;" horiz-adv-x="538" d="M520 15 C520 15 516 15 516 15 C505 15 490 36 477 69 C477 69 268 675 268 675 C268 675 260 675 260 675 C260 675 64 80 64 80 C64 80 64 80 64 80 C52 41 35 15 23 15 C23 15 19 15 19 15 C19 15 19 0 19 0 C19 0 38 0 38 0 C38 0 43 0 43 0 C43 0 47 0 47 0 C47 0 82 0 82 0 C82 0 82 15 82 15 C82 15 78 15 78 15 C63 15 63 45 77 90 C77 90 125 238 125 238 C125 238 389 238 389 238 C389 238 444 77 444 77 C455 40 456 15 443 15 C443 15 440 15 440 15 C440 15 440 0 440 0 C440 0 470 0 470 0 C470 0 485 0 485 0 C485 0 501 0 501 0 C501 0 520 0 520 0 C520 0 520 15 520 15 L520 15 Z M239 831 C213 866 195 889 194 889 C190 889 182 883 182 881 C182 878 201 855 229 823 C229 823 339 692 339 692 C339 692 341 693 341 693 C341 693 239 831 239 831 L239 831 Z M387 246 C387 246 128 246 128 246 C128 246 255 635 255 635 C255 635 387 246 387 246 L387 246 Z " />
<glyph glyph-name="Aacute" unicode="&#xc1;" horiz-adv-x="538" d="M201 692 C201 692 308 823 308 823 C335 857 353 880 353 881 C353 883 345 889 341 889 C341 889 323 866 298 831 C298 831 199 693 199 693 C199 693 201 692 201 692 L201 692 Z M520 15 C520 15 516 15 516 15 C505 15 490 36 477 69 C477 69 268 675 268 675 C268 675 260 675 260 675 C260 675 64 80 64 80 C64 80 64 80 64 80 C52 41 35 15 23 15 C23 15 19 15 19 15 C19 15 19 0 19 0 C19 0 38 0 38 0 C38 0 43 0 43 0 C43 0 47 0 47 0 C47 0 82 0 82 0 C82 0 82 15 82 15 C82 15 78 15 78 15 C63 15 63 45 77 90 C77 90 125 238 125 238 C125 238 389 238 389 238 C389 238 444 77 444 77 C455 40 456 15 443 15 C443 15 440 15 440 15 C440 15 440 0 440 0 C440 0 470 0 470 0 C470 0 485 0 485 0 C485 0 501 0 501 0 C501 0 520 0 520 0 C520 0 520 15 520 15 L520 15 Z M387 246 C387 246 128 246 128 246 C128 246 255 635 255 635 C255 635 387 246 387 246 L387 246 Z " />
<glyph glyph-name="Acircumflex" unicode="&#xc2;" horiz-adv-x="538" d="M520 15 C520 15 516 15 516 15 C505 15 490 36 477 69 C477 69 268 675 268 675 C268 675 260 675 260 675 C260 675 64 80 64 80 C64 80 64 80 64 80 C52 41 35 15 23 15 C23 15 19 15 19 15 C19 15 19 0 19 0 C19 0 38 0 38 0 C38 0 43 0 43 0 C43 0 47 0 47 0 C47 0 82 0 82 0 C82 0 82 15 82 15 C82 15 78 15 78 15 C63 15 63 45 77 90 C77 90 125 238 125 238 C125 238 389 238 389 238 C389 238 444 77 444 77 C455 40 456 15 443 15 C443 15 440 15 440 15 C440 15 440 0 440 0 C440 0 470 0 470 0 C470 0 485 0 485 0 C485 0 501 0 501 0 C501 0 520 0 520 0 C520 0 520 15 520 15 L520 15 Z M264 883 C264 883 378 694 378 694 C378 694 380 696 380 696 C380 696 270 899 270 899 C269 901 267 905 264 905 C261 905 259 901 258 899 C258 899 148 696 148 696 C148 696 150 694 150 694 C150 694 264 883 264 883 L264 883 Z M387 246 C387 246 128 246 128 246 C128 246 255 635 255 635 C255 635 387 246 387 246 L387 246 Z " />
<glyph glyph-name="Atilde" unicode="&#xc3;" horiz-adv-x="538" d="M121 755 C121 798 140 827 169 827 C231 827 292 764 354 764 C388 764 411 793 411 837 C411 837 407 837 407 837 C407 801 387 777 358 777 C296 777 235 840 173 840 C140 840 118 806 118 755 C118 755 121 755 121 755 L121 755 Z M520 15 C520 15 516 15 516 15 C505 15 490 36 477 69 C477 69 268 675 268 675 C268 675 260 675 260 675 C260 675 64 80 64 80 C64 80 64 80 64 80 C52 41 35 15 23 15 C23 15 19 15 19 15 C19 15 19 0 19 0 C19 0 38 0 38 0 C38 0 43 0 43 0 C43 0 47 0 47 0 C47 0 82 0 82 0 C82 0 82 15 82 15 C82 15 78 15 78 15 C63 15 63 45 77 90 C77 90 125 238 125 238 C125 238 389 238 389 238 C389 238 444 77 444 77 C455 40 456 15 443 15 C443 15 440 15 440 15 C440 15 440 0 440 0 C440 0 470 0 470 0 C470 0 485 0 485 0 C485 0 501 0 501 0 C501 0 520 0 520 0 C520 0 520 15 520 15 L520 15 Z M387 246 C387 246 128 246 128 246 C128 246 255 635 255 635 C255 635 387 246 387 246 L387 246 Z " />
<glyph glyph-name="Adieresis" unicode="&#xc4;" horiz-adv-x="538" d="M348 730 C360 730 368 738 368 750 C368 762 360 770 348 770 C336 770 328 762 328 750 C328 738 336 730 348 730 L348 730 Z M180 730 C192 730 200 738 200 750 C200 762 192 770 180 770 C168 770 160 762 160 750 C160 738 168 730 180 730 L180 730 Z M520 15 C520 15 516 15 516 15 C505 15 490 36 477 69 C477 69 268 675 268 675 C268 675 260 675 260 675 C260 675 64 80 64 80 C64 80 64 80 64 80 C52 41 35 15 23 15 C23 15 19 15 19 15 C19 15 19 0 19 0 C19 0 38 0 38 0 C38 0 43 0 43 0 C43 0 47 0 47 0 C47 0 82 0 82 0 C82 0 82 15 82 15 C82 15 78 15 78 15 C63 15 63 45 77 90 C77 90 125 238 125 238 C125 238 389 238 389 238 C389 238 444 77 444 77 C455 40 456 15 443 15 C443 15 440 15 440 15 C440 15 440 0 440 0 C440 0 470 0 470 0 C470 0 485 0 485 0 C485 0 501 0 501 0 C501 0 520 0 520 0 C520 0 520 15 520 15 L520 15 Z M387 246 C387 246 128 246 128 246 C128 246 255 635 255 635 C255 635 387 246 387 246 L387 246 Z " />
<glyph glyph-name="Aring" unicode="&#xc5;" horiz-adv-x="538" d="M264 699 C216 699 176 740 176 788 C176 841 211 876 264 876 C317 876 352 841 352 788 C352 740 312 699 264 699 L264 699 Z M171 788 C171 738 214 695 264 695 C314 695 357 738 357 788 C357 843 320 880 264 880 C208 880 171 843 171 788 L171 788 Z M520 15 C520 15 516 15 516 15 C505 15 490 36 477 69 C477 69 268 675 268 675 C268 675 260 675 260 675 C260 675 64 80 64 80 C64 80 64 80 64 80 C52 41 35 15 23 15 C23 15 19 15 19 15 C19 15 19 0 19 0 C19 0 38 0 38 0 C38 0 43 0 43 0 C43 0 47 0 47 0 C47 0 82 0 82 0 C82 0 82 15 82 15 C82 15 78 15 78 15 C63 15 63 45 77 90 C77 90 125 238 125 238 C125 238 389 238 389 238 C389 238 444 77 444 77 C455 40 456 15 443 15 C443 15 440 15 440 15 C440 15 440 0 440 0 C440 0 470 0 470 0 C470 0 485 0 485 0 C485 0 501 0 501 0 C501 0 520 0 520 0 C520 0 520 15 520 15 L520 15 Z M387 246 C387 246 128 246 128 246 C128 246 255 635 255 635 C255 635 387 246 387 246 L387 246 Z " />
<glyph glyph-name="Ccedilla" unicode="&#xc7;" horiz-adv-x="739" d="M673 525 C673 525 673 569 673 569 C634 627 530 665 412 665 C210 665 76 531 76 330 C76 129 210 -5 412 -5 C530 -5 634 33 673 91 C673 91 673 135 673 135 C673 135 660 135 660 135 C656 128 650 119 647 112 C614 57 543 14 467 5 C449 3 431 2 412 2 C230 2 108 133 108 330 C108 527 230 658 412 658 C443 658 473 655 501 650 C501 650 501 650 501 650 C559 640 617 599 647 548 C650 541 656 532 660 525 C660 525 673 525 673 525 L673 525 Z " />
<glyph glyph-name="Egrave" unicode="&#xc8;" horiz-adv-x="463" d="M328 321 C328 321 328 348 328 348 C328 348 328 352 328 352 C328 352 328 356 328 356 C328 356 328 379 328 379 C328 379 316 379 316 379 C316 379 312 376 312 376 C302 364 268 357 225 356 C225 356 208 356 208 356 C208 356 98 356 98 356 C98 356 98 653 98 653 C98 653 231 653 231 653 C291 653 346 638 368 616 C368 616 375 610 375 610 C375 610 386 610 386 610 C386 610 386 656 386 656 C386 656 386 660 386 660 C386 660 383 660 383 660 C383 660 306 660 306 660 C306 660 98 660 98 660 C98 660 84 660 84 660 C84 660 69 660 69 660 C69 660 45 660 45 660 C45 660 45 645 45 645 C45 645 49 645 49 645 C61 645 69 619 69 580 C69 580 69 80 69 80 C69 41 61 15 49 15 C49 15 45 15 45 15 C45 15 45 0 45 0 C45 0 69 0 69 0 C69 0 84 0 84 0 C84 0 98 0 98 0 C98 0 313 0 313 0 C313 0 393 0 393 0 C394 1 394 3 394 4 C397 17 400 36 402 50 C402 50 391 50 391 50 C361 24 307 7 240 7 C240 7 98 7 98 7 C98 7 98 348 98 348 C98 348 208 348 208 348 C259 348 301 339 312 325 C312 325 316 321 316 321 C316 321 328 321 328 321 L328 321 Z M185 831 C160 866 142 889 140 889 C137 889 129 883 129 881 C129 878 147 855 175 823 C175 823 285 692 285 692 C285 692 287 693 287 693 C287 693 185 831 185 831 L185 831 Z " />
<glyph glyph-name="Eacute" unicode="&#xc9;" horiz-adv-x="463" d="M193 692 C193 692 300 823 300 823 C327 857 345 880 345 881 C345 883 337 889 334 889 C333 889 316 866 290 831 C290 831 191 693 191 693 C191 693 193 692 193 692 L193 692 Z M328 321 C328 321 328 348 328 348 C328 348 328 352 328 352 C328 352 328 356 328 356 C328 356 328 379 328 379 C328 379 316 379 316 379 C316 379 312 376 312 376 C302 364 268 357 225 356 C225 356 208 356 208 356 C208 356 98 356 98 356 C98 356 98 653 98 653 C98 653 231 653 231 653 C291 653 346 638 368 616 C368 616 375 610 375 610 C375 610 386 610 386 610 C386 610 386 656 386 656 C386 656 386 660 386 660 C386 660 383 660 383 660 C383 660 306 660 306 660 C306 660 98 660 98 660 C98 660 84 660 84 660 C84 660 69 660 69 660 C69 660 45 660 45 660 C45 660 45 645 45 645 C45 645 49 645 49 645 C61 645 69 619 69 580 C69 580 69 80 69 80 C69 41 61 15 49 15 C49 15 45 15 45 15 C45 15 45 0 45 0 C45 0 69 0 69 0 C69 0 84 0 84 0 C84 0 98 0 98 0 C98 0 313 0 313 0 C313 0 393 0 393 0 C394 1 394 3 394 4 C397 17 400 36 402 50 C402 50 391 50 391 50 C361 24 307 7 240 7 C240 7 98 7 98 7 C98 7 98 348 98 348 C98 348 208 348 208 348 C259 348 301 339 312 325 C312 325 316 321 316 321 C316 321 328 321 328 321 L328 321 Z " />
<glyph glyph-name="Ecircumflex" unicode="&#xca;" horiz-adv-x="463" d="M328 321 C328 321 328 348 328 348 C328 348 328 352 328 352 C328 352 328 356 328 356 C328 356 328 379 328 379 C328 379 316 379 316 379 C316 379 312 376 312 376 C302 364 268 357 225 356 C225 356 208 356 208 356 C208 356 98 356 98 356 C98 356 98 653 98 653 C98 653 231 653 231 653 C291 653 346 638 368 616 C368 616 375 610 375 610 C375 610 386 610 386 610 C386 610 386 656 386 656 C386 656 386 660 386 660 C386 660 383 660 383 660 C383 660 306 660 306 660 C306 660 98 660 98 660 C98 660 84 660 84 660 C84 660 69 660 69 660 C69 660 45 660 45 660 C45 660 45 645 45 645 C45 645 49 645 49 645 C61 645 69 619 69 580 C69 580 69 80 69 80 C69 41 61 15 49 15 C49 15 45 15 45 15 C45 15 45 0 45 0 C45 0 69 0 69 0 C69 0 84 0 84 0 C84 0 98 0 98 0 C98 0 313 0 313 0 C313 0 393 0 393 0 C394 1 394 3 394 4 C397 17 400 36 402 50 C402 50 391 50 391 50 C361 24 307 7 240 7 C240 7 98 7 98 7 C98 7 98 348 98 348 C98 348 208 348 208 348 C259 348 301 339 312 325 C312 325 316 321 316 321 C316 321 328 321 328 321 L328 321 Z M226 883 C226 883 340 694 340 694 C340 694 342 696 342 696 C342 696 232 899 232 899 C231 901 229 905 226 905 C223 905 221 901 220 899 C220 899 110 696 110 696 C110 696 112 694 112 694 C112 694 226 883 226 883 L226 883 Z " />
<glyph glyph-name="Edieresis" unicode="&#xcb;" horiz-adv-x="463" d="M310 730 C322 730 330 738 330 750 C330 762 322 770 310 770 C298 770 290 762 290 750 C290 738 298 730 310 730 L310 730 Z M142 730 C154 730 162 738 162 750 C162 762 154 770 142 770 C130 770 122 762 122 750 C122 738 130 730 142 730 L142 730 Z M328 321 C328 321 328 348 328 348 C328 348 328 352 328 352 C328 352 328 356 328 356 C328 356 328 379 328 379 C328 379 316 379 316 379 C316 379 312 376 312 376 C302 364 268 357 225 356 C225 356 208 356 208 356 C208 356 98 356 98 356 C98 356 98 653 98 653 C98 653 231 653 231 653 C291 653 346 638 368 616 C368 616 375 610 375 610 C375 610 386 610 386 610 C386 610 386 656 386 656 C386 656 386 660 386 660 C386 660 383 660 383 660 C383 660 306 660 306 660 C306 660 98 660 98 660 C98 660 84 660 84 660 C84 660 69 660 69 660 C69 660 45 660 45 660 C45 660 45 645 45 645 C45 645 49 645 49 645 C61 645 69 619 69 580 C69 580 69 80 69 80 C69 41 61 15 49 15 C49 15 45 15 45 15 C45 15 45 0 45 0 C45 0 69 0 69 0 C69 0 84 0 84 0 C84 0 98 0 98 0 C98 0 313 0 313 0 C313 0 393 0 393 0 C394 1 394 3 394 4 C397 17 400 36 402 50 C402 50 391 50 391 50 C361 24 307 7 240 7 C240 7 98 7 98 7 C98 7 98 348 98 348 C98 348 208 348 208 348 C259 348 301 339 312 325 C312 325 316 321 316 321 C316 321 328 321 328 321 L328 321 Z " />
<glyph glyph-name="Igrave" unicode="&#xcc;" horiz-adv-x="167" d="M120 660 C120 660 96 660 96 660 C96 660 82 660 82 660 C82 660 67 660 67 660 C67 660 44 660 44 660 C44 660 44 645 44 645 C44 645 47 645 47 645 C59 645 67 619 67 580 C67 580 67 80 67 80 C67 41 59 15 47 15 C47 15 44 15 44 15 C44 15 44 0 44 0 C44 0 67 0 67 0 C67 0 82 0 82 0 C82 0 96 0 96 0 C96 0 120 0 120 0 C120 0 120 15 120 15 C120 15 117 15 117 15 C105 15 96 41 96 80 C96 80 96 580 96 580 C96 619 105 645 117 645 C117 645 120 645 120 645 C120 645 120 660 120 660 L120 660 Z M57 831 C31 866 13 889 12 889 C8 889 0 883 0 881 C0 878 19 855 46 823 C46 823 156 692 156 692 C156 692 159 693 159 693 C159 693 57 831 57 831 L57 831 Z " />
<glyph glyph-name="Iacute" unicode="&#xcd;" horiz-adv-x="167" d="M19 692 C19 692 126 823 126 823 C152 857 170 880 171 881 C171 883 163 889 159 889 C158 889 141 866 115 831 C115 831 16 693 16 693 C16 693 19 692 19 692 L19 692 Z M120 660 C120 660 96 660 96 660 C96 660 82 660 82 660 C82 660 67 660 67 660 C67 660 44 660 44 660 C44 660 44 645 44 645 C44 645 47 645 47 645 C59 645 67 619 67 580 C67 580 67 80 67 80 C67 41 59 15 47 15 C47 15 44 15 44 15 C44 15 44 0 44 0 C44 0 67 0 67 0 C67 0 82 0 82 0 C82 0 96 0 96 0 C96 0 120 0 120 0 C120 0 120 15 120 15 C120 15 117 15 117 15 C105 15 96 41 96 80 C96 80 96 580 96 580 C96 619 105 645 117 645 C117 645 120 645 120 645 C120 645 120 660 120 660 L120 660 Z " />
<glyph glyph-name="Icircumflex" unicode="&#xce;" horiz-adv-x="167" d="M120 660 C120 660 96 660 96 660 C96 660 82 660 82 660 C82 660 67 660 67 660 C67 660 44 660 44 660 C44 660 44 645 44 645 C44 645 47 645 47 645 C59 645 67 619 67 580 C67 580 67 80 67 80 C67 41 59 15 47 15 C47 15 44 15 44 15 C44 15 44 0 44 0 C44 0 67 0 67 0 C67 0 82 0 82 0 C82 0 96 0 96 0 C96 0 120 0 120 0 C120 0 120 15 120 15 C120 15 117 15 117 15 C105 15 96 41 96 80 C96 80 96 580 96 580 C96 619 105 645 117 645 C117 645 120 645 120 645 C120 645 120 660 120 660 L120 660 Z M82 882 C82 882 196 694 196 694 C196 694 198 696 198 696 C198 696 88 899 88 899 C87 901 85 905 82 905 C79 905 77 902 76 899 C76 899 76 899 76 899 C76 899 -34 696 -34 696 C-34 696 -32 694 -32 694 C-32 694 82 882 82 882 L82 882 Z " />
<glyph glyph-name="Idieresis" unicode="&#xcf;" horiz-adv-x="167" d="M165 730 C177 730 185 738 185 750 C185 762 177 770 165 770 C153 770 145 762 145 750 C145 738 153 730 165 730 L165 730 Z M-2 730 C10 730 18 738 18 750 C18 762 10 770 -2 770 C-14 770 -22 762 -22 750 C-22 738 -14 730 -2 730 L-2 730 Z M120 660 C120 660 96 660 96 660 C96 660 82 660 82 660 C82 660 67 660 67 660 C67 660 44 660 44 660 C44 660 44 645 44 645 C44 645 47 645 47 645 C59 645 67 619 67 580 C67 580 67 80 67 80 C67 41 59 15 47 15 C47 15 44 15 44 15 C44 15 44 0 44 0 C44 0 67 0 67 0 C67 0 82 0 82 0 C82 0 96 0 96 0 C96 0 120 0 120 0 C120 0 120 15 120 15 C120 15 117 15 117 15 C105 15 96 41 96 80 C96 80 96 580 96 580 C96 619 105 645 117 645 C117 645 120 645 120 645 C120 645 120 660 120 660 L120 660 Z " />
<glyph glyph-name="Ntilde" unicode="&#xd1;" horiz-adv-x="598" d="M162 755 C162 798 181 827 210 827 C272 827 333 764 395 764 C429 764 452 793 452 837 C452 837 448 837 448 837 C448 801 428 777 399 777 C337 777 276 840 214 840 C181 840 159 806 159 755 C159 755 162 755 162 755 L162 755 Z M558 660 C558 660 534 660 534 660 C534 660 530 660 530 660 C530 660 526 660 526 660 C526 660 502 660 502 660 C502 660 502 645 502 645 C502 645 506 645 506 645 C518 645 526 619 526 580 C526 580 526 34 526 34 C526 34 104 660 104 660 C104 660 84 650 84 650 C84 650 84 651 84 651 C84 651 104 660 104 660 C104 660 84 660 84 660 C84 660 80 660 80 660 C80 660 76 660 76 660 C76 660 52 660 52 660 C52 660 52 645 52 645 C52 645 55 645 55 645 C68 645 76 619 76 580 C76 580 76 80 76 80 C76 41 68 15 55 15 C55 15 52 15 52 15 C52 15 52 0 52 0 C52 0 76 0 76 0 C76 0 80 0 80 0 C80 0 84 0 84 0 C84 0 108 0 108 0 C108 0 108 15 108 15 C108 15 105 15 105 15 C92 15 84 41 84 80 C84 80 84 638 84 638 C84 638 513 4 513 4 C513 4 518 -4 518 -4 C518 -4 534 -4 534 -4 C534 -4 534 15 534 15 C534 15 534 580 534 580 C535 619 543 645 555 645 C555 645 558 645 558 645 C558 645 558 660 558 660 L558 660 Z " />
<glyph glyph-name="Ograve" unicode="&#xd2;" horiz-adv-x="772" d="M396 2 C206 2 108 153 108 330 C108 507 206 658 396 658 C586 658 684 507 684 330 C684 153 586 2 396 2 L396 2 Z M76 330 C76 149 185 -5 396 -5 C607 -5 716 149 716 330 C716 511 607 665 396 665 C185 665 76 511 76 330 L76 330 Z M371 831 C345 866 327 889 326 889 C322 889 314 883 314 881 C314 878 333 855 361 823 C361 823 471 692 471 692 C471 692 473 693 473 693 C473 693 371 831 371 831 L371 831 Z " />
<glyph glyph-name="Oacute" unicode="&#xd3;" horiz-adv-x="772" d="M371 692 C371 692 478 823 478 823 C505 857 523 880 523 881 C523 883 515 889 511 889 C511 889 493 866 468 831 C468 831 368 693 368 693 C368 693 371 692 371 692 L371 692 Z M396 2 C206 2 108 153 108 330 C108 507 206 658 396 658 C586 658 684 507 684 330 C684 153 586 2 396 2 L396 2 Z M76 330 C76 149 185 -5 396 -5 C607 -5 716 149 716 330 C716 511 607 665 396 665 C185 665 76 511 76 330 L76 330 Z " />
<glyph glyph-name="Ocircumflex" unicode="&#xd4;" horiz-adv-x="772" d="M396 2 C206 2 108 153 108 330 C108 507 206 658 396 658 C586 658 684 507 684 330 C684 153 586 2 396 2 L396 2 Z M76 330 C76 149 185 -5 396 -5 C607 -5 716 149 716 330 C716 511 607 665 396 665 C185 665 76 511 76 330 L76 330 Z M396 883 C396 883 510 694 510 694 C510 694 512 696 512 696 C512 696 402 899 402 899 C401 901 399 905 396 905 C393 905 391 901 390 899 C390 899 280 696 280 696 C280 696 282 694 282 694 C282 694 396 883 396 883 L396 883 Z " />
<glyph glyph-name="Otilde" unicode="&#xd5;" horiz-adv-x="772" d="M253 755 C253 798 272 827 301 827 C363 827 424 764 486 764 C519 764 542 793 542 837 C542 837 539 837 539 837 C539 801 519 777 490 777 C428 777 367 840 305 840 C271 840 249 806 249 755 C249 755 253 755 253 755 L253 755 Z M396 2 C206 2 108 153 108 330 C108 507 206 658 396 658 C586 658 684 507 684 330 C684 153 586 2 396 2 L396 2 Z M76 330 C76 149 185 -5 396 -5 C607 -5 716 149 716 330 C716 511 607 665 396 665 C185 665 76 511 76 330 L76 330 Z " />
<glyph glyph-name="Odieresis" unicode="&#xd6;" horiz-adv-x="772" d="M479 730 C491 730 499 738 499 750 C499 762 491 770 479 770 C467 770 459 762 459 750 C459 738 467 730 479 730 L479 730 Z M312 730 C324 730 332 738 332 750 C332 762 324 770 312 770 C300 770 292 762 292 750 C292 738 300 730 312 730 L312 730 Z M396 2 C206 2 108 153 108 330 C108 507 206 658 396 658 C586 658 684 507 684 330 C684 153 586 2 396 2 L396 2 Z M76 330 C76 149 185 -5 396 -5 C607 -5 716 149 716 330 C716 511 607 665 396 665 C185 665 76 511 76 330 L76 330 Z " />
<glyph glyph-name="Oslash" unicode="&#xd8;" horiz-adv-x="772" d="M81 -9 C81 -9 168 82 168 82 C222 28 298 -5 396 -5 C607 -5 716 149 716 330 C716 422 688 507 632 568 C632 568 721 661 721 661 C721 661 711 669 711 669 C711 669 624 578 624 578 C570 632 494 665 396 665 C185 665 76 511 76 330 C76 238 104 153 160 92 C160 92 71 -1 71 -1 C71 -1 81 -9 81 -9 L81 -9 Z M396 2 C302 2 231 39 183 97 C183 97 617 553 617 553 C662 493 684 415 684 330 C684 153 586 2 396 2 C396 2 396 2 396 2 L396 2 Z M175 107 C130 167 108 245 108 330 C108 507 206 658 396 658 C490 658 561 621 609 563 C609 563 175 107 175 107 L175 107 Z " />
<glyph glyph-name="Ugrave" unicode="&#xd9;" horiz-adv-x="596" d="M569 660 C569 660 542 660 542 660 C542 660 539 660 539 660 C539 660 536 660 536 660 C536 660 507 660 507 660 C507 660 507 645 507 645 C507 645 511 645 511 645 C525 645 534 619 536 580 C536 580 535 176 535 176 C535 73 475 5 319 5 C166 5 107 82 107 198 C107 198 107 580 107 580 C108 619 116 645 128 645 C128 645 131 645 131 645 C131 645 131 660 131 660 C131 660 107 660 107 660 C107 660 93 660 93 660 C93 660 79 660 79 660 C79 660 55 660 55 660 C55 660 55 645 55 645 C55 645 58 645 58 645 C71 645 79 619 79 580 C79 580 79 203 79 203 C79 78 145 -5 315 -5 C478 -5 542 66 542 173 C542 173 542 570 542 570 C542 615 552 645 565 645 C565 645 569 645 569 645 C569 645 569 660 569 660 L569 660 Z M285 831 C260 866 242 889 240 889 C237 889 229 883 229 881 C229 878 247 855 275 823 C275 823 385 692 385 692 C385 692 387 693 387 693 C387 693 285 831 285 831 L285 831 Z " />
<glyph glyph-name="Uacute" unicode="&#xda;" horiz-adv-x="596" d="M308 692 C308 692 415 823 415 823 C442 857 460 880 460 881 C460 883 452 889 449 889 C447 889 430 866 405 831 C405 831 306 693 306 693 C306 693 308 692 308 692 L308 692 Z M569 660 C569 660 542 660 542 660 C542 660 539 660 539 660 C539 660 536 660 536 660 C536 660 507 660 507 660 C507 660 507 645 507 645 C507 645 511 645 511 645 C525 645 534 619 536 580 C536 580 535 176 535 176 C535 73 475 5 319 5 C166 5 107 82 107 198 C107 198 107 580 107 580 C108 619 116 645 128 645 C128 645 131 645 131 645 C131 645 131 660 131 660 C131 660 107 660 107 660 C107 660 93 660 93 660 C93 660 79 660 79 660 C79 660 55 660 55 660 C55 660 55 645 55 645 C55 645 58 645 58 645 C71 645 79 619 79 580 C79 580 79 203 79 203 C79 78 145 -5 315 -5 C478 -5 542 66 542 173 C542 173 542 570 542 570 C542 615 552 645 565 645 C565 645 569 645 569 645 C569 645 569 660 569 660 L569 660 Z " />
<glyph glyph-name="Ucircumflex" unicode="&#xdb;" horiz-adv-x="596" d="M569 660 C569 660 542 660 542 660 C542 660 539 660 539 660 C539 660 536 660 536 660 C536 660 507 660 507 660 C507 660 507 645 507 645 C507 645 511 645 511 645 C525 645 534 619 536 580 C536 580 535 176 535 176 C535 73 475 5 319 5 C166 5 107 82 107 198 C107 198 107 580 107 580 C108 619 116 645 128 645 C128 645 131 645 131 645 C131 645 131 660 131 660 C131 660 107 660 107 660 C107 660 93 660 93 660 C93 660 79 660 79 660 C79 660 55 660 55 660 C55 660 55 645 55 645 C55 645 58 645 58 645 C71 645 79 619 79 580 C79 580 79 203 79 203 C79 78 145 -5 315 -5 C478 -5 542 66 542 173 C542 173 542 570 542 570 C542 615 552 645 565 645 C565 645 569 645 569 645 C569 645 569 660 569 660 L569 660 Z M311 882 C311 882 425 694 425 694 C425 694 427 696 427 696 C427 696 317 899 317 899 C316 901 314 905 310 905 C307 905 305 901 304 899 C304 899 194 696 194 696 C194 696 196 694 196 694 C196 694 311 882 311 882 L311 882 Z " />
<glyph glyph-name="Udieresis" unicode="&#xdc;" horiz-adv-x="596" d="M394 730 C406 730 414 738 414 750 C414 762 406 770 394 770 C382 770 374 762 374 750 C374 738 382 730 394 730 L394 730 Z M227 730 C239 730 247 738 247 750 C247 762 239 770 227 770 C215 770 207 762 207 750 C207 738 215 730 227 730 L227 730 Z M569 660 C569 660 542 660 542 660 C542 660 539 660 539 660 C539 660 536 660 536 660 C536 660 507 660 507 660 C507 660 507 645 507 645 C507 645 511 645 511 645 C525 645 534 619 536 580 C536 580 535 176 535 176 C535 73 475 5 319 5 C166 5 107 82 107 198 C107 198 107 580 107 580 C108 619 116 645 128 645 C128 645 131 645 131 645 C131 645 131 660 131 660 C131 660 107 660 107 660 C107 660 93 660 93 660 C93 660 79 660 79 660 C79 660 55 660 55 660 C55 660 55 645 55 645 C55 645 58 645 58 645 C71 645 79 619 79 580 C79 580 79 203 79 203 C79 78 145 -5 315 -5 C478 -5 542 66 542 173 C542 173 542 570 542 570 C542 615 552 645 565 645 C565 645 569 645 569 645 C569 645 569 660 569 660 L569 660 Z " />
<glyph glyph-name="Yacute" unicode="&#xdd;" horiz-adv-x="523" d="M272 692 C272 692 379 823 379 823 C406 857 424 880 424 881 C424 883 416 889 412 889 C411 889 394 866 369 831 C369 831 270 693 270 693 C270 693 272 692 272 692 L272 692 Z M312 15 C312 15 309 15 309 15 C297 15 290 35 289 67 C289 67 289 80 289 80 C289 80 289 265 289 265 C289 265 458 588 458 588 C477 623 496 645 505 645 C505 645 509 645 509 645 C509 645 509 660 509 660 C509 660 496 660 496 660 C496 660 492 660 492 660 C492 660 489 660 489 660 C489 660 454 660 454 660 C454 660 454 645 454 645 C454 645 458 645 458 645 C470 645 465 618 445 576 C445 576 283 266 283 266 C283 266 277 266 277 266 C277 266 126 580 126 580 C126 580 126 580 126 580 C107 619 102 645 113 645 C113 645 116 645 116 645 C115 645 115 648 116 653 C115 657 115 660 116 660 C116 660 87 660 87 660 C87 660 70 660 70 660 C70 660 53 660 53 660 C53 660 43 660 43 660 C42 660 42 657 43 653 C42 648 42 645 43 645 C43 645 45 645 45 645 C54 645 73 619 93 580 C93 580 93 580 93 580 C93 580 260 249 260 249 C260 249 260 80 260 80 C260 41 252 15 240 15 C240 15 236 15 236 15 C236 15 236 0 236 0 C236 0 260 0 260 0 C260 0 274 0 274 0 C274 0 289 0 289 0 C289 0 312 0 312 0 C312 0 312 15 312 15 L312 15 Z " />
<glyph glyph-name="agrave" unicode="&#xe0;" horiz-adv-x="579" d="M487 21 C466 42 463 58 463 115 C463 115 463 500 463 500 C463 500 457 500 457 500 C457 500 446 375 446 375 C432 451 362 505 263 505 C142 505 62 394 62 228 C62 88 139 -5 255 -5 C357 -5 428 40 443 111 C443 111 443 110 443 110 C443 110 443 0 443 0 C443 0 443 -5 443 -5 C443 -5 446 -5 446 -5 C446 -5 462 5 462 5 C462 5 487 12 487 12 C487 12 487 21 487 21 L487 21 Z M230 671 C205 706 187 729 185 729 C181 729 173 723 173 721 C173 718 192 695 220 663 C220 663 330 532 330 532 C330 532 332 533 332 533 C332 533 230 671 230 671 L230 671 Z M443 124 C434 53 366 7 266 7 C156 7 83 98 83 236 C83 394 155 500 262 500 C371 500 443 435 443 347 C443 347 443 124 443 124 L443 124 Z " />
<glyph glyph-name="aacute" unicode="&#xe1;" horiz-adv-x="482" d="M190 532 C190 532 297 663 297 663 C324 697 342 720 342 721 C342 723 334 729 330 729 C330 729 312 706 286 671 C286 671 187 533 187 533 C187 533 190 532 190 532 L190 532 Z M454 34 C433 14 415 0 399 0 C369 0 361 22 361 54 C361 54 361 363 361 363 C361 448 317 505 250 505 C121 505 55 451 84 369 C84 369 104 369 104 369 C76 447 132 499 246 499 C302 499 340 446 340 367 C340 367 340 245 340 245 C340 245 201 226 201 226 C106 213 42 162 42 100 C42 37 86 -5 153 -5 C220 -5 293 30 340 82 C340 82 340 52 340 52 C340 15 350 -10 385 -10 C408 -10 431 7 456 31 C456 31 454 34 454 34 L454 34 Z M340 240 C340 240 340 86 340 86 C297 39 228 8 163 8 C102 8 62 47 62 106 C62 162 118 207 201 219 C201 219 340 240 340 240 L340 240 Z " />
<glyph glyph-name="acircumflex" unicode="&#xe2;" horiz-adv-x="579" d="M487 21 C466 42 463 58 463 115 C463 115 463 500 463 500 C463 500 457 500 457 500 C457 500 446 375 446 375 C432 451 362 505 263 505 C142 505 62 394 62 228 C62 88 139 -5 255 -5 C357 -5 428 40 443 111 C443 111 443 110 443 110 C443 110 443 0 443 0 C443 0 443 -5 443 -5 C443 -5 446 -5 446 -5 C446 -5 462 5 462 5 C462 5 487 12 487 12 C487 12 487 21 487 21 L487 21 Z M255 723 C255 723 369 534 369 534 C369 534 371 536 371 536 C371 536 261 739 261 739 C260 741 258 745 255 745 C252 745 250 741 249 739 C249 739 139 536 139 536 C139 536 141 534 141 534 C141 534 255 723 255 723 L255 723 Z M443 124 C434 53 366 7 266 7 C156 7 83 98 83 236 C83 394 155 500 262 500 C371 500 443 435 443 347 C443 347 443 124 443 124 L443 124 Z " />
<glyph glyph-name="atilde" unicode="&#xe3;" horiz-adv-x="579" d="M112 595 C112 638 131 667 160 667 C222 667 283 604 345 604 C379 604 402 633 402 677 C402 677 398 677 398 677 C398 641 378 617 349 617 C287 617 226 680 164 680 C131 680 109 646 109 595 C109 595 112 595 112 595 L112 595 Z M487 21 C466 42 463 58 463 115 C463 115 463 500 463 500 C463 500 457 500 457 500 C457 500 446 375 446 375 C432 451 362 505 263 505 C142 505 62 394 62 228 C62 88 139 -5 255 -5 C357 -5 428 40 443 111 C443 111 443 110 443 110 C443 110 443 0 443 0 C443 0 443 -5 443 -5 C443 -5 446 -5 446 -5 C446 -5 462 5 462 5 C462 5 487 12 487 12 C487 12 487 21 487 21 L487 21 Z M443 124 C434 53 366 7 266 7 C156 7 83 98 83 236 C83 394 155 500 262 500 C371 500 443 435 443 347 C443 347 443 124 443 124 L443 124 Z " />
<glyph glyph-name="adieresis" unicode="&#xe4;" horiz-adv-x="579" d="M339 570 C351 570 359 578 359 590 C359 602 351 610 339 610 C327 610 319 602 319 590 C319 578 327 570 339 570 L339 570 Z M172 570 C184 570 192 578 192 590 C192 602 184 610 172 610 C160 610 152 602 152 590 C152 578 160 570 172 570 L172 570 Z M487 21 C466 42 463 58 463 115 C463 115 463 500 463 500 C463 500 457 500 457 500 C457 500 446 375 446 375 C432 451 362 505 263 505 C142 505 62 394 62 228 C62 88 139 -5 255 -5 C357 -5 428 40 443 111 C443 111 443 110 443 110 C443 110 443 0 443 0 C443 0 443 -5 443 -5 C443 -5 446 -5 446 -5 C446 -5 462 5 462 5 C462 5 487 12 487 12 C487 12 487 21 487 21 L487 21 Z M443 124 C434 53 366 7 266 7 C156 7 83 98 83 236 C83 394 155 500 262 500 C371 500 443 435 443 347 C443 347 443 124 443 124 L443 124 Z " />
<glyph glyph-name="aring" unicode="&#xe5;" horiz-adv-x="579" d="M255 539 C208 539 168 580 168 628 C168 681 203 716 255 716 C308 716 343 681 343 628 C343 580 303 539 255 539 L255 539 Z M162 628 C162 578 205 535 255 535 C305 535 348 578 348 628 C348 683 311 720 255 720 C199 720 162 683 162 628 L162 628 Z M487 21 C466 42 463 58 463 115 C463 115 463 500 463 500 C463 500 457 500 457 500 C457 500 446 375 446 375 C432 451 362 505 263 505 C142 505 62 394 62 228 C62 88 139 -5 255 -5 C357 -5 428 40 443 111 C443 111 443 110 443 110 C443 110 443 0 443 0 C443 0 443 -5 443 -5 C443 -5 446 -5 446 -5 C446 -5 462 5 462 5 C462 5 487 12 487 12 C487 12 487 21 487 21 L487 21 Z M443 124 C434 53 366 7 266 7 C156 7 83 98 83 236 C83 394 155 500 262 500 C371 500 443 435 443 347 C443 347 443 124 443 124 L443 124 Z " />
<glyph glyph-name="ccedilla" unicode="&#xe7;" horiz-adv-x="468" d="M409 103 C409 103 406 104 406 104 C378 46 316 7 250 7 C147 7 78 103 78 246 C78 398 165 499 296 499 C349 499 387 461 392 403 C393 397 397 393 402 393 C408 393 411 397 411 402 C406 464 360 505 298 505 C153 505 57 398 57 238 C57 92 127 -5 233 -5 C307 -5 378 38 409 103 L409 103 Z " />
<glyph glyph-name="egrave" unicode="&#xe8;" horiz-adv-x="474" d="M416 103 C416 103 413 104 413 104 C385 46 321 7 253 7 C148 7 78 103 78 246 C78 277 81 305 87 331 C87 331 418 331 418 331 C418 435 355 505 261 505 C139 505 57 398 57 238 C57 92 129 -5 236 -5 C313 -5 385 38 416 103 L416 103 Z M236 671 C211 706 193 729 191 729 C187 729 179 723 179 721 C179 718 198 695 226 663 C226 663 336 532 336 532 C336 532 338 533 338 533 C338 533 236 671 236 671 L236 671 Z M87 334 C110 436 174 499 260 499 C343 499 399 438 399 347 C399 342 395 338 390 338 C390 338 399 338 399 338 C399 338 87 334 87 334 L87 334 Z " />
<glyph glyph-name="eacute" unicode="&#xe9;" horiz-adv-x="474" d="M228 532 C228 532 335 663 335 663 C362 697 381 720 380 721 C380 723 372 729 369 729 C368 729 351 706 325 671 C325 671 226 533 226 533 C226 533 228 532 228 532 L228 532 Z M416 103 C416 103 413 104 413 104 C385 46 321 7 253 7 C148 7 78 103 78 246 C78 277 81 305 87 331 C87 331 418 331 418 331 C418 435 355 505 261 505 C139 505 57 398 57 238 C57 92 129 -5 236 -5 C313 -5 385 38 416 103 L416 103 Z M87 334 C110 436 174 499 260 499 C343 499 399 438 399 347 C399 342 395 338 390 338 C390 338 399 338 399 338 C399 338 87 334 87 334 L87 334 Z " />
<glyph glyph-name="ecircumflex" unicode="&#xea;" horiz-adv-x="474" d="M416 103 C416 103 413 104 413 104 C385 46 321 7 253 7 C148 7 78 103 78 246 C78 277 81 305 87 331 C87 331 418 331 418 331 C418 435 355 505 261 505 C139 505 57 398 57 238 C57 92 129 -5 236 -5 C313 -5 385 38 416 103 L416 103 Z M261 722 C261 722 375 534 375 534 C375 534 377 536 377 536 C377 536 268 739 268 739 C267 741 265 745 261 745 C258 745 256 741 255 739 C255 739 145 536 145 536 C145 536 147 534 147 534 C147 534 261 722 261 722 L261 722 Z M87 334 C110 436 174 499 260 499 C343 499 399 438 399 347 C399 342 395 338 390 338 C390 338 399 338 399 338 C399 338 87 334 87 334 L87 334 Z " />
<glyph glyph-name="edieresis" unicode="&#xeb;" horiz-adv-x="474" d="M345 570 C357 570 365 578 365 590 C365 602 357 610 345 610 C333 610 325 602 325 590 C325 578 333 570 345 570 L345 570 Z M178 570 C190 570 198 578 198 590 C198 602 190 610 178 610 C166 610 158 602 158 590 C158 578 166 570 178 570 L178 570 Z M416 103 C416 103 413 104 413 104 C385 46 321 7 253 7 C148 7 78 103 78 246 C78 277 81 305 87 331 C87 331 418 331 418 331 C418 435 355 505 261 505 C139 505 57 398 57 238 C57 92 129 -5 236 -5 C313 -5 385 38 416 103 L416 103 Z M87 334 C110 436 174 499 260 499 C343 499 399 438 399 347 C399 342 395 338 390 338 C390 338 399 338 399 338 C399 338 87 334 87 334 L87 334 Z " />
<glyph glyph-name="igrave" unicode="&#xec;" horiz-adv-x="171" d="M96 0 C96 0 120 0 120 0 C120 0 120 15 120 15 C120 15 115 15 115 15 C104 15 96 13 96 0 C96 0 96 420 96 420 C96 420 96 505 96 505 C96 505 95 505 95 505 C95 505 56 493 56 493 C56 493 56 483 56 483 C56 483 70 461 70 461 C74 456 76 446 76 414 C76 414 76 0 76 0 C76 13 68 15 57 15 C57 15 52 15 52 15 C52 15 52 0 52 0 C52 0 76 0 76 0 C76 0 76 414 76 414 C76 414 76 420 76 420 C76 420 96 420 96 420 C96 420 96 0 96 0 L96 0 Z M61 671 C35 706 17 729 15 729 C12 729 4 723 4 721 C4 718 23 695 50 663 C50 663 160 532 160 532 C160 532 163 533 163 533 C163 533 61 671 61 671 L61 671 Z " />
<glyph glyph-name="iacute" unicode="&#xed;" horiz-adv-x="171" d="M96 0 C96 0 120 0 120 0 C120 0 120 15 120 15 C120 15 115 15 115 15 C104 15 96 13 96 0 C96 0 96 420 96 420 C96 420 96 505 96 505 C96 505 95 505 95 505 C95 505 56 493 56 493 C56 493 56 483 56 483 C56 483 70 461 70 461 C74 456 76 446 76 414 C76 414 76 0 76 0 C76 13 68 15 57 15 C57 15 52 15 52 15 C52 15 52 0 52 0 C52 0 76 0 76 0 C76 0 76 414 76 414 C76 414 76 420 76 420 C76 420 96 420 96 420 C96 420 96 0 96 0 L96 0 Z M7 532 C7 532 114 663 114 663 C141 697 159 720 159 721 C159 723 151 729 148 729 C147 729 130 706 104 671 C104 671 5 533 5 533 C5 533 7 532 7 532 L7 532 Z " />
<glyph glyph-name="icircumflex" unicode="&#xee;" horiz-adv-x="171" d="M92 739 C91 741 89 745 86 745 C82 745 80 741 79 739 C79 739 -30 536 -30 536 C-30 536 -28 534 -28 534 C-28 534 86 722 86 722 C86 722 200 534 200 534 C200 534 202 536 202 536 C202 536 92 739 92 739 L92 739 Z M96 0 C96 0 120 0 120 0 C120 0 120 15 120 15 C120 15 115 15 115 15 C104 15 96 13 96 0 C96 0 96 420 96 420 C96 420 96 505 96 505 C96 505 95 505 95 505 C95 505 56 493 56 493 C56 493 56 483 56 483 C56 483 70 461 70 461 C74 456 76 446 76 414 C76 414 76 0 76 0 C76 13 68 15 57 15 C57 15 52 15 52 15 C52 15 52 0 52 0 C52 0 76 0 76 0 C76 0 76 414 76 414 C76 414 76 420 76 420 C76 420 96 420 96 420 C96 420 96 0 96 0 L96 0 Z " />
<glyph glyph-name="idieresis" unicode="&#xef;" horiz-adv-x="171" d="M96 0 C96 0 120 0 120 0 C120 0 120 15 120 15 C120 15 115 15 115 15 C104 15 96 13 96 0 C96 0 96 420 96 420 C96 420 96 505 96 505 C96 505 95 505 95 505 C95 505 56 493 56 493 C56 493 56 483 56 483 C56 483 70 461 70 461 C74 456 76 446 76 414 C76 414 76 0 76 0 C76 13 68 15 57 15 C57 15 52 15 52 15 C52 15 52 0 52 0 C52 0 76 0 76 0 C76 0 76 414 76 414 C76 414 76 420 76 420 C76 420 96 420 96 420 C96 420 96 0 96 0 L96 0 Z M169 570 C181 570 189 578 189 590 C189 602 181 610 169 610 C157 610 149 602 149 590 C149 578 157 570 169 570 L169 570 Z M2 570 C14 570 22 578 22 590 C22 602 14 610 2 610 C-10 610 -18 602 -18 590 C-18 578 -10 570 2 570 L2 570 Z " />
<glyph glyph-name="ntilde" unicode="&#xf1;" horiz-adv-x="524" d="M121 595 C121 638 140 667 170 667 C232 667 292 604 354 604 C388 604 411 633 411 677 C411 677 408 677 408 677 C408 641 388 617 359 617 C297 617 236 680 174 680 C140 680 118 646 118 595 C118 595 121 595 121 595 L121 595 Z M410 0 C410 0 434 0 434 0 C434 0 444 0 444 0 C444 0 454 0 454 0 C454 0 478 0 478 0 C477 0 477 3 478 7 C477 12 477 15 478 15 C478 15 474 15 474 15 C463 15 455 36 454 68 C454 68 454 80 454 80 C454 80 454 336 454 336 C454 437 417 505 320 505 C216 505 128 458 96 387 C96 387 96 390 96 390 C96 390 96 415 96 415 C96 415 96 500 96 500 C96 500 92 500 92 500 C92 500 52 488 52 488 C52 488 52 479 52 479 C71 454 76 444 76 385 C76 385 76 80 76 80 C76 41 68 15 55 15 C55 15 52 15 52 15 C52 15 52 0 52 0 C52 0 76 0 76 0 C76 0 86 0 86 0 C86 0 96 0 96 0 C96 0 120 0 120 0 C119 0 119 3 120 8 C119 12 119 15 120 15 C120 15 116 15 116 15 C105 15 97 36 96 68 C96 68 96 80 96 80 C96 80 96 383 96 383 C124 448 206 492 305 492 C398 492 434 429 434 333 C434 333 434 80 434 80 C434 41 426 15 413 15 C413 15 410 15 410 15 C410 15 410 0 410 0 L410 0 Z " />
<glyph glyph-name="ograve" unicode="&#xf2;" horiz-adv-x="594" d="M297 -1 C166 -1 79 99 79 250 C79 401 166 501 297 501 C428 501 515 401 515 250 C515 99 428 -1 297 -1 L297 -1 Z M57 250 C57 97 153 -5 297 -5 C441 -5 537 97 537 250 C537 403 441 505 297 505 C153 505 57 403 57 250 L57 250 Z M272 671 C247 706 229 729 227 729 C223 729 215 723 215 721 C215 718 234 695 262 663 C262 663 372 532 372 532 C372 532 374 533 374 533 C374 533 272 671 272 671 L272 671 Z " />
<glyph glyph-name="oacute" unicode="&#xf3;" horiz-adv-x="594" d="M264 532 C264 532 371 663 371 663 C398 697 417 720 416 721 C416 723 408 729 405 729 C404 729 387 706 361 671 C361 671 262 533 262 533 C262 533 264 532 264 532 L264 532 Z M297 -1 C166 -1 79 99 79 250 C79 401 166 501 297 501 C428 501 515 401 515 250 C515 99 428 -1 297 -1 L297 -1 Z M57 250 C57 97 153 -5 297 -5 C441 -5 537 97 537 250 C537 403 441 505 297 505 C153 505 57 403 57 250 L57 250 Z " />
<glyph glyph-name="ocircumflex" unicode="&#xf4;" horiz-adv-x="594" d="M297 -1 C166 -1 79 99 79 250 C79 401 166 501 297 501 C428 501 515 401 515 250 C515 99 428 -1 297 -1 L297 -1 Z M57 250 C57 97 153 -5 297 -5 C441 -5 537 97 537 250 C537 403 441 505 297 505 C153 505 57 403 57 250 L57 250 Z M297 722 C297 722 411 534 411 534 C411 534 413 536 413 536 C413 536 304 739 304 739 C303 741 301 745 297 745 C294 745 292 741 291 739 C291 739 181 536 181 536 C181 536 183 534 183 534 C183 534 297 722 297 722 L297 722 Z " />
<glyph glyph-name="otilde" unicode="&#xf5;" horiz-adv-x="594" d="M154 595 C154 638 173 667 202 667 C264 667 325 604 387 604 C421 604 444 633 444 677 C444 677 440 677 440 677 C440 641 420 617 391 617 C329 617 268 680 206 680 C173 680 151 646 151 595 C151 595 154 595 154 595 L154 595 Z M297 -1 C166 -1 79 99 79 250 C79 401 166 501 297 501 C428 501 515 401 515 250 C515 99 428 -1 297 -1 L297 -1 Z M57 250 C57 97 153 -5 297 -5 C441 -5 537 97 537 250 C537 403 441 505 297 505 C153 505 57 403 57 250 L57 250 Z " />
<glyph glyph-name="odieresis" unicode="&#xf6;" horiz-adv-x="594" d="M381 570 C393 570 401 578 401 590 C401 602 393 610 381 610 C369 610 361 602 361 590 C361 578 369 570 381 570 L381 570 Z M214 570 C226 570 234 578 234 590 C234 602 226 610 214 610 C202 610 194 602 194 590 C194 578 202 570 214 570 L214 570 Z M297 -1 C166 -1 79 99 79 250 C79 401 166 501 297 501 C428 501 515 401 515 250 C515 99 428 -1 297 -1 L297 -1 Z M57 250 C57 97 153 -5 297 -5 C441 -5 537 97 537 250 C537 403 441 505 297 505 C153 505 57 403 57 250 L57 250 Z " />
<glyph glyph-name="oslash" unicode="&#xf8;" horiz-adv-x="594" d="M59 -7 C59 -7 125 63 125 63 C167 20 226 -5 297 -5 C441 -5 537 97 537 250 C537 325 514 388 473 432 C473 432 540 503 540 503 C540 503 535 507 535 507 C535 507 469 437 469 437 C427 480 368 505 297 505 C153 505 57 403 57 250 C57 175 80 112 121 68 C121 68 54 -3 54 -3 C54 -3 59 -7 59 -7 L59 -7 Z M297 -1 C229 -1 173 26 135 73 C135 73 463 422 463 422 C496 379 515 320 515 250 C515 99 428 -1 297 -1 L297 -1 Z M131 78 C98 121 79 180 79 250 C79 401 166 501 297 501 C365 501 421 474 459 427 C459 427 131 78 131 78 L131 78 Z " />
<glyph glyph-name="ugrave" unicode="&#xf9;" horiz-adv-x="489" d="M380 485 C380 485 383 485 383 485 C396 485 404 459 404 420 C404 420 404 110 404 110 C404 110 404 91 404 91 C385 41 330 8 223 8 C119 8 66 68 66 159 C66 159 66 500 66 500 C66 500 56 500 56 500 C56 500 46 500 46 500 C46 500 22 500 22 500 C22 500 22 485 22 485 C22 485 25 485 25 485 C38 485 46 459 46 420 C46 420 46 156 46 156 C46 60 101 -5 207 -5 C321 -5 380 31 404 86 C404 86 404 5 404 5 C404 5 404 0 404 0 C404 0 408 0 408 0 C408 0 448 12 448 12 C447 12 447 12 448 13 C447 17 447 21 448 21 C431 38 425 52 424 88 C424 88 424 115 424 115 C424 115 424 500 424 500 C424 500 414 500 414 500 C414 500 404 500 404 500 C404 500 380 500 380 500 C380 500 380 485 380 485 L380 485 Z M209 671 C184 706 166 729 164 729 C161 729 153 723 153 721 C153 718 172 695 199 663 C199 663 309 532 309 532 C309 532 311 533 311 533 C311 533 209 671 209 671 L209 671 Z " />
<glyph glyph-name="uacute" unicode="&#xfa;" horiz-adv-x="489" d="M202 532 C202 532 309 663 309 663 C336 697 354 720 354 721 C354 723 346 729 342 729 C342 729 324 706 299 671 C299 671 200 533 200 533 C200 533 202 532 202 532 L202 532 Z M380 485 C380 485 383 485 383 485 C396 485 404 459 404 420 C404 420 404 110 404 110 C404 110 404 91 404 91 C385 41 330 8 223 8 C119 8 66 68 66 159 C66 159 66 500 66 500 C66 500 56 500 56 500 C56 500 46 500 46 500 C46 500 22 500 22 500 C22 500 22 485 22 485 C22 485 25 485 25 485 C38 485 46 459 46 420 C46 420 46 156 46 156 C46 60 101 -5 207 -5 C321 -5 380 31 404 86 C404 86 404 5 404 5 C404 5 404 0 404 0 C404 0 408 0 408 0 C408 0 448 12 448 12 C447 12 447 12 448 13 C447 17 447 21 448 21 C431 38 425 52 424 88 C424 88 424 115 424 115 C424 115 424 500 424 500 C424 500 414 500 414 500 C414 500 404 500 404 500 C404 500 380 500 380 500 C380 500 380 485 380 485 L380 485 Z " />
<glyph glyph-name="ucircumflex" unicode="&#xfb;" horiz-adv-x="489" d="M380 485 C380 485 383 485 383 485 C396 485 404 459 404 420 C404 420 404 110 404 110 C404 110 404 91 404 91 C385 41 330 8 223 8 C119 8 66 68 66 159 C66 159 66 500 66 500 C66 500 56 500 56 500 C56 500 46 500 46 500 C46 500 22 500 22 500 C22 500 22 485 22 485 C22 485 25 485 25 485 C38 485 46 459 46 420 C46 420 46 156 46 156 C46 60 101 -5 207 -5 C321 -5 380 31 404 86 C404 86 404 5 404 5 C404 5 404 0 404 0 C404 0 408 0 408 0 C408 0 448 12 448 12 C447 12 447 12 448 13 C447 17 447 21 448 21 C431 38 425 52 424 88 C424 88 424 115 424 115 C424 115 424 500 424 500 C424 500 414 500 414 500 C414 500 404 500 404 500 C404 500 380 500 380 500 C380 500 380 485 380 485 L380 485 Z M235 722 C235 722 349 534 349 534 C349 534 351 536 351 536 C351 536 241 739 241 739 C240 741 238 745 235 745 C231 745 229 741 228 739 C228 739 118 536 118 536 C118 536 120 534 120 534 C120 534 235 722 235 722 L235 722 Z " />
<glyph glyph-name="udieresis" unicode="&#xfc;" horiz-adv-x="489" d="M318 570 C330 570 338 578 338 590 C338 602 330 610 318 610 C306 610 298 602 298 590 C298 578 306 570 318 570 L318 570 Z M151 570 C163 570 171 578 171 590 C171 602 163 610 151 610 C139 610 131 602 131 590 C131 578 139 570 151 570 L151 570 Z M380 485 C380 485 383 485 383 485 C396 485 404 459 404 420 C404 420 404 110 404 110 C404 110 404 91 404 91 C385 41 330 8 223 8 C119 8 66 68 66 159 C66 159 66 500 66 500 C66 500 56 500 56 500 C56 500 46 500 46 500 C46 500 22 500 22 500 C22 500 22 485 22 485 C22 485 25 485 25 485 C38 485 46 459 46 420 C46 420 46 156 46 156 C46 60 101 -5 207 -5 C321 -5 380 31 404 86 C404 86 404 5 404 5 C404 5 404 0 404 0 C404 0 408 0 408 0 C408 0 448 12 448 12 C447 12 447 12 448 13 C447 17 447 21 448 21 C431 38 425 52 424 88 C424 88 424 115 424 115 C424 115 424 500 424 500 C424 500 414 500 414 500 C414 500 404 500 404 500 C404 500 380 500 380 500 C380 500 380 485 380 485 L380 485 Z " />
<glyph glyph-name="ydieresis" unicode="&#xff;" horiz-adv-x="358" d="M296 570 C308 570 316 578 316 590 C316 602 308 610 296 610 C284 610 276 602 276 590 C276 578 284 570 296 570 L296 570 Z M129 570 C141 570 149 578 149 590 C149 602 141 610 129 610 C117 610 109 602 109 590 C109 578 117 570 129 570 L129 570 Z M408 500 C408 500 390 500 390 500 C390 500 386 500 386 500 C386 500 383 500 383 500 C383 500 359 500 359 500 C359 500 359 485 359 485 C359 485 362 485 362 485 C371 485 369 459 355 420 C355 420 356 420 356 420 C356 420 217 16 217 16 C217 16 82 429 82 429 C72 463 71 485 80 485 C80 485 83 485 83 485 C83 485 83 500 83 500 C83 500 59 500 59 500 C59 500 47 500 47 500 C47 500 36 500 36 500 C36 500 17 500 17 500 C17 500 17 485 17 485 C17 485 21 485 21 485 C33 485 49 461 61 424 C61 424 207 -7 207 -7 C207 -7 184 -70 184 -70 C147 -176 119 -217 84 -217 C64 -217 48 -193 28 -193 C22 -193 18 -197 18 -202 C18 -219 39 -230 71 -230 C116 -230 150 -186 189 -72 C189 -72 211 -10 211 -10 C211 -10 362 420 362 420 C362 420 362 420 362 420 C375 459 392 485 405 485 C405 485 408 485 408 485 C408 485 408 500 408 500 L408 500 Z " />
<glyph glyph-name="Amacron" unicode="&#x100;" horiz-adv-x="538" d="M114 774 C114 774 414 774 414 774 C414 774 414 785 414 785 C414 785 114 785 114 785 C114 785 114 774 114 774 L114 774 Z M520 15 C520 15 516 15 516 15 C505 15 490 36 477 69 C477 69 268 675 268 675 C268 675 260 675 260 675 C260 675 64 80 64 80 C64 80 64 80 64 80 C52 41 35 15 23 15 C23 15 19 15 19 15 C19 15 19 0 19 0 C19 0 38 0 38 0 C38 0 43 0 43 0 C43 0 47 0 47 0 C47 0 82 0 82 0 C82 0 82 15 82 15 C82 15 78 15 78 15 C63 15 63 45 77 90 C77 90 125 238 125 238 C125 238 389 238 389 238 C389 238 444 77 444 77 C455 40 456 15 443 15 C443 15 440 15 440 15 C440 15 440 0 440 0 C440 0 470 0 470 0 C470 0 485 0 485 0 C485 0 501 0 501 0 C501 0 520 0 520 0 C520 0 520 15 520 15 L520 15 Z M387 246 C387 246 128 246 128 246 C128 246 255 635 255 635 C255 635 387 246 387 246 L387 246 Z " />
<glyph glyph-name="amacron" unicode="&#x101;" horiz-adv-x="579" d="M105 614 C105 614 405 614 405 614 C405 614 405 625 405 625 C405 625 105 625 105 625 C105 625 105 614 105 614 L105 614 Z M487 21 C466 42 463 58 463 115 C463 115 463 500 463 500 C463 500 457 500 457 500 C457 500 446 375 446 375 C432 451 362 505 263 505 C142 505 62 394 62 228 C62 88 139 -5 255 -5 C357 -5 428 40 443 111 C443 111 443 110 443 110 C443 110 443 0 443 0 C443 0 443 -5 443 -5 C443 -5 446 -5 446 -5 C446 -5 462 5 462 5 C462 5 487 12 487 12 C487 12 487 21 487 21 L487 21 Z M443 124 C434 53 366 7 266 7 C156 7 83 98 83 236 C83 394 155 500 262 500 C371 500 443 435 443 347 C443 347 443 124 443 124 L443 124 Z " />
<glyph glyph-name="Abreve" unicode="&#x102;" horiz-adv-x="538" d="M157 872 C160 819 203 783 264 783 C325 783 368 819 371 872 C371 872 368 872 368 872 C364 826 323 796 264 796 C205 796 164 826 160 872 C160 872 157 872 157 872 L157 872 Z M520 15 C520 15 516 15 516 15 C505 15 490 36 477 69 C477 69 268 675 268 675 C268 675 260 675 260 675 C260 675 64 80 64 80 C64 80 64 80 64 80 C52 41 35 15 23 15 C23 15 19 15 19 15 C19 15 19 0 19 0 C19 0 38 0 38 0 C38 0 43 0 43 0 C43 0 47 0 47 0 C47 0 82 0 82 0 C82 0 82 15 82 15 C82 15 78 15 78 15 C63 15 63 45 77 90 C77 90 125 238 125 238 C125 238 389 238 389 238 C389 238 444 77 444 77 C455 40 456 15 443 15 C443 15 440 15 440 15 C440 15 440 0 440 0 C440 0 470 0 470 0 C470 0 485 0 485 0 C485 0 501 0 501 0 C501 0 520 0 520 0 C520 0 520 15 520 15 L520 15 Z M387 246 C387 246 128 246 128 246 C128 246 255 635 255 635 C255 635 387 246 387 246 L387 246 Z " />
<glyph glyph-name="abreve" unicode="&#x103;" horiz-adv-x="579" d="M148 682 C152 629 194 593 255 593 C316 593 359 629 362 682 C362 682 359 682 359 682 C356 636 314 606 255 606 C196 606 155 636 151 682 C151 682 148 682 148 682 L148 682 Z M487 21 C466 42 463 58 463 115 C463 115 463 500 463 500 C463 500 457 500 457 500 C457 500 446 375 446 375 C432 451 362 505 263 505 C142 505 62 394 62 228 C62 88 139 -5 255 -5 C357 -5 428 40 443 111 C443 111 443 110 443 110 C443 110 443 0 443 0 C443 0 443 -5 443 -5 C443 -5 446 -5 446 -5 C446 -5 462 5 462 5 C462 5 487 12 487 12 C487 12 487 21 487 21 L487 21 Z M443 124 C434 53 366 7 266 7 C156 7 83 98 83 236 C83 394 155 500 262 500 C371 500 443 435 443 347 C443 347 443 124 443 124 L443 124 Z " />
<glyph glyph-name="Aogonek" unicode="&#x104;" horiz-adv-x="538" d="M520 15 C520 15 516 15 516 15 C505 15 490 36 477 69 C477 69 268 675 268 675 C268 675 260 675 260 675 C260 675 64 80 64 80 C64 80 64 80 64 80 C52 41 35 15 23 15 C23 15 19 15 19 15 C19 15 19 0 19 0 C19 0 38 0 38 0 C38 0 43 0 43 0 C43 0 47 0 47 0 C47 0 82 0 82 0 C82 0 82 15 82 15 C82 15 78 15 78 15 C63 15 63 45 77 90 C77 90 125 238 125 238 C125 238 389 238 389 238 C389 238 444 77 444 77 C455 40 456 15 443 15 C443 15 440 15 440 15 C440 15 440 0 440 0 C440 0 461 0 461 0 C418 -21 340 -94 340 -158 C340 -202 375 -231 427 -231 C458 -231 489 -218 505 -199 C505 -199 504 -198 504 -198 C489 -215 461 -226 432 -226 C384 -226 353 -198 353 -156 C353 -88 435 -13 470 0 C470 0 485 0 485 0 C485 0 501 0 501 0 C501 0 520 0 520 0 C520 0 520 15 520 15 L520 15 Z M387 246 C387 246 128 246 128 246 C128 246 255 635 255 635 C255 635 387 246 387 246 L387 246 Z " />
<glyph glyph-name="aogonek" unicode="&#x105;" horiz-adv-x="482" d="M476 30 C476 30 476 35 476 35 C438 21 347 -62 347 -138 C347 -194 382 -231 434 -231 C465 -231 496 -218 512 -199 C512 -199 510 -198 510 -198 C496 -215 468 -226 438 -226 C391 -226 359 -190 359 -136 C359 -61 441 17 476 30 L476 30 Z M454 34 C433 14 415 0 399 0 C369 0 361 22 361 54 C361 54 361 363 361 363 C361 448 317 505 250 505 C121 505 55 451 84 369 C84 369 104 369 104 369 C76 447 132 499 246 499 C302 499 340 446 340 367 C340 367 340 245 340 245 C340 245 201 226 201 226 C106 213 42 162 42 100 C42 37 86 -5 153 -5 C220 -5 293 30 340 82 C340 82 340 52 340 52 C340 15 350 -10 385 -10 C408 -10 431 7 456 31 C456 31 454 34 454 34 L454 34 Z M340 240 C340 240 340 86 340 86 C297 39 228 8 163 8 C102 8 62 47 62 106 C62 162 118 207 201 219 C201 219 340 240 340 240 L340 240 Z " />
<glyph glyph-name="Cacute" unicode="&#x106;" horiz-adv-x="739" d="M364 692 C364 692 471 823 471 823 C498 857 516 880 516 881 C516 883 508 889 505 889 C504 889 486 866 461 831 C461 831 362 693 362 693 C362 693 364 692 364 692 L364 692 Z M673 525 C673 525 673 569 673 569 C634 627 530 665 412 665 C210 665 76 531 76 330 C76 129 210 -5 412 -5 C530 -5 634 33 673 91 C673 91 673 135 673 135 C673 135 660 135 660 135 C656 128 650 119 647 112 C614 57 543 14 467 5 C449 3 431 2 412 2 C230 2 108 133 108 330 C108 527 230 658 412 658 C443 658 473 655 501 650 C501 650 501 650 501 650 C559 640 617 599 647 548 C650 541 656 532 660 525 C660 525 673 525 673 525 L673 525 Z " />
<glyph glyph-name="cacute" unicode="&#x107;" horiz-adv-x="468" d="M220 532 C220 532 327 663 327 663 C354 697 372 720 372 721 C372 723 364 729 360 729 C359 729 342 706 316 671 C316 671 217 533 217 533 C217 533 220 532 220 532 L220 532 Z M409 103 C409 103 406 104 406 104 C378 46 316 7 250 7 C147 7 78 103 78 246 C78 398 165 499 296 499 C349 499 387 461 392 403 C393 397 397 393 402 393 C408 393 411 397 411 402 C406 464 360 505 298 505 C153 505 57 398 57 238 C57 92 127 -5 233 -5 C307 -5 378 38 409 103 L409 103 Z " />
<glyph glyph-name="Ccircumflex" unicode="&#x108;" horiz-adv-x="739" d="M673 525 C673 525 673 569 673 569 C634 627 530 665 412 665 C210 665 76 531 76 330 C76 129 210 -5 412 -5 C530 -5 634 33 673 91 C673 91 673 135 673 135 C673 135 660 135 660 135 C656 128 650 119 647 112 C614 57 543 14 467 5 C449 3 431 2 412 2 C230 2 108 133 108 330 C108 527 230 658 412 658 C443 658 473 655 501 650 C501 650 501 650 501 650 C559 640 617 599 647 548 C650 541 656 532 660 525 C660 525 673 525 673 525 L673 525 Z M412 883 C412 883 526 694 526 694 C526 694 528 696 528 696 C528 696 419 899 419 899 C417 901 415 905 412 905 C409 905 407 901 406 899 C406 899 296 696 296 696 C296 696 298 694 298 694 C298 694 412 883 412 883 L412 883 Z " />
<glyph glyph-name="Cdotaccent" unicode="&#x10a;" horiz-adv-x="739" d="M412 730 C424 730 432 738 432 750 C432 762 424 770 412 770 C400 770 392 762 392 750 C392 738 400 730 412 730 L412 730 Z M673 525 C673 525 673 569 673 569 C634 627 530 665 412 665 C210 665 76 531 76 330 C76 129 210 -5 412 -5 C530 -5 634 33 673 91 C673 91 673 135 673 135 C673 135 660 135 660 135 C656 128 650 119 647 112 C614 57 543 14 467 5 C449 3 431 2 412 2 C230 2 108 133 108 330 C108 527 230 658 412 658 C443 658 473 655 501 650 C501 650 501 650 501 650 C559 640 617 599 647 548 C650 541 656 532 660 525 C660 525 673 525 673 525 L673 525 Z " />
<glyph glyph-name="cdotaccent" unicode="&#x10b;" horiz-adv-x="468" d="M298 570 C310 570 318 578 318 590 C318 602 310 610 298 610 C286 610 278 602 278 590 C278 578 286 570 298 570 L298 570 Z M409 103 C409 103 406 104 406 104 C378 46 316 7 250 7 C147 7 78 103 78 246 C78 398 165 499 296 499 C349 499 387 461 392 403 C393 397 397 393 402 393 C408 393 411 397 411 402 C406 464 360 505 298 505 C153 505 57 398 57 238 C57 92 127 -5 233 -5 C307 -5 378 38 409 103 L409 103 Z " />
<glyph glyph-name="Ccaron" unicode="&#x10c;" horiz-adv-x="739" d="M673 525 C673 525 673 569 673 569 C634 627 530 665 412 665 C210 665 76 531 76 330 C76 129 210 -5 412 -5 C530 -5 634 33 673 91 C673 91 673 135 673 135 C673 135 660 135 660 135 C656 128 650 119 647 112 C614 57 543 14 467 5 C449 3 431 2 412 2 C230 2 108 133 108 330 C108 527 230 658 412 658 C443 658 473 655 501 650 C501 650 501 650 501 650 C559 640 617 599 647 548 C650 541 656 532 660 525 C660 525 673 525 673 525 L673 525 Z M412 737 C412 737 526 926 526 926 C526 926 528 924 528 924 C528 924 419 721 419 721 C417 719 415 715 412 715 C409 715 407 719 406 721 C406 721 296 924 296 924 C296 924 298 926 298 926 C298 926 412 737 412 737 L412 737 Z " />
<glyph glyph-name="ccaron" unicode="&#x10d;" horiz-adv-x="468" d="M409 103 C409 103 406 104 406 104 C378 46 316 7 250 7 C147 7 78 103 78 246 C78 398 165 499 296 499 C349 499 387 461 392 403 C393 397 397 393 402 393 C408 393 411 397 411 402 C406 464 360 505 298 505 C153 505 57 398 57 238 C57 92 127 -5 233 -5 C307 -5 378 38 409 103 L409 103 Z M298 577 C298 577 412 766 412 766 C412 766 414 764 414 764 C414 764 304 561 304 561 C303 559 301 555 298 555 C295 555 293 559 292 561 C292 561 182 764 182 764 C182 764 184 766 184 766 C184 766 298 577 298 577 L298 577 Z " />
<glyph glyph-name="Dcaron" unicode="&#x10e;" horiz-adv-x="627" d="M65 645 C65 645 68 645 68 645 C81 645 89 619 89 580 C89 580 89 80 89 80 C89 41 81 15 68 15 C68 15 65 15 65 15 C65 15 65 0 65 0 C65 0 89 0 89 0 C89 0 103 0 103 0 C103 0 117 0 117 0 C117 0 287 0 287 0 C457 0 570 132 570 330 C570 528 440 660 245 660 C245 660 117 660 117 660 C117 660 103 660 103 660 C103 660 89 660 89 660 C89 660 65 660 65 660 C65 660 65 645 65 645 L65 645 Z M315 737 C315 737 429 926 429 926 C429 926 431 924 431 924 C431 924 322 721 322 721 C320 719 318 715 315 715 C312 715 310 719 309 721 C309 721 199 924 199 924 C199 924 201 926 201 926 C201 926 315 737 315 737 L315 737 Z M117 6 C117 6 117 654 117 654 C117 654 245 654 245 654 C423 654 542 524 542 330 C542 136 440 6 287 6 C287 6 117 6 117 6 L117 6 Z " />
<glyph glyph-name="dcaron" unicode="&#x10f;" horiz-adv-x="601" d="M509 21 C488 42 485 58 485 115 C485 115 485 610 485 610 C485 610 485 715 485 715 C485 715 485 720 485 720 C485 720 481 720 481 720 C481 720 441 708 441 708 C441 708 441 699 441 699 C462 678 465 662 465 605 C465 605 465 395 465 395 C442 460 372 505 275 505 C147 505 62 394 62 228 C62 88 144 -5 267 -5 C364 -5 442 24 465 68 C465 68 465 5 465 5 C465 5 465 0 465 0 C465 0 469 0 469 0 C469 0 509 12 509 12 C509 12 509 21 509 21 L509 21 Z M584 644 C602 701 614 746 614 750 C614 753 605 754 601 754 C596 755 581 693 572 649 C572 649 534 488 534 488 C534 488 537 487 537 487 C537 487 584 644 584 644 L584 644 Z M465 110 C465 110 465 73 465 73 C447 33 373 7 278 7 C161 7 83 98 83 236 C83 394 159 500 274 500 C379 500 452 447 465 371 C465 371 465 110 465 110 L465 110 Z " />
<glyph glyph-name="Emacron" unicode="&#x112;" horiz-adv-x="463" d="M76 774 C76 774 376 774 376 774 C376 774 376 785 376 785 C376 785 76 785 76 785 C76 785 76 774 76 774 L76 774 Z M328 321 C328 321 328 348 328 348 C328 348 328 352 328 352 C328 352 328 356 328 356 C328 356 328 379 328 379 C328 379 316 379 316 379 C316 379 312 376 312 376 C302 364 268 357 225 356 C225 356 208 356 208 356 C208 356 98 356 98 356 C98 356 98 653 98 653 C98 653 231 653 231 653 C291 653 346 638 368 616 C368 616 375 610 375 610 C375 610 386 610 386 610 C386 610 386 656 386 656 C386 656 386 660 386 660 C386 660 383 660 383 660 C383 660 306 660 306 660 C306 660 98 660 98 660 C98 660 84 660 84 660 C84 660 69 660 69 660 C69 660 45 660 45 660 C45 660 45 645 45 645 C45 645 49 645 49 645 C61 645 69 619 69 580 C69 580 69 80 69 80 C69 41 61 15 49 15 C49 15 45 15 45 15 C45 15 45 0 45 0 C45 0 69 0 69 0 C69 0 84 0 84 0 C84 0 98 0 98 0 C98 0 313 0 313 0 C313 0 393 0 393 0 C394 1 394 3 394 4 C397 17 400 36 402 50 C402 50 391 50 391 50 C361 24 307 7 240 7 C240 7 98 7 98 7 C98 7 98 348 98 348 C98 348 208 348 208 348 C259 348 301 339 312 325 C312 325 316 321 316 321 C316 321 328 321 328 321 L328 321 Z " />
<glyph glyph-name="emacron" unicode="&#x113;" horiz-adv-x="474" d="M111 614 C111 614 411 614 411 614 C411 614 411 625 411 625 C411 625 111 625 111 625 C111 625 111 614 111 614 L111 614 Z M416 103 C416 103 413 104 413 104 C385 46 321 7 253 7 C148 7 78 103 78 246 C78 277 81 305 87 331 C87 331 418 331 418 331 C418 435 355 505 261 505 C139 505 57 398 57 238 C57 92 129 -5 236 -5 C313 -5 385 38 416 103 L416 103 Z M87 334 C110 436 174 499 260 499 C343 499 399 438 399 347 C399 342 395 338 390 338 C390 338 399 338 399 338 C399 338 87 334 87 334 L87 334 Z " />
<glyph glyph-name="Ebreve" unicode="&#x114;" horiz-adv-x="463" d="M119 872 C122 819 165 783 226 783 C287 783 330 819 333 872 C333 872 330 872 330 872 C327 826 285 796 226 796 C167 796 126 826 122 872 C122 872 119 872 119 872 L119 872 Z M328 321 C328 321 328 348 328 348 C328 348 328 352 328 352 C328 352 328 356 328 356 C328 356 328 379 328 379 C328 379 316 379 316 379 C316 379 312 376 312 376 C302 364 268 357 225 356 C225 356 208 356 208 356 C208 356 98 356 98 356 C98 356 98 653 98 653 C98 653 231 653 231 653 C291 653 346 638 368 616 C368 616 375 610 375 610 C375 610 386 610 386 610 C386 610 386 656 386 656 C386 656 386 660 386 660 C386 660 383 660 383 660 C383 660 306 660 306 660 C306 660 98 660 98 660 C98 660 84 660 84 660 C84 660 69 660 69 660 C69 660 45 660 45 660 C45 660 45 645 45 645 C45 645 49 645 49 645 C61 645 69 619 69 580 C69 580 69 80 69 80 C69 41 61 15 49 15 C49 15 45 15 45 15 C45 15 45 0 45 0 C45 0 69 0 69 0 C69 0 84 0 84 0 C84 0 98 0 98 0 C98 0 313 0 313 0 C313 0 393 0 393 0 C394 1 394 3 394 4 C397 17 400 36 402 50 C402 50 391 50 391 50 C361 24 307 7 240 7 C240 7 98 7 98 7 C98 7 98 348 98 348 C98 348 208 348 208 348 C259 348 301 339 312 325 C312 325 316 321 316 321 C316 321 328 321 328 321 L328 321 Z " />
<glyph glyph-name="ebreve" unicode="&#x115;" horiz-adv-x="474" d="M154 712 C158 659 200 623 261 623 C322 623 365 659 369 712 C369 712 365 712 365 712 C362 666 320 636 261 636 C202 636 161 666 157 712 C157 712 154 712 154 712 L154 712 Z M416 103 C416 103 413 104 413 104 C385 46 321 7 253 7 C148 7 78 103 78 246 C78 277 81 305 87 331 C87 331 418 331 418 331 C418 435 355 505 261 505 C139 505 57 398 57 238 C57 92 129 -5 236 -5 C313 -5 385 38 416 103 L416 103 Z M87 334 C110 436 174 499 260 499 C343 499 399 438 399 347 C399 342 395 338 390 338 C390 338 399 338 399 338 C399 338 87 334 87 334 L87 334 Z " />
<glyph glyph-name="Edotaccent" unicode="&#x116;" horiz-adv-x="463" d="M226 730 C238 730 246 738 246 750 C246 762 238 770 226 770 C214 770 206 762 206 750 C206 738 214 730 226 730 L226 730 Z M328 321 C328 321 328 348 328 348 C328 348 328 352 328 352 C328 352 328 356 328 356 C328 356 328 379 328 379 C328 379 316 379 316 379 C316 379 312 376 312 376 C302 364 268 357 225 356 C225 356 208 356 208 356 C208 356 98 356 98 356 C98 356 98 653 98 653 C98 653 231 653 231 653 C291 653 346 638 368 616 C368 616 375 610 375 610 C375 610 386 610 386 610 C386 610 386 656 386 656 C386 656 386 660 386 660 C386 660 383 660 383 660 C383 660 306 660 306 660 C306 660 98 660 98 660 C98 660 84 660 84 660 C84 660 69 660 69 660 C69 660 45 660 45 660 C45 660 45 645 45 645 C45 645 49 645 49 645 C61 645 69 619 69 580 C69 580 69 80 69 80 C69 41 61 15 49 15 C49 15 45 15 45 15 C45 15 45 0 45 0 C45 0 69 0 69 0 C69 0 84 0 84 0 C84 0 98 0 98 0 C98 0 313 0 313 0 C313 0 393 0 393 0 C394 1 394 3 394 4 C397 17 400 36 402 50 C402 50 391 50 391 50 C361 24 307 7 240 7 C240 7 98 7 98 7 C98 7 98 348 98 348 C98 348 208 348 208 348 C259 348 301 339 312 325 C312 325 316 321 316 321 C316 321 328 321 328 321 L328 321 Z " />
<glyph glyph-name="edotaccent" unicode="&#x117;" horiz-adv-x="474" d="M261 570 C273 570 281 578 281 590 C281 602 273 610 261 610 C249 610 241 602 241 590 C241 578 249 570 261 570 L261 570 Z M416 103 C416 103 413 104 413 104 C385 46 321 7 253 7 C148 7 78 103 78 246 C78 277 81 305 87 331 C87 331 418 331 418 331 C418 435 355 505 261 505 C139 505 57 398 57 238 C57 92 129 -5 236 -5 C313 -5 385 38 416 103 L416 103 Z M87 334 C110 436 174 499 260 499 C343 499 399 438 399 347 C399 342 395 338 390 338 C390 338 399 338 399 338 C399 338 87 334 87 334 L87 334 Z " />
<glyph glyph-name="Eogonek" unicode="&#x118;" horiz-adv-x="463" d="M328 321 C328 321 328 348 328 348 C328 348 328 352 328 352 C328 352 328 356 328 356 C328 356 328 379 328 379 C328 379 316 379 316 379 C316 379 312 376 312 376 C302 364 268 357 225 356 C225 356 208 356 208 356 C208 356 98 356 98 356 C98 356 98 653 98 653 C98 653 231 653 231 653 C291 653 346 638 368 616 C368 616 375 610 375 610 C375 610 386 610 386 610 C386 610 386 656 386 656 C386 656 386 660 386 660 C386 660 383 660 383 660 C383 660 306 660 306 660 C306 660 98 660 98 660 C98 660 84 660 84 660 C84 660 69 660 69 660 C69 660 45 660 45 660 C45 660 45 645 45 645 C45 645 49 645 49 645 C61 645 69 619 69 580 C69 580 69 80 69 80 C69 41 61 15 49 15 C49 15 45 15 45 15 C45 15 45 0 45 0 C45 0 69 0 69 0 C69 0 84 0 84 0 C84 0 98 0 98 0 C98 0 313 0 313 0 C313 0 384 0 384 0 C342 -21 264 -94 264 -158 C264 -202 299 -231 351 -231 C381 -231 413 -218 428 -199 C428 -199 427 -198 427 -198 C413 -215 384 -226 355 -226 C308 -226 276 -198 276 -156 C276 -88 358 -13 393 0 C394 1 394 3 394 4 C397 17 400 36 402 50 C402 50 391 50 391 50 C361 24 307 7 240 7 C240 7 98 7 98 7 C98 7 98 348 98 348 C98 348 208 348 208 348 C259 348 301 339 312 325 C312 325 316 321 316 321 C316 321 328 321 328 321 L328 321 Z " />
<glyph glyph-name="eogonek" unicode="&#x119;" horiz-adv-x="474" d="M347 22 C347 22 347 26 347 26 C346 25 344 25 343 24 C374 43 400 70 416 103 C416 103 413 104 413 104 C385 46 321 7 253 7 C148 7 78 103 78 246 C78 277 81 305 87 331 C87 331 418 331 418 331 C418 435 355 505 261 505 C139 505 57 398 57 238 C57 92 129 -5 236 -5 C269 -5 300 3 328 16 C285 -11 218 -80 218 -144 C218 -196 253 -231 304 -231 C335 -231 366 -218 382 -199 C382 -199 381 -198 381 -198 C366 -215 338 -226 309 -226 C262 -226 230 -192 230 -141 C230 -69 312 9 347 22 L347 22 Z M87 334 C110 436 174 499 260 499 C343 499 399 438 399 347 C399 342 395 338 390 338 C390 338 399 338 399 338 C399 338 87 334 87 334 L87 334 Z " />
<glyph glyph-name="Ecaron" unicode="&#x11a;" horiz-adv-x="463" d="M328 321 C328 321 328 348 328 348 C328 348 328 352 328 352 C328 352 328 356 328 356 C328 356 328 379 328 379 C328 379 316 379 316 379 C316 379 312 376 312 376 C302 364 268 357 225 356 C225 356 208 356 208 356 C208 356 98 356 98 356 C98 356 98 653 98 653 C98 653 231 653 231 653 C291 653 346 638 368 616 C368 616 375 610 375 610 C375 610 386 610 386 610 C386 610 386 656 386 656 C386 656 386 660 386 660 C386 660 383 660 383 660 C383 660 306 660 306 660 C306 660 98 660 98 660 C98 660 84 660 84 660 C84 660 69 660 69 660 C69 660 45 660 45 660 C45 660 45 645 45 645 C45 645 49 645 49 645 C61 645 69 619 69 580 C69 580 69 80 69 80 C69 41 61 15 49 15 C49 15 45 15 45 15 C45 15 45 0 45 0 C45 0 69 0 69 0 C69 0 84 0 84 0 C84 0 98 0 98 0 C98 0 313 0 313 0 C313 0 393 0 393 0 C394 1 394 3 394 4 C397 17 400 36 402 50 C402 50 391 50 391 50 C361 24 307 7 240 7 C240 7 98 7 98 7 C98 7 98 348 98 348 C98 348 208 348 208 348 C259 348 301 339 312 325 C312 325 316 321 316 321 C316 321 328 321 328 321 L328 321 Z M226 737 C226 737 340 926 340 926 C340 926 342 924 342 924 C342 924 232 721 232 721 C231 719 229 715 226 715 C223 715 221 719 220 721 C220 721 110 924 110 924 C110 924 112 926 112 926 C112 926 226 737 226 737 L226 737 Z " />
<glyph glyph-name="ecaron" unicode="&#x11b;" horiz-adv-x="474" d="M416 103 C416 103 413 104 413 104 C385 46 321 7 253 7 C148 7 78 103 78 246 C78 277 81 305 87 331 C87 331 418 331 418 331 C418 435 355 505 261 505 C139 505 57 398 57 238 C57 92 129 -5 236 -5 C313 -5 385 38 416 103 L416 103 Z M261 578 C261 578 375 766 375 766 C375 766 377 764 377 764 C377 764 268 561 268 561 C267 559 265 555 261 555 C258 555 256 559 255 561 C255 561 145 764 145 764 C145 764 147 766 147 766 C147 766 261 578 261 578 L261 578 Z M87 334 C110 436 174 499 260 499 C343 499 399 438 399 347 C399 342 395 338 390 338 C390 338 399 338 399 338 C399 338 87 334 87 334 L87 334 Z " />
<glyph glyph-name="Gcircumflex" unicode="&#x11c;" horiz-adv-x="779" d="M681 310 C681 310 657 310 657 310 C657 310 644 310 644 310 C644 310 631 310 631 310 C631 310 607 310 607 310 C607 310 607 295 607 295 C607 295 611 295 611 295 C623 295 631 269 631 230 C631 230 631 53 631 53 C566 22 478 2 401 2 C225 2 108 133 108 330 C108 527 225 658 401 658 C428 658 455 656 480 651 C480 651 480 651 480 651 C538 642 597 600 627 548 C630 541 636 532 640 525 C640 525 653 525 653 525 C653 525 653 569 653 569 C614 627 514 665 401 665 C206 665 76 531 76 330 C76 129 206 -5 401 -5 C489 -5 591 20 657 58 C657 58 657 230 657 230 C657 269 665 295 677 295 C677 295 681 295 681 295 C681 295 681 310 681 310 L681 310 Z M401 883 C401 883 515 694 515 694 C515 694 517 696 517 696 C517 696 407 899 407 899 C406 901 404 905 401 905 C398 905 396 901 395 899 C395 899 285 696 285 696 C285 696 287 694 287 694 C287 694 401 883 401 883 L401 883 Z " />
<glyph glyph-name="Gbreve" unicode="&#x11e;" horiz-adv-x="779" d="M294 872 C297 819 340 783 401 783 C462 783 505 819 508 872 C508 872 505 872 505 872 C501 826 460 796 401 796 C342 796 300 826 297 872 C297 872 294 872 294 872 L294 872 Z M681 310 C681 310 657 310 657 310 C657 310 644 310 644 310 C644 310 631 310 631 310 C631 310 607 310 607 310 C607 310 607 295 607 295 C607 295 611 295 611 295 C623 295 631 269 631 230 C631 230 631 53 631 53 C566 22 478 2 401 2 C225 2 108 133 108 330 C108 527 225 658 401 658 C428 658 455 656 480 651 C480 651 480 651 480 651 C538 642 597 600 627 548 C630 541 636 532 640 525 C640 525 653 525 653 525 C653 525 653 569 653 569 C614 627 514 665 401 665 C206 665 76 531 76 330 C76 129 206 -5 401 -5 C489 -5 591 20 657 58 C657 58 657 230 657 230 C657 269 665 295 677 295 C677 295 681 295 681 295 C681 295 681 310 681 310 L681 310 Z " />
<glyph glyph-name="gbreve" unicode="&#x11f;" horiz-adv-x="475" d="M154 712 C157 659 200 623 261 623 C322 623 365 659 368 712 C368 712 365 712 365 712 C362 666 320 636 261 636 C202 636 161 666 157 712 C157 712 154 712 154 712 L154 712 Z M469 500 C469 500 331 495 331 495 C310 502 286 505 261 505 C154 505 83 444 83 352 C83 272 137 215 221 202 C221 202 206 202 206 202 C121 202 64 170 64 122 C64 67 118 33 200 37 C200 37 266 40 266 40 C367 40 434 -3 434 -69 C434 -166 334 -231 185 -231 C105 -231 52 -178 52 -98 C52 -50 107 -3 188 19 C188 19 186 21 186 21 C98 -3 39 -52 39 -100 C39 -182 96 -236 182 -236 C342 -236 449 -165 449 -59 C449 12 378 59 272 59 C272 59 199 56 199 56 C126 52 77 81 77 130 C77 171 129 199 206 199 C206 199 261 199 261 199 C368 199 439 260 439 352 C439 415 405 464 349 488 C349 488 469 489 469 489 C469 489 469 500 469 500 L469 500 Z M102 352 C102 441 166 501 261 501 C286 501 309 497 329 489 C329 489 329 488 329 488 C329 488 332 488 332 488 C386 466 420 417 420 352 C420 263 356 203 261 203 C166 203 102 263 102 352 C102 352 102 352 102 352 L102 352 Z " />
<glyph glyph-name="Gdotaccent" unicode="&#x120;" horiz-adv-x="779" d="M401 730 C413 730 421 738 421 750 C421 762 413 770 401 770 C389 770 381 762 381 750 C381 738 389 730 401 730 L401 730 Z M681 310 C681 310 657 310 657 310 C657 310 644 310 644 310 C644 310 631 310 631 310 C631 310 607 310 607 310 C607 310 607 295 607 295 C607 295 611 295 611 295 C623 295 631 269 631 230 C631 230 631 53 631 53 C566 22 478 2 401 2 C225 2 108 133 108 330 C108 527 225 658 401 658 C428 658 455 656 480 651 C480 651 480 651 480 651 C538 642 597 600 627 548 C630 541 636 532 640 525 C640 525 653 525 653 525 C653 525 653 569 653 569 C614 627 514 665 401 665 C206 665 76 531 76 330 C76 129 206 -5 401 -5 C489 -5 591 20 657 58 C657 58 657 230 657 230 C657 269 665 295 677 295 C677 295 681 295 681 295 C681 295 681 310 681 310 L681 310 Z " />
<glyph glyph-name="gdotaccent" unicode="&#x121;" horiz-adv-x="475" d="M261 570 C273 570 281 578 281 590 C281 602 273 610 261 610 C249 610 241 602 241 590 C241 578 249 570 261 570 L261 570 Z M469 500 C469 500 331 495 331 495 C310 502 286 505 261 505 C154 505 83 444 83 352 C83 272 137 215 221 202 C221 202 206 202 206 202 C121 202 64 170 64 122 C64 67 118 33 200 37 C200 37 266 40 266 40 C367 40 434 -3 434 -69 C434 -166 334 -231 185 -231 C105 -231 52 -178 52 -98 C52 -50 107 -3 188 19 C188 19 186 21 186 21 C98 -3 39 -52 39 -100 C39 -182 96 -236 182 -236 C342 -236 449 -165 449 -59 C449 12 378 59 272 59 C272 59 199 56 199 56 C126 52 77 81 77 130 C77 171 129 199 206 199 C206 199 261 199 261 199 C368 199 439 260 439 352 C439 415 405 464 349 488 C349 488 469 489 469 489 C469 489 469 500 469 500 L469 500 Z M102 352 C102 441 166 501 261 501 C286 501 309 497 329 489 C329 489 329 488 329 488 C329 488 332 488 332 488 C386 466 420 417 420 352 C420 263 356 203 261 203 C166 203 102 263 102 352 C102 352 102 352 102 352 L102 352 Z " />
<glyph glyph-name="Hcircumflex" unicode="&#x124;" horiz-adv-x="672" d="M625 660 C625 660 601 660 601 660 C601 660 587 660 587 660 C587 660 573 660 573 660 C573 660 549 660 549 660 C549 660 549 645 549 645 C549 645 552 645 552 645 C565 645 573 619 573 580 C573 580 573 351 573 351 C573 351 98 351 98 351 C98 351 98 580 98 580 C98 619 106 645 118 645 C118 645 122 645 122 645 C122 645 122 660 122 660 C122 660 98 660 98 660 C98 660 84 660 84 660 C84 660 69 660 69 660 C69 660 45 660 45 660 C45 660 45 645 45 645 C45 645 49 645 49 645 C61 645 69 619 69 580 C69 580 69 80 69 80 C69 41 61 15 49 15 C49 15 45 15 45 15 C45 15 45 0 45 0 C45 0 69 0 69 0 C69 0 84 0 84 0 C84 0 98 0 98 0 C98 0 122 0 122 0 C122 0 122 15 122 15 C122 15 118 15 118 15 C106 15 98 41 98 80 C98 80 98 343 98 343 C98 343 573 343 573 343 C573 343 573 80 573 80 C573 41 565 15 552 15 C552 15 549 15 549 15 C549 15 549 0 549 0 C549 0 573 0 573 0 C573 0 587 0 587 0 C587 0 601 0 601 0 C601 0 625 0 625 0 C625 0 625 15 625 15 C625 15 622 15 622 15 C610 15 602 41 601 80 C601 80 601 580 601 580 C602 619 610 645 622 645 C622 645 625 645 625 645 C625 645 625 660 625 660 L625 660 Z M335 882 C335 882 449 694 449 694 C449 694 451 696 451 696 C451 696 342 899 342 899 C341 901 339 905 335 905 C332 905 330 901 329 899 C329 899 219 696 219 696 C219 696 221 694 221 694 C221 694 335 882 335 882 L335 882 Z " />
<glyph glyph-name="Itilde" unicode="&#x128;" horiz-adv-x="167" d="M-61 755 C-61 798 -42 827 -13 827 C49 827 110 764 172 764 C205 764 228 793 228 837 C228 837 225 837 225 837 C225 801 205 777 176 777 C114 777 53 840 -9 840 C-43 840 -65 806 -65 755 C-65 755 -61 755 -61 755 L-61 755 Z M120 660 C120 660 96 660 96 660 C96 660 82 660 82 660 C82 660 67 660 67 660 C67 660 44 660 44 660 C44 660 44 645 44 645 C44 645 47 645 47 645 C59 645 67 619 67 580 C67 580 67 80 67 80 C67 41 59 15 47 15 C47 15 44 15 44 15 C44 15 44 0 44 0 C44 0 67 0 67 0 C67 0 82 0 82 0 C82 0 96 0 96 0 C96 0 120 0 120 0 C120 0 120 15 120 15 C120 15 117 15 117 15 C105 15 96 41 96 80 C96 80 96 580 96 580 C96 619 105 645 117 645 C117 645 120 645 120 645 C120 645 120 660 120 660 L120 660 Z " />
<glyph glyph-name="itilde" unicode="&#x129;" horiz-adv-x="171" d="M96 0 C96 0 120 0 120 0 C120 0 120 15 120 15 C120 15 115 15 115 15 C104 15 96 13 96 0 C96 0 96 420 96 420 C96 420 96 505 96 505 C96 505 95 505 95 505 C95 505 56 493 56 493 C56 493 56 483 56 483 C56 483 70 461 70 461 C74 456 76 446 76 414 C76 414 76 0 76 0 C76 13 68 15 57 15 C57 15 52 15 52 15 C52 15 52 0 52 0 C52 0 76 0 76 0 C76 0 76 414 76 414 C76 414 76 420 76 420 C76 420 96 420 96 420 C96 420 96 0 96 0 L96 0 Z M-57 595 C-57 638 -38 667 -9 667 C53 667 113 604 175 604 C209 604 232 633 232 677 C232 677 229 677 229 677 C229 641 209 617 180 617 C118 617 57 680 -5 680 C-39 680 -61 646 -61 595 C-61 595 -57 595 -57 595 L-57 595 Z " />
<glyph glyph-name="Imacron" unicode="&#x12a;" horiz-adv-x="167" d="M-68 774 C-68 774 232 774 232 774 C232 774 232 785 232 785 C232 785 -68 785 -68 785 C-68 785 -68 774 -68 774 L-68 774 Z M120 660 C120 660 96 660 96 660 C96 660 82 660 82 660 C82 660 67 660 67 660 C67 660 44 660 44 660 C44 660 44 645 44 645 C44 645 47 645 47 645 C59 645 67 619 67 580 C67 580 67 80 67 80 C67 41 59 15 47 15 C47 15 44 15 44 15 C44 15 44 0 44 0 C44 0 67 0 67 0 C67 0 82 0 82 0 C82 0 96 0 96 0 C96 0 120 0 120 0 C120 0 120 15 120 15 C120 15 117 15 117 15 C105 15 96 41 96 80 C96 80 96 580 96 580 C96 619 105 645 117 645 C117 645 120 645 120 645 C120 645 120 660 120 660 L120 660 Z " />
<glyph glyph-name="imacron" unicode="&#x12b;" horiz-adv-x="171" d="M96 0 C96 0 120 0 120 0 C120 0 120 15 120 15 C120 15 115 15 115 15 C104 15 96 13 96 0 C96 0 96 420 96 420 C96 420 96 505 96 505 C96 505 95 505 95 505 C95 505 56 493 56 493 C56 493 56 483 56 483 C56 483 70 461 70 461 C74 456 76 446 76 414 C76 414 76 0 76 0 C76 13 68 15 57 15 C57 15 52 15 52 15 C52 15 52 0 52 0 C52 0 76 0 76 0 C76 0 76 414 76 414 C76 414 76 420 76 420 C76 420 96 420 96 420 C96 420 96 0 96 0 L96 0 Z M-64 614 C-64 614 236 614 236 614 C236 614 236 625 236 625 C236 625 -64 625 -64 625 C-64 625 -64 614 -64 614 L-64 614 Z " />
<glyph glyph-name="Ibreve" unicode="&#x12c;" horiz-adv-x="167" d="M-25 872 C-22 819 21 783 82 783 C143 783 185 819 189 872 C189 872 186 872 186 872 C182 826 141 796 82 796 C23 796 -19 826 -22 872 C-22 872 -25 872 -25 872 L-25 872 Z M120 660 C120 660 96 660 96 660 C96 660 82 660 82 660 C82 660 67 660 67 660 C67 660 44 660 44 660 C44 660 44 645 44 645 C44 645 47 645 47 645 C59 645 67 619 67 580 C67 580 67 80 67 80 C67 41 59 15 47 15 C47 15 44 15 44 15 C44 15 44 0 44 0 C44 0 67 0 67 0 C67 0 82 0 82 0 C82 0 96 0 96 0 C96 0 120 0 120 0 C120 0 120 15 120 15 C120 15 117 15 117 15 C105 15 96 41 96 80 C96 80 96 580 96 580 C96 619 105 645 117 645 C117 645 120 645 120 645 C120 645 120 660 120 660 L120 660 Z " />
<glyph glyph-name="ibreve" unicode="&#x12d;" horiz-adv-x="171" d="M96 0 C96 0 120 0 120 0 C120 0 120 15 120 15 C120 15 115 15 115 15 C104 15 96 13 96 0 C96 0 96 420 96 420 C96 420 96 505 96 505 C96 505 95 505 95 505 C95 505 56 493 56 493 C56 493 56 483 56 483 C56 483 70 461 70 461 C74 456 76 446 76 414 C76 414 76 0 76 0 C76 13 68 15 57 15 C57 15 52 15 52 15 C52 15 52 0 52 0 C52 0 76 0 76 0 C76 0 76 414 76 414 C76 414 76 420 76 420 C76 420 96 420 96 420 C96 420 96 0 96 0 L96 0 Z M-22 712 C-18 659 25 623 86 623 C147 623 189 659 193 712 C193 712 190 712 190 712 C186 666 145 636 86 636 C27 636 -15 666 -18 712 C-18 712 -22 712 -22 712 L-22 712 Z " />
<glyph glyph-name="Idotaccent" unicode="&#x130;" horiz-adv-x="167" d="M82 730 C94 730 102 738 102 750 C102 762 94 770 82 770 C70 770 62 762 62 750 C62 738 70 730 82 730 L82 730 Z M120 660 C120 660 96 660 96 660 C96 660 82 660 82 660 C82 660 67 660 67 660 C67 660 44 660 44 660 C44 660 44 645 44 645 C44 645 47 645 47 645 C59 645 67 619 67 580 C67 580 67 80 67 80 C67 41 59 15 47 15 C47 15 44 15 44 15 C44 15 44 0 44 0 C44 0 67 0 67 0 C67 0 82 0 82 0 C82 0 96 0 96 0 C96 0 120 0 120 0 C120 0 120 15 120 15 C120 15 117 15 117 15 C105 15 96 41 96 80 C96 80 96 580 96 580 C96 619 105 645 117 645 C117 645 120 645 120 645 C120 645 120 660 120 660 L120 660 Z " />
<glyph glyph-name="dotlessi" unicode="&#x131;" horiz-adv-x="171" d="M96 0 C96 0 120 0 120 0 C120 0 120 15 120 15 C120 15 115 15 115 15 C104 15 96 13 96 0 C96 0 96 420 96 420 C96 420 96 505 96 505 C96 505 95 505 95 505 C95 505 56 493 56 493 C56 493 56 483 56 483 C56 483 70 461 70 461 C74 456 76 446 76 414 C76 414 76 0 76 0 C76 13 68 15 57 15 C57 15 52 15 52 15 C52 15 52 0 52 0 C52 0 76 0 76 0 C76 0 76 414 76 414 C76 414 76 420 76 420 C76 420 96 420 96 420 C96 420 96 0 96 0 L96 0 Z " />
<glyph glyph-name="Jcircumflex" unicode="&#x134;" horiz-adv-x="302" d="M255 660 C255 660 232 660 232 660 C232 660 217 660 217 660 C217 660 203 660 203 660 C203 660 179 660 179 660 C179 660 179 645 179 645 C179 645 183 645 183 645 C195 645 203 619 203 580 C203 580 203 200 203 200 C203 52 174 -6 98 -6 C63 -6 34 16 26 50 C25 55 21 59 16 59 C9 59 6 55 7 50 C16 14 50 -10 93 -10 C193 -10 232 56 232 224 C232 224 232 580 232 580 C232 580 232 593 232 593 C233 625 240 645 252 645 C252 645 255 645 255 645 C255 645 255 660 255 660 L255 660 Z M217 882 C217 882 331 694 331 694 C331 694 333 696 333 696 C333 696 224 899 224 899 C223 901 221 905 217 905 C214 905 212 901 211 899 C211 899 101 696 101 696 C101 696 103 694 103 694 C103 694 217 882 217 882 L217 882 Z " />
<glyph glyph-name="Lacute" unicode="&#x139;" horiz-adv-x="463" d="M122 660 C122 660 98 660 98 660 C98 660 84 660 84 660 C84 660 69 660 69 660 C69 660 45 660 45 660 C45 660 45 645 45 645 C45 645 49 645 49 645 C61 645 69 619 69 580 C69 580 69 80 69 80 C69 41 61 15 49 15 C49 15 45 15 45 15 C45 15 45 0 45 0 C45 0 69 0 69 0 C69 0 84 0 84 0 C84 0 98 0 98 0 C98 0 313 0 313 0 C313 0 393 0 393 0 C394 1 394 3 394 4 C397 18 400 38 403 53 C403 53 403 53 403 53 C403 53 403 53 403 53 C403 53 403 53 403 53 C403 52 401 53 399 53 C390 54 384 55 384 55 C384 55 377 48 377 48 C355 24 304 7 250 7 C250 7 98 7 98 7 C98 7 98 580 98 580 C98 619 106 645 118 645 C118 645 122 645 122 645 C122 645 122 660 122 660 L122 660 Z M58 692 C58 692 165 823 165 823 C192 857 210 880 210 881 C210 883 202 889 199 889 C198 889 181 866 155 831 C155 831 56 693 56 693 C56 693 58 692 58 692 L58 692 Z " />
<glyph glyph-name="Lcaron" unicode="&#x13d;" horiz-adv-x="463" d="M122 660 C122 660 98 660 98 660 C98 660 84 660 84 660 C84 660 69 660 69 660 C69 660 45 660 45 660 C45 660 45 645 45 645 C45 645 49 645 49 645 C61 645 69 619 69 580 C69 580 69 80 69 80 C69 41 61 15 49 15 C49 15 45 15 45 15 C45 15 45 0 45 0 C45 0 69 0 69 0 C69 0 84 0 84 0 C84 0 98 0 98 0 C98 0 313 0 313 0 C313 0 393 0 393 0 C394 1 394 3 394 4 C397 18 400 38 403 53 C403 53 403 53 403 53 C403 53 403 53 403 53 C403 53 403 53 403 53 C403 52 401 53 399 53 C390 54 384 55 384 55 C384 55 377 48 377 48 C355 24 304 7 250 7 C250 7 98 7 98 7 C98 7 98 580 98 580 C98 619 106 645 118 645 C118 645 122 645 122 645 C122 645 122 660 122 660 L122 660 Z M221 584 C239 641 251 686 251 690 C251 693 242 694 238 694 C233 695 218 633 209 589 C209 589 171 428 171 428 C171 428 174 427 174 427 C174 427 221 584 221 584 L221 584 Z " />
<glyph glyph-name="lcaron" unicode="&#x13e;" horiz-adv-x="171" d="M52 699 C73 678 76 662 76 605 C76 605 76 80 76 80 C76 41 68 15 56 15 C56 15 52 15 52 15 C52 15 52 0 52 0 C52 0 76 0 76 0 C76 0 86 0 86 0 C86 0 96 0 96 0 C96 0 120 0 120 0 C120 0 120 15 120 15 C120 15 116 15 116 15 C104 15 96 41 96 80 C96 80 96 610 96 610 C96 610 96 715 96 715 C96 715 96 720 96 720 C96 720 92 720 92 720 C92 720 52 708 52 708 C52 708 52 699 52 699 L52 699 Z M195 614 C213 671 225 716 225 720 C225 723 216 724 212 724 C207 725 192 663 183 619 C183 619 145 458 145 458 C145 458 148 457 148 457 C148 457 195 614 195 614 L195 614 Z " />
<glyph glyph-name="Lslash" unicode="&#x141;" horiz-adv-x="463" d="M19 277 C19 277 69 299 69 299 C69 299 69 80 69 80 C69 41 61 15 49 15 C49 15 45 15 45 15 C45 15 45 0 45 0 C45 0 69 0 69 0 C69 0 84 0 84 0 C84 0 98 0 98 0 C98 0 313 0 313 0 C313 0 393 0 393 0 C394 1 394 3 394 4 C397 18 400 38 403 53 C403 53 403 53 403 53 C403 53 403 53 403 53 C403 53 403 53 403 53 C403 52 401 53 399 53 C390 54 384 55 384 55 C384 55 377 48 377 48 C355 24 304 7 250 7 C250 7 98 7 98 7 C98 7 98 312 98 312 C98 312 245 377 245 377 C245 377 245 383 245 383 C245 383 98 318 98 318 C98 318 98 580 98 580 C98 619 106 645 118 645 C118 645 122 645 122 645 C122 645 122 660 122 660 C122 660 98 660 98 660 C98 660 84 660 84 660 C84 660 69 660 69 660 C69 660 45 660 45 660 C45 660 45 645 45 645 C45 645 49 645 49 645 C61 645 69 619 69 580 C69 580 69 305 69 305 C69 305 19 283 19 283 C19 283 19 277 19 277 L19 277 Z " />
<glyph glyph-name="lslash" unicode="&#x142;" horiz-adv-x="171" d="M-24 307 C-24 307 76 352 76 352 C76 352 76 80 76 80 C76 41 68 15 56 15 C56 15 52 15 52 15 C52 15 52 0 52 0 C52 0 76 0 76 0 C76 0 86 0 86 0 C86 0 96 0 96 0 C96 0 120 0 120 0 C120 0 120 15 120 15 C120 15 116 15 116 15 C104 15 96 41 96 80 C96 80 96 362 96 362 C96 362 196 407 196 407 C196 407 196 413 196 413 C196 413 96 368 96 368 C96 368 96 610 96 610 C96 610 96 715 96 715 C96 715 96 720 96 720 C96 720 92 720 92 720 C92 720 52 708 52 708 C52 708 52 699 52 699 C73 678 76 662 76 605 C76 605 76 358 76 358 C76 358 -24 313 -24 313 C-24 313 -24 307 -24 307 L-24 307 Z " />
<glyph glyph-name="Nacute" unicode="&#x143;" horiz-adv-x="598" d="M272 692 C272 692 379 823 379 823 C406 857 424 880 424 881 C424 883 416 889 413 889 C412 889 395 866 369 831 C369 831 270 693 270 693 C270 693 272 692 272 692 L272 692 Z M558 660 C558 660 534 660 534 660 C534 660 530 660 530 660 C530 660 526 660 526 660 C526 660 502 660 502 660 C502 660 502 645 502 645 C502 645 506 645 506 645 C518 645 526 619 526 580 C526 580 526 34 526 34 C526 34 104 660 104 660 C104 660 84 650 84 650 C84 650 84 651 84 651 C84 651 104 660 104 660 C104 660 84 660 84 660 C84 660 80 660 80 660 C80 660 76 660 76 660 C76 660 52 660 52 660 C52 660 52 645 52 645 C52 645 55 645 55 645 C68 645 76 619 76 580 C76 580 76 80 76 80 C76 41 68 15 55 15 C55 15 52 15 52 15 C52 15 52 0 52 0 C52 0 76 0 76 0 C76 0 80 0 80 0 C80 0 84 0 84 0 C84 0 108 0 108 0 C108 0 108 15 108 15 C108 15 105 15 105 15 C92 15 84 41 84 80 C84 80 84 638 84 638 C84 638 513 4 513 4 C513 4 518 -4 518 -4 C518 -4 534 -4 534 -4 C534 -4 534 15 534 15 C534 15 534 580 534 580 C535 619 543 645 555 645 C555 645 558 645 558 645 C558 645 558 660 558 660 L558 660 Z " />
<glyph glyph-name="nacute" unicode="&#x144;" horiz-adv-x="524" d="M186 532 C186 532 293 663 293 663 C320 697 338 720 338 721 C338 723 330 729 327 729 C326 729 309 706 283 671 C283 671 184 533 184 533 C184 533 186 532 186 532 L186 532 Z M410 0 C410 0 434 0 434 0 C434 0 444 0 444 0 C444 0 454 0 454 0 C454 0 478 0 478 0 C477 0 477 3 478 7 C477 12 477 15 478 15 C478 15 474 15 474 15 C463 15 455 36 454 68 C454 68 454 80 454 80 C454 80 454 336 454 336 C454 437 417 505 320 505 C216 505 128 458 96 387 C96 387 96 390 96 390 C96 390 96 415 96 415 C96 415 96 500 96 500 C96 500 92 500 92 500 C92 500 52 488 52 488 C52 488 52 479 52 479 C71 454 76 444 76 385 C76 385 76 80 76 80 C76 41 68 15 55 15 C55 15 52 15 52 15 C52 15 52 0 52 0 C52 0 76 0 76 0 C76 0 86 0 86 0 C86 0 96 0 96 0 C96 0 120 0 120 0 C119 0 119 3 120 8 C119 12 119 15 120 15 C120 15 116 15 116 15 C105 15 97 36 96 68 C96 68 96 80 96 80 C96 80 96 383 96 383 C124 448 206 492 305 492 C398 492 434 429 434 333 C434 333 434 80 434 80 C434 41 426 15 413 15 C413 15 410 15 410 15 C410 15 410 0 410 0 L410 0 Z " />
<glyph glyph-name="Ncaron" unicode="&#x147;" horiz-adv-x="598" d="M558 660 C558 660 534 660 534 660 C534 660 530 660 530 660 C530 660 526 660 526 660 C526 660 502 660 502 660 C502 660 502 645 502 645 C502 645 506 645 506 645 C518 645 526 619 526 580 C526 580 526 34 526 34 C526 34 104 660 104 660 C104 660 84 650 84 650 C84 650 84 651 84 651 C84 651 104 660 104 660 C104 660 84 660 84 660 C84 660 80 660 80 660 C80 660 76 660 76 660 C76 660 52 660 52 660 C52 660 52 645 52 645 C52 645 55 645 55 645 C68 645 76 619 76 580 C76 580 76 80 76 80 C76 41 68 15 55 15 C55 15 52 15 52 15 C52 15 52 0 52 0 C52 0 76 0 76 0 C76 0 80 0 80 0 C80 0 84 0 84 0 C84 0 108 0 108 0 C108 0 108 15 108 15 C108 15 105 15 105 15 C92 15 84 41 84 80 C84 80 84 638 84 638 C84 638 513 4 513 4 C513 4 518 -4 518 -4 C518 -4 534 -4 534 -4 C534 -4 534 15 534 15 C534 15 534 580 534 580 C535 619 543 645 555 645 C555 645 558 645 558 645 C558 645 558 660 558 660 L558 660 Z M305 737 C305 737 419 926 419 926 C419 926 421 924 421 924 C421 924 311 721 311 721 C310 719 308 715 305 715 C302 715 300 719 299 721 C299 721 189 924 189 924 C189 924 191 926 191 926 C191 926 305 737 305 737 L305 737 Z " />
<glyph glyph-name="ncaron" unicode="&#x148;" horiz-adv-x="524" d="M410 0 C410 0 434 0 434 0 C434 0 444 0 444 0 C444 0 454 0 454 0 C454 0 478 0 478 0 C477 0 477 3 478 7 C477 12 477 15 478 15 C478 15 474 15 474 15 C463 15 455 36 454 68 C454 68 454 80 454 80 C454 80 454 336 454 336 C454 437 417 505 320 505 C216 505 128 458 96 387 C96 387 96 390 96 390 C96 390 96 415 96 415 C96 415 96 500 96 500 C96 500 92 500 92 500 C92 500 52 488 52 488 C52 488 52 479 52 479 C71 454 76 444 76 385 C76 385 76 80 76 80 C76 41 68 15 55 15 C55 15 52 15 52 15 C52 15 52 0 52 0 C52 0 76 0 76 0 C76 0 86 0 86 0 C86 0 96 0 96 0 C96 0 120 0 120 0 C119 0 119 3 120 8 C119 12 119 15 120 15 C120 15 116 15 116 15 C105 15 97 36 96 68 C96 68 96 80 96 80 C96 80 96 383 96 383 C124 448 206 492 305 492 C398 492 434 429 434 333 C434 333 434 80 434 80 C434 41 426 15 413 15 C413 15 410 15 410 15 C410 15 410 0 410 0 L410 0 Z M265 578 C265 578 379 766 379 766 C379 766 381 764 381 764 C381 764 271 561 271 561 C270 559 268 555 265 555 C261 555 259 559 258 561 C258 561 148 764 148 764 C148 764 150 766 150 766 C150 766 265 578 265 578 L265 578 Z " />
<glyph glyph-name="Omacron" unicode="&#x14c;" horiz-adv-x="772" d="M246 774 C246 774 546 774 546 774 C546 774 546 785 546 785 C546 785 246 785 246 785 C246 785 246 774 246 774 L246 774 Z M396 2 C206 2 108 153 108 330 C108 507 206 658 396 658 C586 658 684 507 684 330 C684 153 586 2 396 2 L396 2 Z M76 330 C76 149 185 -5 396 -5 C607 -5 716 149 716 330 C716 511 607 665 396 665 C185 665 76 511 76 330 L76 330 Z " />
<glyph glyph-name="omacron" unicode="&#x14d;" horiz-adv-x="594" d="M147 614 C147 614 447 614 447 614 C447 614 447 625 447 625 C447 625 147 625 147 625 C147 625 147 614 147 614 L147 614 Z M297 -1 C166 -1 79 99 79 250 C79 401 166 501 297 501 C428 501 515 401 515 250 C515 99 428 -1 297 -1 L297 -1 Z M57 250 C57 97 153 -5 297 -5 C441 -5 537 97 537 250 C537 403 441 505 297 505 C153 505 57 403 57 250 L57 250 Z " />
<glyph glyph-name="Obreve" unicode="&#x14e;" horiz-adv-x="772" d="M289 872 C292 819 335 783 396 783 C457 783 500 819 503 872 C503 872 500 872 500 872 C496 826 455 796 396 796 C337 796 295 826 292 872 C292 872 289 872 289 872 L289 872 Z M396 2 C206 2 108 153 108 330 C108 507 206 658 396 658 C586 658 684 507 684 330 C684 153 586 2 396 2 L396 2 Z M76 330 C76 149 185 -5 396 -5 C607 -5 716 149 716 330 C716 511 607 665 396 665 C185 665 76 511 76 330 L76 330 Z " />
<glyph glyph-name="obreve" unicode="&#x14f;" horiz-adv-x="594" d="M190 712 C194 659 236 623 297 623 C358 623 401 659 405 712 C405 712 401 712 401 712 C398 666 356 636 297 636 C238 636 197 666 193 712 C193 712 190 712 190 712 L190 712 Z M297 -1 C166 -1 79 99 79 250 C79 401 166 501 297 501 C428 501 515 401 515 250 C515 99 428 -1 297 -1 L297 -1 Z M57 250 C57 97 153 -5 297 -5 C441 -5 537 97 537 250 C537 403 441 505 297 505 C153 505 57 403 57 250 L57 250 Z " />
<glyph glyph-name="Racute" unicode="&#x154;" horiz-adv-x="557" d="M192 692 C192 692 299 823 299 823 C326 857 344 880 344 881 C344 883 336 889 333 889 C332 889 315 866 289 831 C289 831 190 693 190 693 C190 693 192 692 192 692 L192 692 Z M65 645 C65 645 68 645 68 645 C81 645 89 619 89 580 C89 580 89 80 89 80 C89 41 81 15 68 15 C68 15 65 15 65 15 C65 15 65 0 65 0 C65 0 89 0 89 0 C89 0 103 0 103 0 C103 0 117 0 117 0 C117 0 141 0 141 0 C141 0 141 15 141 15 C141 15 138 15 138 15 C126 15 118 41 117 80 C117 80 117 319 117 319 C117 319 227 319 227 319 C227 319 419 106 419 106 C510 4 515 0 539 0 C539 0 550 0 550 0 C550 0 550 4 550 4 C550 4 545 4 545 4 C537 4 533 8 449 102 C449 102 253 319 253 319 C374 324 453 391 453 490 C453 592 380 660 270 660 C270 660 117 660 117 660 C117 660 103 660 103 660 C103 660 89 660 89 660 C89 660 65 660 65 660 C65 660 65 645 65 645 L65 645 Z M239 324 C239 324 223 324 223 324 C223 324 117 324 117 324 C117 324 117 654 117 654 C117 654 270 654 270 654 C361 654 422 588 422 490 C422 390 349 324 239 324 L239 324 Z " />
<glyph glyph-name="Rcaron" unicode="&#x158;" horiz-adv-x="496" d="M65 645 C65 645 68 645 68 645 C81 645 89 619 89 580 C89 580 89 80 89 80 C89 41 81 15 68 15 C68 15 65 15 65 15 C65 15 65 0 65 0 C65 0 89 0 89 0 C89 0 103 0 103 0 C103 0 117 0 117 0 C117 0 141 0 141 0 C141 0 141 15 141 15 C141 15 138 15 138 15 C126 15 118 41 117 80 C117 80 117 319 117 319 C117 319 239 319 239 319 C296 163 396 19 490 -42 C490 -42 492 -39 492 -39 C415 12 324 155 264 320 C379 328 453 394 453 490 C453 592 380 660 270 660 C270 660 117 660 117 660 C117 660 103 660 103 660 C103 660 89 660 89 660 C89 660 65 660 65 660 C65 660 65 645 65 645 L65 645 Z M271 738 C271 738 385 926 385 926 C385 926 387 924 387 924 C387 924 277 721 277 721 C276 719 274 715 271 715 C267 715 265 719 264 721 C264 721 154 924 154 924 C154 924 156 926 156 926 C156 926 271 738 271 738 L271 738 Z M117 324 C117 324 117 654 117 654 C117 654 270 654 270 654 C361 654 422 588 422 490 C422 390 349 324 239 324 C239 324 117 324 117 324 L117 324 Z " />
<glyph glyph-name="rcaron" unicode="&#x159;" horiz-adv-x="366" d="M52 479 C71 454 76 444 76 385 C76 385 76 80 76 80 C76 41 68 15 55 15 C55 15 52 15 52 15 C52 15 52 0 52 0 C52 0 76 0 76 0 C76 0 86 0 86 0 C86 0 96 0 96 0 C96 0 120 0 120 0 C119 0 119 3 120 8 C119 12 119 15 120 15 C120 15 116 15 116 15 C105 15 97 36 96 68 C96 68 96 80 96 80 C96 80 96 372 96 372 C115 444 171 490 240 490 C273 490 308 460 340 460 C346 460 350 464 350 470 C350 491 324 505 256 505 C178 505 116 454 96 376 C96 376 96 390 96 390 C96 390 96 415 96 415 C96 415 95 415 95 415 C95 415 93 500 93 500 C93 500 89 500 89 500 C89 500 52 488 52 488 C52 488 52 479 52 479 L52 479 Z M166 578 C166 578 280 766 280 766 C280 766 282 764 282 764 C282 764 172 561 172 561 C171 559 169 555 166 555 C162 555 160 559 159 561 C159 561 50 764 50 764 C50 764 52 766 52 766 C52 766 166 578 166 578 L166 578 Z " />
<glyph glyph-name="Sacute" unicode="&#x15a;" horiz-adv-x="513" d="M188 692 C188 692 295 823 295 823 C322 857 340 880 340 881 C340 883 332 889 329 889 C328 889 310 866 285 831 C285 831 186 693 186 693 C186 693 188 692 188 692 L188 692 Z M50 126 C50 126 50 80 50 80 C84 29 179 -5 288 -5 C392 -5 462 61 462 161 C462 236 386 308 271 341 C158 374 83 438 83 501 C83 595 144 658 236 658 C261 658 286 655 309 648 C309 648 309 648 309 648 C341 640 377 608 399 568 C405 558 413 544 419 534 C419 534 432 534 432 534 C432 534 432 580 432 580 C398 631 320 665 237 665 C133 665 63 595 63 489 C63 419 137 351 249 319 C364 285 441 217 441 149 C441 61 380 2 288 2 C262 2 236 4 212 8 C157 20 104 57 76 104 C72 111 67 119 63 126 C63 126 50 126 50 126 L50 126 Z " />
<glyph glyph-name="sacute" unicode="&#x15b;" horiz-adv-x="436" d="M133 532 C133 532 240 663 240 663 C267 697 285 720 285 721 C285 723 277 729 273 729 C272 729 255 706 230 671 C230 671 131 533 131 533 C131 533 133 532 133 532 L133 532 Z M55 94 C55 94 55 63 55 63 C83 22 157 -5 241 -5 C324 -5 380 48 380 128 C380 175 325 226 243 257 C153 290 94 344 94 392 C94 457 141 501 211 501 C227 501 243 499 258 494 C258 494 258 494 258 494 C289 485 320 455 337 419 C339 414 342 408 344 404 C344 404 356 404 356 404 C356 404 356 432 356 432 C327 476 269 505 211 505 C132 505 79 457 79 385 C79 334 139 277 228 243 C309 213 363 164 363 120 C363 48 315 0 242 0 C221 0 201 2 182 5 C141 14 101 42 77 78 C74 83 70 89 66 94 C66 94 55 94 55 94 L55 94 Z " />
<glyph glyph-name="Scircumflex" unicode="&#x15c;" horiz-adv-x="513" d="M50 126 C50 126 50 80 50 80 C84 29 179 -5 288 -5 C392 -5 462 61 462 161 C462 236 386 308 271 341 C158 374 83 438 83 501 C83 595 144 658 236 658 C261 658 286 655 309 648 C309 648 309 648 309 648 C341 640 377 608 399 568 C405 558 413 544 419 534 C419 534 432 534 432 534 C432 534 432 580 432 580 C398 631 320 665 237 665 C133 665 63 595 63 489 C63 419 137 351 249 319 C364 285 441 217 441 149 C441 61 380 2 288 2 C262 2 236 4 212 8 C157 20 104 57 76 104 C72 111 67 119 63 126 C63 126 50 126 50 126 L50 126 Z M236 883 C236 883 350 694 350 694 C350 694 352 696 352 696 C352 696 243 899 243 899 C241 901 239 905 236 905 C233 905 231 901 230 899 C230 899 120 696 120 696 C120 696 122 694 122 694 C122 694 236 883 236 883 L236 883 Z " />
<glyph glyph-name="Scedilla" unicode="&#x15e;" horiz-adv-x="513" d="M50 126 C50 126 50 80 50 80 C84 29 179 -5 288 -5 C392 -5 462 61 462 161 C462 236 386 308 271 341 C158 374 83 438 83 501 C83 595 144 658 236 658 C261 658 286 655 309 648 C309 648 309 648 309 648 C341 640 377 608 399 568 C405 558 413 544 419 534 C419 534 432 534 432 534 C432 534 432 580 432 580 C398 631 320 665 237 665 C133 665 63 595 63 489 C63 419 137 351 249 319 C364 285 441 217 441 149 C441 61 380 2 288 2 C262 2 236 4 212 8 C157 20 104 57 76 104 C72 111 67 119 63 126 C63 126 50 126 50 126 L50 126 Z " />
<glyph glyph-name="scedilla" unicode="&#x15f;" horiz-adv-x="436" d="M55 94 C55 94 55 63 55 63 C83 22 157 -5 241 -5 C324 -5 380 48 380 128 C380 175 325 226 243 257 C153 290 94 344 94 392 C94 457 141 501 211 501 C227 501 243 499 258 494 C258 494 258 494 258 494 C289 485 320 455 337 419 C339 414 342 408 344 404 C344 404 356 404 356 404 C356 404 356 432 356 432 C327 476 269 505 211 505 C132 505 79 457 79 385 C79 334 139 277 228 243 C309 213 363 164 363 120 C363 48 315 0 242 0 C221 0 201 2 182 5 C141 14 101 42 77 78 C74 83 70 89 66 94 C66 94 55 94 55 94 L55 94 Z " />
<glyph glyph-name="Scaron" unicode="&#x160;" horiz-adv-x="513" d="M50 126 C50 126 50 80 50 80 C84 29 179 -5 288 -5 C392 -5 462 61 462 161 C462 236 386 308 271 341 C158 374 83 438 83 501 C83 595 144 658 236 658 C261 658 286 655 309 648 C309 648 309 648 309 648 C341 640 377 608 399 568 C405 558 413 544 419 534 C419 534 432 534 432 534 C432 534 432 580 432 580 C398 631 320 665 237 665 C133 665 63 595 63 489 C63 419 137 351 249 319 C364 285 441 217 441 149 C441 61 380 2 288 2 C262 2 236 4 212 8 C157 20 104 57 76 104 C72 111 67 119 63 126 C63 126 50 126 50 126 L50 126 Z M236 737 C236 737 350 926 350 926 C350 926 352 924 352 924 C352 924 243 721 243 721 C241 719 239 715 236 715 C233 715 231 719 230 721 C230 721 120 924 120 924 C120 924 122 926 122 926 C122 926 236 737 236 737 L236 737 Z " />
<glyph glyph-name="scaron" unicode="&#x161;" horiz-adv-x="436" d="M55 94 C55 94 55 63 55 63 C83 22 157 -5 241 -5 C324 -5 380 48 380 128 C380 175 325 226 243 257 C153 290 94 344 94 392 C94 457 141 501 211 501 C227 501 243 499 258 494 C258 494 258 494 258 494 C289 485 320 455 337 419 C339 414 342 408 344 404 C344 404 356 404 356 404 C356 404 356 432 356 432 C327 476 269 505 211 505 C132 505 79 457 79 385 C79 334 139 277 228 243 C309 213 363 164 363 120 C363 48 315 0 242 0 C221 0 201 2 182 5 C141 14 101 42 77 78 C74 83 70 89 66 94 C66 94 55 94 55 94 L55 94 Z M211 578 C211 578 325 766 325 766 C325 766 327 764 327 764 C327 764 218 561 218 561 C217 559 215 555 211 555 C208 555 206 559 205 561 C205 561 95 764 95 764 C95 764 97 766 97 766 C97 766 211 578 211 578 L211 578 Z " />
<glyph glyph-name="Tcaron" unicode="&#x164;" horiz-adv-x="633" d="M355 15 C355 15 352 15 352 15 C340 15 332 41 331 80 C331 80 331 653 331 653 C331 653 453 653 453 653 C501 653 551 637 577 612 C577 612 585 605 585 605 C585 605 597 605 597 605 C596 621 594 641 593 656 C593 657 592 659 592 660 C592 660 587 660 587 660 C587 660 512 660 512 660 C512 660 122 660 122 660 C122 660 47 660 47 660 C47 660 42 660 42 660 C41 659 41 657 41 656 C40 641 38 621 37 605 C37 605 49 605 49 605 C49 605 57 612 57 612 C83 637 133 653 181 653 C181 653 303 653 303 653 C303 653 303 80 303 80 C303 41 295 15 282 15 C282 15 279 15 279 15 C279 15 279 0 279 0 C279 0 303 0 303 0 C303 0 317 0 317 0 C317 0 331 0 331 0 C331 0 355 0 355 0 C355 0 355 15 355 15 L355 15 Z M317 737 C317 737 431 926 431 926 C431 926 433 924 433 924 C433 924 323 721 323 721 C322 719 320 715 317 715 C314 715 312 719 311 721 C311 721 201 924 201 924 C201 924 203 926 203 926 C203 926 317 737 317 737 L317 737 Z " />
<glyph glyph-name="tcaron" unicode="&#x165;" horiz-adv-x="357" d="M320 500 C320 500 139 500 139 500 C139 500 139 640 139 640 C139 640 136 640 136 640 C136 640 123 523 123 523 C118 508 83 497 32 494 C32 494 32 492 32 492 C32 492 119 492 119 492 C119 492 119 110 119 110 C119 20 137 -5 202 -5 C260 -5 298 35 330 94 C330 94 329 95 329 95 C298 40 263 4 212 4 C155 4 139 27 139 106 C139 106 139 492 139 492 C139 492 320 492 320 492 C320 492 320 500 320 500 L320 500 Z M419 614 C437 671 449 716 449 720 C449 723 440 724 436 724 C431 725 417 663 407 619 C407 619 369 458 369 458 C369 458 372 457 372 457 C372 457 419 614 419 614 L419 614 Z " />
<glyph glyph-name="Utilde" unicode="&#x168;" horiz-adv-x="596" d="M167 755 C167 798 186 827 215 827 C277 827 338 764 400 764 C434 764 457 793 457 837 C457 837 454 837 454 837 C454 801 434 777 404 777 C342 777 282 840 220 840 C186 840 164 806 164 755 C164 755 167 755 167 755 L167 755 Z M569 660 C569 660 542 660 542 660 C542 660 539 660 539 660 C539 660 536 660 536 660 C536 660 507 660 507 660 C507 660 507 645 507 645 C507 645 511 645 511 645 C525 645 534 619 536 580 C536 580 535 176 535 176 C535 73 475 5 319 5 C166 5 107 82 107 198 C107 198 107 580 107 580 C108 619 116 645 128 645 C128 645 131 645 131 645 C131 645 131 660 131 660 C131 660 107 660 107 660 C107 660 93 660 93 660 C93 660 79 660 79 660 C79 660 55 660 55 660 C55 660 55 645 55 645 C55 645 58 645 58 645 C71 645 79 619 79 580 C79 580 79 203 79 203 C79 78 145 -5 315 -5 C478 -5 542 66 542 173 C542 173 542 570 542 570 C542 615 552 645 565 645 C565 645 569 645 569 645 C569 645 569 660 569 660 L569 660 Z " />
<glyph glyph-name="utilde" unicode="&#x169;" horiz-adv-x="489" d="M91 595 C91 638 110 667 140 667 C202 667 262 604 324 604 C358 604 381 633 381 677 C381 677 378 677 378 677 C378 641 358 617 329 617 C267 617 206 680 144 680 C110 680 88 646 88 595 C88 595 91 595 91 595 L91 595 Z M380 485 C380 485 383 485 383 485 C396 485 404 459 404 420 C404 420 404 110 404 110 C404 110 404 91 404 91 C385 41 330 8 223 8 C119 8 66 68 66 159 C66 159 66 500 66 500 C66 500 56 500 56 500 C56 500 46 500 46 500 C46 500 22 500 22 500 C22 500 22 485 22 485 C22 485 25 485 25 485 C38 485 46 459 46 420 C46 420 46 156 46 156 C46 60 101 -5 207 -5 C321 -5 380 31 404 86 C404 86 404 5 404 5 C404 5 404 0 404 0 C404 0 408 0 408 0 C408 0 448 12 448 12 C447 12 447 12 448 13 C447 17 447 21 448 21 C431 38 425 52 424 88 C424 88 424 115 424 115 C424 115 424 500 424 500 C424 500 414 500 414 500 C414 500 404 500 404 500 C404 500 380 500 380 500 C380 500 380 485 380 485 L380 485 Z " />
<glyph glyph-name="Umacron" unicode="&#x16a;" horiz-adv-x="596" d="M160 774 C160 774 460 774 460 774 C460 774 460 785 460 785 C460 785 160 785 160 785 C160 785 160 774 160 774 L160 774 Z M569 660 C569 660 542 660 542 660 C542 660 539 660 539 660 C539 660 536 660 536 660 C536 660 507 660 507 660 C507 660 507 645 507 645 C507 645 511 645 511 645 C525 645 534 619 536 580 C536 580 535 176 535 176 C535 73 475 5 319 5 C166 5 107 82 107 198 C107 198 107 580 107 580 C108 619 116 645 128 645 C128 645 131 645 131 645 C131 645 131 660 131 660 C131 660 107 660 107 660 C107 660 93 660 93 660 C93 660 79 660 79 660 C79 660 55 660 55 660 C55 660 55 645 55 645 C55 645 58 645 58 645 C71 645 79 619 79 580 C79 580 79 203 79 203 C79 78 145 -5 315 -5 C478 -5 542 66 542 173 C542 173 542 570 542 570 C542 615 552 645 565 645 C565 645 569 645 569 645 C569 645 569 660 569 660 L569 660 Z " />
<glyph glyph-name="umacron" unicode="&#x16b;" horiz-adv-x="489" d="M85 614 C85 614 385 614 385 614 C385 614 385 625 385 625 C385 625 85 625 85 625 C85 625 85 614 85 614 L85 614 Z M380 485 C380 485 383 485 383 485 C396 485 404 459 404 420 C404 420 404 110 404 110 C404 110 404 91 404 91 C385 41 330 8 223 8 C119 8 66 68 66 159 C66 159 66 500 66 500 C66 500 56 500 56 500 C56 500 46 500 46 500 C46 500 22 500 22 500 C22 500 22 485 22 485 C22 485 25 485 25 485 C38 485 46 459 46 420 C46 420 46 156 46 156 C46 60 101 -5 207 -5 C321 -5 380 31 404 86 C404 86 404 5 404 5 C404 5 404 0 404 0 C404 0 408 0 408 0 C408 0 448 12 448 12 C447 12 447 12 448 13 C447 17 447 21 448 21 C431 38 425 52 424 88 C424 88 424 115 424 115 C424 115 424 500 424 500 C424 500 414 500 414 500 C414 500 404 500 404 500 C404 500 380 500 380 500 C380 500 380 485 380 485 L380 485 Z " />
<glyph glyph-name="Ubreve" unicode="&#x16c;" horiz-adv-x="596" d="M203 872 C207 819 250 783 310 783 C371 783 414 819 418 872 C418 872 414 872 414 872 C411 826 370 796 310 796 C251 796 210 826 207 872 C207 872 203 872 203 872 L203 872 Z M569 660 C569 660 542 660 542 660 C542 660 539 660 539 660 C539 660 536 660 536 660 C536 660 507 660 507 660 C507 660 507 645 507 645 C507 645 511 645 511 645 C525 645 534 619 536 580 C536 580 535 176 535 176 C535 73 475 5 319 5 C166 5 107 82 107 198 C107 198 107 580 107 580 C108 619 116 645 128 645 C128 645 131 645 131 645 C131 645 131 660 131 660 C131 660 107 660 107 660 C107 660 93 660 93 660 C93 660 79 660 79 660 C79 660 55 660 55 660 C55 660 55 645 55 645 C55 645 58 645 58 645 C71 645 79 619 79 580 C79 580 79 203 79 203 C79 78 145 -5 315 -5 C478 -5 542 66 542 173 C542 173 542 570 542 570 C542 615 552 645 565 645 C565 645 569 645 569 645 C569 645 569 660 569 660 L569 660 Z " />
<glyph glyph-name="ubreve" unicode="&#x16d;" horiz-adv-x="489" d="M127 712 C131 659 174 623 235 623 C295 623 338 659 342 712 C342 712 338 712 338 712 C335 666 294 636 235 636 C175 636 134 666 131 712 C131 712 127 712 127 712 L127 712 Z M380 485 C380 485 383 485 383 485 C396 485 404 459 404 420 C404 420 404 110 404 110 C404 110 404 91 404 91 C385 41 330 8 223 8 C119 8 66 68 66 159 C66 159 66 500 66 500 C66 500 56 500 56 500 C56 500 46 500 46 500 C46 500 22 500 22 500 C22 500 22 485 22 485 C22 485 25 485 25 485 C38 485 46 459 46 420 C46 420 46 156 46 156 C46 60 101 -5 207 -5 C321 -5 380 31 404 86 C404 86 404 5 404 5 C404 5 404 0 404 0 C404 0 408 0 408 0 C408 0 448 12 448 12 C447 12 447 12 448 13 C447 17 447 21 448 21 C431 38 425 52 424 88 C424 88 424 115 424 115 C424 115 424 500 424 500 C424 500 414 500 414 500 C414 500 404 500 404 500 C404 500 380 500 380 500 C380 500 380 485 380 485 L380 485 Z " />
<glyph glyph-name="Uring" unicode="&#x16e;" horiz-adv-x="596" d="M310 699 C263 699 223 740 223 788 C223 841 258 876 310 876 C363 876 398 841 398 788 C398 740 358 699 310 699 L310 699 Z M217 788 C217 738 260 695 310 695 C361 695 404 738 404 788 C404 843 367 880 310 880 C254 880 217 843 217 788 L217 788 Z M569 660 C569 660 542 660 542 660 C542 660 539 660 539 660 C539 660 536 660 536 660 C536 660 507 660 507 660 C507 660 507 645 507 645 C507 645 511 645 511 645 C525 645 534 619 536 580 C536 580 535 176 535 176 C535 73 475 5 319 5 C166 5 107 82 107 198 C107 198 107 580 107 580 C108 619 116 645 128 645 C128 645 131 645 131 645 C131 645 131 660 131 660 C131 660 107 660 107 660 C107 660 93 660 93 660 C93 660 79 660 79 660 C79 660 55 660 55 660 C55 660 55 645 55 645 C55 645 58 645 58 645 C71 645 79 619 79 580 C79 580 79 203 79 203 C79 78 145 -5 315 -5 C478 -5 542 66 542 173 C542 173 542 570 542 570 C542 615 552 645 565 645 C565 645 569 645 569 645 C569 645 569 660 569 660 L569 660 Z " />
<glyph glyph-name="uring" unicode="&#x16f;" horiz-adv-x="489" d="M235 539 C187 539 147 580 147 628 C147 681 182 716 235 716 C287 716 322 681 322 628 C322 580 282 539 235 539 L235 539 Z M142 628 C142 578 185 535 235 535 C285 535 328 578 328 628 C328 683 291 720 235 720 C179 720 142 683 142 628 L142 628 Z M380 485 C380 485 383 485 383 485 C396 485 404 459 404 420 C404 420 404 110 404 110 C404 110 404 91 404 91 C385 41 330 8 223 8 C119 8 66 68 66 159 C66 159 66 500 66 500 C66 500 56 500 56 500 C56 500 46 500 46 500 C46 500 22 500 22 500 C22 500 22 485 22 485 C22 485 25 485 25 485 C38 485 46 459 46 420 C46 420 46 156 46 156 C46 60 101 -5 207 -5 C321 -5 380 31 404 86 C404 86 404 5 404 5 C404 5 404 0 404 0 C404 0 408 0 408 0 C408 0 448 12 448 12 C447 12 447 12 448 13 C447 17 447 21 448 21 C431 38 425 52 424 88 C424 88 424 115 424 115 C424 115 424 500 424 500 C424 500 414 500 414 500 C414 500 404 500 404 500 C404 500 380 500 380 500 C380 500 380 485 380 485 L380 485 Z " />
<glyph glyph-name="Wcircumflex" unicode="&#x174;" horiz-adv-x="820" d="M806 660 C806 660 787 660 787 660 C787 660 783 660 783 660 C783 660 780 660 780 660 C780 660 747 660 747 660 C747 660 747 645 747 645 C747 645 751 645 751 645 C765 645 768 623 760 589 C760 589 603 21 603 21 C603 21 417 670 417 670 C417 670 411 670 411 670 C411 670 239 19 239 19 C239 19 76 597 76 597 C70 626 72 645 83 645 C83 645 86 645 86 645 C86 645 86 660 86 660 C86 660 58 660 58 660 C58 660 42 660 42 660 C42 660 26 660 26 660 C26 660 11 660 11 660 C12 660 12 657 11 653 C12 648 12 645 11 645 C11 645 14 645 14 645 C24 645 39 619 50 580 C50 580 50 580 50 580 C50 580 230 -15 230 -15 C230 -15 236 -15 236 -15 C236 -15 417 670 417 670 C417 670 407 632 407 632 C407 632 593 -15 593 -15 C593 -15 598 -15 598 -15 C598 -15 769 597 769 597 C780 627 792 645 803 645 C803 645 806 645 806 645 C806 645 806 660 806 660 L806 660 Z M414 882 C414 882 528 694 528 694 C528 694 530 696 530 696 C530 696 421 899 421 899 C420 901 418 905 414 905 C411 905 409 901 408 899 C408 899 298 696 298 696 C298 696 300 694 300 694 C300 694 414 882 414 882 L414 882 Z " />
<glyph glyph-name="Ycircumflex" unicode="&#x176;" horiz-adv-x="523" d="M312 15 C312 15 309 15 309 15 C297 15 290 35 289 67 C289 67 289 80 289 80 C289 80 289 265 289 265 C289 265 458 588 458 588 C477 623 496 645 505 645 C505 645 509 645 509 645 C509 645 509 660 509 660 C509 660 496 660 496 660 C496 660 492 660 492 660 C492 660 489 660 489 660 C489 660 454 660 454 660 C454 660 454 645 454 645 C454 645 458 645 458 645 C470 645 465 618 445 576 C445 576 283 266 283 266 C283 266 277 266 277 266 C277 266 126 580 126 580 C126 580 126 580 126 580 C107 619 102 645 113 645 C113 645 116 645 116 645 C115 645 115 648 116 653 C115 657 115 660 116 660 C116 660 87 660 87 660 C87 660 70 660 70 660 C70 660 53 660 53 660 C53 660 43 660 43 660 C42 660 42 657 43 653 C42 648 42 645 43 645 C43 645 45 645 45 645 C54 645 73 619 93 580 C93 580 93 580 93 580 C93 580 260 249 260 249 C260 249 260 80 260 80 C260 41 252 15 240 15 C240 15 236 15 236 15 C236 15 236 0 236 0 C236 0 260 0 260 0 C260 0 274 0 274 0 C274 0 289 0 289 0 C289 0 312 0 312 0 C312 0 312 15 312 15 L312 15 Z M274 882 C274 882 388 694 388 694 C388 694 390 696 390 696 C390 696 281 899 281 899 C280 901 278 905 274 905 C271 905 269 901 268 899 C268 899 158 696 158 696 C158 696 160 694 160 694 C160 694 274 882 274 882 L274 882 Z " />
<glyph glyph-name="Ydieresis" unicode="&#x178;" horiz-adv-x="523" d="M358 730 C370 730 378 738 378 750 C378 762 370 770 358 770 C346 770 338 762 338 750 C338 738 346 730 358 730 L358 730 Z M191 730 C203 730 211 738 211 750 C211 762 203 770 191 770 C179 770 171 762 171 750 C171 738 179 730 191 730 L191 730 Z M312 15 C312 15 309 15 309 15 C297 15 290 35 289 67 C289 67 289 80 289 80 C289 80 289 265 289 265 C289 265 458 588 458 588 C477 623 496 645 505 645 C505 645 509 645 509 645 C509 645 509 660 509 660 C509 660 496 660 496 660 C496 660 492 660 492 660 C492 660 489 660 489 660 C489 660 454 660 454 660 C454 660 454 645 454 645 C454 645 458 645 458 645 C470 645 465 618 445 576 C445 576 283 266 283 266 C283 266 277 266 277 266 C277 266 126 580 126 580 C126 580 126 580 126 580 C107 619 102 645 113 645 C113 645 116 645 116 645 C115 645 115 648 116 653 C115 657 115 660 116 660 C116 660 87 660 87 660 C87 660 70 660 70 660 C70 660 53 660 53 660 C53 660 43 660 43 660 C42 660 42 657 43 653 C42 648 42 645 43 645 C43 645 45 645 45 645 C54 645 73 619 93 580 C93 580 93 580 93 580 C93 580 260 249 260 249 C260 249 260 80 260 80 C260 41 252 15 240 15 C240 15 236 15 236 15 C236 15 236 0 236 0 C236 0 260 0 260 0 C260 0 274 0 274 0 C274 0 289 0 289 0 C289 0 312 0 312 0 C312 0 312 15 312 15 L312 15 Z " />
<glyph glyph-name="Zacute" unicode="&#x179;" horiz-adv-x="590" d="M339 692 C339 692 446 823 446 823 C473 857 491 880 491 881 C491 883 483 889 480 889 C479 889 462 866 436 831 C436 831 337 693 337 693 C337 693 339 692 339 692 L339 692 Z M529 4 C532 18 535 38 538 53 C538 53 534 53 534 53 C525 54 519 55 519 55 C519 55 512 48 512 48 C490 24 439 8 385 7 C385 7 104 7 104 7 C104 7 536 660 536 660 C536 660 520 660 520 660 C520 660 503 660 503 660 C503 660 222 660 222 660 C222 660 147 660 147 660 C147 660 142 660 142 660 C141 659 141 657 141 656 C137 644 133 627 129 615 C129 615 141 615 141 615 C141 615 150 620 150 620 C180 640 232 653 280 653 C280 653 498 653 498 653 C498 653 67 0 67 0 C67 0 83 0 83 0 C83 0 99 0 99 0 C99 0 448 0 448 0 C448 0 528 0 528 0 C529 1 529 3 529 4 L529 4 Z " />
<glyph glyph-name="zacute" unicode="&#x17a;" horiz-adv-x="497" d="M184 532 C184 532 291 663 291 663 C318 697 336 720 336 721 C336 723 328 729 324 729 C323 729 306 706 280 671 C280 671 181 533 181 533 C181 533 184 532 184 532 L184 532 Z M292 5 C292 5 292 5 292 5 C292 5 99 4 99 4 C99 4 441 500 441 500 C441 500 429 500 429 500 C429 500 418 500 418 500 C418 500 158 500 158 500 C158 500 83 500 83 500 C83 500 78 500 78 500 C78 499 77 498 77 498 C75 488 71 476 69 467 C69 467 81 467 81 467 C113 483 163 495 217 495 C217 495 217 495 217 495 C217 495 415 496 415 496 C415 496 72 0 72 0 C72 0 84 0 84 0 C84 0 96 0 96 0 C96 0 356 0 356 0 C356 0 435 0 435 0 C435 0 436 0 436 0 C436 0 436 2 436 2 C439 17 442 36 445 50 C445 50 441 50 441 50 C432 51 426 52 426 52 C426 52 419 45 419 45 C397 20 346 4 292 5 C292 5 292 5 292 5 L292 5 Z " />
<glyph glyph-name="Zdotaccent" unicode="&#x17b;" horiz-adv-x="590" d="M341 730 C353 730 361 738 361 750 C361 762 353 770 341 770 C329 770 321 762 321 750 C321 738 329 730 341 730 L341 730 Z M529 4 C532 18 535 38 538 53 C538 53 534 53 534 53 C525 54 519 55 519 55 C519 55 512 48 512 48 C490 24 439 8 385 7 C385 7 104 7 104 7 C104 7 536 660 536 660 C536 660 520 660 520 660 C520 660 503 660 503 660 C503 660 222 660 222 660 C222 660 147 660 147 660 C147 660 142 660 142 660 C141 659 141 657 141 656 C137 644 133 627 129 615 C129 615 141 615 141 615 C141 615 150 620 150 620 C180 640 232 653 280 653 C280 653 498 653 498 653 C498 653 67 0 67 0 C67 0 83 0 83 0 C83 0 99 0 99 0 C99 0 448 0 448 0 C448 0 528 0 528 0 C529 1 529 3 529 4 L529 4 Z " />
<glyph glyph-name="zdotaccent" unicode="&#x17c;" horiz-adv-x="497" d="M262 570 C274 570 282 578 282 590 C282 602 274 610 262 610 C250 610 242 602 242 590 C242 578 250 570 262 570 L262 570 Z M292 5 C292 5 292 5 292 5 C292 5 99 4 99 4 C99 4 441 500 441 500 C441 500 429 500 429 500 C429 500 418 500 418 500 C418 500 158 500 158 500 C158 500 83 500 83 500 C83 500 78 500 78 500 C78 499 77 498 77 498 C75 488 71 476 69 467 C69 467 81 467 81 467 C113 483 163 495 217 495 C217 495 217 495 217 495 C217 495 415 496 415 496 C415 496 72 0 72 0 C72 0 84 0 84 0 C84 0 96 0 96 0 C96 0 356 0 356 0 C356 0 435 0 435 0 C435 0 436 0 436 0 C436 0 436 2 436 2 C439 17 442 36 445 50 C445 50 441 50 441 50 C432 51 426 52 426 52 C426 52 419 45 419 45 C397 20 346 4 292 5 C292 5 292 5 292 5 L292 5 Z " />
<glyph glyph-name="Zcaron" unicode="&#x17d;" horiz-adv-x="590" d="M342 738 C342 738 456 926 456 926 C456 926 458 924 458 924 C458 924 348 721 348 721 C347 719 345 715 341 715 C338 715 336 719 335 721 C335 721 225 924 225 924 C225 924 227 926 227 926 C227 926 342 738 342 738 L342 738 Z M529 4 C532 18 535 38 538 53 C538 53 534 53 534 53 C525 54 519 55 519 55 C519 55 512 48 512 48 C490 24 439 8 385 7 C385 7 104 7 104 7 C104 7 536 660 536 660 C536 660 520 660 520 660 C520 660 503 660 503 660 C503 660 222 660 222 660 C222 660 147 660 147 660 C147 660 142 660 142 660 C141 659 141 657 141 656 C137 644 133 627 129 615 C129 615 141 615 141 615 C141 615 150 620 150 620 C180 640 232 653 280 653 C280 653 498 653 498 653 C498 653 67 0 67 0 C67 0 83 0 83 0 C83 0 99 0 99 0 C99 0 448 0 448 0 C448 0 528 0 528 0 C529 1 529 3 529 4 L529 4 Z " />
<glyph glyph-name="zcaron" unicode="&#x17e;" horiz-adv-x="497" d="M292 5 C292 5 292 5 292 5 C292 5 99 4 99 4 C99 4 441 500 441 500 C441 500 429 500 429 500 C429 500 418 500 418 500 C418 500 158 500 158 500 C158 500 83 500 83 500 C83 500 78 500 78 500 C78 499 77 498 77 498 C75 488 71 476 69 467 C69 467 81 467 81 467 C113 483 163 495 217 495 C217 495 217 495 217 495 C217 495 415 496 415 496 C415 496 72 0 72 0 C72 0 84 0 84 0 C84 0 96 0 96 0 C96 0 356 0 356 0 C356 0 435 0 435 0 C435 0 436 0 436 0 C436 0 436 2 436 2 C439 17 442 36 445 50 C445 50 441 50 441 50 C432 51 426 52 426 52 C426 52 419 45 419 45 C397 20 346 4 292 5 C292 5 292 5 292 5 L292 5 Z M262 577 C262 577 376 766 376 766 C376 766 378 764 378 764 C378 764 268 561 268 561 C267 559 265 555 262 555 C259 555 257 559 256 561 C256 561 146 764 146 764 C146 764 148 766 148 766 C148 766 262 577 262 577 L262 577 Z " />
<glyph glyph-name="SmallLetterOwithogon" unicode="&#x1eb;" horiz-adv-x="712" d="M720 -50 C720 -50 718 -49 718 -49 C687 -85 634 -109 584 -109 C505 -109 432 -67 369 -5 C559 -4 656 126 656 277 C656 429 558 558 366 558 C175 558 77 429 77 277 C77 126 174 -3 362 -5 C433 -75 509 -122 582 -122 C628 -122 683 -93 720 -50 L720 -50 Z M366 1 C194 1 105 128 105 277 C105 425 194 552 366 552 C538 552 627 425 627 277 C627 128 538 1 366 1 L366 1 Z " />
<glyph glyph-name="CapitalLetterAwithdo" unicode="&#x226;" horiz-adv-x="538" d="M264 730 C276 730 284 738 284 750 C284 762 276 770 264 770 C252 770 244 762 244 750 C244 738 252 730 264 730 L264 730 Z M520 15 C520 15 516 15 516 15 C505 15 490 36 477 69 C477 69 268 675 268 675 C268 675 260 675 260 675 C260 675 64 80 64 80 C64 80 64 80 64 80 C52 41 35 15 23 15 C23 15 19 15 19 15 C19 15 19 0 19 0 C19 0 38 0 38 0 C38 0 43 0 43 0 C43 0 47 0 47 0 C47 0 82 0 82 0 C82 0 82 15 82 15 C82 15 78 15 78 15 C63 15 63 45 77 90 C77 90 125 238 125 238 C125 238 389 238 389 238 C389 238 444 77 444 77 C455 40 456 15 443 15 C443 15 440 15 440 15 C440 15 440 0 440 0 C440 0 470 0 470 0 C470 0 485 0 485 0 C485 0 501 0 501 0 C501 0 520 0 520 0 C520 0 520 15 520 15 L520 15 Z M387 246 C387 246 128 246 128 246 C128 246 255 635 255 635 C255 635 387 246 387 246 L387 246 Z " />
<glyph glyph-name="LETTERSMALLCAPITALG" unicode="&#x262;" horiz-adv-x="720" d="M622 260 C622 260 598 260 598 260 C598 260 586 260 586 260 C586 260 574 260 574 260 C574 260 551 260 551 260 C551 260 551 245 551 245 C551 245 554 245 554 245 C566 245 574 219 574 180 C574 180 574 53 574 53 C511 21 431 1 368 1 C210 1 105 111 105 277 C105 442 210 552 368 552 C385 552 402 551 418 549 C418 549 418 548 418 548 C476 540 536 498 567 442 C571 435 577 426 580 419 C580 419 593 419 593 419 C593 419 593 463 593 463 C555 520 465 558 368 558 C193 558 77 445 77 277 C77 108 193 -5 368 -5 C440 -5 532 20 598 59 C598 59 598 180 598 180 C598 219 606 245 618 245 C618 245 622 245 622 245 C622 245 622 260 622 260 L622 260 Z " />
<glyph glyph-name="LETTERSMALLCAPITALI" unicode="&#x26a;" horiz-adv-x="165" d="M119 553 C108 554 93 554 82 553 C71 552 56 554 45 553 C45 553 45 538 45 538 C45 538 49 538 49 538 C61 539 69 513 69 473 C69 473 69 80 69 80 C69 41 61 15 49 15 C49 15 45 15 45 15 C45 15 45 0 45 0 C45 0 69 0 69 0 C69 0 82 0 82 0 C82 0 95 0 95 0 C95 0 119 0 119 0 C119 0 119 15 119 15 C119 15 115 15 115 15 C103 15 95 41 95 80 C95 80 95 473 95 473 C95 513 103 539 115 538 C115 538 119 538 119 538 C119 538 119 553 119 553 L119 553 Z " />
<glyph glyph-name="LETTERSMALLCAPITALN" unicode="&#x274;" horiz-adv-x="537" d="M497 553 C489 554 478 554 470 553 C461 554 450 554 442 553 C442 553 442 538 442 538 C442 538 446 538 446 538 C458 539 466 513 466 473 C466 473 466 32 466 32 C466 32 101 553 101 553 C101 553 84 545 84 545 C84 545 84 545 84 545 C84 545 101 553 101 553 C101 553 84 553 84 553 C84 553 80 553 80 553 C71 554 60 554 52 553 C52 553 52 538 52 538 C52 538 56 538 56 538 C68 539 76 513 76 473 C76 473 76 80 76 80 C76 41 68 15 56 15 C56 15 52 15 52 15 C52 15 52 0 52 0 C52 0 76 0 76 0 C76 0 80 0 80 0 C80 0 84 0 84 0 C84 0 107 0 107 0 C107 0 107 15 107 15 C107 15 104 15 104 15 C92 15 84 41 84 80 C84 80 84 533 84 533 C84 533 454 4 454 4 C454 4 459 -4 459 -4 C459 -4 474 -4 474 -4 C474 -4 474 13 474 13 C474 13 474 473 474 473 C474 473 474 486 474 486 C475 519 482 539 494 538 C494 538 497 538 497 538 C497 538 497 553 497 553 L497 553 Z " />
<glyph glyph-name="LETTERSMALLCAPITALR" unicode="&#x280;" horiz-adv-x="512" d="M65 538 C65 538 69 538 69 538 C81 539 89 513 89 473 C89 473 89 80 89 80 C89 41 81 15 69 15 C69 15 65 15 65 15 C65 15 65 0 65 0 C65 0 89 0 89 0 C89 0 102 0 102 0 C102 0 115 0 115 0 C115 0 139 0 139 0 C139 0 139 15 139 15 C139 15 135 15 135 15 C123 15 115 41 115 80 C115 80 115 267 115 267 C115 267 187 267 187 267 C187 267 360 106 360 106 C469 4 475 0 494 0 C494 0 505 0 505 0 C505 0 505 4 505 4 C505 4 500 4 500 4 C492 4 488 8 387 102 C387 102 211 267 211 267 C319 271 390 328 390 412 C390 497 322 553 219 553 C219 553 115 553 115 553 C115 553 102 553 102 553 C91 554 77 554 65 553 C65 553 65 538 65 538 L65 538 Z M198 272 C198 272 182 272 182 272 C182 272 115 272 115 272 C115 272 115 548 115 548 C115 548 219 548 219 548 C305 548 363 494 363 412 C363 328 297 272 198 272 L198 272 Z " />
<glyph glyph-name="LETTERSMALLCAPITALY" unicode="&#x28f;" horiz-adv-x="460" d="M280 15 C280 15 276 15 276 15 C264 15 256 41 256 80 C256 80 256 223 256 223 C256 223 396 484 396 484 C415 518 433 539 443 538 C443 538 446 538 446 538 C446 538 446 553 446 553 C441 554 435 554 430 553 C419 554 403 554 392 553 C392 553 392 538 392 538 C392 538 396 538 396 538 C409 539 402 511 380 466 C380 466 251 224 251 224 C251 224 243 224 243 224 C243 224 118 483 118 483 C104 517 100 539 110 538 C110 538 113 538 113 538 C113 538 113 553 113 553 C100 554 82 554 69 553 C61 554 51 554 44 553 C44 553 44 538 44 538 C44 538 46 538 46 538 C53 539 68 521 84 493 C84 493 230 211 230 211 C230 211 230 80 230 80 C230 41 222 15 210 15 C210 15 206 15 206 15 C206 15 206 0 206 0 C206 0 230 0 230 0 C230 0 243 0 243 0 C243 0 256 0 256 0 C256 0 280 0 280 0 C280 0 280 15 280 15 L280 15 Z " />
<glyph glyph-name="LETTERSMALLCAPITALB" unicode="&#x299;" horiz-adv-x="467" d="M65 538 C65 538 69 538 69 538 C81 539 89 513 89 473 C89 473 89 80 89 80 C89 41 81 15 69 15 C69 15 65 15 65 15 C65 15 65 0 65 0 C65 0 89 0 89 0 C89 0 102 0 102 0 C102 0 115 0 115 0 C115 0 240 0 240 0 C360 0 440 60 440 150 C440 228 364 284 246 297 C333 310 388 360 388 431 C388 504 320 553 219 553 C219 553 115 553 115 553 C115 553 102 553 102 553 C91 554 77 554 65 553 C65 553 65 538 65 538 L65 538 Z M229 298 C218 299 207 299 196 299 C196 299 115 298 115 298 C115 298 115 548 115 548 C115 548 219 548 219 548 C305 548 362 501 362 431 C362 359 310 308 229 298 C229 298 229 298 229 298 L229 298 Z M222 294 C338 285 413 230 413 150 C413 63 343 5 238 5 C238 5 115 5 115 5 C115 5 115 293 115 293 C115 293 198 293 198 293 C206 293 214 293 222 294 C222 294 222 294 222 294 L222 294 Z " />
<glyph glyph-name="LETTERSMALLCAPITALH" unicode="&#x29c;" horiz-adv-x="612" d="M565 553 C554 554 539 554 528 553 C517 552 503 554 492 553 C492 553 492 538 492 538 C492 538 495 538 495 538 C507 539 515 513 515 473 C515 473 515 296 515 296 C515 296 96 296 96 296 C96 296 96 473 96 473 C96 513 104 539 116 538 C116 538 120 538 120 538 C120 538 120 553 120 553 C109 554 94 554 83 553 C72 552 57 554 46 553 C46 553 46 538 46 538 C46 538 50 538 50 538 C62 539 70 513 70 473 C70 473 70 80 70 80 C70 41 62 15 50 15 C50 15 46 15 46 15 C46 15 46 0 46 0 C46 0 70 0 70 0 C70 0 83 0 83 0 C83 0 96 0 96 0 C96 0 120 0 120 0 C120 0 120 15 120 15 C120 15 116 15 116 15 C104 15 96 41 96 80 C96 80 96 290 96 290 C96 290 515 290 515 290 C515 290 515 80 515 80 C515 41 507 15 495 15 C495 15 492 15 492 15 C492 15 492 0 492 0 C492 0 515 0 515 0 C515 0 528 0 528 0 C528 0 541 0 541 0 C541 0 565 0 565 0 C565 0 565 15 565 15 C565 15 562 15 562 15 C550 15 542 41 541 80 C541 80 541 473 541 473 C542 513 550 539 562 538 C562 538 565 538 565 538 C565 538 565 553 565 553 L565 553 Z " />
<glyph glyph-name="LETTERSMALLCAPITALL" unicode="&#x29f;" horiz-adv-x="416" d="M120 553 C109 554 94 554 83 553 C72 552 57 554 46 553 C46 553 46 538 46 538 C46 538 50 538 50 538 C62 539 70 513 70 473 C70 473 70 80 70 80 C70 41 62 15 50 15 C50 15 46 15 46 15 C46 15 46 0 46 0 C46 0 70 0 70 0 C70 0 83 0 83 0 C83 0 96 0 96 0 C96 0 266 0 266 0 C266 0 346 0 346 0 C347 1 347 2 347 3 C350 18 353 37 355 52 C355 52 352 52 352 52 C343 53 337 54 337 54 C337 54 330 47 330 47 C308 23 257 7 202 6 C202 6 96 6 96 6 C96 6 96 473 96 473 C96 513 104 539 116 538 C116 538 120 538 120 538 C120 538 120 553 120 553 L120 553 Z " />
<glyph glyph-name="LETTERSMALLCAPITALA" unicode="&#x1d00;" horiz-adv-x="475" d="M457 15 C457 15 453 15 453 15 C442 15 427 37 413 70 C413 70 236 566 236 566 C236 566 230 566 230 566 C230 566 65 80 65 80 C65 80 65 80 65 80 C52 41 35 15 23 15 C23 15 19 15 19 15 C19 15 19 0 19 0 C19 0 38 0 38 0 C38 0 42 0 42 0 C42 0 47 0 47 0 C47 0 82 0 82 0 C82 0 82 15 82 15 C82 15 77 15 77 15 C62 15 63 47 79 95 C79 95 79 95 79 95 C79 95 114 200 114 200 C114 200 340 200 340 200 C340 200 382 80 382 80 C395 41 396 15 384 15 C384 15 380 15 380 15 C380 15 380 0 380 0 C380 0 410 0 410 0 C410 0 424 0 424 0 C424 0 438 0 438 0 C438 0 457 0 457 0 C457 0 457 15 457 15 L457 15 Z M338 206 C338 206 116 206 116 206 C116 206 224 531 224 531 C224 531 338 206 338 206 L338 206 Z " />
<glyph glyph-name="LETTERSMALLCAPITALC" unicode="&#x1d04;" horiz-adv-x="680" d="M613 419 C613 419 613 463 613 463 C575 520 482 558 379 558 C198 558 77 445 77 277 C77 108 198 -5 379 -5 C482 -5 575 33 613 91 C613 91 613 134 613 134 C613 134 600 134 600 134 C597 128 591 118 587 111 C552 49 476 5 396 2 C396 2 396 1 396 1 C390 1 385 1 379 1 C215 1 105 111 105 277 C105 442 215 552 379 552 C399 552 420 550 439 548 C439 548 439 547 439 547 C497 539 557 497 587 442 C591 435 597 426 600 419 C600 419 613 419 613 419 L613 419 Z " />
<glyph glyph-name="LETTERSMALLCAPITALD" unicode="&#x1d05;" horiz-adv-x="565" d="M65 538 C65 538 69 538 69 538 C81 539 89 513 89 473 C89 473 89 80 89 80 C89 41 81 15 69 15 C69 15 65 15 65 15 C65 15 65 0 65 0 C65 0 89 0 89 0 C89 0 102 0 102 0 C102 0 115 0 115 0 C115 0 238 0 238 0 C400 0 508 111 508 277 C508 442 388 553 207 553 C207 553 115 553 115 553 C115 553 102 553 102 553 C91 554 77 554 65 553 C65 553 65 538 65 538 L65 538 Z M115 5 C115 5 115 548 115 548 C115 548 207 548 207 548 C372 548 482 439 482 277 C482 114 384 5 238 5 C238 5 115 5 115 5 L115 5 Z " />
<glyph glyph-name="LETTERSMALLCAPITALE" unicode="&#x1d07;" horiz-adv-x="416" d="M281 265 C281 265 281 292 281 292 C281 292 281 295 281 295 C281 295 281 298 281 298 C281 298 281 322 281 322 C281 322 269 322 269 322 C269 322 265 319 265 319 C254 307 212 299 161 298 C161 298 96 298 96 298 C96 298 96 547 96 547 C96 547 183 547 183 547 C250 547 301 530 327 504 C327 504 338 504 338 504 C338 504 338 550 338 550 C338 550 338 553 338 553 C338 554 335 554 331 553 C329 554 326 554 323 553 C304 554 278 554 258 553 C258 553 96 553 96 553 C96 553 83 553 83 553 C72 554 57 554 46 553 C46 553 46 538 46 538 C46 538 50 538 50 538 C62 539 70 513 70 473 C70 473 70 80 70 80 C70 41 62 15 50 15 C50 15 46 15 46 15 C46 15 46 0 46 0 C46 0 70 0 70 0 C70 0 83 0 83 0 C83 0 96 0 96 0 C96 0 266 0 266 0 C266 0 346 0 346 0 C347 1 347 2 347 3 C349 17 353 35 355 49 C355 49 344 49 344 49 C344 49 336 43 336 43 C310 21 253 7 192 6 C192 6 96 6 96 6 C96 6 96 292 96 292 C96 292 161 292 161 292 C212 292 254 283 265 269 C265 269 269 265 269 265 C269 265 281 265 281 265 L281 265 Z " />
<glyph glyph-name="LETTERSMALLCAPITALJ" unicode="&#x1d0a;" horiz-adv-x="244" d="M198 553 C187 554 172 554 161 553 C150 552 135 554 124 553 C124 553 124 538 124 538 C124 538 128 538 128 538 C140 539 148 513 148 473 C148 473 148 168 148 168 C148 43 127 -6 75 -6 C53 -6 32 16 24 50 C23 55 19 58 15 58 C9 58 6 55 7 50 C16 14 41 -10 70 -10 C145 -10 174 46 174 189 C174 189 174 473 174 473 C174 513 182 539 194 538 C194 538 198 538 198 538 C198 538 198 553 198 553 L198 553 Z " />
<glyph glyph-name="LETTERSMALLCAPITALK" unicode="&#x1d0b;" horiz-adv-x="520" d="M381 538 C381 538 382 538 382 538 C386 539 358 513 314 473 C314 473 314 473 314 473 C314 473 115 298 115 298 C115 298 115 473 115 473 C115 513 123 539 135 538 C135 538 139 538 139 538 C139 538 139 553 139 553 C128 554 113 554 102 553 C91 552 77 554 65 553 C65 553 65 538 65 538 C65 538 69 538 69 538 C81 539 89 513 89 473 C89 473 89 80 89 80 C89 41 81 15 69 15 C69 15 65 15 65 15 C65 15 65 0 65 0 C65 0 89 0 89 0 C89 0 102 0 102 0 C102 0 115 0 115 0 C115 0 139 0 139 0 C139 0 139 15 139 15 C139 15 135 15 135 15 C123 15 115 41 115 80 C115 80 115 298 115 298 C115 298 119 292 119 292 C119 292 120 293 120 293 C120 293 225 197 225 197 C383 51 458 -5 493 -5 C493 -5 504 -5 504 -5 C504 -5 504 -1 504 -1 C504 -1 499 -1 499 -1 C478 -1 406 58 240 210 C240 210 135 306 135 306 C135 306 323 473 323 473 C323 473 323 473 323 473 C324 474 325 475 326 475 C326 475 345 493 345 493 C379 521 406 539 416 538 C416 538 420 538 420 538 C420 538 420 553 420 553 C417 554 412 554 409 553 C400 554 389 554 381 553 C381 553 381 538 381 538 L381 538 Z " />
<glyph glyph-name="LETTERSMALLCAPITALM" unicode="&#x1d0d;" horiz-adv-x="638" d="M628 15 C628 15 624 15 624 15 C614 15 605 35 601 66 C601 66 579 486 579 486 C578 519 584 539 594 538 C594 538 598 538 598 538 C598 538 597 542 598 546 C597 550 597 553 597 553 C587 554 573 554 563 553 C563 553 558 553 558 553 C558 553 551 553 551 553 C551 553 336 26 336 26 C336 26 117 553 117 553 C117 553 100 553 100 553 C100 553 96 553 96 553 C88 554 77 554 69 553 C69 553 69 538 69 538 C69 538 72 538 72 538 C82 539 88 521 89 492 C89 492 70 67 70 67 C67 35 59 15 48 15 C48 15 44 15 44 15 C44 15 44 0 44 0 C44 0 67 0 67 0 C67 0 71 0 71 0 C71 0 75 0 75 0 C75 0 110 0 110 0 C110 0 110 15 110 15 C110 15 105 15 105 15 C89 15 79 42 79 83 C79 83 99 525 99 525 C99 525 319 4 319 4 C319 4 323 -5 323 -5 C323 -5 329 -5 329 -5 C329 -5 552 538 552 538 C552 538 575 75 575 75 C576 39 569 15 558 15 C558 15 555 15 555 15 C555 15 555 0 555 0 C555 0 579 0 579 0 C579 0 592 0 592 0 C592 0 605 0 605 0 C605 0 628 0 628 0 C628 0 628 15 628 15 L628 15 Z " />
<glyph glyph-name="LETTERSMALLCAPITALO" unicode="&#x1d0f;" horiz-adv-x="712" d="M366 1 C194 1 105 128 105 277 C105 425 194 552 366 552 C538 552 627 425 627 277 C627 128 538 1 366 1 L366 1 Z M77 277 C77 125 175 -5 366 -5 C558 -5 656 125 656 277 C656 429 558 558 366 558 C175 558 77 429 77 277 L77 277 Z " />
<glyph glyph-name="LETTERSMALLCAPITALP" unicode="&#x1d18;" horiz-adv-x="456" d="M65 538 C65 538 69 538 69 538 C81 539 89 513 89 473 C89 473 89 80 89 80 C89 41 81 15 69 15 C69 15 65 15 65 15 C65 15 65 0 65 0 C65 0 89 0 89 0 C89 0 102 0 102 0 C102 0 115 0 115 0 C115 0 139 0 139 0 C139 0 139 15 139 15 C139 15 135 15 135 15 C123 15 115 41 115 80 C115 80 115 252 115 252 C115 252 211 252 211 252 C343 252 430 311 430 400 C430 492 352 553 235 553 C235 553 115 553 115 553 C115 553 102 553 102 553 C91 554 77 554 65 553 C65 553 65 538 65 538 L65 538 Z M115 257 C115 257 115 548 115 548 C115 548 235 548 235 548 C335 548 402 489 402 400 C402 314 326 257 211 257 C211 257 115 257 115 257 L115 257 Z " />
<glyph glyph-name="LETTERSMALLCAPITALT" unicode="&#x1d1b;" horiz-adv-x="573" d="M324 15 C324 15 320 15 320 15 C308 15 300 41 300 80 C300 80 300 547 300 547 C300 547 392 547 392 547 C446 547 495 528 524 499 C524 499 536 499 536 499 C535 515 533 535 532 550 C532 550 532 553 532 553 C532 554 529 554 524 553 C522 554 519 554 517 553 C497 554 471 554 452 553 C452 553 122 553 122 553 C103 554 77 554 57 553 C55 554 52 554 50 553 C45 554 42 554 42 553 C42 553 42 550 42 550 C40 535 39 515 37 499 C37 499 49 499 49 499 C49 499 57 506 57 506 C84 531 133 547 182 547 C182 547 274 547 274 547 C274 547 274 80 274 80 C274 41 266 15 254 15 C254 15 250 15 250 15 C250 15 250 0 250 0 C250 0 274 0 274 0 C274 0 287 0 287 0 C287 0 300 0 300 0 C300 0 324 0 324 0 C324 0 324 15 324 15 L324 15 Z " />
<glyph glyph-name="LETTERSMALLCAPITALU" unicode="&#x1d1c;" horiz-adv-x="536" d="M510 553 C501 554 489 554 480 553 C470 554 458 554 448 553 C448 553 448 538 448 538 C448 538 452 538 452 538 C467 539 477 509 477 463 C477 463 477 146 477 146 C477 61 424 4 289 4 C156 4 105 68 105 164 C105 164 105 473 105 473 C105 513 113 539 125 538 C125 538 129 538 129 538 C129 538 129 553 129 553 C118 554 103 554 92 553 C81 552 67 554 55 553 C55 553 55 538 55 538 C55 538 59 538 59 538 C71 539 79 513 79 473 C79 473 79 169 79 169 C79 65 137 -5 285 -5 C428 -5 483 55 483 144 C483 144 483 463 483 463 C483 509 492 539 506 538 C506 538 510 538 510 538 C510 538 510 553 510 553 L510 553 Z " />
<glyph glyph-name="LETTERSMALLCAPITALV" unicode="&#x1d20;" horiz-adv-x="479" d="M466 553 C459 554 450 554 444 553 C432 554 415 554 403 553 C402 554 402 551 403 546 C402 542 402 539 403 538 C403 538 408 538 408 538 C425 539 425 501 407 443 C407 443 407 443 407 443 C407 443 266 -15 266 -15 C266 -15 274 11 274 11 C274 11 102 481 102 481 C91 516 91 539 104 538 C104 538 108 538 108 538 C108 538 108 553 108 553 C94 554 76 554 62 553 C54 554 43 554 34 553 C34 553 34 538 34 538 C34 538 37 538 37 538 C47 539 63 513 78 473 C78 473 79 473 79 473 C79 473 266 -15 266 -15 C266 -15 271 -15 271 -15 C271 -15 426 487 426 487 C438 519 451 539 462 538 C462 538 466 538 466 538 C466 538 466 553 466 553 L466 553 Z " />
<glyph glyph-name="LETTERSMALLCAPITALW" unicode="&#x1d21;" horiz-adv-x="697" d="M683 553 C676 554 667 554 660 553 C649 554 635 554 624 553 C624 553 624 538 624 538 C624 538 628 538 628 538 C644 539 646 513 635 473 C635 473 635 473 635 473 C635 473 509 14 509 14 C509 14 354 563 354 563 C354 563 349 563 349 563 C349 563 199 -15 199 -15 C199 -15 206 13 206 13 C206 13 74 486 74 486 C66 519 68 539 80 538 C80 538 83 538 83 538 C83 538 83 553 83 553 C71 554 53 554 40 553 C32 554 20 554 12 553 C11 554 11 551 12 546 C11 542 11 539 12 538 C12 538 14 538 14 538 C24 539 38 513 50 473 C50 473 50 473 50 473 C50 473 199 -15 199 -15 C199 -15 204 -15 204 -15 C204 -15 354 563 354 563 C354 563 346 532 346 532 C346 532 501 -15 501 -15 C501 -15 506 -15 506 -15 C506 -15 641 473 641 473 C641 473 641 473 641 473 C652 513 667 539 679 538 C679 538 683 538 683 538 C683 538 683 553 683 553 L683 553 Z " />
<glyph glyph-name="LETTERSMALLCAPITALZ" unicode="&#x1d22;" horiz-adv-x="530" d="M470 3 C472 18 476 37 478 52 C478 52 475 52 475 52 C465 54 459 54 459 54 C434 25 385 7 325 7 C325 7 102 7 102 7 C102 7 476 553 476 553 C476 553 461 553 461 553 C461 553 447 553 447 553 C447 553 223 553 223 553 C204 554 178 554 158 553 C156 554 153 554 150 553 C146 554 143 554 143 553 C142 552 142 551 142 550 C138 537 134 521 131 509 C131 509 143 509 143 509 C143 509 152 514 152 514 C181 534 233 547 281 547 C281 547 443 547 443 547 C443 547 68 0 68 0 C68 0 82 0 82 0 C82 0 97 0 97 0 C97 0 389 0 389 0 C389 0 469 0 469 0 C469 1 470 3 470 3 L470 3 Z " />
<glyph glyph-name="Wgrave" unicode="&#x1e80;" horiz-adv-x="820" d="M806 660 C806 660 787 660 787 660 C787 660 783 660 783 660 C783 660 780 660 780 660 C780 660 747 660 747 660 C747 660 747 645 747 645 C747 645 751 645 751 645 C765 645 768 623 760 589 C760 589 603 21 603 21 C603 21 417 670 417 670 C417 670 411 670 411 670 C411 670 239 19 239 19 C239 19 76 597 76 597 C70 626 72 645 83 645 C83 645 86 645 86 645 C86 645 86 660 86 660 C86 660 58 660 58 660 C58 660 42 660 42 660 C42 660 26 660 26 660 C26 660 11 660 11 660 C12 660 12 657 11 653 C12 648 12 645 11 645 C11 645 14 645 14 645 C24 645 39 619 50 580 C50 580 50 580 50 580 C50 580 230 -15 230 -15 C230 -15 236 -15 236 -15 C236 -15 417 670 417 670 C417 670 407 632 407 632 C407 632 593 -15 593 -15 C593 -15 598 -15 598 -15 C598 -15 769 597 769 597 C780 627 792 645 803 645 C803 645 806 645 806 645 C806 645 806 660 806 660 L806 660 Z M389 831 C364 866 346 889 344 889 C340 889 332 883 332 881 C332 878 351 855 379 823 C379 823 489 692 489 692 C489 692 491 693 491 693 C491 693 389 831 389 831 L389 831 Z " />
<glyph glyph-name="Wacute" unicode="&#x1e82;" horiz-adv-x="820" d="M351 692 C351 692 458 823 458 823 C485 857 503 880 503 881 C503 883 495 889 492 889 C491 889 473 866 448 831 C448 831 349 693 349 693 C349 693 351 692 351 692 L351 692 Z M806 660 C806 660 787 660 787 660 C787 660 783 660 783 660 C783 660 780 660 780 660 C780 660 747 660 747 660 C747 660 747 645 747 645 C747 645 751 645 751 645 C765 645 768 623 760 589 C760 589 603 21 603 21 C603 21 417 670 417 670 C417 670 411 670 411 670 C411 670 239 19 239 19 C239 19 76 597 76 597 C70 626 72 645 83 645 C83 645 86 645 86 645 C86 645 86 660 86 660 C86 660 58 660 58 660 C58 660 42 660 42 660 C42 660 26 660 26 660 C26 660 11 660 11 660 C12 660 12 657 11 653 C12 648 12 645 11 645 C11 645 14 645 14 645 C24 645 39 619 50 580 C50 580 50 580 50 580 C50 580 230 -15 230 -15 C230 -15 236 -15 236 -15 C236 -15 417 670 417 670 C417 670 407 632 407 632 C407 632 593 -15 593 -15 C593 -15 598 -15 598 -15 C598 -15 769 597 769 597 C780 627 792 645 803 645 C803 645 806 645 806 645 C806 645 806 660 806 660 L806 660 Z " />
<glyph glyph-name="Wdieresis" unicode="&#x1e84;" horiz-adv-x="820" d="M498 730 C510 730 518 738 518 750 C518 762 510 770 498 770 C486 770 478 762 478 750 C478 738 486 730 498 730 L498 730 Z M331 730 C343 730 351 738 351 750 C351 762 343 770 331 770 C319 770 311 762 311 750 C311 738 319 730 331 730 L331 730 Z M806 660 C806 660 787 660 787 660 C787 660 783 660 783 660 C783 660 780 660 780 660 C780 660 747 660 747 660 C747 660 747 645 747 645 C747 645 751 645 751 645 C765 645 768 623 760 589 C760 589 603 21 603 21 C603 21 417 670 417 670 C417 670 411 670 411 670 C411 670 239 19 239 19 C239 19 76 597 76 597 C70 626 72 645 83 645 C83 645 86 645 86 645 C86 645 86 660 86 660 C86 660 58 660 58 660 C58 660 42 660 42 660 C42 660 26 660 26 660 C26 660 11 660 11 660 C12 660 12 657 11 653 C12 648 12 645 11 645 C11 645 14 645 14 645 C24 645 39 619 50 580 C50 580 50 580 50 580 C50 580 230 -15 230 -15 C230 -15 236 -15 236 -15 C236 -15 417 670 417 670 C417 670 407 632 407 632 C407 632 593 -15 593 -15 C593 -15 598 -15 598 -15 C598 -15 769 597 769 597 C780 627 792 645 803 645 C803 645 806 645 806 645 C806 645 806 660 806 660 L806 660 Z " />
<glyph glyph-name="CapitalLetterEWITHTI" unicode="&#x1ebc;" horiz-adv-x="463" d="M83 755 C83 798 102 827 131 827 C193 827 254 764 316 764 C350 764 373 793 373 837 C373 837 369 837 369 837 C369 801 349 777 320 777 C258 777 197 840 135 840 C102 840 80 806 80 755 C80 755 83 755 83 755 L83 755 Z M328 321 C328 321 328 348 328 348 C328 348 328 352 328 352 C328 352 328 356 328 356 C328 356 328 379 328 379 C328 379 316 379 316 379 C316 379 312 376 312 376 C302 364 268 357 225 356 C225 356 208 356 208 356 C208 356 98 356 98 356 C98 356 98 653 98 653 C98 653 231 653 231 653 C291 653 346 638 368 616 C368 616 375 610 375 610 C375 610 386 610 386 610 C386 610 386 656 386 656 C386 656 386 660 386 660 C386 660 383 660 383 660 C383 660 306 660 306 660 C306 660 98 660 98 660 C98 660 84 660 84 660 C84 660 69 660 69 660 C69 660 45 660 45 660 C45 660 45 645 45 645 C45 645 49 645 49 645 C61 645 69 619 69 580 C69 580 69 80 69 80 C69 41 61 15 49 15 C49 15 45 15 45 15 C45 15 45 0 45 0 C45 0 69 0 69 0 C69 0 84 0 84 0 C84 0 98 0 98 0 C98 0 313 0 313 0 C313 0 393 0 393 0 C394 1 394 3 394 4 C397 17 400 36 402 50 C402 50 391 50 391 50 C361 24 307 7 240 7 C240 7 98 7 98 7 C98 7 98 348 98 348 C98 348 208 348 208 348 C259 348 301 339 312 325 C312 325 316 321 316 321 C316 321 328 321 328 321 L328 321 Z " />
<glyph glyph-name="Ygrave" unicode="&#x1ef2;" horiz-adv-x="523" d="M312 15 C312 15 309 15 309 15 C297 15 290 35 289 67 C289 67 289 80 289 80 C289 80 289 265 289 265 C289 265 458 588 458 588 C477 623 496 645 505 645 C505 645 509 645 509 645 C509 645 509 660 509 660 C509 660 496 660 496 660 C496 660 492 660 492 660 C492 660 489 660 489 660 C489 660 454 660 454 660 C454 660 454 645 454 645 C454 645 458 645 458 645 C470 645 465 618 445 576 C445 576 283 266 283 266 C283 266 277 266 277 266 C277 266 126 580 126 580 C126 580 126 580 126 580 C107 619 102 645 113 645 C113 645 116 645 116 645 C115 645 115 648 116 653 C115 657 115 660 116 660 C116 660 87 660 87 660 C87 660 70 660 70 660 C70 660 53 660 53 660 C53 660 43 660 43 660 C42 660 42 657 43 653 C42 648 42 645 43 645 C43 645 45 645 45 645 C54 645 73 619 93 580 C93 580 93 580 93 580 C93 580 260 249 260 249 C260 249 260 80 260 80 C260 41 252 15 240 15 C240 15 236 15 236 15 C236 15 236 0 236 0 C236 0 260 0 260 0 C260 0 274 0 274 0 C274 0 289 0 289 0 C289 0 312 0 312 0 C312 0 312 15 312 15 L312 15 Z M249 831 C224 866 206 889 204 889 C200 889 192 883 192 881 C192 878 211 855 239 823 C239 823 349 692 349 692 C349 692 351 693 351 693 C351 693 249 831 249 831 L249 831 Z " />
<glyph glyph-name="quoteleft" unicode="&#x2018;" horiz-adv-x="164" d="M35 577 C35 577 49 591 49 591 C53 586 57 584 61 583 C63 583 65 582 67 583 C68 572 75 566 86 566 C97 566 104 573 104 584 C104 596 97 603 86 603 C83 603 80 602 78 601 C79 607 79 613 79 620 C79 639 87 656 99 662 C99 662 97 666 97 666 C77 656 63 632 64 607 C64 597 63 589 61 583 C56 567 47 564 35 577 L35 577 Z " />
<glyph glyph-name="quoteright" unicode="&#x2019;" horiz-adv-x="164" d="M137 653 C137 653 122 639 122 639 C118 644 114 646 110 648 C108 648 106 648 104 648 C103 658 96 665 86 665 C74 665 67 657 67 646 C67 635 74 627 86 627 C89 627 91 627 93 628 C92 623 92 618 92 611 C92 591 84 574 72 569 C72 569 74 565 74 565 C94 574 108 598 108 624 C108 634 109 641 110 648 C114 664 124 667 137 653 L137 653 Z " />
<glyph glyph-name="quotedblleft" unicode="&#x201c;" horiz-adv-x="219" d="M27 577 C27 577 42 591 42 591 C43 590 44 589 45 587 C45 587 49 591 49 591 C53 586 57 584 61 583 C63 583 65 582 67 583 C68 572 75 566 86 566 C97 566 104 573 104 584 C104 596 97 603 86 603 C83 603 80 602 78 601 C79 607 79 613 79 620 C79 639 87 656 99 662 C99 662 97 666 97 666 C77 656 63 632 64 607 C64 597 63 589 61 583 C60 580 59 577 58 575 C79 557 96 550 109 555 C116 557 122 563 126 572 C130 568 135 566 141 566 C152 566 160 573 160 584 C160 596 152 603 141 603 C138 603 136 603 133 602 C134 607 134 613 134 620 C134 639 142 656 155 662 C155 662 153 666 153 666 C132 656 119 632 119 607 C119 583 115 566 109 555 C94 530 65 537 27 577 L27 577 Z " />
<glyph glyph-name="quotedblright" unicode="&#x201d;" horiz-adv-x="219" d="M255 653 C255 653 240 639 240 639 C212 669 189 681 173 676 C166 674 160 668 156 658 C152 663 147 665 141 665 C136 665 131 663 128 660 C124 657 122 652 122 646 C122 644 122 642 123 640 C123 640 122 639 122 639 C118 644 114 646 110 648 C110 648 110 648 110 648 C108 648 106 648 104 648 C103 658 96 665 86 665 C74 665 67 657 67 646 C67 635 74 627 86 627 C89 627 91 627 93 628 C92 623 92 618 92 611 C92 591 84 574 72 569 C72 569 74 565 74 565 C94 574 108 598 108 624 C108 634 109 641 110 648 C113 660 120 665 128 660 C131 659 134 656 137 653 C137 653 123 640 123 640 C125 632 132 627 141 627 C144 627 146 628 149 628 C148 623 148 617 148 611 C148 591 140 574 127 569 C127 569 129 565 129 565 C150 574 163 598 163 624 C163 647 167 665 173 676 C173 676 173 676 173 676 C188 701 217 694 255 653 L255 653 Z " />
<glyph glyph-name="ellipsis" unicode="&#x2026;" horiz-adv-x="433" d="M357 0 C369 0 377 8 377 20 C377 32 369 40 357 40 C345 40 337 32 337 20 C337 8 345 0 357 0 L357 0 Z M217 0 C229 0 237 8 237 20 C237 32 229 40 217 40 C205 40 197 32 197 20 C197 8 205 0 217 0 L217 0 Z M77 0 C89 0 97 8 97 20 C97 32 89 40 77 40 C65 40 57 32 57 20 C57 8 65 0 77 0 L77 0 Z " />
<glyph glyph-name="guilsinglleft" unicode="&#x2039;" horiz-adv-x="296" d="M48 250 C48 250 244 461 244 461 C244 461 241 464 241 464 C241 464 27 251 27 251 C27 251 27 249 27 249 C27 249 242 37 242 37 C242 37 244 39 244 39 C244 39 48 250 48 250 L48 250 Z " />
<glyph glyph-name="guilsinglright" unicode="&#x203a;" horiz-adv-x="296" d="M248 250 C248 250 52 461 52 461 C52 461 55 464 55 464 C55 464 269 251 269 251 C269 251 269 249 269 249 C269 249 54 37 54 37 C54 37 52 39 52 39 C52 39 248 250 248 250 L248 250 Z " />
<glyph glyph-name="Euro" unicode="&#x20ac;" horiz-adv-x="668" d="M601 548 C601 548 601 595 601 595 C601 595 599 591 599 591 C599 591 599 591 599 591 C599 591 601 595 601 595 C528 637 441 665 385 665 C228 665 120 549 106 372 C106 372 59 372 59 372 C59 372 57 358 57 358 C57 358 106 358 106 358 C105 350 105 341 105 333 C105 325 105 316 106 308 C106 308 57 308 57 308 C57 308 55 293 55 293 C55 293 107 293 107 293 C120 112 228 -5 385 -5 C437 -5 523 25 601 70 C601 70 599 74 599 74 C599 74 599 74 599 74 C599 74 601 70 601 70 C601 70 601 117 601 117 C601 117 588 117 588 117 C584 111 579 104 575 99 C549 63 510 35 467 18 C435 8 407 2 385 2 C246 2 151 117 138 293 C138 293 426 293 426 293 C426 293 428 308 428 308 C428 308 138 308 138 308 C137 316 137 325 137 333 C137 341 137 350 138 358 C138 358 428 358 428 358 C428 358 430 372 430 372 C430 372 138 372 138 372 C151 545 246 658 385 658 C395 658 405 657 416 656 C416 656 416 655 416 655 C478 646 542 610 575 566 C579 561 584 554 588 548 C588 548 601 548 601 548 L601 548 Z " />
<glyph glyph-name="LETTERSMALLCAPITALF" unicode="&#xa730;" horiz-adv-x="382" d="M271 261 C271 261 271 288 271 288 C271 288 271 291 271 291 C271 291 271 294 271 294 C271 294 271 318 271 318 C271 318 259 318 259 318 C259 318 255 314 255 314 C244 302 202 294 151 294 C151 294 96 294 96 294 C96 294 96 547 96 547 C96 547 213 547 213 547 C280 547 331 530 357 504 C357 504 368 504 368 504 C368 504 368 550 368 550 C368 550 368 553 368 553 C368 554 365 554 361 553 C359 554 356 554 353 553 C334 554 308 554 288 553 C288 553 96 553 96 553 C96 553 83 553 83 553 C72 554 57 554 46 553 C46 553 46 538 46 538 C46 538 50 538 50 538 C62 539 70 513 70 473 C70 473 70 80 70 80 C70 41 62 15 50 15 C50 15 46 15 46 15 C46 15 46 0 46 0 C46 0 70 0 70 0 C70 0 83 0 83 0 C83 0 96 0 96 0 C96 0 130 0 130 0 C130 0 130 15 130 15 C130 15 125 15 125 15 C107 15 96 41 96 80 C96 80 96 288 96 288 C96 288 151 288 151 288 C202 288 244 279 255 265 C255 265 259 261 259 261 C259 261 271 261 271 261 L271 261 Z " />
<glyph glyph-name="LETTERSMALLCAPITALS" unicode="&#xa731;" horiz-adv-x="453" d="M50 125 C50 125 50 81 50 81 C84 29 165 -5 253 -5 C342 -5 402 51 402 135 C402 197 336 257 236 286 C143 313 81 367 81 421 C81 499 132 552 209 552 C225 552 241 550 257 545 C286 534 317 504 338 466 C345 455 353 439 359 428 C359 428 372 428 372 428 C372 428 372 473 372 473 C372 473 368 470 368 470 C368 470 368 470 368 470 C368 470 372 473 372 473 C338 524 273 558 210 558 C122 558 63 499 63 410 C63 351 125 294 217 267 C317 238 383 181 383 124 C383 50 331 1 253 1 C244 1 236 1 227 2 C168 7 108 47 76 103 C72 109 67 119 63 125 C63 125 50 125 50 125 L50 125 Z " />
</font>
</svg>
