<?xml version="1.0" encoding="UTF-8"?>
<svg xmlns="http://www.w3.org/2000/svg" xmlns:xlink="http://www.w3.org/1999/xlink" version="1.2" >
<font id="Thomas Mag Thin Italic">
<font-face  font-family="Thomas Mag" units-per-em="1024" ascent="936" descent="-280" font-style="normal" font-weight="100" font-stretch="normal" cap-height="660" x-height="500" underline-position="0" underline-thickness="0" />
<missing-glyph  horiz-adv-x="472" d="M0 700 C0 700 432 700 432 700 C432 700 432 0 432 0 C432 0 0 0 0 0 C0 0 0 700 0 700 L0 700 Z M50 50 C50 50 382 50 382 50 C382 50 382 650 382 650 C382 650 50 650 50 650 C50 650 50 50 50 50 L50 50 Z " />
<glyph glyph-name="NULL" d="" />
<glyph glyph-name="CR" unicode="&#xd;" horiz-adv-x="256" d="" />
<glyph glyph-name="space" unicode="&#x20;" horiz-adv-x="250" d="" />
<glyph glyph-name="exclam" unicode="&#x21;" horiz-adv-x="166" d="M80 -5 C92 -5 102 3 104 15 C106 27 99 35 88 35 C75 35 66 27 64 15 C62 3 68 -5 80 -5 L80 -5 Z M209 620 C215 647 210 665 197 665 C184 665 173 647 169 620 C169 620 99 110 99 110 C99 110 102 110 102 110 C102 110 209 620 209 620 L209 620 Z " />
<glyph glyph-name="quotedbl" unicode="&#x22;" horiz-adv-x="225" d="M244 660 C244 660 236 489 236 489 C236 489 243 489 243 489 C243 489 295 660 295 660 C295 660 244 660 244 660 L244 660 Z M163 660 C163 660 155 489 155 489 C155 489 162 489 162 489 C162 489 214 660 214 660 C214 660 163 660 163 660 L163 660 Z " />
<glyph glyph-name="numbersign" unicode="&#x23;" horiz-adv-x="539" d="M519 692 C519 692 449 468 449 468 C449 468 295 468 295 468 C295 468 365 692 365 692 C365 692 357 692 357 692 C357 692 287 468 287 468 C287 468 150 468 150 468 C150 468 145 452 145 452 C145 452 282 452 282 452 C282 452 205 208 205 208 C205 208 67 208 67 208 C67 208 62 192 62 192 C62 192 200 192 200 192 C200 192 140 0 140 0 C140 0 148 0 148 0 C148 0 208 192 208 192 C208 192 362 192 362 192 C362 192 302 0 302 0 C302 0 310 0 310 0 C310 0 370 192 370 192 C370 192 501 192 501 192 C501 192 506 208 506 208 C506 208 375 208 375 208 C375 208 452 452 452 452 C452 452 590 452 590 452 C590 452 595 468 595 468 C595 468 457 468 457 468 C457 468 527 692 527 692 C527 692 519 692 519 692 L519 692 Z M290 452 C290 452 444 452 444 452 C444 452 367 208 367 208 C367 208 213 208 213 208 C213 208 290 452 290 452 L290 452 Z " />
<glyph glyph-name="dollar" unicode="&#x24;" horiz-adv-x="513" d="M399 735 C399 735 386 663 386 663 C376 664 366 665 355 665 C343 665 331 664 319 662 C319 662 332 735 332 735 C332 735 319 735 319 735 C319 735 306 660 306 660 C225 641 165 578 149 489 C139 432 178 377 249 341 C249 341 192 15 192 15 C148 31 111 64 94 104 C91 111 88 119 85 126 C85 126 72 126 72 126 C72 126 64 80 64 80 C81 45 128 18 190 5 C190 5 176 -75 176 -75 C176 -75 190 -75 190 -75 C190 -75 204 2 204 2 C224 -2 246 -4 268 -5 C268 -5 256 -75 256 -75 C256 -75 270 -75 270 -75 C270 -75 282 -5 282 -5 C284 -5 285 -5 287 -5 C391 -5 473 61 490 161 C504 233 444 303 342 337 C342 337 398 654 398 654 C407 653 415 651 423 648 C423 648 423 648 423 648 C454 640 484 608 500 568 C504 558 509 544 513 534 C513 534 526 534 526 534 C526 534 534 580 534 580 C514 622 462 652 399 662 C399 662 412 735 412 735 C412 735 399 735 399 735 L399 735 Z M205 10 C205 10 262 335 262 335 C275 329 290 324 305 319 C312 317 318 315 324 312 C324 312 270 2 270 2 C250 3 232 5 214 8 C211 9 208 10 205 10 C205 10 205 10 205 10 L205 10 Z M267 367 C267 367 318 655 318 655 C329 657 340 658 352 658 C363 658 374 657 385 656 C385 656 330 341 330 341 C307 349 286 357 267 367 L267 367 Z M255 373 C195 408 163 455 171 501 C185 578 236 634 304 652 C304 652 255 373 255 373 L255 373 Z M337 308 C427 271 479 210 468 149 C452 61 380 2 288 2 C286 2 285 2 284 2 C284 2 337 308 337 308 L337 308 Z " />
<glyph glyph-name="ampersand" unicode="&#x26;" horiz-adv-x="706" d="M317 372 C443 397 536 466 550 547 C563 618 516 665 434 665 C352 665 286 602 270 508 C263 472 274 424 297 369 C185 333 102 251 85 162 C68 62 141 -5 267 -5 C357 -5 436 21 495 67 C572 -9 632 -11 700 0 C700 0 700 3 700 3 C640 -7 586 -3 509 79 C557 120 589 175 600 240 C600 240 606 270 606 270 C620 350 633 365 649 365 C649 365 654 365 654 365 C654 365 655 368 656 373 C656 377 657 380 657 380 C657 380 592 380 592 380 C592 380 591 377 591 373 C590 368 589 365 589 365 C589 365 594 365 594 365 C609 365 616 350 601 270 C601 270 596 240 596 240 C585 176 553 122 507 82 C478 113 446 154 410 209 C371 268 339 323 317 372 C317 372 317 372 317 372 L317 372 Z M316 375 C291 431 280 480 287 517 C302 603 360 661 432 661 C506 661 547 615 535 546 C520 465 433 398 316 375 L316 375 Z M492 70 C437 28 363 4 280 4 C158 4 88 70 106 170 C121 256 197 333 298 366 C320 315 353 257 393 197 C430 141 462 100 492 70 C492 70 492 70 492 70 L492 70 Z " />
<glyph glyph-name="quotesingle" unicode="&#x27;" horiz-adv-x="144" d="M47 660 C47 660 69 489 69 489 C69 489 76 489 76 489 C76 489 98 660 98 660 C98 660 47 660 47 660 L47 660 Z " />
<glyph glyph-name="parenleft" unicode="&#x28;" horiz-adv-x="178" d="M281 690 C214 624 157 512 114 270 C72 28 89 -84 133 -150 C133 -150 136 -148 136 -148 C98 -91 85 18 130 270 C174 522 225 631 283 688 C283 688 281 690 281 690 L281 690 Z " />
<glyph glyph-name="parenright" unicode="&#x29;" horiz-adv-x="178" d="M-10 -150 C57 -84 114 28 157 270 C199 512 182 624 139 690 C139 690 136 688 136 688 C173 631 186 522 141 270 C97 18 46 -91 -12 -148 C-12 -148 -10 -150 -10 -150 L-10 -150 Z " />
<glyph glyph-name="asterisk" unicode="&#x2a;" horiz-adv-x="252" d="M156 541 C156 541 56 605 56 605 C47 612 41 599 50 595 C50 595 156 541 156 541 C156 541 156 540 156 540 C156 540 156 539 156 539 C156 539 50 485 50 485 C41 481 47 468 56 475 C56 475 156 539 156 539 C156 539 151 420 151 420 C150 415 153 412 157 412 C161 412 163 415 163 420 C163 420 157 540 157 540 C157 540 258 475 258 475 C267 468 273 481 264 485 C264 485 157 540 157 540 C157 540 264 595 264 595 C273 599 267 612 258 605 C258 605 157 540 157 540 C157 540 163 660 163 660 C163 665 161 668 157 668 C153 668 150 665 151 660 C151 660 156 541 156 541 L156 541 Z " />
<glyph glyph-name="plus" unicode="&#x2b;" horiz-adv-x="561" d="M356 450 C356 450 322 254 322 254 C322 254 127 254 127 254 C127 254 125 246 125 246 C125 246 320 246 320 246 C320 246 286 50 286 50 C286 50 296 50 296 50 C296 50 330 246 330 246 C330 246 525 246 525 246 C525 246 527 254 527 254 C527 254 332 254 332 254 C332 254 366 450 366 450 C366 450 356 450 356 450 L356 450 Z " />
<glyph glyph-name="comma" unicode="&#x2c;" horiz-adv-x="164" d="M85 -5 C87 -5 89 -5 90 -4 C90 -8 90 -13 89 -18 C85 -40 74 -58 61 -64 C61 -64 62 -68 62 -68 C84 -58 102 -33 107 -5 C108 5 108 14 107 21 C106 27 101 33 91 33 C69 33 58 -5 85 -5 L85 -5 Z " />
<glyph glyph-name="hyphen" unicode="&#x2d;" horiz-adv-x="286" d="M67 227 C67 227 300 227 300 227 C300 227 303 243 303 243 C303 243 70 243 70 243 C70 243 67 227 67 227 L67 227 Z " />
<glyph glyph-name="period" unicode="&#x2e;" horiz-adv-x="211" d="M124 -5 C136 -5 146 3 148 15 C150 27 143 35 131 35 C119 35 110 27 108 15 C106 3 112 -5 124 -5 L124 -5 Z " />
<glyph glyph-name="slash" unicode="&#x2f;" horiz-adv-x="325" d="M-19 -145 C-19 -145 -10 -145 -10 -145 C-10 -145 451 710 451 710 C451 710 442 710 442 710 C442 710 -19 -145 -19 -145 L-19 -145 Z " />
<glyph glyph-name="zero" unicode="0" horiz-adv-x="556" d="M278 -1 C144 -1 73 99 99 250 C126 401 233 501 366 501 C500 501 572 401 545 250 C519 99 412 -1 278 -1 L278 -1 Z M77 250 C50 97 130 -5 277 -5 C424 -5 540 97 568 250 C594 403 514 505 367 505 C220 505 104 403 77 250 L77 250 Z " />
<glyph glyph-name="one" unicode="1" horiz-adv-x="185" d="M141 485 C141 485 145 485 145 485 C156 485 160 462 155 427 C155 427 94 80 94 80 C94 80 94 80 94 80 C87 41 74 15 62 15 C62 15 59 15 59 15 C59 13 56 6 56 0 C56 0 80 0 80 0 C80 0 90 0 90 0 C90 0 100 0 100 0 C100 0 124 0 124 0 C124 1 126 12 126 15 C126 15 123 15 123 15 C111 15 107 38 113 72 C113 72 174 420 174 420 C174 420 174 420 174 420 C181 459 193 485 206 485 C206 485 209 485 209 485 C209 485 210 488 210 493 C211 497 212 500 212 500 C212 500 188 500 188 500 C188 500 178 500 178 500 C178 500 168 500 168 500 C168 500 144 500 144 500 C144 499 141 485 141 485 L141 485 Z " />
<glyph glyph-name="two" unicode="2" horiz-adv-x="492" d="M455 10 C455 10 455 10 455 10 C457 20 461 34 463 44 C463 44 448 44 448 44 C448 44 448 40 448 40 C445 28 416 20 377 20 C377 20 67 20 67 20 C308 159 464 230 484 347 C501 442 450 505 357 505 C280 505 194 446 142 357 C142 357 145 356 145 356 C191 436 271 490 345 490 C430 490 476 430 460 340 C439 218 291 153 61 20 C61 20 60 20 60 20 C60 20 58 18 58 18 C50 14 41 9 33 4 C33 4 32 0 32 0 C32 0 452 0 452 0 C452 0 455 10 455 10 L455 10 Z " />
<glyph glyph-name="three" unicode="3" horiz-adv-x="445" d="M-5 -215 C221 -203 388 -101 414 40 C431 142 362 210 240 210 C230 210 217 208 202 205 C324 250 410 317 420 379 C433 455 389 505 308 505 C240 505 151 453 85 375 C85 375 87 374 87 374 C146 444 230 490 296 490 C370 490 411 443 399 373 C388 309 299 241 174 199 C165 196 156 193 147 190 C147 190 146 187 146 187 C149 188 152 189 155 190 C176 195 206 199 234 199 C346 199 409 135 392 39 C367 -100 209 -200 -4 -212 C-4 -212 -5 -215 -5 -215 L-5 -215 Z " />
<glyph glyph-name="four" unicode="4" horiz-adv-x="503" d="M40 9 C40 9 39 9 39 9 C39 9 39 7 39 7 C39 7 35 3 35 3 C35 3 34 0 34 0 C34 0 38 0 38 0 C38 0 39 0 39 0 C39 0 357 0 357 0 C357 0 331 -150 331 -150 C331 -150 351 -150 351 -150 C360 -100 369 -50 377 0 C377 0 487 0 487 0 C487 0 489 9 489 9 C489 9 379 9 379 9 C408 172 437 335 465 499 C465 499 465 499 465 499 C465 499 465 499 465 499 C465 501 466 503 466 505 C466 505 463 505 463 505 C463 505 40 9 40 9 L40 9 Z M47 9 C47 9 442 472 442 472 C442 472 440 469 440 469 C440 469 359 9 359 9 C359 9 47 9 47 9 L47 9 Z " />
<glyph glyph-name="five" unicode="5" horiz-adv-x="446" d="M120 243 C120 243 125 243 125 243 C125 243 193 243 193 243 C325 243 400 169 380 58 C356 -77 207 -171 6 -178 C6 -178 6 -182 6 -182 C218 -175 377 -76 401 64 C422 184 345 263 207 263 C207 263 130 263 130 263 C130 263 186 479 186 479 C186 479 465 479 465 479 C465 479 470 489 470 489 C470 489 471 489 471 489 C476 500 483 514 488 524 C488 524 473 524 473 524 C473 524 471 520 471 520 C465 508 435 500 396 500 C396 500 191 500 191 500 C191 500 185 500 185 500 C185 500 120 243 120 243 L120 243 Z " />
<glyph glyph-name="six" unicode="6" horiz-adv-x="531" d="M613 715 C350 706 146 541 104 301 C72 118 137 -5 267 -5 C409 -5 514 83 530 215 C552 341 488 425 370 425 C237 425 138 334 115 196 C115 223 117 252 123 283 C124 290 127 300 129 308 C170 541 363 703 613 712 C613 712 613 715 613 715 L613 715 Z M117 170 C117 170 117 170 117 170 C130 320 230 420 366 420 C473 420 531 338 509 214 C493 86 398 1 271 1 C181 1 125 66 117 170 L117 170 Z " />
<glyph glyph-name="seven" unicode="7" horiz-adv-x="450" d="M123 490 C123 490 122 490 122 490 C120 480 116 466 113 456 C113 456 128 456 128 456 C133 472 157 480 200 480 C200 480 507 480 507 480 C507 480 520 500 520 500 C387 287 255 73 122 -140 C122 -140 144 -140 144 -140 C270 73 395 286 521 498 C521 498 520 500 520 500 C520 500 125 500 125 500 C125 500 123 490 123 490 L123 490 Z " />
<glyph glyph-name="eight" unicode="8" horiz-adv-x="505" d="M322 343 C317 344 312 345 306 345 C211 353 158 417 174 506 C190 599 266 661 365 661 C464 661 520 602 504 513 C487 416 415 350 322 343 C322 343 322 343 322 343 L322 343 Z M327 343 C427 351 504 420 521 516 C537 605 475 665 366 665 C258 665 173 598 156 498 C140 408 191 341 283 327 C173 326 88 261 71 164 C53 63 125 -5 251 -5 C376 -5 473 66 491 172 C507 260 442 327 327 343 L327 343 Z M286 327 C291 326 296 325 301 325 C418 315 486 251 471 165 C454 65 366 -1 253 -1 C138 -1 73 66 91 167 C107 263 186 326 287 326 C287 326 286 327 286 327 L286 327 Z " />
<glyph glyph-name="nine" unicode="9" horiz-adv-x="567" d="M24 -215 C288 -206 491 -41 533 199 C566 382 500 505 370 505 C229 505 123 417 107 285 C85 159 149 75 267 75 C400 75 499 165 522 303 C522 277 519 248 514 217 C479 -31 284 -203 25 -212 C25 -212 24 -215 24 -215 L24 -215 Z M521 327 C506 179 407 80 272 80 C164 80 107 162 128 286 C145 414 240 499 367 499 C457 499 513 433 521 327 C521 327 521 327 521 327 L521 327 Z " />
<glyph glyph-name="colon" unicode="&#x3a;" horiz-adv-x="211" d="M187 352 C199 352 208 360 211 372 C213 384 206 392 194 392 C182 392 173 384 171 372 C168 360 175 352 187 352 L187 352 Z M124 -5 C136 -5 146 3 148 15 C150 27 143 35 131 35 C119 35 110 27 108 15 C106 3 112 -5 124 -5 L124 -5 Z " />
<glyph glyph-name="semicolon" unicode="&#x3b;" horiz-adv-x="164" d="M147 345 C159 345 168 353 170 365 C172 377 166 385 154 385 C142 385 132 377 130 365 C128 353 135 345 147 345 L147 345 Z M85 -5 C87 -5 89 -5 90 -4 C90 -8 90 -13 89 -18 C85 -40 74 -58 61 -64 C61 -64 62 -68 62 -68 C84 -58 102 -33 107 -5 C108 5 108 14 107 21 C106 27 101 33 91 33 C69 33 58 -5 85 -5 L85 -5 Z " />
<glyph glyph-name="less" unicode="&#x3c;" horiz-adv-x="546" d="M552 500 C552 500 99 281 99 281 C99 281 96 280 96 280 C96 280 95 270 95 270 C95 270 97 269 97 269 C97 269 473 50 473 50 C473 50 475 60 475 60 C475 60 103 275 103 275 C103 275 551 490 551 490 C551 490 552 500 552 500 L552 500 Z " />
<glyph glyph-name="equal" unicode="&#x3d;" horiz-adv-x="536" d="M116 204 C116 204 115 196 115 196 C115 196 495 196 495 196 C495 196 496 204 496 204 C496 204 116 204 116 204 L116 204 Z M134 304 C134 304 132 296 132 296 C132 296 512 296 512 296 C512 296 514 304 514 304 C514 304 134 304 134 304 L134 304 Z " />
<glyph glyph-name="greater" unicode="&#x3e;" horiz-adv-x="543" d="M530 275 C530 275 93 60 93 60 C93 60 91 50 91 50 C91 50 534 269 534 269 C534 269 545 275 545 275 C545 275 536 281 536 281 C536 281 170 500 170 500 C170 500 168 490 168 490 C168 490 530 275 530 275 L530 275 Z " />
<glyph glyph-name="question" unicode="&#x3f;" horiz-adv-x="379" d="M148 -5 C160 -5 169 3 171 15 C174 27 167 35 155 35 C143 35 134 27 131 15 C129 3 136 -5 148 -5 L148 -5 Z M207 360 C207 360 166 104 166 104 C166 104 168 104 168 104 C168 104 216 348 216 348 C216 348 251 348 251 348 C375 348 411 418 418 458 C440 582 374 665 253 665 C203 665 164 637 157 596 C157 594 161 593 169 593 C204 593 221 649 257 649 C371 649 434 573 414 460 C408 425 373 363 247 363 C247 363 212 363 212 363 C209 363 207 362 207 360 L207 360 Z " />
<glyph glyph-name="at" unicode="&#x40;" horiz-adv-x="1135" d="M1053 0 C960 -145 750 -241 526 -241 C232 -241 71 -41 123 259 C176 559 408 759 702 759 C996 759 1163 593 1119 343 C1082 138 978 2 857 2 C716 2 656 81 707 200 C707 200 826 480 826 480 C826 480 807 480 807 480 C807 480 761 372 761 372 C767 443 728 490 659 490 C503 490 378 375 348 201 C328 91 382 17 483 17 C554 17 627 73 675 160 C652 59 718 -5 852 -5 C985 -5 1098 134 1134 343 C1179 596 1006 764 703 764 C399 764 161 562 108 259 C54 -44 221 -246 525 -246 C751 -246 965 -148 1060 0 C1060 0 1053 0 1053 0 L1053 0 Z M754 356 C754 356 688 200 688 200 C644 97 567 28 495 28 C401 28 351 99 370 205 C400 372 515 484 658 484 C730 484 768 432 754 356 L754 356 Z " />
<glyph glyph-name="A" unicode="A" horiz-adv-x="538" d="M440 0 C440 0 470 0 470 0 C470 0 485 0 485 0 C485 0 501 0 501 0 C501 0 520 0 520 0 C520 0 521 3 521 7 C522 12 523 15 523 15 C523 15 519 15 519 15 C508 15 497 35 490 67 C490 67 387 675 387 675 C387 675 379 675 379 675 C379 675 138 199 138 199 C138 199 137 198 137 198 C137 198 137 197 137 197 C137 197 78 80 78 80 C78 80 78 80 78 80 C59 41 37 15 25 15 C25 15 22 15 22 15 C22 15 21 12 20 8 C20 3 19 0 19 0 C19 0 38 0 38 0 C38 0 43 0 43 0 C43 0 47 0 47 0 C47 0 82 0 82 0 C82 0 83 3 84 8 C84 12 85 15 85 15 C85 15 81 15 81 15 C65 15 71 47 95 95 C95 95 95 95 95 95 C95 95 143 190 143 190 C143 190 417 331 417 331 C417 331 457 80 457 80 C457 80 457 80 457 80 C463 41 458 15 446 15 C446 15 442 15 442 15 C443 15 440 0 440 0 C440 0 440 0 440 0 L440 0 Z M414 345 C414 345 150 205 150 205 C150 205 367 636 367 636 C367 636 414 345 414 345 L414 345 Z " />
<glyph glyph-name="B" unicode="B" horiz-adv-x="529" d="M178 645 C178 645 182 645 182 645 C193 645 198 622 192 587 C192 587 103 80 103 80 C103 80 103 80 103 80 C96 41 83 15 71 15 C71 15 67 15 67 15 C68 15 65 0 65 0 C65 0 89 0 89 0 C89 0 103 0 103 0 C103 0 117 0 117 0 C117 0 295 0 295 0 C420 0 515 71 534 179 C551 272 479 338 351 353 C452 368 525 429 541 515 C556 602 494 660 386 660 C386 660 234 660 234 660 C234 660 233 654 233 654 C233 654 385 654 385 654 C476 654 527 598 512 515 C497 427 426 365 331 355 C319 356 306 356 293 356 C293 356 180 355 180 355 C180 355 180 355 180 355 C180 355 234 660 234 660 C234 660 219 660 219 660 C219 660 205 660 205 660 C205 660 181 660 181 660 C181 659 179 645 178 645 C178 645 178 645 178 645 L178 645 Z M180 352 C180 352 179 349 179 349 C179 349 301 349 301 349 C310 349 319 349 328 350 C451 338 520 273 504 179 C485 75 401 6 294 6 C294 6 118 6 118 6 C118 6 179 352 179 352 C179 352 180 352 180 352 L180 352 Z " />
<glyph glyph-name="C" unicode="C" horiz-adv-x="724" d="M750 525 C750 525 758 569 758 569 C730 627 633 665 514 665 C313 665 155 531 119 330 C84 129 195 -5 396 -5 C514 -5 625 33 674 91 C674 91 681 135 681 135 C681 135 668 135 668 135 C663 128 656 119 651 112 C608 55 525 11 444 4 C444 4 444 4 444 4 C429 3 414 2 398 2 C215 2 116 133 151 330 C186 527 331 658 513 658 C544 658 574 655 601 650 C601 650 601 650 601 650 C656 640 707 599 728 548 C731 541 734 532 737 525 C737 525 750 525 750 525 L750 525 Z " />
<glyph glyph-name="D" unicode="D" horiz-adv-x="627" d="M178 645 C178 645 182 645 182 645 C193 645 198 622 192 587 C192 587 103 80 103 80 C103 80 103 80 103 80 C96 41 83 15 71 15 C71 15 67 15 67 15 C68 15 65 0 65 0 C65 0 89 0 89 0 C89 0 103 0 103 0 C103 0 117 0 117 0 C117 0 287 0 287 0 C457 0 593 132 629 330 C663 528 556 660 361 660 C361 660 234 660 234 660 C234 660 233 654 233 654 C233 654 360 654 360 654 C538 654 634 524 600 330 C566 136 441 6 288 6 C288 6 118 6 118 6 C118 6 234 660 234 660 C234 660 219 660 219 660 C219 660 205 660 205 660 C205 660 181 660 181 660 C181 659 179 645 178 645 C178 645 178 645 178 645 L178 645 Z " />
<glyph glyph-name="E" unicode="E" horiz-adv-x="463" d="M493 610 C496 624 499 642 501 656 C502 657 502 659 502 660 C502 660 499 660 499 660 C499 660 422 660 422 660 C422 660 214 660 214 660 C214 660 200 660 200 660 C200 660 186 660 186 660 C186 660 162 660 162 660 C161 660 159 645 159 645 C159 645 163 645 163 645 C175 645 178 619 171 580 C171 580 172 580 172 580 C172 580 83 80 83 80 C83 80 83 80 83 80 C76 41 64 15 52 15 C52 15 48 15 48 15 C48 15 47 12 47 8 C46 3 45 0 45 0 C45 0 69 0 69 0 C69 0 84 0 84 0 C84 0 98 0 98 0 C98 0 313 0 313 0 C313 0 393 0 393 0 C394 1 394 3 395 4 C400 17 406 36 411 50 C411 50 400 50 400 50 C400 50 391 44 391 44 C361 22 301 7 241 7 C241 7 99 7 99 7 C99 7 159 348 159 348 C159 348 269 348 269 348 C323 348 363 340 372 321 C372 321 385 321 385 321 C386 331 388 343 390 352 C390 352 391 356 391 356 C391 356 391 356 391 356 C392 364 393 372 395 379 C395 379 383 379 383 379 C383 379 379 376 379 376 C367 364 331 357 288 356 C288 356 271 356 271 356 C271 356 161 356 161 356 C161 356 160 350 160 350 C160 350 214 660 214 660 C214 660 213 653 213 653 C213 653 346 653 346 653 C406 653 458 638 477 616 C477 616 482 610 482 610 C482 610 493 610 493 610 L493 610 Z " />
<glyph glyph-name="F" unicode="F" horiz-adv-x="429" d="M523 610 C526 624 529 642 531 656 C532 657 532 659 532 660 C532 660 529 660 529 660 C529 660 452 660 452 660 C452 660 214 660 214 660 C214 660 200 660 200 660 C200 660 186 660 186 660 C186 660 162 660 162 660 C161 660 159 645 159 645 C159 645 163 645 163 645 C175 645 178 619 171 580 C171 580 172 580 172 580 C172 580 83 80 83 80 C83 80 83 80 83 80 C76 41 64 15 52 15 C52 15 48 15 48 15 C48 15 47 12 47 8 C46 3 45 0 45 0 C45 0 69 0 69 0 C69 0 84 0 84 0 C84 0 98 0 98 0 C98 0 132 0 132 0 C132 1 134 12 134 15 C134 15 129 15 129 15 C113 15 106 39 111 74 C111 74 158 343 158 343 C158 343 258 343 258 343 C313 343 352 335 361 316 C361 316 374 316 374 316 C375 326 378 338 379 347 C379 347 380 351 380 351 C380 351 380 351 380 351 C382 359 383 367 384 374 C384 374 372 374 372 374 C372 374 368 371 368 371 C356 359 320 352 277 351 C277 351 260 351 260 351 C260 351 160 351 160 351 C160 351 159 347 159 347 C159 347 214 660 214 660 C214 660 213 653 213 653 C213 653 376 653 376 653 C436 653 488 638 507 616 C507 616 512 610 512 610 C512 610 523 610 523 610 L523 610 Z " />
<glyph glyph-name="G" unicode="G" horiz-adv-x="707" d="M702 525 C702 525 715 525 715 525 C715 525 723 569 723 569 C695 627 601 665 488 665 C293 665 140 531 104 330 C69 129 175 -5 370 -5 C458 -5 565 20 637 58 C637 58 649 124 668 230 C668 230 668 230 668 230 C675 269 687 295 699 295 C699 295 703 295 703 295 C703 295 704 298 704 303 C705 307 706 310 706 310 C706 310 682 310 682 310 C682 310 669 310 669 310 C669 310 656 310 656 310 C656 310 632 310 632 310 C632 310 631 307 631 303 C630 298 629 295 629 295 C629 295 633 295 633 295 C643 295 648 275 644 244 C625 136 612 64 610 53 C540 22 448 2 371 2 C196 2 101 133 136 330 C171 527 311 658 487 658 C514 658 541 656 565 651 C565 651 565 651 565 651 C631 640 684 589 702 525 L702 525 Z " />
<glyph glyph-name="H" unicode="H" horiz-adv-x="672" d="M662 645 C662 645 666 645 666 645 C677 645 682 622 676 587 C676 587 635 351 635 351 C635 351 160 351 160 351 C160 351 200 580 200 580 C200 580 200 580 200 580 C207 619 220 645 232 645 C232 645 235 645 235 645 C236 645 238 659 238 660 C238 660 214 660 214 660 C214 660 200 660 200 660 C200 660 186 660 186 660 C186 660 162 660 162 660 C161 660 159 645 159 645 C159 645 163 645 163 645 C175 645 178 619 171 580 C171 580 172 580 172 580 C172 580 83 80 83 80 C83 80 83 80 83 80 C76 41 64 15 52 15 C52 15 48 15 48 15 C48 15 47 12 47 8 C46 3 45 0 45 0 C45 0 69 0 69 0 C69 0 84 0 84 0 C84 0 98 0 98 0 C98 0 122 0 122 0 C122 1 124 12 124 15 C124 15 121 15 121 15 C110 15 105 38 111 73 C111 73 158 343 158 343 C158 343 633 343 633 343 C633 343 587 80 587 80 C587 80 587 80 587 80 C580 41 567 15 555 15 C555 15 551 15 551 15 C552 15 549 0 549 0 C549 0 573 0 573 0 C573 0 587 0 587 0 C587 0 601 0 601 0 C601 0 625 0 625 0 C625 0 626 3 626 8 C628 12 628 15 628 15 C628 15 624 15 624 15 C613 15 609 39 614 74 C614 74 704 580 704 580 C704 580 704 580 704 580 C711 619 723 645 735 645 C735 645 739 645 739 645 C739 645 740 648 740 653 C741 657 742 660 742 660 C742 660 718 660 718 660 C718 660 703 660 703 660 C703 660 689 660 689 660 C689 660 665 660 665 660 C665 659 663 645 662 645 L662 645 Z " />
<glyph glyph-name="I" unicode="I" horiz-adv-x="167" d="M157 645 C157 645 161 645 161 645 C172 645 176 621 171 586 C171 586 78 64 78 64 C71 34 60 15 50 15 C50 15 46 15 46 15 C47 15 44 0 44 0 C44 0 67 0 67 0 C67 0 82 0 82 0 C82 0 96 0 96 0 C96 0 120 0 120 0 C120 0 121 3 121 8 C122 12 123 15 123 15 C123 15 119 15 119 15 C108 15 104 39 109 74 C109 74 199 580 199 580 C199 580 199 580 199 580 C206 619 218 645 230 645 C230 645 234 645 234 645 C234 645 235 648 235 653 C236 657 237 660 236 660 C236 660 213 660 213 660 C213 660 198 660 198 660 C198 660 184 660 184 660 C184 660 160 660 160 660 C160 659 158 645 157 645 C157 645 157 645 157 645 L157 645 Z " />
<glyph glyph-name="J" unicode="J" horiz-adv-x="302" d="M293 645 C293 645 296 645 296 645 C308 645 312 623 306 588 C306 588 238 200 238 200 C212 52 173 -6 97 -6 C62 -6 37 16 35 50 C34 55 31 59 26 59 C20 59 16 55 16 50 C18 14 49 -10 91 -10 C191 -10 242 56 271 224 C271 224 334 580 334 580 C334 580 334 580 334 580 C340 619 353 645 366 645 C366 645 369 645 369 645 C369 645 370 648 370 653 C371 657 372 660 372 660 C372 660 348 660 348 660 C348 660 334 660 334 660 C334 660 319 660 319 660 C319 660 295 660 295 660 C294 657 293 646 293 645 L293 645 Z " />
<glyph glyph-name="K" unicode="K" horiz-adv-x="583" d="M258 660 C258 660 234 660 234 660 C234 660 219 660 219 660 C219 660 205 660 205 660 C205 660 181 660 181 660 C181 659 179 645 178 645 C178 645 182 645 182 645 C193 645 198 622 192 587 C192 587 103 80 103 80 C103 80 103 80 103 80 C96 41 83 15 71 15 C71 15 67 15 67 15 C68 15 65 0 65 0 C65 0 89 0 89 0 C89 0 103 0 103 0 C103 0 117 0 117 0 C117 0 141 0 141 0 C141 0 141 3 143 8 C143 12 144 15 144 15 C144 15 140 15 140 15 C129 15 125 39 130 74 C130 74 220 580 220 580 C220 580 220 580 220 580 C227 619 239 645 251 645 C251 645 255 645 255 645 C255 645 257 660 258 660 L258 660 Z M565 -5 C565 -5 566 -1 566 -1 C566 -1 561 -1 561 -1 C543 -1 482 58 344 210 C344 210 204 364 204 364 C204 364 503 593 503 593 C546 625 581 645 592 645 C592 645 595 645 595 645 C595 645 596 648 597 653 C597 657 598 660 598 660 C598 660 591 660 591 660 C591 660 586 660 586 660 C586 660 581 660 581 660 C581 660 557 660 557 660 C557 660 556 657 555 653 C555 648 554 645 554 645 C554 645 555 645 555 645 C559 645 534 625 493 593 C493 593 199 370 199 370 C199 370 199 370 199 370 C199 370 180 355 180 355 C180 355 184 349 184 349 C184 349 185 350 185 350 C185 350 325 195 325 195 C456 51 520 -5 554 -5 C554 -5 565 -5 565 -5 L565 -5 Z " />
<glyph glyph-name="L" unicode="L" horiz-adv-x="448" d="M238 660 C238 660 214 660 214 660 C214 660 200 660 200 660 C200 660 186 660 186 660 C186 660 162 660 162 660 C161 660 159 645 159 645 C159 645 163 645 163 645 C175 645 178 619 171 580 C171 580 172 580 172 580 C172 580 83 80 83 80 C83 80 83 80 83 80 C76 41 64 15 52 15 C52 15 48 15 48 15 C48 15 47 12 47 8 C46 3 45 0 45 0 C45 0 69 0 69 0 C69 0 84 0 84 0 C84 0 98 0 98 0 C98 0 313 0 313 0 C313 0 393 0 393 0 C394 1 394 3 395 4 C400 18 407 38 412 53 C412 53 412 53 412 53 C412 53 412 53 412 53 C412 53 412 53 412 53 C412 52 411 53 409 53 C400 54 394 55 394 55 C394 55 386 48 386 48 C359 24 305 7 251 7 C251 7 99 7 99 7 C99 7 200 580 200 580 C200 580 200 580 200 580 C207 619 220 645 232 645 C232 645 235 645 235 645 C236 645 238 659 238 660 C238 660 238 660 238 660 L238 660 Z " />
<glyph glyph-name="M" unicode="M" horiz-adv-x="686" d="M762 660 C762 660 739 660 739 660 C739 660 726 660 726 660 C726 660 721 660 721 660 C721 660 713 660 713 660 C713 660 356 31 356 31 C356 31 221 660 221 660 C221 660 202 660 202 660 C202 660 198 660 198 660 C198 660 194 660 194 660 C194 660 170 660 170 660 C170 660 169 657 168 653 C168 648 167 645 167 645 C167 645 171 645 171 645 C182 645 185 619 177 580 C177 580 69 80 69 80 C61 41 47 15 35 15 C35 15 32 15 32 15 C32 13 29 6 29 0 C29 0 52 0 52 0 C52 0 57 0 57 0 C57 0 61 0 61 0 C61 0 96 0 96 0 C96 0 98 15 98 15 C98 15 93 15 93 15 C77 15 72 42 79 83 C79 83 195 627 195 627 C195 627 334 4 334 4 C334 4 336 -5 336 -5 C336 -5 343 -5 343 -5 C343 -5 711 642 711 642 C711 642 634 80 634 80 C629 41 618 15 606 15 C606 15 602 15 602 15 C602 15 600 0 600 0 C600 0 624 0 624 0 C624 0 638 0 638 0 C638 0 652 0 652 0 C652 0 676 0 676 0 C676 1 678 12 678 15 C678 15 675 15 675 15 C663 15 658 41 663 80 C663 80 731 597 731 597 C736 626 746 645 756 645 C756 645 759 645 759 645 C759 645 762 659 762 660 L762 660 Z " />
<glyph glyph-name="N" unicode="N" horiz-adv-x="598" d="M675 660 C675 660 651 660 651 660 C651 660 646 660 646 660 C646 660 642 660 642 660 C642 660 618 660 618 660 C617 657 616 646 616 645 C616 645 619 645 619 645 C631 645 634 623 630 590 C630 590 532 36 532 36 C532 36 220 660 220 660 C220 660 199 650 199 650 C199 650 199 651 199 651 C199 651 220 660 220 660 C220 660 201 660 201 660 C201 660 196 660 196 660 C196 660 192 660 192 660 C192 660 168 660 168 660 C168 659 166 645 165 645 C165 645 169 645 169 645 C180 645 185 622 179 587 C179 587 90 80 90 80 C90 80 90 80 90 80 C83 41 70 15 58 15 C58 15 54 15 54 15 C55 15 52 0 52 0 C52 0 76 0 76 0 C76 0 80 0 80 0 C80 0 84 0 84 0 C84 0 108 0 108 0 C108 0 109 3 109 8 C110 12 111 15 111 15 C111 15 107 15 107 15 C96 15 92 37 96 70 C96 70 197 637 197 637 C197 637 513 4 513 4 C513 4 518 -4 518 -4 C518 -4 534 -4 534 -4 C534 -4 537 15 537 15 C537 15 637 580 637 580 C637 580 637 580 637 580 C644 619 656 645 668 645 C668 645 672 645 672 645 C672 645 674 660 675 660 C675 660 675 660 675 660 L675 660 Z " />
<glyph glyph-name="O" unicode="O" horiz-adv-x="772" d="M396 2 C206 2 135 153 166 330 C197 507 322 658 512 658 C702 658 774 507 742 330 C711 153 586 2 396 2 L396 2 Z M134 330 C102 149 184 -5 395 -5 C606 -5 742 149 774 330 C806 511 724 665 513 665 C302 665 166 511 134 330 L134 330 Z " />
<glyph glyph-name="P" unicode="P" horiz-adv-x="518" d="M178 645 C178 645 182 645 182 645 C193 645 198 622 192 587 C192 587 103 80 103 80 C103 80 103 80 103 80 C96 41 83 15 71 15 C71 15 67 15 67 15 C68 15 65 0 65 0 C65 0 89 0 89 0 C89 0 103 0 103 0 C103 0 117 0 117 0 C117 0 141 0 141 0 C141 0 141 3 143 8 C143 12 144 15 144 15 C144 15 140 15 140 15 C129 15 125 39 130 74 C130 74 170 300 170 300 C170 300 308 300 308 300 C449 300 557 371 575 478 C595 587 527 660 406 660 C406 660 234 660 234 660 C234 660 233 654 233 654 C233 654 405 654 405 654 C508 654 564 583 545 478 C527 374 432 305 309 305 C309 305 171 305 171 305 C171 305 234 660 234 660 C234 660 219 660 219 660 C219 660 205 660 205 660 C205 660 181 660 181 660 C181 659 179 645 178 645 C178 645 178 645 178 645 L178 645 Z " />
<glyph glyph-name="Q" unicode="Q" horiz-adv-x="772" d="M799 -50 C799 -50 797 -49 797 -49 C761 -84 694 -108 630 -108 C526 -108 451 -67 398 -5 C607 -3 742 150 774 330 C806 511 724 665 513 665 C302 665 166 511 134 330 C102 150 183 -3 390 -5 C450 -76 528 -123 626 -123 C685 -123 755 -94 799 -50 L799 -50 Z M396 2 C206 2 135 153 166 330 C197 507 322 658 512 658 C702 658 774 507 742 330 C711 153 586 2 396 2 L396 2 Z " />
<glyph glyph-name="R" unicode="R" horiz-adv-x="557" d="M178 645 C178 645 182 645 182 645 C193 645 198 622 192 587 C192 587 103 80 103 80 C103 80 103 80 103 80 C96 41 83 15 71 15 C71 15 67 15 67 15 C68 15 65 0 65 0 C65 0 89 0 89 0 C89 0 103 0 103 0 C103 0 117 0 117 0 C117 0 141 0 141 0 C141 0 141 3 143 8 C143 12 144 15 144 15 C144 15 140 15 140 15 C129 15 125 39 130 74 C130 74 234 660 234 660 C234 660 233 654 233 654 C233 654 385 654 385 654 C476 654 526 588 509 490 C491 390 406 324 296 324 C296 324 280 324 280 324 C280 324 175 324 175 324 C175 324 174 319 174 319 C174 319 284 319 284 319 C284 319 438 106 438 106 C511 4 515 0 539 0 C539 0 550 0 550 0 C550 0 551 4 551 4 C551 4 546 4 546 4 C538 4 535 8 467 102 C467 102 309 319 309 319 C431 324 522 391 539 490 C557 592 496 660 386 660 C386 660 234 660 234 660 C234 660 219 660 219 660 C219 660 205 660 205 660 C205 660 181 660 181 660 C181 659 179 645 178 645 C178 645 178 645 178 645 L178 645 Z " />
<glyph glyph-name="S" unicode="S" horiz-adv-x="513" d="M72 126 C72 126 64 80 64 80 C89 29 178 -5 287 -5 C391 -5 473 61 490 161 C504 236 440 308 331 341 C224 374 160 438 171 501 C188 595 260 658 352 658 C377 658 401 655 423 648 C423 648 423 648 423 648 C454 640 484 608 500 568 C504 558 509 544 513 534 C513 534 526 534 526 534 C526 534 534 580 534 580 C509 631 437 665 355 665 C250 665 168 595 149 489 C137 419 199 351 305 319 C414 285 480 217 468 149 C452 61 380 2 288 2 C262 2 237 4 214 8 C161 20 114 57 94 104 C91 111 88 119 85 126 C85 126 72 126 72 126 L72 126 Z " />
<glyph glyph-name="T" unicode="T" horiz-adv-x="633" d="M279 0 C279 0 303 0 303 0 C303 0 317 0 317 0 C317 0 331 0 331 0 C331 0 355 0 355 0 C355 0 356 3 356 8 C358 12 358 15 358 15 C358 15 354 15 354 15 C342 15 339 40 345 77 C345 77 446 653 446 653 C446 653 568 653 568 653 C616 653 663 637 685 612 C685 612 692 605 692 605 C692 605 704 605 704 605 C705 621 707 641 708 656 C708 657 709 659 709 660 C709 660 703 660 703 660 C703 660 629 660 629 660 C629 660 238 660 238 660 C238 660 163 660 163 660 C163 660 158 660 158 660 C158 659 157 657 157 656 C153 641 148 621 143 605 C143 605 155 605 155 605 C155 605 165 612 165 612 C195 637 248 653 296 653 C296 653 418 653 418 653 C418 653 317 80 317 80 C317 80 317 80 317 80 C310 41 297 15 285 15 C285 15 281 15 281 15 C282 15 279 0 279 0 L279 0 Z " />
<glyph glyph-name="U" unicode="U" horiz-adv-x="596" d="M621 645 C621 645 625 645 625 645 C640 645 644 615 636 570 C636 570 636 570 636 570 C636 570 566 176 566 176 C548 73 475 5 320 5 C167 5 122 82 142 198 C142 198 210 580 210 580 C210 580 210 580 210 580 C217 619 229 645 241 645 C241 645 245 645 245 645 C245 645 247 660 248 660 C248 660 224 660 224 660 C224 660 209 660 209 660 C209 660 195 660 195 660 C195 660 171 660 171 660 C171 659 169 645 168 645 C168 645 172 645 172 645 C183 645 187 623 183 590 C183 590 114 203 114 203 C93 78 144 -5 314 -5 C478 -5 554 66 573 173 C573 173 645 578 645 578 C653 619 666 645 679 645 C679 645 683 645 683 645 C683 645 684 648 684 653 C685 657 686 660 686 660 C686 660 659 660 659 660 C659 660 655 660 655 660 C655 660 652 660 652 660 C652 660 623 660 623 660 C622 657 621 646 621 645 L621 645 Z " />
<glyph glyph-name="V" unicode="V" horiz-adv-x="571" d="M566 550 C566 550 566 550 566 550 C566 550 309 16 309 16 C309 16 208 589 208 589 C203 623 208 645 220 645 C220 645 224 645 224 645 C224 646 223 648 227 660 C227 660 195 660 195 660 C195 660 179 660 179 660 C179 660 163 660 163 660 C163 660 150 660 150 660 C150 660 149 657 148 653 C148 648 147 645 147 645 C147 645 150 645 150 645 C159 645 168 626 176 595 C176 595 294 -15 294 -15 C294 -15 300 -15 300 -15 C300 -15 594 593 594 593 C611 625 628 645 639 645 C639 645 642 645 642 645 C642 645 643 648 644 653 C644 657 645 660 645 660 C645 660 626 660 626 660 C626 660 622 660 622 660 C622 660 619 660 619 660 C619 660 581 660 581 660 C581 660 580 657 579 653 C579 648 578 645 578 645 C578 645 583 645 583 645 C600 645 594 607 566 550 C566 550 566 550 566 550 L566 550 Z " />
<glyph glyph-name="W" unicode="W" horiz-adv-x="850" d="M875 645 C875 645 880 645 880 645 C893 645 893 625 880 593 C880 593 622 22 622 22 C622 22 550 670 550 670 C550 670 545 670 545 670 C545 670 258 19 258 19 C258 19 198 580 198 580 C198 580 198 580 198 580 C194 619 199 645 211 645 C211 645 215 645 215 645 C215 646 214 648 218 660 C218 660 189 660 189 660 C189 660 173 660 173 660 C173 660 157 660 157 660 C157 660 143 660 143 660 C143 660 142 657 141 653 C141 648 140 645 140 645 C140 645 143 645 143 645 C153 645 163 619 167 580 C167 580 167 580 167 580 C167 580 243 -15 243 -15 C243 -15 248 -15 248 -15 C248 -15 533 632 533 632 C533 632 605 -15 605 -15 C605 -15 611 -15 611 -15 C611 -15 882 580 882 580 C882 580 882 580 882 580 C899 619 919 645 931 645 C931 645 935 645 935 645 C935 645 936 648 936 653 C937 657 938 660 938 660 C938 660 918 660 918 660 C918 660 915 660 915 660 C915 660 911 660 911 660 C911 660 878 660 878 660 C878 659 876 645 875 645 C875 645 875 645 875 645 L875 645 Z " />
<glyph glyph-name="X" unicode="X" horiz-adv-x="616" d="M582 580 C582 580 582 580 582 580 C582 580 382 347 382 347 C382 347 257 594 257 594 C243 625 240 645 250 645 C250 645 253 645 253 645 C253 645 254 648 254 653 C255 657 256 660 255 660 C255 660 224 660 224 660 C224 660 207 660 207 660 C207 660 191 660 191 660 C191 660 184 660 184 660 C183 660 181 645 181 645 C181 645 184 645 184 645 C193 645 212 619 231 580 C231 580 231 580 231 580 C231 580 359 327 359 327 C359 327 359 327 359 327 C359 327 163 80 163 80 C163 80 163 80 163 80 C132 41 104 15 91 15 C91 15 88 15 88 15 C88 15 87 12 87 8 C86 3 85 0 85 0 C85 0 100 0 100 0 C100 0 105 0 105 0 C105 0 110 0 110 0 C110 0 145 0 145 0 C145 0 146 3 147 8 C147 12 148 15 148 15 C148 15 144 15 144 15 C131 15 148 47 185 95 C185 95 185 95 185 95 C185 95 363 320 363 320 C363 320 484 80 484 80 C484 80 483 80 483 80 C503 41 508 15 498 15 C498 15 494 15 494 15 C495 15 492 0 492 0 C492 0 524 0 524 0 C524 0 540 0 540 0 C540 0 556 0 556 0 C556 0 564 0 564 0 C564 0 567 15 566 15 C566 15 564 15 564 15 C555 15 536 41 516 80 C516 80 516 80 516 80 C516 80 385 340 385 340 C385 340 385 340 385 340 C385 340 593 580 593 580 C593 580 593 580 593 580 C627 619 658 645 670 645 C670 645 673 645 673 645 C673 645 674 648 674 653 C676 657 676 660 676 660 C676 660 662 660 662 660 C662 660 657 660 657 660 C657 660 651 660 651 660 C651 660 616 660 616 660 C616 660 615 657 615 653 C614 648 613 645 613 645 C613 645 617 645 617 645 C630 645 616 619 582 580 C582 580 582 580 582 580 L582 580 Z " />
<glyph glyph-name="Y" unicode="Y" horiz-adv-x="523" d="M568 645 C568 645 572 645 572 645 C585 645 572 613 540 566 C540 566 330 266 330 266 C330 266 323 266 323 266 C323 266 225 591 225 591 C216 624 216 645 226 645 C226 645 229 645 229 645 C229 645 230 648 231 653 C231 657 232 660 232 660 C232 660 204 660 204 660 C204 660 186 660 186 660 C186 660 169 660 169 660 C169 660 159 660 159 660 C159 660 158 657 158 653 C157 648 156 645 156 645 C156 645 159 645 159 645 C168 645 182 619 195 580 C195 580 195 580 195 580 C195 580 304 248 304 248 C295 196 284 136 274 80 C274 80 274 80 274 80 C267 41 254 15 242 15 C242 15 239 15 239 15 C239 15 238 12 237 8 C237 3 236 0 236 0 C236 0 260 0 260 0 C260 0 274 0 274 0 C274 0 289 0 289 0 C289 0 312 0 312 0 C312 0 313 3 314 8 C314 12 315 15 315 15 C315 15 312 15 312 15 C300 15 296 38 302 73 C313 137 325 207 335 265 C335 265 556 580 556 580 C556 580 556 580 556 580 C583 619 608 645 619 645 C619 645 622 645 622 645 C622 645 623 648 624 653 C624 657 625 660 625 660 C625 660 612 660 612 660 C612 660 609 660 609 660 C609 660 606 660 606 660 C606 660 571 660 571 660 C571 658 568 651 568 645 C568 645 568 645 568 645 L568 645 Z " />
<glyph glyph-name="Z" unicode="Z" horiz-adv-x="590" d="M530 4 C535 18 542 38 547 53 C547 53 544 53 544 53 C535 54 529 55 529 55 C529 55 521 48 521 48 C494 24 440 8 386 7 C386 7 105 7 105 7 C105 7 652 660 652 660 C652 660 636 660 636 660 C636 660 620 660 620 660 C620 660 338 660 338 660 C338 660 263 660 263 660 C263 660 258 660 258 660 C257 659 257 657 256 656 C251 644 243 627 238 615 C238 615 250 615 250 615 C250 615 259 620 259 620 C293 640 347 653 395 653 C395 653 614 653 614 653 C614 653 67 0 67 0 C67 0 83 0 83 0 C83 0 99 0 99 0 C99 0 448 0 448 0 C448 0 528 0 528 0 C529 1 529 3 530 4 L530 4 Z " />
<glyph glyph-name="bracketleft" unicode="&#x5b;" horiz-adv-x="227" d="M85 -116 C85 -116 84 -120 84 -120 C84 -120 221 656 221 656 C221 656 326 656 326 656 C326 656 327 660 327 660 C327 660 222 660 222 660 C222 660 206 660 206 660 C206 660 69 -120 69 -120 C69 -120 84 -120 84 -120 C84 -120 189 -120 189 -120 C189 -120 190 -116 190 -116 C190 -116 85 -116 85 -116 L85 -116 Z " />
<glyph glyph-name="backslash" unicode="&#x5c;" horiz-adv-x="217" d="M178 -145 C178 -145 185 -145 185 -145 C185 -145 79 710 79 710 C79 710 72 710 72 710 C72 710 178 -145 178 -145 L178 -145 Z " />
<glyph glyph-name="bracketright" unicode="&#x5d;" horiz-adv-x="202" d="M90 -116 C90 -116 -15 -116 -15 -116 C-15 -116 -16 -120 -16 -120 C-16 -120 89 -120 89 -120 C89 -120 104 -120 104 -120 C104 -120 242 660 242 660 C242 660 226 660 226 660 C226 660 121 660 121 660 C121 660 120 656 120 656 C120 656 225 656 225 656 C225 656 226 660 226 660 C226 660 90 -116 90 -116 L90 -116 Z " />
<glyph glyph-name="underscore" unicode="&#x5f;" horiz-adv-x="461" d="M3 -50 C3 -50 1 -61 1 -61 C1 -61 439 -61 439 -61 C439 -61 441 -50 441 -50 C441 -50 3 -50 3 -50 L3 -50 Z " />
<glyph glyph-name="a" unicode="a" horiz-adv-x="482" d="M460 34 C435 14 415 0 399 0 C369 0 365 22 370 54 C370 54 425 363 425 363 C440 448 406 505 339 505 C210 505 134 451 150 369 C150 369 170 369 170 369 C155 447 220 499 334 499 C390 499 419 446 404 367 C404 367 383 245 383 245 C383 245 241 226 241 226 C143 213 71 162 60 100 C49 37 85 -5 152 -5 C219 -5 298 29 354 81 C354 81 349 52 349 52 C342 15 348 -10 384 -10 C407 -10 433 7 462 31 C462 31 460 34 460 34 L460 34 Z M382 239 C382 239 355 86 355 86 C304 39 230 8 164 8 C104 8 70 47 81 106 C91 162 154 207 239 219 C239 219 382 239 382 239 L382 239 Z " />
<glyph glyph-name="b" unicode="b" horiz-adv-x="526" d="M163 605 C163 605 164 605 164 605 C128 403 93 202 57 0 C57 0 59 0 59 0 C63 12 70 20 76 20 C118 20 156 5 205 -2 C219 -4 235 -5 252 -5 C394 -5 506 95 532 246 C560 401 487 505 351 505 C265 505 184 465 148 404 C148 404 200 699 200 699 C200 699 204 720 204 720 C204 720 200 720 200 720 C200 720 158 708 158 708 C158 708 158 707 158 707 C157 702 156 699 156 699 C172 677 174 662 163 605 C163 605 163 605 163 605 L163 605 Z M147 397 C180 456 254 496 334 496 C467 496 537 392 510 237 C485 95 382 1 253 1 C156 1 96 39 96 97 C96 102 96 107 97 113 C97 113 147 397 147 397 L147 397 Z " />
<glyph glyph-name="c" unicode="c" horiz-adv-x="433" d="M404 103 C404 103 402 104 402 104 C364 46 294 7 228 7 C125 7 73 103 98 246 C125 398 230 499 361 499 C414 499 446 461 440 403 C440 397 443 393 449 393 C454 393 458 397 459 402 C464 464 426 505 364 505 C219 505 104 398 76 238 C50 92 103 -5 209 -5 C283 -5 361 38 404 103 L404 103 Z " />
<glyph glyph-name="d" unicode="d" horiz-adv-x="529" d="M535 605 C535 605 536 605 536 605 C536 605 499 394 499 394 C487 460 425 505 328 505 C200 505 95 394 66 228 C41 88 107 -5 230 -5 C327 -5 410 24 441 67 C441 67 429 0 429 0 C429 0 433 0 433 0 C433 0 475 12 475 12 C475 12 475 13 475 13 C476 17 476 21 476 21 C476 21 474 25 474 25 C463 41 460 54 464 85 C464 85 572 699 572 699 C572 699 576 720 576 720 C576 720 572 720 572 720 C572 720 530 708 530 708 C530 708 530 707 530 707 C529 702 528 699 528 699 C544 677 546 662 535 605 C535 605 535 605 535 605 L535 605 Z M449 110 C449 110 448 110 448 110 C448 110 442 73 442 73 C417 33 339 7 244 7 C126 7 64 98 88 236 C116 394 212 500 326 500 C430 500 493 448 495 375 C495 375 449 110 449 110 L449 110 Z " />
<glyph glyph-name="e" unicode="e" horiz-adv-x="450" d="M410 103 C410 103 407 104 407 104 C370 46 299 7 230 7 C125 7 72 103 97 246 C102 277 110 305 121 331 C121 331 452 331 452 331 C471 435 420 505 326 505 C204 505 103 398 75 238 C49 92 104 -5 211 -5 C288 -5 367 38 410 103 L410 103 Z M122 334 C163 436 238 499 324 499 C407 499 453 435 437 346 C435 342 431 338 425 338 C425 338 435 338 435 338 C435 338 122 334 122 334 L122 334 Z " />
<glyph glyph-name="f" unicode="f" horiz-adv-x="263" d="M139 15 C139 15 136 15 136 15 C124 15 121 37 126 71 C150 211 175 352 200 492 C200 492 335 492 335 492 C335 492 336 500 336 500 C336 500 201 500 201 500 C203 511 205 522 207 533 C226 643 284 716 350 716 C383 716 403 694 400 660 C400 655 404 652 409 652 C414 652 419 655 419 660 C423 696 398 720 357 720 C278 720 211 647 189 537 C189 537 181 500 181 500 C181 500 89 500 89 500 C89 500 88 492 88 492 C88 492 180 492 180 492 C180 492 107 80 107 80 C107 80 107 80 107 80 C100 41 87 15 75 15 C75 15 72 15 72 15 C72 13 69 6 69 0 C69 0 93 0 93 0 C93 0 103 0 103 0 C103 0 113 0 113 0 C113 0 137 0 137 0 C137 1 139 12 139 15 C139 15 139 15 139 15 L139 15 Z " />
<glyph glyph-name="g" unicode="g" horiz-adv-x="475" d="M557 500 C557 500 418 495 418 495 C398 502 375 505 350 505 C243 505 161 444 145 352 C131 272 175 215 257 202 C257 202 242 202 242 202 C156 202 94 170 85 122 C77 73 115 40 182 37 C95 10 31 -44 21 -100 C7 -182 55 -236 141 -236 C301 -236 420 -165 438 -59 C451 12 389 59 282 59 C282 59 209 56 209 56 C135 52 91 81 100 130 C107 171 164 199 241 199 C241 199 296 199 296 199 C403 199 485 260 501 352 C512 415 487 464 435 488 C435 488 555 489 555 489 C555 489 557 500 557 500 L557 500 Z M164 352 C180 441 254 501 349 501 C374 501 396 497 415 489 C415 489 415 488 415 488 C415 488 418 488 418 488 C469 466 494 417 482 352 C466 263 392 203 297 203 C201 203 148 263 164 352 C164 352 164 352 164 352 L164 352 Z M190 37 C195 37 201 37 206 37 C206 37 274 40 274 40 C374 40 433 -3 422 -69 C405 -166 294 -231 144 -231 C64 -231 21 -178 35 -98 C45 -42 106 11 190 37 C190 37 190 37 190 37 L190 37 Z " />
<glyph glyph-name="h" unicode="h" horiz-adv-x="524" d="M480 15 C480 15 477 15 477 15 C465 15 461 38 467 74 C467 74 513 336 513 336 C531 437 506 505 409 505 C305 505 208 458 164 387 C164 387 219 699 219 699 C219 699 223 720 223 720 C223 720 219 720 219 720 C219 720 177 708 177 708 C177 708 177 707 177 707 C176 702 175 699 175 699 C191 677 193 662 182 605 C182 605 183 605 183 605 C183 605 90 80 90 80 C90 80 90 80 90 80 C83 41 70 15 58 15 C58 15 54 15 54 15 C55 15 52 0 52 0 C52 0 76 0 76 0 C76 0 86 0 86 0 C86 0 96 0 96 0 C96 0 120 0 120 0 C119 0 122 14 122 15 C122 15 119 15 119 15 C107 15 103 37 109 72 C109 72 163 382 163 382 C203 448 293 492 392 492 C485 492 509 429 492 333 C492 333 447 75 447 75 C440 39 428 15 416 15 C416 15 412 15 412 15 C413 15 410 0 410 0 C410 0 434 0 434 0 C434 0 444 0 444 0 C444 0 454 0 454 0 C454 0 478 0 478 0 C477 0 480 15 480 15 C480 15 480 15 480 15 L480 15 Z " />
<glyph glyph-name="i" unicode="i" horiz-adv-x="171" d="M122 15 C122 15 119 15 119 15 C107 15 103 38 109 73 C109 73 165 390 165 390 C165 390 165 390 165 390 C165 390 184 500 184 500 C184 500 180 500 180 500 C180 500 138 488 138 488 C138 488 138 487 138 487 C137 482 136 479 136 479 C151 459 153 446 147 404 C147 404 90 80 90 80 C90 80 90 80 90 80 C83 41 70 15 58 15 C58 15 55 15 55 15 C55 13 52 6 52 0 C52 0 76 0 76 0 C76 0 86 0 86 0 C86 0 96 0 96 0 C96 0 120 0 120 0 C120 1 122 12 122 15 L122 15 Z M185 570 C197 570 207 578 209 590 C211 602 204 610 192 610 C180 610 171 602 169 590 C167 578 173 570 185 570 L185 570 Z " />
<glyph glyph-name="j" unicode="j" horiz-adv-x="171" d="M185 570 C197 570 207 578 209 590 C211 602 204 610 192 610 C180 610 171 602 169 590 C167 578 173 570 185 570 L185 570 Z M147 405 C147 405 78 12 78 12 C53 -132 18 -176 -73 -226 C-73 -226 -71 -229 -71 -229 C34 -170 74 -123 99 18 C99 18 164 390 164 390 C164 390 165 390 165 390 C165 390 184 500 184 500 C184 500 180 500 180 500 C180 500 138 488 138 488 C138 488 138 487 138 487 C137 482 136 479 136 479 C151 459 153 446 147 405 L147 405 Z " />
<glyph glyph-name="k" unicode="k" horiz-adv-x="429" d="M449 15 C449 15 445 15 445 15 C433 15 401 41 366 80 C366 80 366 80 366 80 C366 80 180 285 180 285 C180 285 396 436 396 436 C441 466 477 485 486 485 C486 485 490 485 490 485 C490 485 491 488 491 493 C492 497 493 500 493 500 C493 500 488 500 488 500 C488 500 483 500 483 500 C483 500 479 500 479 500 C479 500 455 500 455 500 C455 499 453 485 452 485 C452 485 453 485 453 485 C455 485 435 469 399 444 C399 444 161 275 161 275 C161 275 235 699 235 699 C235 699 239 720 239 720 C239 720 235 720 235 720 C235 720 193 708 193 708 C193 708 193 707 193 707 C192 702 191 699 191 699 C207 677 209 662 198 605 C198 605 199 605 199 605 C199 605 106 80 106 80 C106 80 106 80 106 80 C99 41 86 15 74 15 C74 15 71 15 71 15 C71 13 68 6 68 0 C68 0 92 0 92 0 C92 0 102 0 102 0 C102 0 112 0 112 0 C112 0 136 0 136 0 C136 1 138 12 138 15 C138 15 135 15 135 15 C123 15 119 37 125 72 C125 72 160 274 160 274 C160 274 162 272 162 272 C162 272 162 272 162 272 C162 272 367 50 367 50 C386 28 396 15 393 15 C393 15 392 15 392 15 C391 12 390 1 390 0 C390 0 413 0 413 0 C413 0 426 0 426 0 C426 0 438 0 438 0 C438 0 446 0 446 0 C446 1 445 3 449 15 C449 15 449 15 449 15 L449 15 Z " />
<glyph glyph-name="l" unicode="l" horiz-adv-x="171" d="M182 605 C182 605 183 605 183 605 C183 605 90 80 90 80 C90 80 90 80 90 80 C83 41 70 15 58 15 C58 15 55 15 55 15 C55 13 52 6 52 0 C52 0 76 0 76 0 C76 0 86 0 86 0 C86 0 96 0 96 0 C96 0 120 0 120 0 C120 1 122 12 122 15 C122 15 119 15 119 15 C107 15 103 37 109 72 C109 72 219 699 219 699 C219 699 223 720 223 720 C223 720 219 720 219 720 C219 720 177 708 177 708 C177 708 177 707 177 707 C176 702 175 699 175 699 C191 677 193 662 182 605 L182 605 Z " />
<glyph glyph-name="m" unicode="m" horiz-adv-x="902" d="M788 0 C788 0 812 0 812 0 C812 0 822 0 822 0 C822 0 832 0 832 0 C832 0 855 0 855 0 C855 0 856 3 857 7 C857 12 858 15 858 15 C858 15 855 15 855 15 C843 15 839 38 845 74 C845 74 891 336 891 336 C909 437 860 505 779 505 C660 505 572 463 526 397 C519 464 477 505 416 505 C297 505 208 458 164 387 C164 387 169 415 169 415 C169 415 169 415 169 415 C169 415 184 500 184 500 C184 500 180 500 180 500 C180 500 138 488 138 488 C138 488 138 487 138 487 C137 482 136 479 136 479 C153 456 154 442 143 385 C143 385 144 385 144 385 C144 385 90 80 90 80 C90 80 90 80 90 80 C83 41 70 15 58 15 C58 15 54 15 54 15 C55 15 52 0 52 0 C52 0 76 0 76 0 C76 0 86 0 86 0 C86 0 96 0 96 0 C96 0 120 0 120 0 C119 0 122 14 122 15 C122 15 119 15 119 15 C107 15 103 38 109 72 C109 72 163 382 163 382 C202 449 286 493 398 493 C474 493 520 429 502 333 C502 333 457 75 457 75 C450 39 438 15 426 15 C426 15 422 15 422 15 C423 15 420 0 420 0 C420 0 444 0 444 0 C444 0 454 0 454 0 C454 0 464 0 464 0 C464 0 488 0 488 0 C487 0 490 15 490 15 C490 15 487 15 487 15 C475 15 471 38 477 74 C477 74 523 336 523 336 C527 356 528 375 526 393 C568 453 650 492 761 492 C840 492 887 429 870 333 C870 333 825 75 825 75 C818 39 806 15 794 15 C794 15 790 15 790 15 C791 15 788 0 788 0 C788 0 788 0 788 0 L788 0 Z " />
<glyph glyph-name="n" unicode="n" horiz-adv-x="524" d="M480 15 C480 15 477 15 477 15 C465 15 461 38 467 74 C467 74 513 336 513 336 C531 437 506 505 409 505 C305 505 208 458 164 387 C164 387 169 415 169 415 C169 415 169 415 169 415 C169 415 184 500 184 500 C184 500 180 500 180 500 C180 500 138 488 138 488 C138 488 138 487 138 487 C137 482 136 479 136 479 C153 456 154 442 143 385 C143 385 144 385 144 385 C144 385 90 80 90 80 C90 80 90 80 90 80 C83 41 70 15 58 15 C58 15 54 15 54 15 C55 15 52 0 52 0 C52 0 76 0 76 0 C76 0 86 0 86 0 C86 0 96 0 96 0 C96 0 120 0 120 0 C119 0 122 14 122 15 C122 15 119 15 119 15 C107 15 103 38 109 72 C109 72 163 382 163 382 C202 448 293 492 392 492 C485 492 509 429 492 333 C492 333 447 75 447 75 C440 39 428 15 416 15 C416 15 412 15 412 15 C413 15 410 0 410 0 C410 0 434 0 434 0 C434 0 444 0 444 0 C444 0 454 0 454 0 C454 0 478 0 478 0 C477 0 480 15 480 15 C480 15 480 15 480 15 L480 15 Z " />
<glyph glyph-name="o" unicode="o" horiz-adv-x="570" d="M285 -1 C154 -1 85 99 111 250 C138 401 243 501 373 501 C504 501 574 401 547 250 C521 99 416 -1 285 -1 L285 -1 Z M89 250 C62 97 140 -5 284 -5 C428 -5 542 97 570 250 C596 403 518 505 374 505 C230 505 116 403 89 250 L89 250 Z " />
<glyph glyph-name="p" unicode="p" horiz-adv-x="565" d="M132 385 C132 385 133 385 133 385 C133 385 38 -150 38 -150 C38 -150 38 -150 38 -150 C32 -189 19 -215 6 -215 C6 -215 3 -215 3 -215 C3 -215 2 -218 2 -222 C1 -227 0 -230 0 -230 C0 -230 24 -230 24 -230 C24 -230 34 -230 34 -230 C34 -230 44 -230 44 -230 C44 -230 68 -230 68 -230 C68 -230 70 -215 71 -215 C71 -215 67 -215 67 -215 C56 -215 52 -193 57 -159 C57 -159 102 99 102 99 C115 35 176 -5 268 -5 C416 -5 533 98 560 252 C587 404 518 505 388 505 C271 505 180 458 153 384 C153 384 158 415 158 415 C158 415 157 415 157 415 C157 415 170 500 170 500 C170 500 166 500 166 500 C166 500 127 488 127 488 C127 488 127 487 127 487 C126 482 125 479 125 479 C142 456 143 442 132 385 L132 385 Z M111 148 C111 148 151 376 151 376 C176 447 260 492 370 492 C498 492 565 390 538 236 C513 95 405 1 269 1 C162 1 100 59 111 148 C111 148 111 148 111 148 L111 148 Z " />
<glyph glyph-name="q" unicode="q" horiz-adv-x="553" d="M464 -215 C464 -215 460 -215 460 -215 C449 -215 445 -193 450 -159 C488 61 527 281 566 500 C566 500 564 500 564 500 C559 485 551 475 545 475 C499 475 461 494 409 502 C404 503 400 503 395 504 C386 505 377 505 368 505 C234 505 125 394 96 228 C71 88 136 -5 257 -5 C353 -5 438 30 472 84 C472 84 431 -150 431 -150 C425 -189 412 -215 400 -215 C400 -215 396 -215 396 -215 C396 -215 393 -230 393 -230 C393 -230 417 -230 417 -230 C417 -230 427 -230 427 -230 C427 -230 437 -230 437 -230 C437 -230 461 -230 461 -230 C461 -229 460 -227 464 -215 L464 -215 Z M473 90 C444 41 363 7 271 7 C155 7 94 98 118 236 C146 394 246 499 367 499 C474 499 536 443 521 360 C521 360 473 90 473 90 L473 90 Z " />
<glyph glyph-name="r" unicode="r" horiz-adv-x="366" d="M143 385 C143 385 144 385 144 385 C144 385 90 80 90 80 C90 80 90 80 90 80 C83 41 70 15 58 15 C58 15 54 15 54 15 C55 15 52 0 52 0 C52 0 76 0 76 0 C76 0 86 0 86 0 C86 0 96 0 96 0 C96 0 120 0 120 0 C119 0 122 14 122 15 C122 15 119 15 119 15 C107 15 103 38 109 72 C109 72 161 369 161 369 C191 443 256 490 326 490 C359 490 389 460 421 460 C427 460 432 464 433 470 C437 491 413 505 345 505 C267 505 195 453 162 374 C162 374 169 415 169 415 C169 415 168 415 168 415 C168 415 181 500 181 500 C181 500 177 500 177 500 C177 500 138 488 138 488 C138 488 138 487 138 487 C137 482 136 479 136 479 C153 456 154 442 143 385 C143 385 143 385 143 385 L143 385 Z " />
<glyph glyph-name="s" unicode="s" horiz-adv-x="436" d="M72 94 C72 94 67 63 67 63 C87 22 156 -5 240 -5 C323 -5 388 48 402 128 C411 175 365 226 288 257 C205 290 155 344 163 392 C175 457 229 501 300 501 C316 501 331 499 345 494 C345 494 345 494 345 494 C380 483 404 447 415 404 C415 404 427 404 427 404 C427 404 432 432 432 432 C432 432 429 430 429 430 C429 430 429 430 429 430 C429 430 432 432 432 432 C410 476 358 505 300 505 C221 505 159 457 147 385 C138 334 188 277 271 243 C347 213 392 164 384 120 C372 48 314 0 242 0 C221 0 200 2 181 5 C144 15 108 43 91 78 C89 83 86 89 83 94 C83 94 72 94 72 94 L72 94 Z " />
<glyph glyph-name="t" unicode="t" horiz-adv-x="357" d="M408 500 C408 500 227 500 227 500 C236 547 244 593 252 640 C252 640 248 640 248 640 C248 640 208 499 208 499 C208 499 208 499 208 499 C208 499 215 525 215 525 C215 525 215 525 215 525 C215 525 215 525 215 525 C210 509 171 497 119 494 C119 494 119 492 119 492 C119 492 206 492 206 492 C206 492 138 110 138 110 C123 20 136 -5 201 -5 C259 -5 304 35 347 94 C347 94 345 95 345 95 C305 40 264 4 212 4 C156 4 144 27 158 106 C181 235 203 363 226 492 C226 492 407 492 407 492 C407 492 408 500 408 500 L408 500 Z " />
<glyph glyph-name="u" unicode="u" horiz-adv-x="489" d="M465 485 C465 485 469 485 469 485 C480 485 485 462 479 427 C479 427 423 110 423 110 C423 110 423 110 423 110 C423 110 420 90 420 90 C391 41 331 8 224 8 C121 8 78 68 94 159 C94 159 154 500 154 500 C154 500 144 500 144 500 C144 500 134 500 134 500 C134 500 110 500 110 500 C110 499 107 485 107 485 C107 485 111 485 111 485 C122 485 126 463 122 430 C122 430 73 156 73 156 C56 60 100 -5 206 -5 C319 -5 386 31 419 85 C419 85 404 0 404 0 C404 0 408 0 408 0 C408 0 450 12 450 12 C449 12 450 12 450 13 C450 17 451 21 451 21 C438 38 435 52 439 84 C439 84 512 500 512 500 C512 500 502 500 502 500 C502 500 492 500 492 500 C492 500 468 500 468 500 C468 499 465 485 465 485 C465 485 465 485 465 485 L465 485 Z " />
<glyph glyph-name="v" unicode="v" horiz-adv-x="442" d="M496 500 C496 500 478 500 478 500 C478 500 474 500 474 500 C474 500 471 500 471 500 C471 500 447 500 447 500 C447 499 444 485 445 485 C445 485 447 485 447 485 C455 485 452 466 438 437 C438 437 219 15 219 15 C219 15 159 420 159 420 C159 420 159 420 159 420 C153 459 156 485 165 485 C165 485 168 485 168 485 C168 485 169 488 170 493 C170 497 171 500 171 500 C171 500 147 500 147 500 C147 500 136 500 136 500 C136 500 124 500 124 500 C124 500 105 500 105 500 C104 497 103 486 103 485 C103 485 106 485 106 485 C118 485 129 464 135 431 C135 431 206 -10 206 -10 C206 -10 209 -10 209 -10 C209 -10 436 420 436 420 C436 420 436 420 436 420 C456 459 478 485 490 485 C490 485 494 485 494 485 C494 486 496 497 496 500 L496 500 Z " />
<glyph glyph-name="w" unicode="w" horiz-adv-x="661" d="M734 500 C734 500 721 500 721 500 C721 500 714 500 714 500 C714 500 681 500 681 500 C680 500 678 485 678 485 C678 485 684 485 684 485 C697 485 699 472 665 405 C665 405 462 15 462 15 C462 15 400 434 400 434 C395 476 402 485 412 485 C412 485 418 485 418 485 C418 486 420 497 420 500 C420 500 390 500 390 500 C390 500 367 500 367 500 C367 500 355 500 355 500 C355 500 354 497 353 493 C353 488 352 485 352 485 C352 485 357 485 357 485 C363 485 370 476 378 433 C378 433 397 313 397 313 C397 313 397 313 397 313 C397 313 243 15 243 15 C243 15 181 436 181 436 C176 476 182 485 191 485 C191 485 196 485 196 485 C196 485 197 488 197 493 C198 497 199 500 199 500 C199 500 171 500 171 500 C171 500 148 500 148 500 C148 500 134 500 134 500 C133 497 132 486 132 485 C132 485 137 485 137 485 C144 485 151 476 159 433 C159 433 230 -10 230 -10 C230 -10 233 -10 233 -10 C233 -10 398 306 398 306 C398 306 449 -10 449 -10 C449 -10 452 -10 452 -10 C452 -10 684 430 684 430 C709 475 719 485 727 485 C727 485 732 485 732 485 C732 486 734 497 734 500 C734 500 734 500 734 500 L734 500 Z " />
<glyph glyph-name="x" unicode="x" horiz-adv-x="519" d="M467 485 C467 485 471 485 471 485 C482 485 467 459 434 420 C434 420 314 278 314 278 C314 278 228 420 228 420 C228 420 228 420 228 420 C204 459 194 485 203 485 C203 485 205 485 205 485 C206 485 208 499 208 500 C208 500 179 500 179 500 C179 500 167 500 167 500 C167 500 155 500 155 500 C155 500 148 500 148 500 C147 500 145 485 145 485 C145 485 148 485 148 485 C157 485 180 459 203 420 C203 420 204 420 204 420 C204 420 300 262 300 262 C300 262 298 260 298 260 C298 260 297 260 297 260 C297 260 140 72 140 72 C110 37 82 15 70 15 C70 15 65 15 65 15 C66 15 63 0 63 0 C63 0 80 0 80 0 C80 0 83 0 83 0 C83 0 87 0 87 0 C87 0 125 0 125 0 C125 0 128 15 127 15 C127 15 123 15 123 15 C110 15 118 35 142 67 C142 67 301 259 301 259 C301 259 410 80 410 80 C410 80 410 80 410 80 C434 41 446 15 439 15 C439 15 438 15 438 15 C438 15 437 12 436 8 C436 3 435 0 435 0 C435 0 459 0 459 0 C459 0 471 0 471 0 C471 0 483 0 483 0 C483 0 487 0 487 0 C487 0 488 3 489 8 C489 12 490 15 490 15 C490 15 488 15 488 15 C480 15 459 41 435 80 C435 80 434 80 434 80 C434 80 316 275 316 275 C316 275 440 420 440 420 C440 420 440 420 440 420 C473 459 503 485 516 485 C516 485 519 485 519 485 C519 485 520 488 521 493 C521 497 522 500 522 500 C522 500 508 500 508 500 C508 500 505 500 505 500 C505 500 502 500 502 500 C502 500 470 500 470 500 C470 499 468 485 467 485 C467 485 467 485 467 485 L467 485 Z " />
<glyph glyph-name="y" unicode="y" horiz-adv-x="418" d="M508 500 C508 500 490 500 490 500 C490 500 486 500 486 500 C486 500 483 500 483 500 C483 500 459 500 459 500 C459 499 456 485 457 485 C457 485 459 485 459 485 C467 485 464 466 450 437 C450 437 231 15 231 15 C231 15 171 420 171 420 C171 420 171 420 171 420 C165 459 168 485 177 485 C177 485 180 485 180 485 C180 485 181 488 182 493 C182 497 183 500 183 500 C183 500 159 500 159 500 C159 500 148 500 148 500 C148 500 136 500 136 500 C136 500 117 500 117 500 C116 497 115 486 115 485 C115 485 118 485 118 485 C130 485 141 464 147 431 C147 431 217 -7 217 -7 C217 -7 184 -70 184 -70 C128 -176 93 -217 57 -217 C38 -217 26 -193 6 -193 C0 -193 -5 -197 -6 -202 C-9 -219 11 -230 43 -230 C88 -230 129 -186 189 -72 C189 -72 221 -10 221 -10 C221 -10 448 420 448 420 C448 420 448 420 448 420 C468 459 490 485 502 485 C502 485 506 485 506 485 C506 486 508 497 508 500 L508 500 Z " />
<glyph glyph-name="z" unicode="z" horiz-adv-x="497" d="M293 5 C293 5 293 5 293 5 C293 5 99 4 99 4 C99 4 529 500 529 500 C529 500 517 500 517 500 C517 500 506 500 506 500 C506 500 246 500 246 500 C246 500 171 500 171 500 C171 500 166 500 166 500 C166 499 165 498 165 498 C161 488 155 476 151 467 C151 467 163 467 163 467 C198 482 250 495 304 495 C304 495 304 495 304 495 C304 495 502 496 502 496 C502 496 72 0 72 0 C72 0 84 0 84 0 C84 0 96 0 96 0 C96 0 356 0 356 0 C356 0 435 0 435 0 C435 0 436 0 436 0 C436 1 437 2 437 2 C442 17 449 36 454 50 C454 50 450 50 450 50 C441 51 435 52 435 52 C435 52 427 45 427 45 C400 20 346 4 293 5 C293 5 293 5 293 5 L293 5 Z " />
<glyph glyph-name="braceleft" unicode="&#x7b;" horiz-adv-x="249" d="M207 -120 C207 -120 207 -117 207 -117 C207 -117 172 -117 172 -117 C106 -117 70 -70 83 0 C83 0 116 192 116 192 C125 239 106 270 69 270 C32 270 136 302 144 349 C144 349 178 540 178 540 C190 610 242 657 308 657 C308 657 344 657 344 657 C344 657 344 660 344 660 C344 660 304 660 304 660 C232 660 175 612 162 540 C162 540 127 338 127 338 C119 298 95 272 65 272 C65 272 60 272 60 272 C60 272 59 268 59 268 C59 268 64 268 64 268 C94 268 109 242 103 203 C103 203 67 0 67 0 C54 -72 94 -120 167 -120 C167 -120 207 -120 207 -120 L207 -120 Z " />
<glyph glyph-name="bar" unicode="&#x7c;" horiz-adv-x="149" d="M203 770 C203 770 26 -234 26 -234 C26 -234 41 -234 41 -234 C41 -234 218 770 218 770 C218 770 203 770 203 770 L203 770 Z " />
<glyph glyph-name="braceright" unicode="&#x7d;" horiz-adv-x="249" d="M128 660 C128 660 128 657 128 657 C128 657 163 657 163 657 C229 657 265 610 252 540 C252 540 219 348 219 348 C210 301 229 270 266 270 C303 270 199 238 191 191 C191 191 157 0 157 0 C145 -70 93 -117 27 -117 C27 -117 -9 -117 -9 -117 C-9 -117 -9 -120 -9 -120 C-9 -120 31 -120 31 -120 C103 -120 160 -72 173 0 C173 0 208 202 208 202 C216 242 240 268 270 268 C270 268 275 268 275 268 C275 268 276 272 276 272 C276 272 271 272 271 272 C241 272 225 298 232 337 C232 337 268 540 268 540 C281 612 241 660 168 660 C168 660 128 660 128 660 L128 660 Z " />
<glyph glyph-name="[namenotfound]" unicode="&#xa0;" horiz-adv-x="220" d="" />
<glyph glyph-name="exclamdown" unicode="&#xa1;" horiz-adv-x="166" d="M175 505 C163 505 153 497 151 485 C149 473 156 465 168 465 C180 465 189 473 191 485 C193 497 187 505 175 505 L175 505 Z M46 -120 C40 -147 45 -165 58 -165 C71 -165 82 -147 86 -120 C86 -120 156 390 156 390 C156 390 153 390 153 390 C153 390 46 -120 46 -120 L46 -120 Z " />
<glyph glyph-name="cent" unicode="&#xa2;" horiz-adv-x="468" d="M378 575 C378 575 365 504 365 504 C231 494 126 390 99 238 C73 92 126 -5 232 -5 C247 -5 262 -3 276 0 C276 0 263 -75 263 -75 C263 -75 276 -75 276 -75 C276 -75 290 3 290 3 C344 19 395 55 427 103 C427 103 425 104 425 104 C395 58 344 24 291 12 C291 12 378 499 378 499 C380 499 382 499 384 499 C437 499 469 461 463 403 C463 397 466 393 472 393 C477 393 481 397 482 402 C487 464 449 505 387 505 C384 505 381 505 379 505 C379 505 391 575 391 575 C391 575 378 575 378 575 L378 575 Z M278 9 C269 8 260 7 251 7 C148 7 96 103 121 246 C147 390 243 489 364 498 C364 498 278 9 278 9 L278 9 Z " />
<glyph glyph-name="guillemotleft" unicode="&#xab;" horiz-adv-x="462" d="M254 250 C254 250 492 461 492 461 C492 461 490 464 490 464 C490 464 231 251 231 251 C231 251 231 249 231 249 C231 249 415 36 415 36 C415 36 418 39 418 39 C418 39 254 250 254 250 L254 250 Z M93 249 C93 249 324 461 324 461 C324 461 323 464 323 464 C323 464 71 251 71 251 C71 251 71 249 71 249 C71 249 248 36 248 36 C248 36 250 39 250 39 C250 39 93 249 93 249 L93 249 Z " />
<glyph glyph-name="guillemotright" unicode="&#xbb;" horiz-adv-x="462" d="M297 250 C297 250 134 461 134 461 C134 461 136 464 136 464 C136 464 320 251 320 251 C320 251 319 249 319 249 C319 249 61 36 61 36 C61 36 59 39 59 39 C59 39 297 250 297 250 L297 250 Z M457 250 C457 250 301 461 301 461 C301 461 303 464 303 464 C303 464 480 251 480 251 C480 251 480 249 480 249 C480 249 228 36 228 36 C228 36 226 39 226 39 C226 39 457 250 457 250 L457 250 Z " />
<glyph glyph-name="questiondown" unicode="&#xbf;" horiz-adv-x="379" d="M319 505 C307 505 298 497 296 485 C294 473 300 465 312 465 C324 465 334 473 336 485 C338 497 331 505 319 505 L319 505 Z M251 152 C251 152 217 152 217 152 C93 152 56 82 49 42 C28 -82 94 -165 214 -165 C265 -165 303 -137 311 -96 C311 -94 306 -93 299 -93 C263 -93 246 -149 210 -149 C96 -149 33 -73 54 40 C60 75 94 137 221 137 C221 137 256 137 256 137 C259 137 261 138 261 140 C261 140 302 396 302 396 C302 396 299 396 299 396 C299 396 251 152 251 152 L251 152 Z " />
<glyph glyph-name="Agrave" unicode="&#xc0;" horiz-adv-x="538" d="M440 0 C440 0 470 0 470 0 C470 0 485 0 485 0 C485 0 501 0 501 0 C501 0 520 0 520 0 C520 0 521 3 521 7 C522 12 523 15 523 15 C523 15 519 15 519 15 C508 15 497 35 490 67 C490 67 387 675 387 675 C387 675 379 675 379 675 C379 675 78 80 78 80 C78 80 78 80 78 80 C59 41 37 15 25 15 C25 15 22 15 22 15 C22 15 21 12 20 8 C20 3 19 0 19 0 C19 0 38 0 38 0 C38 0 43 0 43 0 C43 0 47 0 47 0 C47 0 82 0 82 0 C82 0 83 3 84 8 C84 12 85 15 85 15 C85 15 81 15 81 15 C65 15 71 47 95 95 C95 95 95 95 95 95 C95 95 167 238 167 238 C167 238 432 238 432 238 C432 238 457 80 457 80 C457 80 457 80 457 80 C463 41 458 15 446 15 C446 15 442 15 442 15 C443 15 440 0 440 0 L440 0 Z M385 831 C366 866 352 889 351 889 C347 889 338 883 338 881 C337 878 352 855 374 823 C374 823 461 692 461 692 C461 692 463 693 463 693 C463 693 385 831 385 831 L385 831 Z M430 246 C430 246 171 246 171 246 C171 246 367 636 367 636 C367 636 430 246 430 246 L430 246 Z " />
<glyph glyph-name="Aacute" unicode="&#xc1;" horiz-adv-x="538" d="M323 692 C323 692 453 823 453 823 C486 857 508 880 508 881 C509 883 502 889 498 889 C497 889 476 866 444 831 C444 831 321 693 321 693 C321 693 323 692 323 692 L323 692 Z M440 0 C440 0 470 0 470 0 C470 0 485 0 485 0 C485 0 501 0 501 0 C501 0 520 0 520 0 C520 0 521 3 521 7 C522 12 523 15 523 15 C523 15 519 15 519 15 C508 15 497 35 490 67 C490 67 387 675 387 675 C387 675 379 675 379 675 C379 675 78 80 78 80 C78 80 78 80 78 80 C59 41 37 15 25 15 C25 15 22 15 22 15 C22 15 21 12 20 8 C20 3 19 0 19 0 C19 0 38 0 38 0 C38 0 43 0 43 0 C43 0 47 0 47 0 C47 0 82 0 82 0 C82 0 83 3 84 8 C84 12 85 15 85 15 C85 15 81 15 81 15 C65 15 71 47 95 95 C95 95 95 95 95 95 C95 95 167 238 167 238 C167 238 432 238 432 238 C432 238 457 80 457 80 C457 80 457 80 457 80 C463 41 458 15 446 15 C446 15 442 15 442 15 C443 15 440 0 440 0 L440 0 Z M430 246 C430 246 171 246 171 246 C171 246 367 636 367 636 C367 636 430 246 430 246 L430 246 Z " />
<glyph glyph-name="Acircumflex" unicode="&#xc2;" horiz-adv-x="538" d="M440 0 C440 0 470 0 470 0 C470 0 485 0 485 0 C485 0 501 0 501 0 C501 0 520 0 520 0 C520 0 521 3 521 7 C522 12 523 15 523 15 C523 15 519 15 519 15 C508 15 497 35 490 67 C490 67 387 675 387 675 C387 675 379 675 379 675 C379 675 78 80 78 80 C78 80 78 80 78 80 C59 41 37 15 25 15 C25 15 22 15 22 15 C22 15 21 12 20 8 C20 3 19 0 19 0 C19 0 38 0 38 0 C38 0 43 0 43 0 C43 0 47 0 47 0 C47 0 82 0 82 0 C82 0 83 3 84 8 C84 12 85 15 85 15 C85 15 81 15 81 15 C65 15 71 47 95 95 C95 95 95 95 95 95 C95 95 167 238 167 238 C167 238 432 238 432 238 C432 238 457 80 457 80 C457 80 457 80 457 80 C463 41 458 15 446 15 C446 15 442 15 442 15 C443 15 440 0 440 0 L440 0 Z M420 882 C420 882 501 694 501 694 C501 694 503 696 503 696 C503 696 429 899 429 899 C428 901 426 905 424 905 C420 905 418 902 417 899 C417 899 416 899 416 899 C416 899 271 696 271 696 C271 696 272 694 272 694 C272 694 420 882 420 882 L420 882 Z M430 246 C430 246 171 246 171 246 C171 246 367 636 367 636 C367 636 430 246 430 246 L430 246 Z " />
<glyph glyph-name="Atilde" unicode="&#xc3;" horiz-adv-x="538" d="M254 755 C262 798 286 827 315 827 C377 827 427 764 488 764 C523 764 551 793 558 837 C558 837 555 837 555 837 C548 801 524 777 495 777 C433 777 383 840 321 840 C288 840 260 806 251 755 C251 755 254 755 254 755 L254 755 Z M440 0 C440 0 470 0 470 0 C470 0 485 0 485 0 C485 0 501 0 501 0 C501 0 520 0 520 0 C520 0 521 3 521 7 C522 12 523 15 523 15 C523 15 519 15 519 15 C508 15 497 35 490 67 C490 67 387 675 387 675 C387 675 379 675 379 675 C379 675 78 80 78 80 C78 80 78 80 78 80 C59 41 37 15 25 15 C25 15 22 15 22 15 C22 15 21 12 20 8 C20 3 19 0 19 0 C19 0 38 0 38 0 C38 0 43 0 43 0 C43 0 47 0 47 0 C47 0 82 0 82 0 C82 0 83 3 84 8 C84 12 85 15 85 15 C85 15 81 15 81 15 C65 15 71 47 95 95 C95 95 95 95 95 95 C95 95 167 238 167 238 C167 238 432 238 432 238 C432 238 457 80 457 80 C457 80 457 80 457 80 C463 41 458 15 446 15 C446 15 442 15 442 15 C443 15 440 0 440 0 L440 0 Z M430 246 C430 246 171 246 171 246 C171 246 367 636 367 636 C367 636 430 246 430 246 L430 246 Z " />
<glyph glyph-name="Adieresis" unicode="&#xc4;" horiz-adv-x="538" d="M476 730 C489 730 498 738 500 750 C502 762 496 770 483 770 C472 770 462 762 460 750 C458 738 465 730 476 730 L476 730 Z M309 730 C321 730 330 738 333 750 C335 762 328 770 316 770 C304 770 295 762 293 750 C290 738 297 730 309 730 L309 730 Z M440 0 C440 0 470 0 470 0 C470 0 485 0 485 0 C485 0 501 0 501 0 C501 0 520 0 520 0 C520 0 521 3 521 7 C522 12 523 15 523 15 C523 15 519 15 519 15 C508 15 497 35 490 67 C490 67 387 675 387 675 C387 675 379 675 379 675 C379 675 78 80 78 80 C78 80 78 80 78 80 C59 41 37 15 25 15 C25 15 22 15 22 15 C22 15 21 12 20 8 C20 3 19 0 19 0 C19 0 38 0 38 0 C38 0 43 0 43 0 C43 0 47 0 47 0 C47 0 82 0 82 0 C82 0 83 3 84 8 C84 12 85 15 85 15 C85 15 81 15 81 15 C65 15 71 47 95 95 C95 95 95 95 95 95 C95 95 167 238 167 238 C167 238 432 238 432 238 C432 238 457 80 457 80 C457 80 457 80 457 80 C463 41 458 15 446 15 C446 15 442 15 442 15 C443 15 440 0 440 0 L440 0 Z M430 246 C430 246 171 246 171 246 C171 246 367 636 367 636 C367 636 430 246 430 246 L430 246 Z " />
<glyph glyph-name="Aring" unicode="&#xc5;" horiz-adv-x="538" d="M387 699 C340 699 307 740 315 788 C324 841 366 876 418 876 C471 876 500 841 490 788 C482 740 435 699 387 699 L387 699 Z M310 788 C301 738 336 695 387 695 C437 695 487 738 496 788 C506 843 475 880 419 880 C363 880 320 843 310 788 L310 788 Z M440 0 C440 0 470 0 470 0 C470 0 485 0 485 0 C485 0 501 0 501 0 C501 0 520 0 520 0 C520 0 521 3 521 7 C522 12 523 15 523 15 C523 15 519 15 519 15 C508 15 497 35 490 67 C490 67 387 675 387 675 C387 675 379 675 379 675 C379 675 78 80 78 80 C78 80 78 80 78 80 C59 41 37 15 25 15 C25 15 22 15 22 15 C22 15 21 12 20 8 C20 3 19 0 19 0 C19 0 38 0 38 0 C38 0 43 0 43 0 C43 0 47 0 47 0 C47 0 82 0 82 0 C82 0 83 3 84 8 C84 12 85 15 85 15 C85 15 81 15 81 15 C65 15 71 47 95 95 C95 95 95 95 95 95 C95 95 167 238 167 238 C167 238 432 238 432 238 C432 238 457 80 457 80 C457 80 457 80 457 80 C463 41 458 15 446 15 C446 15 442 15 442 15 C443 15 440 0 440 0 L440 0 Z M430 246 C430 246 171 246 171 246 C171 246 367 636 367 636 C367 636 430 246 430 246 L430 246 Z " />
<glyph glyph-name="Ccedilla" unicode="&#xc7;" horiz-adv-x="739" d="M765 525 C765 525 773 569 773 569 C745 627 648 665 529 665 C328 665 170 531 134 330 C99 129 210 -5 411 -5 C529 -5 640 33 689 91 C689 91 696 135 696 135 C696 135 683 135 683 135 C678 128 671 119 666 112 C623 55 540 11 459 4 C459 4 459 4 459 4 C444 3 429 2 413 2 C230 2 131 133 166 330 C201 527 346 658 528 658 C559 658 589 655 616 650 C616 650 616 650 616 650 C671 640 722 599 743 548 C746 541 749 532 752 525 C752 525 765 525 765 525 L765 525 Z " />
<glyph glyph-name="Egrave" unicode="&#xc8;" horiz-adv-x="463" d="M493 610 C496 624 499 642 501 656 C502 657 502 659 502 660 C502 660 499 660 499 660 C499 660 422 660 422 660 C422 660 214 660 214 660 C214 660 200 660 200 660 C200 660 186 660 186 660 C186 660 162 660 162 660 C161 660 159 645 159 645 C159 645 163 645 163 645 C175 645 178 619 171 580 C171 580 172 580 172 580 C172 580 83 80 83 80 C83 80 83 80 83 80 C76 41 64 15 52 15 C52 15 48 15 48 15 C48 15 47 12 47 8 C46 3 45 0 45 0 C45 0 69 0 69 0 C69 0 84 0 84 0 C84 0 98 0 98 0 C98 0 313 0 313 0 C313 0 393 0 393 0 C394 1 394 3 395 4 C400 17 406 36 411 50 C411 50 400 50 400 50 C400 50 391 44 391 44 C361 22 301 7 241 7 C241 7 99 7 99 7 C99 7 159 348 159 348 C159 348 269 348 269 348 C323 348 363 340 372 321 C372 321 385 321 385 321 C386 331 388 343 390 352 C390 352 391 356 391 356 C391 356 391 356 391 356 C392 364 393 372 395 379 C395 379 383 379 383 379 C383 379 379 376 379 376 C367 364 331 357 288 356 C288 356 271 356 271 356 C271 356 161 356 161 356 C161 356 160 350 160 350 C160 350 214 660 214 660 C214 660 213 653 213 653 C213 653 346 653 346 653 C406 653 458 638 477 616 C477 616 482 610 482 610 C482 610 493 610 493 610 L493 610 Z M332 831 C312 866 299 889 297 889 C293 889 284 883 284 881 C283 878 298 855 320 823 C320 823 407 692 407 692 C407 692 409 693 409 693 C409 693 332 831 332 831 L332 831 Z " />
<glyph glyph-name="Eacute" unicode="&#xc9;" horiz-adv-x="463" d="M315 692 C315 692 445 823 445 823 C478 857 501 880 501 881 C501 883 494 889 491 889 C490 889 468 866 436 831 C436 831 313 693 313 693 C313 693 315 692 315 692 L315 692 Z M493 610 C496 624 499 642 501 656 C502 657 502 659 502 660 C502 660 499 660 499 660 C499 660 422 660 422 660 C422 660 214 660 214 660 C214 660 200 660 200 660 C200 660 186 660 186 660 C186 660 162 660 162 660 C161 660 159 645 159 645 C159 645 163 645 163 645 C175 645 178 619 171 580 C171 580 172 580 172 580 C172 580 83 80 83 80 C83 80 83 80 83 80 C76 41 64 15 52 15 C52 15 48 15 48 15 C48 15 47 12 47 8 C46 3 45 0 45 0 C45 0 69 0 69 0 C69 0 84 0 84 0 C84 0 98 0 98 0 C98 0 313 0 313 0 C313 0 393 0 393 0 C394 1 394 3 395 4 C400 17 406 36 411 50 C411 50 400 50 400 50 C400 50 391 44 391 44 C361 22 301 7 241 7 C241 7 99 7 99 7 C99 7 159 348 159 348 C159 348 269 348 269 348 C323 348 363 340 372 321 C372 321 385 321 385 321 C386 331 388 343 390 352 C390 352 391 356 391 356 C391 356 391 356 391 356 C392 364 393 372 395 379 C395 379 383 379 383 379 C383 379 379 376 379 376 C367 364 331 357 288 356 C288 356 271 356 271 356 C271 356 161 356 161 356 C161 356 160 350 160 350 C160 350 214 660 214 660 C214 660 213 653 213 653 C213 653 346 653 346 653 C406 653 458 638 477 616 C477 616 482 610 482 610 C482 610 493 610 493 610 L493 610 Z " />
<glyph glyph-name="Ecircumflex" unicode="&#xca;" horiz-adv-x="463" d="M493 610 C496 624 499 642 501 656 C502 657 502 659 502 660 C502 660 499 660 499 660 C499 660 422 660 422 660 C422 660 214 660 214 660 C214 660 200 660 200 660 C200 660 186 660 186 660 C186 660 162 660 162 660 C161 660 159 645 159 645 C159 645 163 645 163 645 C175 645 178 619 171 580 C171 580 172 580 172 580 C172 580 83 80 83 80 C83 80 83 80 83 80 C76 41 64 15 52 15 C52 15 48 15 48 15 C48 15 47 12 47 8 C46 3 45 0 45 0 C45 0 69 0 69 0 C69 0 84 0 84 0 C84 0 98 0 98 0 C98 0 313 0 313 0 C313 0 393 0 393 0 C394 1 394 3 395 4 C400 17 406 36 411 50 C411 50 400 50 400 50 C400 50 391 44 391 44 C361 22 301 7 241 7 C241 7 99 7 99 7 C99 7 159 348 159 348 C159 348 269 348 269 348 C323 348 363 340 372 321 C372 321 385 321 385 321 C386 331 388 343 390 352 C390 352 391 356 391 356 C391 356 391 356 391 356 C392 364 393 372 395 379 C395 379 383 379 383 379 C383 379 379 376 379 376 C367 364 331 357 288 356 C288 356 271 356 271 356 C271 356 161 356 161 356 C161 356 160 350 160 350 C160 350 214 660 214 660 C214 660 213 653 213 653 C213 653 346 653 346 653 C406 653 458 638 477 616 C477 616 482 610 482 610 C482 610 493 610 493 610 L493 610 Z M382 882 C382 882 463 694 463 694 C463 694 465 696 465 696 C465 696 391 899 391 899 C390 901 388 905 386 905 C382 905 380 902 379 899 C379 899 378 899 378 899 C378 899 233 696 233 696 C233 696 234 694 234 694 C234 694 382 882 382 882 L382 882 Z " />
<glyph glyph-name="Edieresis" unicode="&#xcb;" horiz-adv-x="463" d="M438 730 C451 730 460 738 462 750 C464 762 458 770 445 770 C434 770 424 762 422 750 C420 738 427 730 438 730 L438 730 Z M271 730 C283 730 292 738 295 750 C297 762 290 770 278 770 C266 770 257 762 255 750 C252 738 259 730 271 730 L271 730 Z M493 610 C496 624 499 642 501 656 C502 657 502 659 502 660 C502 660 499 660 499 660 C499 660 422 660 422 660 C422 660 214 660 214 660 C214 660 200 660 200 660 C200 660 186 660 186 660 C186 660 162 660 162 660 C161 660 159 645 159 645 C159 645 163 645 163 645 C175 645 178 619 171 580 C171 580 172 580 172 580 C172 580 83 80 83 80 C83 80 83 80 83 80 C76 41 64 15 52 15 C52 15 48 15 48 15 C48 15 47 12 47 8 C46 3 45 0 45 0 C45 0 69 0 69 0 C69 0 84 0 84 0 C84 0 98 0 98 0 C98 0 313 0 313 0 C313 0 393 0 393 0 C394 1 394 3 395 4 C400 17 406 36 411 50 C411 50 400 50 400 50 C400 50 391 44 391 44 C361 22 301 7 241 7 C241 7 99 7 99 7 C99 7 159 348 159 348 C159 348 269 348 269 348 C323 348 363 340 372 321 C372 321 385 321 385 321 C386 331 388 343 390 352 C390 352 391 356 391 356 C391 356 391 356 391 356 C392 364 393 372 395 379 C395 379 383 379 383 379 C383 379 379 376 379 376 C367 364 331 357 288 356 C288 356 271 356 271 356 C271 356 161 356 161 356 C161 356 160 350 160 350 C160 350 214 660 214 660 C214 660 213 653 213 653 C213 653 346 653 346 653 C406 653 458 638 477 616 C477 616 482 610 482 610 C482 610 493 610 493 610 L493 610 Z " />
<glyph glyph-name="Igrave" unicode="&#xcc;" horiz-adv-x="167" d="M157 645 C157 645 161 645 161 645 C172 645 176 621 171 586 C171 586 78 64 78 64 C71 34 60 15 50 15 C50 15 46 15 46 15 C47 15 44 0 44 0 C44 0 67 0 67 0 C67 0 82 0 82 0 C82 0 96 0 96 0 C96 0 120 0 120 0 C120 0 121 3 121 8 C122 12 123 15 123 15 C123 15 119 15 119 15 C108 15 104 39 109 74 C109 74 199 580 199 580 C199 580 199 580 199 580 C206 619 218 645 230 645 C230 645 234 645 234 645 C234 645 235 648 235 653 C236 657 237 660 236 660 C236 660 213 660 213 660 C213 660 198 660 198 660 C198 660 184 660 184 660 C184 660 160 660 160 660 C160 659 158 645 157 645 C157 645 157 645 157 645 L157 645 Z M203 831 C184 866 170 889 168 889 C165 889 156 883 155 881 C155 878 170 855 192 823 C192 823 278 692 278 692 C278 692 281 693 281 693 C281 693 203 831 203 831 L203 831 Z " />
<glyph glyph-name="Iacute" unicode="&#xcd;" horiz-adv-x="167" d="M141 692 C141 692 271 823 271 823 C303 857 325 880 326 881 C326 883 319 889 316 889 C315 889 294 866 262 831 C262 831 139 693 139 693 C139 693 141 692 141 692 L141 692 Z M157 645 C157 645 161 645 161 645 C172 645 176 621 171 586 C171 586 78 64 78 64 C71 34 60 15 50 15 C50 15 46 15 46 15 C47 15 44 0 44 0 C44 0 67 0 67 0 C67 0 82 0 82 0 C82 0 96 0 96 0 C96 0 120 0 120 0 C120 0 121 3 121 8 C122 12 123 15 123 15 C123 15 119 15 119 15 C108 15 104 39 109 74 C109 74 199 580 199 580 C199 580 199 580 199 580 C206 619 218 645 230 645 C230 645 234 645 234 645 C234 645 235 648 235 653 C236 657 237 660 236 660 C236 660 213 660 213 660 C213 660 198 660 198 660 C198 660 184 660 184 660 C184 660 160 660 160 660 C160 659 158 645 157 645 C157 645 157 645 157 645 L157 645 Z " />
<glyph glyph-name="Icircumflex" unicode="&#xce;" horiz-adv-x="167" d="M157 645 C157 645 161 645 161 645 C172 645 176 621 171 586 C171 586 78 64 78 64 C71 34 60 15 50 15 C50 15 46 15 46 15 C47 15 44 0 44 0 C44 0 67 0 67 0 C67 0 82 0 82 0 C82 0 96 0 96 0 C96 0 120 0 120 0 C120 0 121 3 121 8 C122 12 123 15 123 15 C123 15 119 15 119 15 C108 15 104 39 109 74 C109 74 199 580 199 580 C199 580 199 580 199 580 C206 619 218 645 230 645 C230 645 234 645 234 645 C234 645 235 648 235 653 C236 657 237 660 236 660 C236 660 213 660 213 660 C213 660 198 660 198 660 C198 660 184 660 184 660 C184 660 160 660 160 660 C160 659 158 645 157 645 C157 645 157 645 157 645 L157 645 Z M238 882 C238 882 318 694 318 694 C318 694 321 696 321 696 C321 696 247 899 247 899 C246 901 244 905 241 905 C238 905 236 902 234 899 C234 899 234 899 234 899 C234 899 88 696 88 696 C88 696 90 694 90 694 C90 694 238 882 238 882 L238 882 Z " />
<glyph glyph-name="Idieresis" unicode="&#xcf;" horiz-adv-x="167" d="M294 730 C306 730 315 738 318 750 C320 762 313 770 301 770 C289 770 280 762 278 750 C275 738 282 730 294 730 L294 730 Z M127 730 C139 730 148 738 151 750 C153 762 146 770 134 770 C122 770 113 762 111 750 C108 738 115 730 127 730 L127 730 Z M157 645 C157 645 161 645 161 645 C172 645 176 621 171 586 C171 586 78 64 78 64 C71 34 60 15 50 15 C50 15 46 15 46 15 C47 15 44 0 44 0 C44 0 67 0 67 0 C67 0 82 0 82 0 C82 0 96 0 96 0 C96 0 120 0 120 0 C120 0 121 3 121 8 C122 12 123 15 123 15 C123 15 119 15 119 15 C108 15 104 39 109 74 C109 74 199 580 199 580 C199 580 199 580 199 580 C206 619 218 645 230 645 C230 645 234 645 234 645 C234 645 235 648 235 653 C236 657 237 660 236 660 C236 660 213 660 213 660 C213 660 198 660 198 660 C198 660 184 660 184 660 C184 660 160 660 160 660 C160 659 158 645 157 645 C157 645 157 645 157 645 L157 645 Z " />
<glyph glyph-name="Ntilde" unicode="&#xd1;" horiz-adv-x="598" d="M295 755 C303 798 327 827 356 827 C418 827 468 764 529 764 C564 764 592 793 599 837 C599 837 596 837 596 837 C589 801 565 777 536 777 C474 777 424 840 362 840 C329 840 301 806 292 755 C292 755 295 755 295 755 L295 755 Z M675 660 C675 660 651 660 651 660 C651 660 646 660 646 660 C646 660 642 660 642 660 C642 660 618 660 618 660 C617 657 616 646 616 645 C616 645 619 645 619 645 C631 645 634 623 630 590 C630 590 532 36 532 36 C532 36 220 660 220 660 C220 660 199 650 199 650 C199 650 199 651 199 651 C199 651 220 660 220 660 C220 660 201 660 201 660 C201 660 196 660 196 660 C196 660 192 660 192 660 C192 660 168 660 168 660 C168 659 166 645 165 645 C165 645 169 645 169 645 C180 645 185 622 179 587 C179 587 90 80 90 80 C90 80 90 80 90 80 C83 41 70 15 58 15 C58 15 54 15 54 15 C55 15 52 0 52 0 C52 0 76 0 76 0 C76 0 80 0 80 0 C80 0 84 0 84 0 C84 0 108 0 108 0 C108 0 109 3 109 8 C110 12 111 15 111 15 C111 15 107 15 107 15 C96 15 92 37 96 70 C96 70 197 637 197 637 C197 637 513 4 513 4 C513 4 518 -4 518 -4 C518 -4 534 -4 534 -4 C534 -4 537 15 537 15 C537 15 637 580 637 580 C637 580 637 580 637 580 C644 619 656 645 668 645 C668 645 672 645 672 645 C672 645 674 660 675 660 C675 660 675 660 675 660 L675 660 Z " />
<glyph glyph-name="Ograve" unicode="&#xd2;" horiz-adv-x="772" d="M396 2 C206 2 135 153 166 330 C197 507 322 658 512 658 C702 658 774 507 742 330 C711 153 586 2 396 2 L396 2 Z M134 330 C102 149 184 -5 395 -5 C606 -5 742 149 774 330 C806 511 724 665 513 665 C302 665 166 511 134 330 L134 330 Z M517 831 C498 866 484 889 482 889 C479 889 470 883 470 881 C469 878 484 855 506 823 C506 823 593 692 593 692 C593 692 595 693 595 693 C595 693 517 831 517 831 L517 831 Z " />
<glyph glyph-name="Oacute" unicode="&#xd3;" horiz-adv-x="772" d="M493 692 C493 692 623 823 623 823 C656 857 678 880 678 881 C679 883 672 889 668 889 C667 889 646 866 614 831 C614 831 491 693 491 693 C491 693 493 692 493 692 L493 692 Z M396 2 C206 2 135 153 166 330 C197 507 322 658 512 658 C702 658 774 507 742 330 C711 153 586 2 396 2 L396 2 Z M134 330 C102 149 184 -5 395 -5 C606 -5 742 149 774 330 C806 511 724 665 513 665 C302 665 166 511 134 330 L134 330 Z " />
<glyph glyph-name="Ocircumflex" unicode="&#xd4;" horiz-adv-x="772" d="M396 2 C206 2 135 153 166 330 C197 507 322 658 512 658 C702 658 774 507 742 330 C711 153 586 2 396 2 L396 2 Z M134 330 C102 149 184 -5 395 -5 C606 -5 742 149 774 330 C806 511 724 665 513 665 C302 665 166 511 134 330 L134 330 Z M552 882 C552 882 633 694 633 694 C633 694 635 696 635 696 C635 696 561 899 561 899 C560 901 558 905 556 905 C552 905 550 902 549 899 C549 899 548 899 548 899 C548 899 402 696 402 696 C402 696 404 694 404 694 C404 694 552 882 552 882 L552 882 Z " />
<glyph glyph-name="Otilde" unicode="&#xd5;" horiz-adv-x="772" d="M386 755 C394 798 418 827 447 827 C509 827 559 764 620 764 C654 764 682 793 690 837 C690 837 687 837 687 837 C680 801 656 777 627 777 C565 777 515 840 453 840 C420 840 391 806 383 755 C383 755 386 755 386 755 L386 755 Z M396 2 C206 2 135 153 166 330 C197 507 322 658 512 658 C702 658 774 507 742 330 C711 153 586 2 396 2 L396 2 Z M134 330 C102 149 184 -5 395 -5 C606 -5 742 149 774 330 C806 511 724 665 513 665 C302 665 166 511 134 330 L134 330 Z " />
<glyph glyph-name="Odieresis" unicode="&#xd6;" horiz-adv-x="772" d="M608 730 C620 730 629 738 632 750 C634 762 627 770 615 770 C603 770 594 762 592 750 C589 738 596 730 608 730 L608 730 Z M441 730 C453 730 462 738 465 750 C467 762 460 770 448 770 C436 770 427 762 425 750 C422 738 429 730 441 730 L441 730 Z M396 2 C206 2 135 153 166 330 C197 507 322 658 512 658 C702 658 774 507 742 330 C711 153 586 2 396 2 L396 2 Z M134 330 C102 149 184 -5 395 -5 C606 -5 742 149 774 330 C806 511 724 665 513 665 C302 665 166 511 134 330 L134 330 Z " />
<glyph glyph-name="Oslash" unicode="&#xd8;" horiz-adv-x="772" d="M79 -9 C79 -9 183 83 183 83 C226 28 297 -5 395 -5 C606 -5 742 149 774 330 C790 422 777 507 732 569 C732 569 837 661 837 661 C837 661 829 669 829 669 C829 669 725 577 725 577 C682 632 611 665 513 665 C302 665 166 511 134 330 C118 238 131 153 176 91 C176 91 71 -1 71 -1 C71 -1 79 -9 79 -9 L79 -9 Z M396 2 C302 2 237 39 199 97 C199 97 715 553 715 553 C749 494 757 415 742 330 C711 153 586 2 396 2 C396 2 396 2 396 2 L396 2 Z M194 107 C160 166 151 245 166 330 C197 507 322 658 512 658 C606 658 671 621 709 563 C709 563 194 107 194 107 L194 107 Z " />
<glyph glyph-name="Ugrave" unicode="&#xd9;" horiz-adv-x="596" d="M621 645 C621 645 625 645 625 645 C640 645 644 615 636 570 C636 570 636 570 636 570 C636 570 566 176 566 176 C548 73 475 5 320 5 C167 5 122 82 142 198 C142 198 210 580 210 580 C210 580 210 580 210 580 C217 619 229 645 241 645 C241 645 245 645 245 645 C245 645 247 660 248 660 C248 660 224 660 224 660 C224 660 209 660 209 660 C209 660 195 660 195 660 C195 660 171 660 171 660 C171 659 169 645 168 645 C168 645 172 645 172 645 C183 645 187 623 183 590 C183 590 114 203 114 203 C93 78 144 -5 314 -5 C478 -5 554 66 573 173 C573 173 645 578 645 578 C653 619 666 645 679 645 C679 645 683 645 683 645 C683 645 684 648 684 653 C685 657 686 660 686 660 C686 660 659 660 659 660 C659 660 655 660 655 660 C655 660 652 660 652 660 C652 660 623 660 623 660 C622 657 621 646 621 645 L621 645 Z M432 831 C413 866 399 889 397 889 C394 889 385 883 384 881 C384 878 398 855 420 823 C420 823 507 692 507 692 C507 692 509 693 509 693 C509 693 432 831 432 831 L432 831 Z " />
<glyph glyph-name="Uacute" unicode="&#xda;" horiz-adv-x="596" d="M430 692 C430 692 560 823 560 823 C593 857 615 880 615 881 C616 883 609 889 605 889 C604 889 583 866 551 831 C551 831 428 693 428 693 C428 693 430 692 430 692 L430 692 Z M621 645 C621 645 625 645 625 645 C640 645 644 615 636 570 C636 570 636 570 636 570 C636 570 566 176 566 176 C548 73 475 5 320 5 C167 5 122 82 142 198 C142 198 210 580 210 580 C210 580 210 580 210 580 C217 619 229 645 241 645 C241 645 245 645 245 645 C245 645 247 660 248 660 C248 660 224 660 224 660 C224 660 209 660 209 660 C209 660 195 660 195 660 C195 660 171 660 171 660 C171 659 169 645 168 645 C168 645 172 645 172 645 C183 645 187 623 183 590 C183 590 114 203 114 203 C93 78 144 -5 314 -5 C478 -5 554 66 573 173 C573 173 645 578 645 578 C653 619 666 645 679 645 C679 645 683 645 683 645 C683 645 684 648 684 653 C685 657 686 660 686 660 C686 660 659 660 659 660 C659 660 655 660 655 660 C655 660 652 660 652 660 C652 660 623 660 623 660 C622 657 621 646 621 645 L621 645 Z " />
<glyph glyph-name="Ucircumflex" unicode="&#xdb;" horiz-adv-x="596" d="M621 645 C621 645 625 645 625 645 C640 645 644 615 636 570 C636 570 636 570 636 570 C636 570 566 176 566 176 C548 73 475 5 320 5 C167 5 122 82 142 198 C142 198 210 580 210 580 C210 580 210 580 210 580 C217 619 229 645 241 645 C241 645 245 645 245 645 C245 645 247 660 248 660 C248 660 224 660 224 660 C224 660 209 660 209 660 C209 660 195 660 195 660 C195 660 171 660 171 660 C171 659 169 645 168 645 C168 645 172 645 172 645 C183 645 187 623 183 590 C183 590 114 203 114 203 C93 78 144 -5 314 -5 C478 -5 554 66 573 173 C573 173 645 578 645 578 C653 619 666 645 679 645 C679 645 683 645 683 645 C683 645 684 648 684 653 C685 657 686 660 686 660 C686 660 659 660 659 660 C659 660 655 660 655 660 C655 660 652 660 652 660 C652 660 623 660 623 660 C622 657 621 646 621 645 L621 645 Z M466 882 C466 882 547 694 547 694 C547 694 549 696 549 696 C549 696 475 899 475 899 C475 901 473 905 470 905 C467 905 465 902 463 899 C463 899 463 899 463 899 C463 899 317 696 317 696 C317 696 319 694 319 694 C319 694 466 882 466 882 L466 882 Z " />
<glyph glyph-name="Udieresis" unicode="&#xdc;" horiz-adv-x="596" d="M523 730 C535 730 544 738 546 750 C548 762 542 770 530 770 C518 770 508 762 506 750 C504 738 511 730 523 730 L523 730 Z M356 730 C368 730 377 738 379 750 C381 762 375 770 363 770 C351 770 341 762 339 750 C337 738 344 730 356 730 L356 730 Z M621 645 C621 645 625 645 625 645 C640 645 644 615 636 570 C636 570 636 570 636 570 C636 570 566 176 566 176 C548 73 475 5 320 5 C167 5 122 82 142 198 C142 198 210 580 210 580 C210 580 210 580 210 580 C217 619 229 645 241 645 C241 645 245 645 245 645 C245 645 247 660 248 660 C248 660 224 660 224 660 C224 660 209 660 209 660 C209 660 195 660 195 660 C195 660 171 660 171 660 C171 659 169 645 168 645 C168 645 172 645 172 645 C183 645 187 623 183 590 C183 590 114 203 114 203 C93 78 144 -5 314 -5 C478 -5 554 66 573 173 C573 173 645 578 645 578 C653 619 666 645 679 645 C679 645 683 645 683 645 C683 645 684 648 684 653 C685 657 686 660 686 660 C686 660 659 660 659 660 C659 660 655 660 655 660 C655 660 652 660 652 660 C652 660 623 660 623 660 C622 657 621 646 621 645 L621 645 Z " />
<glyph glyph-name="Yacute" unicode="&#xdd;" horiz-adv-x="523" d="M394 692 C394 692 524 823 524 823 C557 857 579 880 579 881 C580 883 573 889 569 889 C568 889 547 866 515 831 C515 831 392 693 392 693 C392 693 394 692 394 692 L394 692 Z M568 645 C568 645 572 645 572 645 C585 645 572 613 540 566 C540 566 330 266 330 266 C330 266 323 266 323 266 C323 266 225 591 225 591 C216 624 216 645 226 645 C226 645 229 645 229 645 C229 645 230 648 231 653 C231 657 232 660 232 660 C232 660 204 660 204 660 C204 660 186 660 186 660 C186 660 169 660 169 660 C169 660 159 660 159 660 C159 660 158 657 158 653 C157 648 156 645 156 645 C156 645 159 645 159 645 C168 645 182 619 195 580 C195 580 195 580 195 580 C195 580 304 248 304 248 C295 196 284 136 274 80 C274 80 274 80 274 80 C267 41 254 15 242 15 C242 15 239 15 239 15 C239 15 238 12 237 8 C237 3 236 0 236 0 C236 0 260 0 260 0 C260 0 274 0 274 0 C274 0 289 0 289 0 C289 0 312 0 312 0 C312 0 313 3 314 8 C314 12 315 15 315 15 C315 15 312 15 312 15 C300 15 296 38 302 73 C313 137 325 207 335 265 C335 265 556 580 556 580 C556 580 556 580 556 580 C583 619 608 645 619 645 C619 645 622 645 622 645 C622 645 623 648 624 653 C624 657 625 660 625 660 C625 660 612 660 612 660 C612 660 609 660 609 660 C609 660 606 660 606 660 C606 660 571 660 571 660 C571 658 568 651 568 645 C568 645 568 645 568 645 L568 645 Z " />
<glyph glyph-name="agrave" unicode="&#xe0;" horiz-adv-x="579" d="M348 671 C329 706 316 729 313 729 C310 729 301 723 300 721 C300 718 314 695 337 663 C337 663 423 532 423 532 C423 532 426 533 426 533 C426 533 348 671 348 671 L348 671 Z M463 5 C463 5 489 12 489 12 C489 12 489 13 489 13 C490 17 490 21 490 21 C490 21 488 25 488 25 C477 42 474 54 478 86 C502 224 527 362 551 500 C551 500 545 500 545 500 C545 500 512 377 512 377 C510 452 450 505 352 505 C231 505 131 394 102 228 C77 88 138 -5 254 -5 C355 -5 433 39 462 109 C462 109 445 14 445 14 C444 8 443 1 442 -5 C442 -5 445 -5 445 -5 C445 -5 463 5 463 5 L463 5 Z M462 110 C462 110 462 110 462 110 C462 110 463 111 463 111 C463 111 463 110 462 110 C462 110 462 110 462 110 L462 110 Z M465 122 C442 52 366 7 267 7 C157 7 100 98 124 236 C152 394 243 500 350 500 C459 500 520 435 504 347 C491 272 478 197 465 122 C465 122 465 122 465 122 L465 122 Z " />
<glyph glyph-name="aacute" unicode="&#xe1;" horiz-adv-x="482" d="M283 532 C283 532 414 663 414 663 C446 697 468 720 469 721 C469 723 462 729 459 729 C458 729 437 706 405 671 C405 671 282 533 282 533 C282 533 283 532 283 532 L283 532 Z M460 34 C435 14 415 0 399 0 C369 0 365 22 370 54 C370 54 425 363 425 363 C440 448 406 505 339 505 C210 505 134 451 150 369 C150 369 170 369 170 369 C155 447 220 499 334 499 C390 499 419 446 404 367 C404 367 383 245 383 245 C383 245 241 226 241 226 C143 213 71 162 60 100 C49 37 85 -5 152 -5 C219 -5 298 29 354 81 C354 81 349 52 349 52 C342 15 348 -10 384 -10 C407 -10 433 7 462 31 C462 31 460 34 460 34 L460 34 Z M382 239 C382 239 355 86 355 86 C304 39 230 8 164 8 C104 8 70 47 81 106 C91 162 154 207 239 219 C239 219 382 239 382 239 L382 239 Z " />
<glyph glyph-name="acircumflex" unicode="&#xe2;" horiz-adv-x="579" d="M383 722 C383 722 463 534 463 534 C463 534 466 536 466 536 C466 536 392 739 392 739 C391 741 389 745 386 745 C383 745 381 742 379 739 C379 739 379 739 379 739 C379 739 233 536 233 536 C233 536 235 534 235 534 C235 534 383 722 383 722 L383 722 Z M463 5 C463 5 489 12 489 12 C489 12 489 13 489 13 C490 17 490 21 490 21 C490 21 488 25 488 25 C477 42 474 54 478 86 C502 224 527 362 551 500 C551 500 545 500 545 500 C545 500 512 377 512 377 C510 452 450 505 352 505 C231 505 131 394 102 228 C77 88 138 -5 254 -5 C355 -5 433 39 462 109 C462 109 445 14 445 14 C444 8 443 1 442 -5 C442 -5 445 -5 445 -5 C445 -5 463 5 463 5 L463 5 Z M462 110 C462 110 462 110 462 110 C462 110 463 111 463 111 C463 111 463 110 462 110 C462 110 462 110 462 110 L462 110 Z M465 122 C442 52 366 7 267 7 C157 7 100 98 124 236 C152 394 243 500 350 500 C459 500 520 435 504 347 C491 272 478 197 465 122 C465 122 465 122 465 122 L465 122 Z " />
<glyph glyph-name="atilde" unicode="&#xe3;" horiz-adv-x="579" d="M217 595 C225 638 249 667 278 667 C339 667 390 604 451 604 C486 604 514 633 521 677 C521 677 518 677 518 677 C511 641 487 617 458 617 C396 617 346 680 284 680 C251 680 223 646 214 595 C214 595 217 595 217 595 L217 595 Z M463 5 C463 5 489 12 489 12 C489 12 489 13 489 13 C490 17 490 21 490 21 C490 21 488 25 488 25 C477 42 474 54 478 86 C502 224 527 362 551 500 C551 500 545 500 545 500 C545 500 512 377 512 377 C510 452 450 505 352 505 C231 505 131 394 102 228 C77 88 138 -5 254 -5 C355 -5 433 39 462 109 C462 109 445 14 445 14 C444 8 443 1 442 -5 C442 -5 445 -5 445 -5 C445 -5 463 5 463 5 L463 5 Z M462 110 C462 110 462 110 462 110 C462 110 463 111 463 111 C463 111 463 110 462 110 C462 110 462 110 462 110 L462 110 Z M465 122 C442 52 366 7 267 7 C157 7 100 98 124 236 C152 394 243 500 350 500 C459 500 520 435 504 347 C491 272 478 197 465 122 C465 122 465 122 465 122 L465 122 Z " />
<glyph glyph-name="adieresis" unicode="&#xe4;" horiz-adv-x="579" d="M439 570 C451 570 461 578 463 590 C465 602 458 610 446 610 C434 610 425 602 423 590 C421 578 427 570 439 570 L439 570 Z M272 570 C284 570 294 578 296 590 C298 602 291 610 279 610 C267 610 258 602 256 590 C254 578 260 570 272 570 L272 570 Z M463 5 C463 5 489 12 489 12 C489 12 489 13 489 13 C490 17 490 21 490 21 C490 21 488 25 488 25 C477 42 474 54 478 86 C502 224 527 362 551 500 C551 500 545 500 545 500 C545 500 512 377 512 377 C510 452 450 505 352 505 C231 505 131 394 102 228 C77 88 138 -5 254 -5 C355 -5 433 39 462 109 C462 109 445 14 445 14 C444 8 443 1 442 -5 C442 -5 445 -5 445 -5 C445 -5 463 5 463 5 L463 5 Z M462 110 C462 110 462 110 462 110 C462 110 463 111 463 111 C463 111 463 110 462 110 C462 110 462 110 462 110 L462 110 Z M465 122 C442 52 366 7 267 7 C157 7 100 98 124 236 C152 394 243 500 350 500 C459 500 520 435 504 347 C491 272 478 197 465 122 C465 122 465 122 465 122 L465 122 Z " />
<glyph glyph-name="aring" unicode="&#xe5;" horiz-adv-x="579" d="M350 539 C303 539 270 580 278 628 C288 681 329 716 381 716 C434 716 463 681 453 628 C445 580 398 539 350 539 L350 539 Z M273 628 C264 578 299 535 349 535 C400 535 450 578 459 628 C469 683 438 720 382 720 C326 720 282 683 273 628 L273 628 Z M463 5 C463 5 489 12 489 12 C489 12 489 13 489 13 C490 17 490 21 490 21 C490 21 488 25 488 25 C477 42 474 54 478 86 C502 224 527 362 551 500 C551 500 545 500 545 500 C545 500 512 377 512 377 C510 452 450 505 352 505 C231 505 131 394 102 228 C77 88 138 -5 254 -5 C355 -5 433 39 462 109 C462 109 445 14 445 14 C444 8 443 1 442 -5 C442 -5 445 -5 445 -5 C445 -5 463 5 463 5 L463 5 Z M462 110 C462 110 462 110 462 110 C462 110 463 111 463 111 C463 111 463 110 462 110 C462 110 462 110 462 110 L462 110 Z M465 122 C442 52 366 7 267 7 C157 7 100 98 124 236 C152 394 243 500 350 500 C459 500 520 435 504 347 C491 272 478 197 465 122 C465 122 465 122 465 122 L465 122 Z " />
<glyph glyph-name="ccedilla" unicode="&#xe7;" horiz-adv-x="468" d="M427 103 C427 103 425 104 425 104 C387 46 317 7 251 7 C148 7 96 103 121 246 C148 398 253 499 384 499 C437 499 469 461 463 403 C463 397 466 393 472 393 C477 393 481 397 482 402 C487 464 449 505 387 505 C242 505 127 398 99 238 C73 92 126 -5 232 -5 C306 -5 384 38 427 103 L427 103 Z " />
<glyph glyph-name="egrave" unicode="&#xe8;" horiz-adv-x="474" d="M434 103 C434 103 431 104 431 104 C394 46 323 7 254 7 C149 7 96 103 121 246 C126 277 134 305 145 331 C145 331 476 331 476 331 C495 435 444 505 350 505 C228 505 127 398 99 238 C73 92 128 -5 235 -5 C312 -5 391 38 434 103 L434 103 Z M354 671 C335 706 322 729 319 729 C316 729 307 723 307 721 C306 718 320 695 343 663 C343 663 430 532 430 532 C430 532 432 533 432 533 C432 533 354 671 354 671 L354 671 Z M146 334 C187 436 262 499 348 499 C431 499 477 435 461 346 C459 342 455 338 449 338 C449 338 459 338 459 338 C459 338 146 334 146 334 L146 334 Z " />
<glyph glyph-name="eacute" unicode="&#xe9;" horiz-adv-x="474" d="M322 532 C322 532 452 663 452 663 C485 697 507 720 507 721 C508 723 501 729 497 729 C497 729 475 706 443 671 C443 671 320 533 320 533 C320 533 322 532 322 532 L322 532 Z M434 103 C434 103 431 104 431 104 C394 46 323 7 254 7 C149 7 96 103 121 246 C126 277 134 305 145 331 C145 331 476 331 476 331 C495 435 444 505 350 505 C228 505 127 398 99 238 C73 92 128 -5 235 -5 C312 -5 391 38 434 103 L434 103 Z M146 334 C187 436 262 499 348 499 C431 499 477 435 461 346 C459 342 455 338 449 338 C449 338 459 338 459 338 C459 338 146 334 146 334 L146 334 Z " />
<glyph glyph-name="ecircumflex" unicode="&#xea;" horiz-adv-x="474" d="M434 103 C434 103 431 104 431 104 C394 46 323 7 254 7 C149 7 96 103 121 246 C126 277 134 305 145 331 C145 331 476 331 476 331 C495 435 444 505 350 505 C228 505 127 398 99 238 C73 92 128 -5 235 -5 C312 -5 391 38 434 103 L434 103 Z M389 722 C389 722 470 534 470 534 C470 534 472 536 472 536 C472 536 398 739 398 739 C397 741 396 745 393 745 C389 745 387 742 385 739 C385 739 385 739 385 739 C385 739 239 536 239 536 C239 536 241 534 241 534 C241 534 389 722 389 722 L389 722 Z M146 334 C187 436 262 499 348 499 C431 499 477 435 461 346 C459 342 455 338 449 338 C449 338 459 338 459 338 C459 338 146 334 146 334 L146 334 Z " />
<glyph glyph-name="edieresis" unicode="&#xeb;" horiz-adv-x="474" d="M445 570 C457 570 467 578 469 590 C471 602 464 610 452 610 C440 610 431 602 429 590 C427 578 433 570 445 570 L445 570 Z M278 570 C290 570 300 578 302 590 C304 602 297 610 285 610 C273 610 264 602 262 590 C260 578 266 570 278 570 L278 570 Z M434 103 C434 103 431 104 431 104 C394 46 323 7 254 7 C149 7 96 103 121 246 C126 277 134 305 145 331 C145 331 476 331 476 331 C495 435 444 505 350 505 C228 505 127 398 99 238 C73 92 128 -5 235 -5 C312 -5 391 38 434 103 L434 103 Z M146 334 C187 436 262 499 348 499 C431 499 477 435 461 346 C459 342 455 338 449 338 C449 338 459 338 459 338 C459 338 146 334 146 334 L146 334 Z " />
<glyph glyph-name="igrave" unicode="&#xec;" horiz-adv-x="171" d="M96 0 C96 0 120 0 120 0 C120 1 122 12 122 15 C122 15 117 15 117 15 C106 15 99 13 96 1 C96 1 170 420 170 420 C183 491 185 505 185 505 C185 505 184 505 184 505 C184 505 143 493 143 493 C142 491 141 484 141 483 C141 483 151 461 151 461 C154 456 155 447 150 420 C150 420 150 420 150 420 C150 420 76 0 76 0 C76 0 52 0 52 0 C52 6 55 13 55 15 C55 15 59 15 59 15 C71 15 78 13 76 0 C76 0 96 0 96 0 L96 0 Z M179 671 C160 706 146 729 144 729 C141 729 132 723 131 721 C131 718 145 695 167 663 C167 663 254 532 254 532 C254 532 257 533 257 533 C257 533 179 671 179 671 L179 671 Z " />
<glyph glyph-name="iacute" unicode="&#xed;" horiz-adv-x="171" d="M101 532 C101 532 231 663 231 663 C264 697 286 720 286 721 C287 723 280 729 276 729 C276 729 254 706 222 671 C222 671 99 533 99 533 C99 533 101 532 101 532 L101 532 Z M96 0 C96 0 120 0 120 0 C120 1 122 12 122 15 C122 15 117 15 117 15 C106 15 99 13 96 1 C96 1 170 420 170 420 C183 491 185 505 185 505 C185 505 184 505 184 505 C184 505 143 493 143 493 C142 491 141 484 141 483 C141 483 151 461 151 461 C154 456 155 447 150 420 C150 420 150 420 150 420 C150 420 76 0 76 0 C76 0 52 0 52 0 C52 6 55 13 55 15 C55 15 59 15 59 15 C71 15 78 13 76 0 C76 0 96 0 96 0 L96 0 Z " />
<glyph glyph-name="icircumflex" unicode="&#xee;" horiz-adv-x="171" d="M96 0 C96 0 120 0 120 0 C120 1 122 12 122 15 C122 15 117 15 117 15 C106 15 99 13 96 1 C96 1 170 420 170 420 C183 491 185 505 185 505 C185 505 184 505 184 505 C184 505 143 493 143 493 C142 491 141 484 141 483 C141 483 151 461 151 461 C154 456 155 447 150 420 C150 420 150 420 150 420 C150 420 76 0 76 0 C76 0 52 0 52 0 C52 6 55 13 55 15 C55 15 59 15 59 15 C71 15 78 13 76 0 C76 0 96 0 96 0 L96 0 Z M213 723 C213 723 294 534 294 534 C294 534 297 536 297 536 C297 536 223 739 223 739 C222 741 220 745 217 745 C213 745 211 742 210 739 C210 739 210 739 210 739 C210 739 64 536 64 536 C64 536 66 534 66 534 C66 534 213 723 213 723 L213 723 Z " />
<glyph glyph-name="idieresis" unicode="&#xef;" horiz-adv-x="171" d="M270 570 C282 570 291 578 293 590 C295 602 289 610 277 610 C265 610 255 602 253 590 C251 578 258 570 270 570 L270 570 Z M103 570 C115 570 124 578 126 590 C128 602 122 610 110 610 C98 610 88 602 86 590 C84 578 91 570 103 570 L103 570 Z M96 0 C96 0 120 0 120 0 C120 1 122 12 122 15 C122 15 117 15 117 15 C106 15 99 13 96 1 C96 1 170 420 170 420 C183 491 185 505 185 505 C185 505 184 505 184 505 C184 505 143 493 143 493 C142 491 141 484 141 483 C141 483 151 461 151 461 C154 456 155 447 150 420 C150 420 150 420 150 420 C150 420 76 0 76 0 C76 0 52 0 52 0 C52 6 55 13 55 15 C55 15 59 15 59 15 C71 15 78 13 76 0 C76 0 96 0 96 0 L96 0 Z " />
<glyph glyph-name="ntilde" unicode="&#xf1;" horiz-adv-x="524" d="M226 595 C234 638 258 667 287 667 C349 667 399 604 461 604 C495 604 523 633 531 677 C531 677 527 677 527 677 C521 641 497 617 468 617 C406 617 356 680 294 680 C260 680 232 646 223 595 C223 595 226 595 226 595 L226 595 Z M480 15 C480 15 477 15 477 15 C465 15 461 38 467 74 C467 74 513 336 513 336 C531 437 506 505 409 505 C305 505 208 458 164 387 C164 387 169 415 169 415 C169 415 169 415 169 415 C169 415 184 500 184 500 C184 500 180 500 180 500 C180 500 138 488 138 488 C138 488 138 487 138 487 C137 482 136 479 136 479 C153 456 154 442 143 385 C143 385 144 385 144 385 C144 385 90 80 90 80 C90 80 90 80 90 80 C83 41 70 15 58 15 C58 15 54 15 54 15 C55 15 52 0 52 0 C52 0 76 0 76 0 C76 0 86 0 86 0 C86 0 96 0 96 0 C96 0 120 0 120 0 C119 0 122 14 122 15 C122 15 119 15 119 15 C107 15 103 38 109 72 C109 72 163 382 163 382 C202 448 293 492 392 492 C485 492 509 429 492 333 C492 333 447 75 447 75 C440 39 428 15 416 15 C416 15 412 15 412 15 C413 15 410 0 410 0 C410 0 434 0 434 0 C434 0 444 0 444 0 C444 0 454 0 454 0 C454 0 478 0 478 0 C477 0 480 15 480 15 C480 15 480 15 480 15 L480 15 Z " />
<glyph glyph-name="ograve" unicode="&#xf2;" horiz-adv-x="594" d="M297 -1 C166 -1 97 99 123 250 C150 401 255 501 385 501 C516 501 586 401 559 250 C533 99 428 -1 297 -1 L297 -1 Z M101 250 C74 97 152 -5 296 -5 C440 -5 554 97 582 250 C608 403 530 505 386 505 C242 505 128 403 101 250 L101 250 Z M390 671 C371 706 358 729 355 729 C352 729 343 723 343 721 C342 718 356 695 379 663 C379 663 466 532 466 532 C466 532 468 533 468 533 C468 533 390 671 390 671 L390 671 Z " />
<glyph glyph-name="oacute" unicode="&#xf3;" horiz-adv-x="594" d="M358 532 C358 532 488 663 488 663 C521 697 543 720 543 721 C544 723 537 729 534 729 C533 729 511 706 479 671 C479 671 356 533 356 533 C356 533 358 532 358 532 L358 532 Z M297 -1 C166 -1 97 99 123 250 C150 401 255 501 385 501 C516 501 586 401 559 250 C533 99 428 -1 297 -1 L297 -1 Z M101 250 C74 97 152 -5 296 -5 C440 -5 554 97 582 250 C608 403 530 505 386 505 C242 505 128 403 101 250 L101 250 Z " />
<glyph glyph-name="ocircumflex" unicode="&#xf4;" horiz-adv-x="594" d="M297 -1 C166 -1 97 99 123 250 C150 401 255 501 385 501 C516 501 586 401 559 250 C533 99 428 -1 297 -1 L297 -1 Z M101 250 C74 97 152 -5 296 -5 C440 -5 554 97 582 250 C608 403 530 505 386 505 C242 505 128 403 101 250 L101 250 Z M425 722 C425 722 506 534 506 534 C506 534 508 536 508 536 C508 536 434 739 434 739 C433 741 432 745 429 745 C425 745 423 742 421 739 C421 739 421 739 421 739 C421 739 275 536 275 536 C275 536 277 534 277 534 C277 534 425 722 425 722 L425 722 Z " />
<glyph glyph-name="otilde" unicode="&#xf5;" horiz-adv-x="594" d="M259 595 C267 638 291 667 320 667 C381 667 432 604 493 604 C528 604 556 633 563 677 C563 677 560 677 560 677 C553 641 529 617 500 617 C438 617 388 680 326 680 C293 680 265 646 256 595 C256 595 259 595 259 595 L259 595 Z M297 -1 C166 -1 97 99 123 250 C150 401 255 501 385 501 C516 501 586 401 559 250 C533 99 428 -1 297 -1 L297 -1 Z M101 250 C74 97 152 -5 296 -5 C440 -5 554 97 582 250 C608 403 530 505 386 505 C242 505 128 403 101 250 L101 250 Z " />
<glyph glyph-name="odieresis" unicode="&#xf6;" horiz-adv-x="594" d="M481 570 C493 570 503 578 505 590 C507 602 500 610 488 610 C476 610 467 602 465 590 C463 578 469 570 481 570 L481 570 Z M314 570 C326 570 336 578 338 590 C340 602 333 610 321 610 C309 610 300 602 298 590 C296 578 302 570 314 570 L314 570 Z M297 -1 C166 -1 97 99 123 250 C150 401 255 501 385 501 C516 501 586 401 559 250 C533 99 428 -1 297 -1 L297 -1 Z M101 250 C74 97 152 -5 296 -5 C440 -5 554 97 582 250 C608 403 530 505 386 505 C242 505 128 403 101 250 L101 250 Z " />
<glyph glyph-name="oslash" unicode="&#xf8;" horiz-adv-x="594" d="M58 -7 C58 -7 136 63 136 63 C170 20 225 -5 296 -5 C440 -5 554 97 582 250 C595 325 583 388 550 432 C550 432 629 503 629 503 C629 503 625 507 625 507 C625 507 546 437 546 437 C512 480 457 505 386 505 C242 505 128 403 101 250 C88 175 100 112 133 67 C133 67 54 -3 54 -3 C54 -3 58 -7 58 -7 L58 -7 Z M297 -1 C229 -1 178 26 148 73 C148 73 538 422 538 422 C563 379 571 320 559 250 C533 99 428 -1 297 -1 C297 -1 297 -1 297 -1 L297 -1 Z M145 78 C119 121 111 180 123 250 C150 401 255 501 385 501 C453 501 505 474 535 427 C535 427 145 78 145 78 L145 78 Z " />
<glyph glyph-name="ugrave" unicode="&#xf9;" horiz-adv-x="489" d="M465 485 C465 485 469 485 469 485 C480 485 485 462 479 427 C479 427 423 110 423 110 C423 110 423 110 423 110 C423 110 420 90 420 90 C391 41 331 8 224 8 C121 8 78 68 94 159 C94 159 154 500 154 500 C154 500 144 500 144 500 C144 500 134 500 134 500 C134 500 110 500 110 500 C110 499 107 485 107 485 C107 485 111 485 111 485 C122 485 126 463 122 430 C122 430 73 156 73 156 C56 60 100 -5 206 -5 C319 -5 386 31 419 85 C419 85 404 0 404 0 C404 0 408 0 408 0 C408 0 450 12 450 12 C449 12 450 12 450 13 C450 17 451 21 451 21 C438 38 435 52 439 84 C439 84 512 500 512 500 C512 500 502 500 502 500 C502 500 492 500 492 500 C492 500 468 500 468 500 C468 499 465 485 465 485 C465 485 465 485 465 485 L465 485 Z M328 671 C309 706 295 729 293 729 C290 729 281 723 280 721 C280 718 294 695 316 663 C316 663 403 532 403 532 C403 532 406 533 406 533 C406 533 328 671 328 671 L328 671 Z " />
<glyph glyph-name="uacute" unicode="&#xfa;" horiz-adv-x="489" d="M296 532 C296 532 426 663 426 663 C459 697 481 720 481 721 C481 723 474 729 471 729 C470 729 449 706 417 671 C417 671 294 533 294 533 C294 533 296 532 296 532 L296 532 Z M465 485 C465 485 469 485 469 485 C480 485 485 462 479 427 C479 427 423 110 423 110 C423 110 423 110 423 110 C423 110 420 90 420 90 C391 41 331 8 224 8 C121 8 78 68 94 159 C94 159 154 500 154 500 C154 500 144 500 144 500 C144 500 134 500 134 500 C134 500 110 500 110 500 C110 499 107 485 107 485 C107 485 111 485 111 485 C122 485 126 463 122 430 C122 430 73 156 73 156 C56 60 100 -5 206 -5 C319 -5 386 31 419 85 C419 85 404 0 404 0 C404 0 408 0 408 0 C408 0 450 12 450 12 C449 12 450 12 450 13 C450 17 451 21 451 21 C438 38 435 52 439 84 C439 84 512 500 512 500 C512 500 502 500 502 500 C502 500 492 500 492 500 C492 500 468 500 468 500 C468 499 465 485 465 485 C465 485 465 485 465 485 L465 485 Z " />
<glyph glyph-name="ucircumflex" unicode="&#xfb;" horiz-adv-x="489" d="M465 485 C465 485 469 485 469 485 C480 485 485 462 479 427 C479 427 423 110 423 110 C423 110 423 110 423 110 C423 110 420 90 420 90 C391 41 331 8 224 8 C121 8 78 68 94 159 C94 159 154 500 154 500 C154 500 144 500 144 500 C144 500 134 500 134 500 C134 500 110 500 110 500 C110 499 107 485 107 485 C107 485 111 485 111 485 C122 485 126 463 122 430 C122 430 73 156 73 156 C56 60 100 -5 206 -5 C319 -5 386 31 419 85 C419 85 404 0 404 0 C404 0 408 0 408 0 C408 0 450 12 450 12 C449 12 450 12 450 13 C450 17 451 21 451 21 C438 38 435 52 439 84 C439 84 512 500 512 500 C512 500 502 500 502 500 C502 500 492 500 492 500 C492 500 468 500 468 500 C468 499 465 485 465 485 C465 485 465 485 465 485 L465 485 Z M362 723 C362 723 443 534 443 534 C443 534 445 536 445 536 C445 536 371 739 371 739 C371 741 369 745 366 745 C362 745 360 742 359 739 C359 739 359 739 359 739 C359 739 213 536 213 536 C213 536 215 534 215 534 C215 534 362 723 362 723 L362 723 Z " />
<glyph glyph-name="udieresis" unicode="&#xfc;" horiz-adv-x="489" d="M419 570 C431 570 440 578 442 590 C444 602 438 610 426 610 C414 610 404 602 402 590 C400 578 407 570 419 570 L419 570 Z M252 570 C264 570 273 578 275 590 C277 602 271 610 259 610 C247 610 237 602 235 590 C233 578 240 570 252 570 L252 570 Z M465 485 C465 485 469 485 469 485 C480 485 485 462 479 427 C479 427 423 110 423 110 C423 110 423 110 423 110 C423 110 420 90 420 90 C391 41 331 8 224 8 C121 8 78 68 94 159 C94 159 154 500 154 500 C154 500 144 500 144 500 C144 500 134 500 134 500 C134 500 110 500 110 500 C110 499 107 485 107 485 C107 485 111 485 111 485 C122 485 126 463 122 430 C122 430 73 156 73 156 C56 60 100 -5 206 -5 C319 -5 386 31 419 85 C419 85 404 0 404 0 C404 0 408 0 408 0 C408 0 450 12 450 12 C449 12 450 12 450 13 C450 17 451 21 451 21 C438 38 435 52 439 84 C439 84 512 500 512 500 C512 500 502 500 502 500 C502 500 492 500 492 500 C492 500 468 500 468 500 C468 499 465 485 465 485 C465 485 465 485 465 485 L465 485 Z " />
<glyph glyph-name="ydieresis" unicode="&#xff;" horiz-adv-x="358" d="M397 570 C409 570 418 578 420 590 C422 602 416 610 404 610 C392 610 382 602 380 590 C378 578 385 570 397 570 L397 570 Z M230 570 C242 570 251 578 253 590 C255 602 249 610 237 610 C225 610 215 602 213 590 C211 578 218 570 230 570 L230 570 Z M496 500 C496 500 478 500 478 500 C478 500 474 500 474 500 C474 500 471 500 471 500 C471 500 447 500 447 500 C447 499 444 485 445 485 C445 485 447 485 447 485 C455 485 452 466 438 437 C438 437 219 15 219 15 C219 15 159 420 159 420 C159 420 159 420 159 420 C153 459 156 485 165 485 C165 485 168 485 168 485 C168 485 169 488 170 493 C170 497 171 500 171 500 C171 500 147 500 147 500 C147 500 136 500 136 500 C136 500 124 500 124 500 C124 500 105 500 105 500 C104 497 103 486 103 485 C103 485 106 485 106 485 C118 485 129 464 135 431 C135 431 205 -7 205 -7 C205 -7 172 -70 172 -70 C116 -176 81 -217 45 -217 C26 -217 14 -193 -6 -193 C-12 -193 -17 -197 -18 -202 C-21 -219 -1 -230 31 -230 C76 -230 117 -186 177 -72 C177 -72 209 -10 209 -10 C209 -10 436 420 436 420 C436 420 436 420 436 420 C456 459 478 485 490 485 C490 485 494 485 494 485 C494 486 496 497 496 500 L496 500 Z " />
<glyph glyph-name="Amacron" unicode="&#x100;" horiz-adv-x="538" d="M251 774 C251 774 551 774 551 774 C551 774 552 785 552 785 C552 785 252 785 252 785 C252 785 251 774 251 774 L251 774 Z M440 0 C440 0 470 0 470 0 C470 0 485 0 485 0 C485 0 501 0 501 0 C501 0 520 0 520 0 C520 0 521 3 521 7 C522 12 523 15 523 15 C523 15 519 15 519 15 C508 15 497 35 490 67 C490 67 387 675 387 675 C387 675 379 675 379 675 C379 675 78 80 78 80 C78 80 78 80 78 80 C59 41 37 15 25 15 C25 15 22 15 22 15 C22 15 21 12 20 8 C20 3 19 0 19 0 C19 0 38 0 38 0 C38 0 43 0 43 0 C43 0 47 0 47 0 C47 0 82 0 82 0 C82 0 83 3 84 8 C84 12 85 15 85 15 C85 15 81 15 81 15 C65 15 71 47 95 95 C95 95 95 95 95 95 C95 95 167 238 167 238 C167 238 432 238 432 238 C432 238 457 80 457 80 C457 80 457 80 457 80 C463 41 458 15 446 15 C446 15 442 15 442 15 C443 15 440 0 440 0 L440 0 Z M430 246 C430 246 171 246 171 246 C171 246 367 636 367 636 C367 636 430 246 430 246 L430 246 Z " />
<glyph glyph-name="amacron" unicode="&#x101;" horiz-adv-x="579" d="M213 614 C213 614 513 614 513 614 C513 614 515 625 515 625 C515 625 215 625 215 625 C215 625 213 614 213 614 L213 614 Z M463 5 C463 5 489 12 489 12 C489 12 489 13 489 13 C490 17 490 21 490 21 C490 21 488 25 488 25 C477 42 474 54 478 86 C502 224 527 362 551 500 C551 500 545 500 545 500 C545 500 512 377 512 377 C510 452 450 505 352 505 C231 505 131 394 102 228 C77 88 138 -5 254 -5 C355 -5 433 39 462 109 C462 109 445 14 445 14 C444 8 443 1 442 -5 C442 -5 445 -5 445 -5 C445 -5 463 5 463 5 L463 5 Z M462 110 C462 110 462 110 462 110 C462 110 463 111 463 111 C463 111 463 110 462 110 C462 110 462 110 462 110 L462 110 Z M465 122 C442 52 366 7 267 7 C157 7 100 98 124 236 C152 394 243 500 350 500 C459 500 520 435 504 347 C491 272 478 197 465 122 C465 122 465 122 465 122 L465 122 Z " />
<glyph glyph-name="Abreve" unicode="&#x102;" horiz-adv-x="538" d="M310 872 C305 819 341 783 402 783 C463 783 512 819 525 872 C525 872 522 872 522 872 C510 826 463 796 404 796 C346 796 309 826 314 872 C314 872 310 872 310 872 L310 872 Z M440 0 C440 0 470 0 470 0 C470 0 485 0 485 0 C485 0 501 0 501 0 C501 0 520 0 520 0 C520 0 521 3 521 7 C522 12 523 15 523 15 C523 15 519 15 519 15 C508 15 497 35 490 67 C490 67 387 675 387 675 C387 675 379 675 379 675 C379 675 78 80 78 80 C78 80 78 80 78 80 C59 41 37 15 25 15 C25 15 22 15 22 15 C22 15 21 12 20 8 C20 3 19 0 19 0 C19 0 38 0 38 0 C38 0 43 0 43 0 C43 0 47 0 47 0 C47 0 82 0 82 0 C82 0 83 3 84 8 C84 12 85 15 85 15 C85 15 81 15 81 15 C65 15 71 47 95 95 C95 95 95 95 95 95 C95 95 167 238 167 238 C167 238 432 238 432 238 C432 238 457 80 457 80 C457 80 457 80 457 80 C463 41 458 15 446 15 C446 15 442 15 442 15 C443 15 440 0 440 0 L440 0 Z M430 246 C430 246 171 246 171 246 C171 246 367 636 367 636 C367 636 430 246 430 246 L430 246 Z " />
<glyph glyph-name="abreve" unicode="&#x103;" horiz-adv-x="579" d="M268 682 C262 629 299 593 360 593 C420 593 469 629 483 682 C483 682 479 682 479 682 C468 636 421 606 362 606 C303 606 267 636 272 682 C272 682 268 682 268 682 L268 682 Z M463 5 C463 5 489 12 489 12 C489 12 489 13 489 13 C490 17 490 21 490 21 C490 21 488 25 488 25 C477 42 474 54 478 86 C502 224 527 362 551 500 C551 500 545 500 545 500 C545 500 512 377 512 377 C510 452 450 505 352 505 C231 505 131 394 102 228 C77 88 138 -5 254 -5 C355 -5 433 39 462 109 C462 109 445 14 445 14 C444 8 443 1 442 -5 C442 -5 445 -5 445 -5 C445 -5 463 5 463 5 L463 5 Z M462 110 C462 110 462 110 462 110 C462 110 463 111 463 111 C463 111 463 110 462 110 C462 110 462 110 462 110 L462 110 Z M465 122 C442 52 366 7 267 7 C157 7 100 98 124 236 C152 394 243 500 350 500 C459 500 520 435 504 347 C491 272 478 197 465 122 C465 122 465 122 465 122 L465 122 Z " />
<glyph glyph-name="Aogonek" unicode="&#x104;" horiz-adv-x="538" d="M440 0 C440 0 460 0 460 0 C414 -21 324 -93 313 -157 C305 -201 334 -231 386 -231 C416 -231 449 -217 470 -197 C470 -197 469 -195 469 -195 C451 -214 420 -226 392 -226 C345 -226 318 -197 325 -154 C337 -88 432 -13 470 0 C470 0 485 0 485 0 C485 0 501 0 501 0 C501 0 520 0 520 0 C520 0 521 3 521 7 C522 12 523 15 523 15 C523 15 519 15 519 15 C508 15 497 35 490 67 C490 67 387 675 387 675 C387 675 379 675 379 675 C379 675 78 80 78 80 C78 80 78 80 78 80 C59 41 37 15 25 15 C25 15 22 15 22 15 C22 15 21 12 20 8 C20 3 19 0 19 0 C19 0 38 0 38 0 C38 0 43 0 43 0 C43 0 47 0 47 0 C47 0 82 0 82 0 C82 0 83 3 84 8 C84 12 85 15 85 15 C85 15 81 15 81 15 C65 15 71 47 95 95 C95 95 95 95 95 95 C95 95 167 238 167 238 C167 238 432 238 432 238 C432 238 457 80 457 80 C457 80 457 80 457 80 C463 41 458 15 446 15 C446 15 442 15 442 15 C443 15 440 0 440 0 C440 0 440 0 440 0 L440 0 Z M430 246 C430 246 171 246 171 246 C171 246 367 636 367 636 C367 636 430 246 430 246 L430 246 Z " />
<glyph glyph-name="aogonek" unicode="&#x105;" horiz-adv-x="482" d="M417 5 C429 14 440 21 449 26 C437 16 426 9 417 5 C417 5 417 5 417 5 L417 5 Z M404 0 C402 0 401 0 399 0 C369 0 365 22 370 54 C370 54 425 363 425 363 C440 448 406 505 339 505 C210 505 134 451 150 369 C150 369 170 369 170 369 C155 447 220 499 334 499 C390 499 419 446 404 367 C404 367 383 245 383 245 C383 245 241 226 241 226 C143 213 71 162 60 100 C49 37 85 -5 152 -5 C219 -5 298 29 354 81 C354 81 349 52 349 52 C342 15 348 -10 384 -10 C387 -10 389 -10 392 -9 C351 -43 311 -91 303 -135 C293 -193 321 -231 373 -231 C403 -231 436 -217 457 -197 C457 -197 456 -195 456 -195 C437 -214 406 -226 379 -226 C331 -226 306 -189 316 -133 C324 -87 365 -39 403 -7 C421 -1 441 13 462 31 C462 31 463 36 463 36 C449 31 427 18 404 0 C404 0 404 0 404 0 L404 0 Z M382 239 C382 239 355 86 355 86 C304 39 230 8 164 8 C104 8 70 47 81 106 C91 162 154 207 239 219 C239 219 382 239 382 239 L382 239 Z " />
<glyph glyph-name="Cacute" unicode="&#x106;" horiz-adv-x="739" d="M486 692 C486 692 616 823 616 823 C649 857 671 880 671 881 C672 883 665 889 661 889 C661 889 639 866 607 831 C607 831 484 693 484 693 C484 693 486 692 486 692 L486 692 Z M765 525 C765 525 773 569 773 569 C745 627 648 665 529 665 C328 665 170 531 134 330 C99 129 210 -5 411 -5 C529 -5 640 33 689 91 C689 91 696 135 696 135 C696 135 683 135 683 135 C678 128 671 119 666 112 C623 55 540 11 459 4 C459 4 459 4 459 4 C444 3 429 2 413 2 C230 2 131 133 166 330 C201 527 346 658 528 658 C559 658 589 655 616 650 C616 650 616 650 616 650 C671 640 722 599 743 548 C746 541 749 532 752 525 C752 525 765 525 765 525 L765 525 Z " />
<glyph glyph-name="cacute" unicode="&#x107;" horiz-adv-x="468" d="M313 532 C313 532 443 663 443 663 C477 697 499 720 499 721 C499 723 492 729 489 729 C488 729 466 706 435 671 C435 671 311 533 311 533 C311 533 313 532 313 532 L313 532 Z M427 103 C427 103 425 104 425 104 C387 46 317 7 251 7 C148 7 96 103 121 246 C148 398 253 499 384 499 C437 499 469 461 463 403 C463 397 466 393 472 393 C477 393 481 397 482 402 C487 464 449 505 387 505 C242 505 127 398 99 238 C73 92 126 -5 232 -5 C306 -5 384 38 427 103 L427 103 Z " />
<glyph glyph-name="Ccircumflex" unicode="&#x108;" horiz-adv-x="739" d="M765 525 C765 525 773 569 773 569 C745 627 648 665 529 665 C328 665 170 531 134 330 C99 129 210 -5 411 -5 C529 -5 640 33 689 91 C689 91 696 135 696 135 C696 135 683 135 683 135 C678 128 671 119 666 112 C623 55 540 11 459 4 C459 4 459 4 459 4 C444 3 429 2 413 2 C230 2 131 133 166 330 C201 527 346 658 528 658 C559 658 589 655 616 650 C616 650 616 650 616 650 C671 640 722 599 743 548 C746 541 749 532 752 525 C752 525 765 525 765 525 L765 525 Z M568 882 C568 882 649 694 649 694 C649 694 651 696 651 696 C651 696 577 899 577 899 C576 901 574 905 572 905 C568 905 566 902 565 899 C565 899 564 899 564 899 C564 899 419 696 419 696 C419 696 420 694 420 694 C420 694 568 882 568 882 L568 882 Z " />
<glyph glyph-name="Cdotaccent" unicode="&#x10a;" horiz-adv-x="739" d="M541 730 C553 730 562 738 564 750 C566 762 560 770 548 770 C536 770 526 762 524 750 C522 738 529 730 541 730 L541 730 Z M765 525 C765 525 773 569 773 569 C745 627 648 665 529 665 C328 665 170 531 134 330 C99 129 210 -5 411 -5 C529 -5 640 33 689 91 C689 91 696 135 696 135 C696 135 683 135 683 135 C678 128 671 119 666 112 C623 55 540 11 459 4 C459 4 459 4 459 4 C444 3 429 2 413 2 C230 2 131 133 166 330 C201 527 346 658 528 658 C559 658 589 655 616 650 C616 650 616 650 616 650 C671 640 722 599 743 548 C746 541 749 532 752 525 C752 525 765 525 765 525 L765 525 Z " />
<glyph glyph-name="cdotaccent" unicode="&#x10b;" horiz-adv-x="468" d="M399 570 C411 570 420 578 422 590 C424 602 418 610 406 610 C394 610 384 602 382 590 C380 578 387 570 399 570 L399 570 Z M427 103 C427 103 425 104 425 104 C387 46 317 7 251 7 C148 7 96 103 121 246 C148 398 253 499 384 499 C437 499 469 461 463 403 C463 397 466 393 472 393 C477 393 481 397 482 402 C487 464 449 505 387 505 C242 505 127 398 99 238 C73 92 126 -5 232 -5 C306 -5 384 38 427 103 L427 103 Z " />
<glyph glyph-name="Ccaron" unicode="&#x10c;" horiz-adv-x="739" d="M765 525 C765 525 773 569 773 569 C745 627 648 665 529 665 C328 665 170 531 134 330 C99 129 210 -5 411 -5 C529 -5 640 33 689 91 C689 91 696 135 696 135 C696 135 683 135 683 135 C678 128 671 119 666 112 C623 55 540 11 459 4 C459 4 459 4 459 4 C444 3 429 2 413 2 C230 2 131 133 166 330 C201 527 346 658 528 658 C559 658 589 655 616 650 C616 650 616 650 616 650 C671 640 722 599 743 548 C746 541 749 532 752 525 C752 525 765 525 765 525 L765 525 Z M542 738 C542 738 690 926 690 926 C690 926 691 924 691 924 C691 924 546 721 546 721 C544 719 541 715 538 715 C535 715 534 719 533 721 C533 721 459 924 459 924 C459 924 461 926 461 926 C461 926 542 738 542 738 L542 738 Z " />
<glyph glyph-name="ccaron" unicode="&#x10d;" horiz-adv-x="468" d="M427 103 C427 103 425 104 425 104 C387 46 317 7 251 7 C148 7 96 103 121 246 C148 398 253 499 384 499 C437 499 469 461 463 403 C463 397 466 393 472 393 C477 393 481 397 482 402 C487 464 449 505 387 505 C242 505 127 398 99 238 C73 92 126 -5 232 -5 C306 -5 384 38 427 103 L427 103 Z M400 577 C400 577 547 766 547 766 C547 766 549 764 549 764 C549 764 403 561 403 561 C403 561 403 561 403 561 C402 558 400 555 396 555 C393 555 391 559 391 561 C391 561 316 764 316 764 C316 764 319 766 319 766 C319 766 400 577 400 577 L400 577 Z " />
<glyph glyph-name="Dcaron" unicode="&#x10e;" horiz-adv-x="627" d="M178 645 C178 645 182 645 182 645 C193 645 198 622 192 587 C192 587 103 80 103 80 C103 80 103 80 103 80 C96 41 83 15 71 15 C71 15 67 15 67 15 C68 15 65 0 65 0 C65 0 89 0 89 0 C89 0 103 0 103 0 C103 0 117 0 117 0 C117 0 287 0 287 0 C457 0 593 132 629 330 C663 528 556 660 361 660 C361 660 234 660 234 660 C234 660 233 654 233 654 C233 654 360 654 360 654 C538 654 634 524 600 330 C566 136 441 6 288 6 C288 6 118 6 118 6 C118 6 234 660 234 660 C234 660 219 660 219 660 C219 660 205 660 205 660 C205 660 181 660 181 660 C181 659 179 645 178 645 C178 645 178 645 178 645 L178 645 Z M445 738 C445 738 593 926 593 926 C593 926 594 924 594 924 C594 924 449 721 449 721 C447 719 444 715 441 715 C438 715 437 719 436 721 C436 721 362 924 362 924 C362 924 364 926 364 926 C364 926 445 738 445 738 L445 738 Z " />
<glyph glyph-name="dcaron" unicode="&#x10f;" horiz-adv-x="601" d="M571 605 C571 605 572 605 572 605 C572 605 535 394 535 394 C523 460 461 505 364 505 C236 505 131 394 102 228 C77 88 143 -5 266 -5 C363 -5 446 24 477 67 C477 67 465 0 465 0 C465 0 469 0 469 0 C469 0 511 12 511 12 C511 12 511 13 511 13 C512 17 512 21 512 21 C512 21 510 25 510 25 C499 41 496 54 500 85 C500 85 608 699 608 699 C608 699 612 720 612 720 C612 720 608 720 608 720 C608 720 566 708 566 708 C566 708 566 707 566 707 C565 702 564 699 564 699 C580 677 582 662 571 605 C571 605 571 605 571 605 L571 605 Z M698 644 C726 701 745 746 746 750 C747 753 738 754 734 754 C729 755 704 693 686 649 C686 649 620 488 620 488 C620 488 623 487 623 487 C623 487 698 644 698 644 L698 644 Z M485 110 C485 110 484 110 484 110 C484 110 478 73 478 73 C453 33 375 7 280 7 C162 7 100 98 124 236 C152 394 248 500 362 500 C466 500 529 448 531 375 C531 375 485 110 485 110 L485 110 Z " />
<glyph glyph-name="Emacron" unicode="&#x112;" horiz-adv-x="463" d="M213 774 C213 774 513 774 513 774 C513 774 514 785 514 785 C514 785 214 785 214 785 C214 785 213 774 213 774 L213 774 Z M493 610 C496 624 499 642 501 656 C502 657 502 659 502 660 C502 660 499 660 499 660 C499 660 422 660 422 660 C422 660 214 660 214 660 C214 660 200 660 200 660 C200 660 186 660 186 660 C186 660 162 660 162 660 C161 660 159 645 159 645 C159 645 163 645 163 645 C175 645 178 619 171 580 C171 580 172 580 172 580 C172 580 83 80 83 80 C83 80 83 80 83 80 C76 41 64 15 52 15 C52 15 48 15 48 15 C48 15 47 12 47 8 C46 3 45 0 45 0 C45 0 69 0 69 0 C69 0 84 0 84 0 C84 0 98 0 98 0 C98 0 313 0 313 0 C313 0 393 0 393 0 C394 1 394 3 395 4 C400 17 406 36 411 50 C411 50 400 50 400 50 C400 50 391 44 391 44 C361 22 301 7 241 7 C241 7 99 7 99 7 C99 7 159 348 159 348 C159 348 269 348 269 348 C323 348 363 340 372 321 C372 321 385 321 385 321 C386 331 388 343 390 352 C390 352 391 356 391 356 C391 356 391 356 391 356 C392 364 393 372 395 379 C395 379 383 379 383 379 C383 379 379 376 379 376 C367 364 331 357 288 356 C288 356 271 356 271 356 C271 356 161 356 161 356 C161 356 160 350 160 350 C160 350 214 660 214 660 C214 660 213 653 213 653 C213 653 346 653 346 653 C406 653 458 638 477 616 C477 616 482 610 482 610 C482 610 493 610 493 610 L493 610 Z " />
<glyph glyph-name="emacron" unicode="&#x113;" horiz-adv-x="474" d="M219 614 C219 614 519 614 519 614 C519 614 521 625 521 625 C521 625 221 625 221 625 C221 625 219 614 219 614 L219 614 Z M434 103 C434 103 431 104 431 104 C394 46 323 7 254 7 C149 7 96 103 121 246 C126 277 134 305 145 331 C145 331 476 331 476 331 C495 435 444 505 350 505 C228 505 127 398 99 238 C73 92 128 -5 235 -5 C312 -5 391 38 434 103 L434 103 Z M146 334 C187 436 262 499 348 499 C431 499 477 435 461 346 C459 342 455 338 449 338 C449 338 459 338 459 338 C459 338 146 334 146 334 L146 334 Z " />
<glyph glyph-name="Ebreve" unicode="&#x114;" horiz-adv-x="463" d="M272 872 C267 819 303 783 364 783 C425 783 474 819 487 872 C487 872 484 872 484 872 C473 826 426 796 366 796 C308 796 271 826 276 872 C276 872 272 872 272 872 L272 872 Z M493 610 C496 624 499 642 501 656 C502 657 502 659 502 660 C502 660 499 660 499 660 C499 660 422 660 422 660 C422 660 214 660 214 660 C214 660 200 660 200 660 C200 660 186 660 186 660 C186 660 162 660 162 660 C161 660 159 645 159 645 C159 645 163 645 163 645 C175 645 178 619 171 580 C171 580 172 580 172 580 C172 580 83 80 83 80 C83 80 83 80 83 80 C76 41 64 15 52 15 C52 15 48 15 48 15 C48 15 47 12 47 8 C46 3 45 0 45 0 C45 0 69 0 69 0 C69 0 84 0 84 0 C84 0 98 0 98 0 C98 0 313 0 313 0 C313 0 393 0 393 0 C394 1 394 3 395 4 C400 17 406 36 411 50 C411 50 400 50 400 50 C400 50 391 44 391 44 C361 22 301 7 241 7 C241 7 99 7 99 7 C99 7 159 348 159 348 C159 348 269 348 269 348 C323 348 363 340 372 321 C372 321 385 321 385 321 C386 331 388 343 390 352 C390 352 391 356 391 356 C391 356 391 356 391 356 C392 364 393 372 395 379 C395 379 383 379 383 379 C383 379 379 376 379 376 C367 364 331 357 288 356 C288 356 271 356 271 356 C271 356 161 356 161 356 C161 356 160 350 160 350 C160 350 214 660 214 660 C214 660 213 653 213 653 C213 653 346 653 346 653 C406 653 458 638 477 616 C477 616 482 610 482 610 C482 610 493 610 493 610 L493 610 Z " />
<glyph glyph-name="ebreve" unicode="&#x115;" horiz-adv-x="474" d="M279 712 C274 659 310 623 371 623 C432 623 481 659 494 712 C494 712 491 712 491 712 C480 666 433 636 373 636 C314 636 278 666 283 712 C283 712 279 712 279 712 L279 712 Z M434 103 C434 103 431 104 431 104 C394 46 323 7 254 7 C149 7 96 103 121 246 C126 277 134 305 145 331 C145 331 476 331 476 331 C495 435 444 505 350 505 C228 505 127 398 99 238 C73 92 128 -5 235 -5 C312 -5 391 38 434 103 L434 103 Z M146 334 C187 436 262 499 348 499 C431 499 477 435 461 346 C459 342 455 338 449 338 C449 338 459 338 459 338 C459 338 146 334 146 334 L146 334 Z " />
<glyph glyph-name="Edotaccent" unicode="&#x116;" horiz-adv-x="463" d="M355 730 C367 730 376 738 378 750 C380 762 374 770 362 770 C350 770 340 762 338 750 C336 738 343 730 355 730 L355 730 Z M493 610 C496 624 499 642 501 656 C502 657 502 659 502 660 C502 660 499 660 499 660 C499 660 422 660 422 660 C422 660 214 660 214 660 C214 660 200 660 200 660 C200 660 186 660 186 660 C186 660 162 660 162 660 C161 660 159 645 159 645 C159 645 163 645 163 645 C175 645 178 619 171 580 C171 580 172 580 172 580 C172 580 83 80 83 80 C83 80 83 80 83 80 C76 41 64 15 52 15 C52 15 48 15 48 15 C48 15 47 12 47 8 C46 3 45 0 45 0 C45 0 69 0 69 0 C69 0 84 0 84 0 C84 0 98 0 98 0 C98 0 313 0 313 0 C313 0 393 0 393 0 C394 1 394 3 395 4 C400 17 406 36 411 50 C411 50 400 50 400 50 C400 50 391 44 391 44 C361 22 301 7 241 7 C241 7 99 7 99 7 C99 7 159 348 159 348 C159 348 269 348 269 348 C323 348 363 340 372 321 C372 321 385 321 385 321 C386 331 388 343 390 352 C390 352 391 356 391 356 C391 356 391 356 391 356 C392 364 393 372 395 379 C395 379 383 379 383 379 C383 379 379 376 379 376 C367 364 331 357 288 356 C288 356 271 356 271 356 C271 356 161 356 161 356 C161 356 160 350 160 350 C160 350 214 660 214 660 C214 660 213 653 213 653 C213 653 346 653 346 653 C406 653 458 638 477 616 C477 616 482 610 482 610 C482 610 493 610 493 610 L493 610 Z " />
<glyph glyph-name="edotaccent" unicode="&#x117;" horiz-adv-x="474" d="M362 570 C374 570 383 578 385 590 C387 602 381 610 369 610 C357 610 347 602 345 590 C343 578 350 570 362 570 L362 570 Z M434 103 C434 103 431 104 431 104 C394 46 323 7 254 7 C149 7 96 103 121 246 C126 277 134 305 145 331 C145 331 476 331 476 331 C495 435 444 505 350 505 C228 505 127 398 99 238 C73 92 128 -5 235 -5 C312 -5 391 38 434 103 L434 103 Z M146 334 C187 436 262 499 348 499 C431 499 477 435 461 346 C459 342 455 338 449 338 C449 338 459 338 459 338 C459 338 146 334 146 334 L146 334 Z " />
<glyph glyph-name="Eogonek" unicode="&#x118;" horiz-adv-x="463" d="M493 610 C496 624 499 642 501 656 C502 657 502 659 502 660 C502 660 499 660 499 660 C499 660 422 660 422 660 C422 660 214 660 214 660 C214 660 200 660 200 660 C200 660 186 660 186 660 C186 660 162 660 162 660 C161 660 159 645 159 645 C159 645 163 645 163 645 C175 645 178 619 171 580 C171 580 172 580 172 580 C172 580 83 80 83 80 C83 80 83 80 83 80 C76 41 64 15 52 15 C52 15 48 15 48 15 C48 15 47 12 47 8 C46 3 45 0 45 0 C45 0 69 0 69 0 C69 0 84 0 84 0 C84 0 98 0 98 0 C98 0 313 0 313 0 C313 0 384 0 384 0 C338 -21 247 -93 236 -157 C228 -201 258 -231 310 -231 C339 -231 373 -217 394 -197 C394 -197 392 -195 392 -195 C374 -214 343 -226 315 -226 C268 -226 241 -197 249 -154 C261 -88 356 -13 393 0 C394 1 394 3 395 4 C400 17 406 36 411 50 C411 50 400 50 400 50 C400 50 391 44 391 44 C361 22 301 7 241 7 C241 7 99 7 99 7 C99 7 159 348 159 348 C159 348 269 348 269 348 C323 348 363 340 372 321 C372 321 385 321 385 321 C386 331 388 343 390 352 C390 352 391 356 391 356 C391 356 391 356 391 356 C392 364 393 372 395 379 C395 379 383 379 383 379 C383 379 379 376 379 376 C367 364 331 357 288 356 C288 356 271 356 271 356 C271 356 161 356 161 356 C161 356 160 350 160 350 C160 350 214 660 214 660 C214 660 213 653 213 653 C213 653 346 653 346 653 C406 653 458 638 477 616 C477 616 482 610 482 610 C482 610 493 610 493 610 L493 610 Z " />
<glyph glyph-name="eogonek" unicode="&#x119;" horiz-adv-x="474" d="M146 334 C187 436 262 499 348 499 C431 499 477 435 461 346 C459 342 455 338 449 338 C449 338 459 338 459 338 C459 338 146 334 146 334 L146 334 Z M145 331 C145 331 476 331 476 331 C495 435 444 505 350 505 C228 505 127 398 99 238 C73 92 128 -5 235 -5 C249 -5 264 -4 278 -1 C230 -26 149 -94 139 -154 C131 -200 160 -231 212 -231 C242 -231 275 -217 296 -197 C296 -197 295 -195 295 -195 C277 -214 246 -226 218 -226 C171 -226 144 -196 152 -152 C164 -86 254 -13 293 3 C350 18 402 54 434 103 C434 103 431 104 431 104 C394 46 323 7 254 7 C149 7 96 103 121 246 C126 277 134 305 145 331 L145 331 Z " />
<glyph glyph-name="Ecaron" unicode="&#x11a;" horiz-adv-x="463" d="M493 610 C496 624 499 642 501 656 C502 657 502 659 502 660 C502 660 499 660 499 660 C499 660 422 660 422 660 C422 660 214 660 214 660 C214 660 200 660 200 660 C200 660 186 660 186 660 C186 660 162 660 162 660 C161 660 159 645 159 645 C159 645 163 645 163 645 C175 645 178 619 171 580 C171 580 172 580 172 580 C172 580 83 80 83 80 C83 80 83 80 83 80 C76 41 64 15 52 15 C52 15 48 15 48 15 C48 15 47 12 47 8 C46 3 45 0 45 0 C45 0 69 0 69 0 C69 0 84 0 84 0 C84 0 98 0 98 0 C98 0 313 0 313 0 C313 0 393 0 393 0 C394 1 394 3 395 4 C400 17 406 36 411 50 C411 50 400 50 400 50 C400 50 391 44 391 44 C361 22 301 7 241 7 C241 7 99 7 99 7 C99 7 159 348 159 348 C159 348 269 348 269 348 C323 348 363 340 372 321 C372 321 385 321 385 321 C386 331 388 343 390 352 C390 352 391 356 391 356 C391 356 391 356 391 356 C392 364 393 372 395 379 C395 379 383 379 383 379 C383 379 379 376 379 376 C367 364 331 357 288 356 C288 356 271 356 271 356 C271 356 161 356 161 356 C161 356 160 350 160 350 C160 350 214 660 214 660 C214 660 213 653 213 653 C213 653 346 653 346 653 C406 653 458 638 477 616 C477 616 482 610 482 610 C482 610 493 610 493 610 L493 610 Z M356 738 C356 738 503 926 503 926 C503 926 505 924 505 924 C505 924 360 721 360 721 C358 719 355 715 352 715 C349 715 347 719 347 721 C347 721 273 924 273 924 C273 924 275 926 275 926 C275 926 356 738 356 738 L356 738 Z " />
<glyph glyph-name="ecaron" unicode="&#x11b;" horiz-adv-x="474" d="M434 103 C434 103 431 104 431 104 C394 46 323 7 254 7 C149 7 96 103 121 246 C126 277 134 305 145 331 C145 331 476 331 476 331 C495 435 444 505 350 505 C228 505 127 398 99 238 C73 92 128 -5 235 -5 C312 -5 391 38 434 103 L434 103 Z M363 578 C363 578 510 766 510 766 C510 766 512 764 512 764 C512 764 366 561 366 561 C366 561 366 561 366 561 C364 558 362 555 359 555 C356 555 354 559 354 561 C354 561 280 764 280 764 C280 764 282 766 282 766 C282 766 363 578 363 578 L363 578 Z M146 334 C187 436 262 499 348 499 C431 499 477 435 461 346 C459 342 455 338 449 338 C449 338 459 338 459 338 C459 338 146 334 146 334 L146 334 Z " />
<glyph glyph-name="Gcircumflex" unicode="&#x11c;" horiz-adv-x="779" d="M732 525 C732 525 745 525 745 525 C745 525 753 569 753 569 C725 627 631 665 518 665 C323 665 170 531 134 330 C99 129 205 -5 400 -5 C488 -5 595 20 667 58 C667 58 679 124 698 230 C698 230 698 230 698 230 C705 269 717 295 729 295 C729 295 733 295 733 295 C733 295 734 298 734 303 C735 307 736 310 736 310 C736 310 712 310 712 310 C712 310 699 310 699 310 C699 310 686 310 686 310 C686 310 662 310 662 310 C662 310 661 307 661 303 C660 298 659 295 659 295 C659 295 663 295 663 295 C673 295 678 275 674 244 C655 136 642 64 640 53 C570 22 478 2 401 2 C226 2 131 133 166 330 C201 527 341 658 517 658 C544 658 571 656 595 651 C595 651 595 651 595 651 C661 640 714 589 732 525 L732 525 Z M557 882 C557 882 638 694 638 694 C638 694 640 696 640 696 C640 696 566 899 566 899 C565 901 563 905 560 905 C557 905 555 902 553 899 C553 899 553 899 553 899 C553 899 407 696 407 696 C407 696 409 694 409 694 C409 694 557 882 557 882 L557 882 Z " />
<glyph glyph-name="Gbreve" unicode="&#x11e;" horiz-adv-x="779" d="M447 872 C442 819 478 783 539 783 C600 783 649 819 662 872 C662 872 658 872 658 872 C647 826 600 796 541 796 C482 796 446 826 451 872 C451 872 447 872 447 872 L447 872 Z M732 525 C732 525 745 525 745 525 C745 525 753 569 753 569 C725 627 631 665 518 665 C323 665 170 531 134 330 C99 129 205 -5 400 -5 C488 -5 595 20 667 58 C667 58 679 124 698 230 C698 230 698 230 698 230 C705 269 717 295 729 295 C729 295 733 295 733 295 C733 295 734 298 734 303 C735 307 736 310 736 310 C736 310 712 310 712 310 C712 310 699 310 699 310 C699 310 686 310 686 310 C686 310 662 310 662 310 C662 310 661 307 661 303 C660 298 659 295 659 295 C659 295 663 295 663 295 C673 295 678 275 674 244 C655 136 642 64 640 53 C570 22 478 2 401 2 C226 2 131 133 166 330 C201 527 341 658 517 658 C544 658 571 656 595 651 C595 651 595 651 595 651 C661 640 714 589 732 525 L732 525 Z " />
<glyph glyph-name="gbreve" unicode="&#x11f;" horiz-adv-x="475" d="M279 712 C274 659 310 623 371 623 C431 623 481 659 494 712 C494 712 490 712 490 712 C479 666 433 636 373 636 C314 636 278 666 283 712 C283 712 279 712 279 712 L279 712 Z M557 500 C557 500 418 495 418 495 C398 502 375 505 350 505 C243 505 161 444 145 352 C131 272 175 215 257 202 C257 202 242 202 242 202 C156 202 94 170 85 122 C77 73 115 40 182 37 C95 10 31 -44 21 -100 C7 -182 55 -236 141 -236 C301 -236 420 -165 438 -59 C451 12 389 59 282 59 C282 59 209 56 209 56 C135 52 91 81 100 130 C107 171 164 199 241 199 C241 199 296 199 296 199 C403 199 485 260 501 352 C512 415 487 464 435 488 C435 488 555 489 555 489 C555 489 557 500 557 500 L557 500 Z M164 352 C180 441 254 501 349 501 C374 501 396 497 415 489 C415 489 415 488 415 488 C415 488 418 488 418 488 C469 466 494 417 482 352 C466 263 392 203 297 203 C201 203 148 263 164 352 C164 352 164 352 164 352 L164 352 Z M190 37 C195 37 201 37 206 37 C206 37 274 40 274 40 C374 40 433 -3 422 -69 C405 -166 294 -231 144 -231 C64 -231 21 -178 35 -98 C45 -42 106 11 190 37 C190 37 190 37 190 37 L190 37 Z " />
<glyph glyph-name="Gdotaccent" unicode="&#x120;" horiz-adv-x="779" d="M530 730 C542 730 551 738 553 750 C555 762 549 770 537 770 C525 770 515 762 513 750 C511 738 518 730 530 730 L530 730 Z M732 525 C732 525 745 525 745 525 C745 525 753 569 753 569 C725 627 631 665 518 665 C323 665 170 531 134 330 C99 129 205 -5 400 -5 C488 -5 595 20 667 58 C667 58 679 124 698 230 C698 230 698 230 698 230 C705 269 717 295 729 295 C729 295 733 295 733 295 C733 295 734 298 734 303 C735 307 736 310 736 310 C736 310 712 310 712 310 C712 310 699 310 699 310 C699 310 686 310 686 310 C686 310 662 310 662 310 C662 310 661 307 661 303 C660 298 659 295 659 295 C659 295 663 295 663 295 C673 295 678 275 674 244 C655 136 642 64 640 53 C570 22 478 2 401 2 C226 2 131 133 166 330 C201 527 341 658 517 658 C544 658 571 656 595 651 C595 651 595 651 595 651 C661 640 714 589 732 525 L732 525 Z " />
<glyph glyph-name="gdotaccent" unicode="&#x121;" horiz-adv-x="475" d="M362 570 C374 570 383 578 385 590 C387 602 381 610 369 610 C357 610 347 602 345 590 C343 578 350 570 362 570 L362 570 Z M557 500 C557 500 418 495 418 495 C398 502 375 505 350 505 C243 505 161 444 145 352 C131 272 175 215 257 202 C257 202 242 202 242 202 C156 202 94 170 85 122 C77 73 115 40 182 37 C95 10 31 -44 21 -100 C7 -182 55 -236 141 -236 C301 -236 420 -165 438 -59 C451 12 389 59 282 59 C282 59 209 56 209 56 C135 52 91 81 100 130 C107 171 164 199 241 199 C241 199 296 199 296 199 C403 199 485 260 501 352 C512 415 487 464 435 488 C435 488 555 489 555 489 C555 489 557 500 557 500 L557 500 Z M164 352 C180 441 254 501 349 501 C374 501 396 497 415 489 C415 489 415 488 415 488 C415 488 418 488 418 488 C469 466 494 417 482 352 C466 263 392 203 297 203 C201 203 148 263 164 352 C164 352 164 352 164 352 L164 352 Z M190 37 C195 37 201 37 206 37 C206 37 274 40 274 40 C374 40 433 -3 422 -69 C405 -166 294 -231 144 -231 C64 -231 21 -178 35 -98 C45 -42 106 11 190 37 C190 37 190 37 190 37 L190 37 Z " />
<glyph glyph-name="Hcircumflex" unicode="&#x124;" horiz-adv-x="672" d="M662 645 C662 645 666 645 666 645 C677 645 682 622 676 587 C676 587 635 351 635 351 C635 351 160 351 160 351 C160 351 200 580 200 580 C200 580 200 580 200 580 C207 619 220 645 232 645 C232 645 235 645 235 645 C236 645 238 659 238 660 C238 660 214 660 214 660 C214 660 200 660 200 660 C200 660 186 660 186 660 C186 660 162 660 162 660 C161 660 159 645 159 645 C159 645 163 645 163 645 C175 645 178 619 171 580 C171 580 172 580 172 580 C172 580 83 80 83 80 C83 80 83 80 83 80 C76 41 64 15 52 15 C52 15 48 15 48 15 C48 15 47 12 47 8 C46 3 45 0 45 0 C45 0 69 0 69 0 C69 0 84 0 84 0 C84 0 98 0 98 0 C98 0 122 0 122 0 C122 1 124 12 124 15 C124 15 121 15 121 15 C110 15 105 38 111 73 C111 73 158 343 158 343 C158 343 633 343 633 343 C633 343 587 80 587 80 C587 80 587 80 587 80 C580 41 567 15 555 15 C555 15 551 15 551 15 C552 15 549 0 549 0 C549 0 573 0 573 0 C573 0 587 0 587 0 C587 0 601 0 601 0 C601 0 625 0 625 0 C625 0 626 3 626 8 C628 12 628 15 628 15 C628 15 624 15 624 15 C613 15 609 39 614 74 C614 74 704 580 704 580 C704 580 704 580 704 580 C711 619 723 645 735 645 C735 645 739 645 739 645 C739 645 740 648 740 653 C741 657 742 660 742 660 C742 660 718 660 718 660 C718 660 703 660 703 660 C703 660 689 660 689 660 C689 660 665 660 665 660 C665 659 663 645 662 645 L662 645 Z M491 882 C491 882 572 694 572 694 C572 694 574 696 574 696 C574 696 500 899 500 899 C500 901 498 905 495 905 C491 905 489 902 488 899 C488 899 487 899 487 899 C487 899 342 696 342 696 C342 696 343 694 343 694 C343 694 491 882 491 882 L491 882 Z " />
<glyph glyph-name="Itilde" unicode="&#x128;" horiz-adv-x="167" d="M72 755 C80 798 104 827 133 827 C195 827 245 764 306 764 C340 764 368 793 376 837 C376 837 373 837 373 837 C366 801 342 777 313 777 C251 777 201 840 139 840 C106 840 77 806 69 755 C69 755 72 755 72 755 L72 755 Z M157 645 C157 645 161 645 161 645 C172 645 176 621 171 586 C171 586 78 64 78 64 C71 34 60 15 50 15 C50 15 46 15 46 15 C47 15 44 0 44 0 C44 0 67 0 67 0 C67 0 82 0 82 0 C82 0 96 0 96 0 C96 0 120 0 120 0 C120 0 121 3 121 8 C122 12 123 15 123 15 C123 15 119 15 119 15 C108 15 104 39 109 74 C109 74 199 580 199 580 C199 580 199 580 199 580 C206 619 218 645 230 645 C230 645 234 645 234 645 C234 645 235 648 235 653 C236 657 237 660 236 660 C236 660 213 660 213 660 C213 660 198 660 198 660 C198 660 184 660 184 660 C184 660 160 660 160 660 C160 659 158 645 157 645 C157 645 157 645 157 645 L157 645 Z " />
<glyph glyph-name="itilde" unicode="&#x129;" horiz-adv-x="171" d="M48 595 C55 638 80 667 108 667 C170 667 220 604 282 604 C316 604 344 633 352 677 C352 677 348 677 348 677 C342 641 318 617 289 617 C227 617 177 680 115 680 C81 680 53 646 44 595 C44 595 48 595 48 595 L48 595 Z M96 0 C96 0 120 0 120 0 C120 1 122 12 122 15 C122 15 117 15 117 15 C106 15 99 13 96 1 C96 1 170 420 170 420 C183 491 185 505 185 505 C185 505 184 505 184 505 C184 505 143 493 143 493 C142 491 141 484 141 483 C141 483 151 461 151 461 C154 456 155 447 150 420 C150 420 150 420 150 420 C150 420 76 0 76 0 C76 0 52 0 52 0 C52 6 55 13 55 15 C55 15 59 15 59 15 C71 15 78 13 76 0 C76 0 96 0 96 0 L96 0 Z " />
<glyph glyph-name="Imacron" unicode="&#x12a;" horiz-adv-x="167" d="M68 774 C68 774 368 774 368 774 C368 774 370 785 370 785 C370 785 70 785 70 785 C70 785 68 774 68 774 L68 774 Z M157 645 C157 645 161 645 161 645 C172 645 176 621 171 586 C171 586 78 64 78 64 C71 34 60 15 50 15 C50 15 46 15 46 15 C47 15 44 0 44 0 C44 0 67 0 67 0 C67 0 82 0 82 0 C82 0 96 0 96 0 C96 0 120 0 120 0 C120 0 121 3 121 8 C122 12 123 15 123 15 C123 15 119 15 119 15 C108 15 104 39 109 74 C109 74 199 580 199 580 C199 580 199 580 199 580 C206 619 218 645 230 645 C230 645 234 645 234 645 C234 645 235 648 235 653 C236 657 237 660 236 660 C236 660 213 660 213 660 C213 660 198 660 198 660 C198 660 184 660 184 660 C184 660 160 660 160 660 C160 659 158 645 157 645 C157 645 157 645 157 645 L157 645 Z " />
<glyph glyph-name="imacron" unicode="&#x12b;" horiz-adv-x="171" d="M44 614 C44 614 344 614 344 614 C344 614 346 625 346 625 C346 625 46 625 46 625 C46 625 44 614 44 614 L44 614 Z M96 0 C96 0 120 0 120 0 C120 1 122 12 122 15 C122 15 117 15 117 15 C106 15 99 13 96 1 C96 1 170 420 170 420 C183 491 185 505 185 505 C185 505 184 505 184 505 C184 505 143 493 143 493 C142 491 141 484 141 483 C141 483 151 461 151 461 C154 456 155 447 150 420 C150 420 150 420 150 420 C150 420 76 0 76 0 C76 0 52 0 52 0 C52 6 55 13 55 15 C55 15 59 15 59 15 C71 15 78 13 76 0 C76 0 96 0 96 0 L96 0 Z " />
<glyph glyph-name="Ibreve" unicode="&#x12c;" horiz-adv-x="167" d="M128 872 C123 819 159 783 220 783 C281 783 330 819 343 872 C343 872 339 872 339 872 C328 826 281 796 222 796 C163 796 127 826 132 872 C132 872 128 872 128 872 L128 872 Z M157 645 C157 645 161 645 161 645 C172 645 176 621 171 586 C171 586 78 64 78 64 C71 34 60 15 50 15 C50 15 46 15 46 15 C47 15 44 0 44 0 C44 0 67 0 67 0 C67 0 82 0 82 0 C82 0 96 0 96 0 C96 0 120 0 120 0 C120 0 121 3 121 8 C122 12 123 15 123 15 C123 15 119 15 119 15 C108 15 104 39 109 74 C109 74 199 580 199 580 C199 580 199 580 199 580 C206 619 218 645 230 645 C230 645 234 645 234 645 C234 645 235 648 235 653 C236 657 237 660 236 660 C236 660 213 660 213 660 C213 660 198 660 198 660 C198 660 184 660 184 660 C184 660 160 660 160 660 C160 659 158 645 157 645 C157 645 157 645 157 645 L157 645 Z " />
<glyph glyph-name="ibreve" unicode="&#x12d;" horiz-adv-x="171" d="M104 712 C99 659 135 623 196 623 C256 623 306 659 319 712 C319 712 315 712 315 712 C304 666 257 636 198 636 C139 636 103 666 108 712 C108 712 104 712 104 712 L104 712 Z M96 0 C96 0 120 0 120 0 C120 1 122 12 122 15 C122 15 117 15 117 15 C106 15 99 13 96 1 C96 1 170 420 170 420 C183 491 185 505 185 505 C185 505 184 505 184 505 C184 505 143 493 143 493 C142 491 141 484 141 483 C141 483 151 461 151 461 C154 456 155 447 150 420 C150 420 150 420 150 420 C150 420 76 0 76 0 C76 0 52 0 52 0 C52 6 55 13 55 15 C55 15 59 15 59 15 C71 15 78 13 76 0 C76 0 96 0 96 0 L96 0 Z " />
<glyph glyph-name="Idotaccent" unicode="&#x130;" horiz-adv-x="167" d="M211 730 C223 730 232 738 234 750 C236 762 230 770 218 770 C206 770 196 762 194 750 C192 738 199 730 211 730 L211 730 Z M157 645 C157 645 161 645 161 645 C172 645 176 621 171 586 C171 586 78 64 78 64 C71 34 60 15 50 15 C50 15 46 15 46 15 C47 15 44 0 44 0 C44 0 67 0 67 0 C67 0 82 0 82 0 C82 0 96 0 96 0 C96 0 120 0 120 0 C120 0 121 3 121 8 C122 12 123 15 123 15 C123 15 119 15 119 15 C108 15 104 39 109 74 C109 74 199 580 199 580 C199 580 199 580 199 580 C206 619 218 645 230 645 C230 645 234 645 234 645 C234 645 235 648 235 653 C236 657 237 660 236 660 C236 660 213 660 213 660 C213 660 198 660 198 660 C198 660 184 660 184 660 C184 660 160 660 160 660 C160 659 158 645 157 645 C157 645 157 645 157 645 L157 645 Z " />
<glyph glyph-name="dotlessi" unicode="&#x131;" horiz-adv-x="171" d="M96 0 C96 0 120 0 120 0 C120 1 122 12 122 15 C122 15 117 15 117 15 C106 15 99 13 96 1 C96 1 170 420 170 420 C183 491 185 505 185 505 C185 505 184 505 184 505 C184 505 143 493 143 493 C142 491 141 484 141 483 C141 483 151 461 151 461 C154 456 155 447 150 420 C150 420 150 420 150 420 C150 420 76 0 76 0 C76 0 52 0 52 0 C52 6 55 13 55 15 C55 15 59 15 59 15 C71 15 78 13 76 0 C76 0 96 0 96 0 L96 0 Z " />
<glyph glyph-name="Jcircumflex" unicode="&#x134;" horiz-adv-x="302" d="M293 645 C293 645 296 645 296 645 C308 645 312 623 306 588 C306 588 238 200 238 200 C212 52 173 -6 97 -6 C62 -6 37 16 35 50 C34 55 31 59 26 59 C20 59 16 55 16 50 C18 14 49 -10 91 -10 C191 -10 242 56 271 224 C271 224 334 580 334 580 C334 580 334 580 334 580 C340 619 353 645 366 645 C366 645 369 645 369 645 C369 645 370 648 370 653 C371 657 372 660 372 660 C372 660 348 660 348 660 C348 660 334 660 334 660 C334 660 319 660 319 660 C319 660 295 660 295 660 C294 657 293 646 293 645 L293 645 Z M373 882 C373 882 454 694 454 694 C454 694 456 696 456 696 C456 696 382 899 382 899 C382 901 380 905 377 905 C373 905 371 902 370 899 C370 899 369 899 369 899 C369 899 224 696 224 696 C224 696 225 694 225 694 C225 694 373 882 373 882 L373 882 Z " />
<glyph glyph-name="Lacute" unicode="&#x139;" horiz-adv-x="463" d="M238 660 C238 660 214 660 214 660 C214 660 200 660 200 660 C200 660 186 660 186 660 C186 660 162 660 162 660 C161 660 159 645 159 645 C159 645 163 645 163 645 C175 645 178 619 171 580 C171 580 172 580 172 580 C172 580 83 80 83 80 C83 80 83 80 83 80 C76 41 64 15 52 15 C52 15 48 15 48 15 C48 15 47 12 47 8 C46 3 45 0 45 0 C45 0 69 0 69 0 C69 0 84 0 84 0 C84 0 98 0 98 0 C98 0 313 0 313 0 C313 0 393 0 393 0 C394 1 394 3 395 4 C400 18 407 38 412 53 C412 53 412 53 412 53 C412 53 412 53 412 53 C412 53 412 53 412 53 C412 52 411 53 409 53 C400 54 394 55 394 55 C394 55 386 48 386 48 C359 24 305 7 251 7 C251 7 99 7 99 7 C99 7 200 580 200 580 C200 580 200 580 200 580 C207 619 220 645 232 645 C232 645 235 645 235 645 C236 645 238 659 238 660 C238 660 238 660 238 660 L238 660 Z M180 692 C180 692 310 823 310 823 C343 857 365 880 366 881 C366 883 359 889 356 889 C355 889 334 866 302 831 C302 831 178 693 178 693 C178 693 180 692 180 692 L180 692 Z " />
<glyph glyph-name="Lcaron" unicode="&#x13d;" horiz-adv-x="463" d="M238 660 C238 660 214 660 214 660 C214 660 200 660 200 660 C200 660 186 660 186 660 C186 660 162 660 162 660 C161 660 159 645 159 645 C159 645 163 645 163 645 C175 645 178 619 171 580 C171 580 172 580 172 580 C172 580 83 80 83 80 C83 80 83 80 83 80 C76 41 64 15 52 15 C52 15 48 15 48 15 C48 15 47 12 47 8 C46 3 45 0 45 0 C45 0 69 0 69 0 C69 0 84 0 84 0 C84 0 98 0 98 0 C98 0 313 0 313 0 C313 0 393 0 393 0 C394 1 394 3 395 4 C400 18 407 38 412 53 C412 53 412 53 412 53 C412 53 412 53 412 53 C412 53 412 53 412 53 C412 52 411 53 409 53 C400 54 394 55 394 55 C394 55 386 48 386 48 C359 24 305 7 251 7 C251 7 99 7 99 7 C99 7 200 580 200 580 C200 580 200 580 200 580 C207 619 220 645 232 645 C232 645 235 645 235 645 C236 645 238 659 238 660 C238 660 238 660 238 660 L238 660 Z M324 584 C352 641 372 686 372 690 C373 693 365 694 361 694 C356 695 330 633 312 589 C312 589 247 428 247 428 C247 428 249 427 249 427 C249 427 324 584 324 584 L324 584 Z " />
<glyph glyph-name="lcaron" unicode="&#x13e;" horiz-adv-x="171" d="M182 605 C182 605 183 605 183 605 C183 605 90 80 90 80 C90 80 90 80 90 80 C83 41 70 15 58 15 C58 15 55 15 55 15 C55 13 52 6 52 0 C52 0 76 0 76 0 C76 0 86 0 86 0 C86 0 96 0 96 0 C96 0 120 0 120 0 C120 1 122 12 122 15 C122 15 119 15 119 15 C107 15 103 37 109 72 C109 72 219 699 219 699 C219 699 223 720 223 720 C223 720 219 720 219 720 C219 720 177 708 177 708 C177 708 177 707 177 707 C176 702 175 699 175 699 C191 677 193 662 182 605 L182 605 Z M303 614 C331 671 351 716 352 720 C352 723 344 724 340 724 C335 725 309 663 292 619 C292 619 226 458 226 458 C226 458 228 457 228 457 C228 457 303 614 303 614 L303 614 Z " />
<glyph glyph-name="Lslash" unicode="&#x141;" horiz-adv-x="463" d="M68 277 C68 277 122 299 122 299 C122 299 83 80 83 80 C83 80 83 80 83 80 C76 41 64 15 52 15 C52 15 48 15 48 15 C48 15 47 12 47 8 C46 3 45 0 45 0 C45 0 69 0 69 0 C69 0 84 0 84 0 C84 0 98 0 98 0 C98 0 313 0 313 0 C313 0 393 0 393 0 C394 1 394 3 395 4 C400 18 407 38 412 53 C412 53 412 53 412 53 C412 53 412 53 412 53 C412 53 412 53 412 53 C412 52 411 53 409 53 C400 54 394 55 394 55 C394 55 386 48 386 48 C359 24 305 7 251 7 C251 7 99 7 99 7 C99 7 153 312 153 312 C153 312 312 377 312 377 C312 377 313 383 313 383 C313 383 154 318 154 318 C154 318 200 580 200 580 C200 580 200 580 200 580 C207 619 220 645 232 645 C232 645 235 645 235 645 C236 645 238 659 238 660 C238 660 214 660 214 660 C214 660 200 660 200 660 C200 660 186 660 186 660 C186 660 162 660 162 660 C161 660 159 645 159 645 C159 645 163 645 163 645 C175 645 178 619 171 580 C171 580 172 580 172 580 C172 580 123 305 123 305 C123 305 69 283 69 283 C69 283 68 277 68 277 L68 277 Z " />
<glyph glyph-name="lslash" unicode="&#x142;" horiz-adv-x="171" d="M30 307 C30 307 138 353 138 353 C138 353 90 80 90 80 C90 80 90 80 90 80 C83 41 70 15 58 15 C58 15 55 15 55 15 C55 13 52 6 52 0 C52 0 76 0 76 0 C76 0 86 0 86 0 C86 0 96 0 96 0 C96 0 120 0 120 0 C120 1 122 12 122 15 C122 15 119 15 119 15 C107 15 103 37 109 72 C109 72 160 362 160 362 C160 362 267 407 267 407 C267 407 269 413 269 413 C269 413 161 368 161 368 C161 368 219 699 219 699 C219 699 223 720 223 720 C223 720 219 720 219 720 C219 720 177 708 177 708 C177 708 177 707 177 707 C176 702 175 699 175 699 C191 677 193 662 182 605 C182 605 183 605 183 605 C183 605 139 358 139 358 C139 358 31 313 31 313 C31 313 30 307 30 307 L30 307 Z " />
<glyph glyph-name="Nacute" unicode="&#x143;" horiz-adv-x="598" d="M394 692 C394 692 524 823 524 823 C557 857 580 880 579 881 C580 883 573 889 570 889 C569 889 547 866 515 831 C515 831 392 693 392 693 C392 693 394 692 394 692 L394 692 Z M675 660 C675 660 651 660 651 660 C651 660 646 660 646 660 C646 660 642 660 642 660 C642 660 618 660 618 660 C617 657 616 646 616 645 C616 645 619 645 619 645 C631 645 634 623 630 590 C630 590 532 36 532 36 C532 36 220 660 220 660 C220 660 199 650 199 650 C199 650 199 651 199 651 C199 651 220 660 220 660 C220 660 201 660 201 660 C201 660 196 660 196 660 C196 660 192 660 192 660 C192 660 168 660 168 660 C168 659 166 645 165 645 C165 645 169 645 169 645 C180 645 185 622 179 587 C179 587 90 80 90 80 C90 80 90 80 90 80 C83 41 70 15 58 15 C58 15 54 15 54 15 C55 15 52 0 52 0 C52 0 76 0 76 0 C76 0 80 0 80 0 C80 0 84 0 84 0 C84 0 108 0 108 0 C108 0 109 3 109 8 C110 12 111 15 111 15 C111 15 107 15 107 15 C96 15 92 37 96 70 C96 70 197 637 197 637 C197 637 513 4 513 4 C513 4 518 -4 518 -4 C518 -4 534 -4 534 -4 C534 -4 537 15 537 15 C537 15 637 580 637 580 C637 580 637 580 637 580 C644 619 656 645 668 645 C668 645 672 645 672 645 C672 645 674 660 675 660 C675 660 675 660 675 660 L675 660 Z " />
<glyph glyph-name="nacute" unicode="&#x144;" horiz-adv-x="524" d="M280 532 C280 532 410 663 410 663 C443 697 465 720 465 721 C466 723 459 729 455 729 C455 729 433 706 401 671 C401 671 278 533 278 533 C278 533 280 532 280 532 L280 532 Z M480 15 C480 15 477 15 477 15 C465 15 461 38 467 74 C467 74 513 336 513 336 C531 437 506 505 409 505 C305 505 208 458 164 387 C164 387 169 415 169 415 C169 415 169 415 169 415 C169 415 184 500 184 500 C184 500 180 500 180 500 C180 500 138 488 138 488 C138 488 138 487 138 487 C137 482 136 479 136 479 C153 456 154 442 143 385 C143 385 144 385 144 385 C144 385 90 80 90 80 C90 80 90 80 90 80 C83 41 70 15 58 15 C58 15 54 15 54 15 C55 15 52 0 52 0 C52 0 76 0 76 0 C76 0 86 0 86 0 C86 0 96 0 96 0 C96 0 120 0 120 0 C119 0 122 14 122 15 C122 15 119 15 119 15 C107 15 103 38 109 72 C109 72 163 382 163 382 C202 448 293 492 392 492 C485 492 509 429 492 333 C492 333 447 75 447 75 C440 39 428 15 416 15 C416 15 412 15 412 15 C413 15 410 0 410 0 C410 0 434 0 434 0 C434 0 444 0 444 0 C444 0 454 0 454 0 C454 0 478 0 478 0 C477 0 480 15 480 15 C480 15 480 15 480 15 L480 15 Z " />
<glyph glyph-name="Ncaron" unicode="&#x147;" horiz-adv-x="598" d="M675 660 C675 660 651 660 651 660 C651 660 646 660 646 660 C646 660 642 660 642 660 C642 660 618 660 618 660 C617 657 616 646 616 645 C616 645 619 645 619 645 C631 645 634 623 630 590 C630 590 532 36 532 36 C532 36 220 660 220 660 C220 660 199 650 199 650 C199 650 199 651 199 651 C199 651 220 660 220 660 C220 660 201 660 201 660 C201 660 196 660 196 660 C196 660 192 660 192 660 C192 660 168 660 168 660 C168 659 166 645 165 645 C165 645 169 645 169 645 C180 645 185 622 179 587 C179 587 90 80 90 80 C90 80 90 80 90 80 C83 41 70 15 58 15 C58 15 54 15 54 15 C55 15 52 0 52 0 C52 0 76 0 76 0 C76 0 80 0 80 0 C80 0 84 0 84 0 C84 0 108 0 108 0 C108 0 109 3 109 8 C110 12 111 15 111 15 C111 15 107 15 107 15 C96 15 92 37 96 70 C96 70 197 637 197 637 C197 637 513 4 513 4 C513 4 518 -4 518 -4 C518 -4 534 -4 534 -4 C534 -4 537 15 537 15 C537 15 637 580 637 580 C637 580 637 580 637 580 C644 619 656 645 668 645 C668 645 672 645 672 645 C672 645 674 660 675 660 C675 660 675 660 675 660 L675 660 Z M435 738 C435 738 582 926 582 926 C582 926 584 924 584 924 C584 924 438 721 438 721 C438 721 438 721 438 721 C436 718 434 715 431 715 C428 715 426 719 426 721 C426 721 352 924 352 924 C352 924 354 926 354 926 C354 926 435 738 435 738 L435 738 Z " />
<glyph glyph-name="ncaron" unicode="&#x148;" horiz-adv-x="524" d="M480 15 C480 15 477 15 477 15 C465 15 461 38 467 74 C467 74 513 336 513 336 C531 437 506 505 409 505 C305 505 208 458 164 387 C164 387 169 415 169 415 C169 415 169 415 169 415 C169 415 184 500 184 500 C184 500 180 500 180 500 C180 500 138 488 138 488 C138 488 138 487 138 487 C137 482 136 479 136 479 C153 456 154 442 143 385 C143 385 144 385 144 385 C144 385 90 80 90 80 C90 80 90 80 90 80 C83 41 70 15 58 15 C58 15 54 15 54 15 C55 15 52 0 52 0 C52 0 76 0 76 0 C76 0 86 0 86 0 C86 0 96 0 96 0 C96 0 120 0 120 0 C119 0 122 14 122 15 C122 15 119 15 119 15 C107 15 103 38 109 72 C109 72 163 382 163 382 C202 448 293 492 392 492 C485 492 509 429 492 333 C492 333 447 75 447 75 C440 39 428 15 416 15 C416 15 412 15 412 15 C413 15 410 0 410 0 C410 0 434 0 434 0 C434 0 444 0 444 0 C444 0 454 0 454 0 C454 0 478 0 478 0 C477 0 480 15 480 15 C480 15 480 15 480 15 L480 15 Z M366 578 C366 578 514 766 514 766 C514 766 516 764 516 764 C516 764 370 561 370 561 C370 561 370 561 370 561 C369 558 367 555 363 555 C359 555 358 559 357 561 C357 561 283 764 283 764 C283 764 285 766 285 766 C285 766 366 578 366 578 L366 578 Z " />
<glyph glyph-name="Omacron" unicode="&#x14c;" horiz-adv-x="772" d="M382 774 C382 774 682 774 682 774 C682 774 684 785 684 785 C684 785 384 785 384 785 C384 785 382 774 382 774 L382 774 Z M396 2 C206 2 135 153 166 330 C197 507 322 658 512 658 C702 658 774 507 742 330 C711 153 586 2 396 2 L396 2 Z M134 330 C102 149 184 -5 395 -5 C606 -5 742 149 774 330 C806 511 724 665 513 665 C302 665 166 511 134 330 L134 330 Z " />
<glyph glyph-name="omacron" unicode="&#x14d;" horiz-adv-x="594" d="M256 614 C256 614 556 614 556 614 C556 614 557 625 557 625 C557 625 257 625 257 625 C257 625 256 614 256 614 L256 614 Z M297 -1 C166 -1 97 99 123 250 C150 401 255 501 385 501 C516 501 586 401 559 250 C533 99 428 -1 297 -1 L297 -1 Z M101 250 C74 97 152 -5 296 -5 C440 -5 554 97 582 250 C608 403 530 505 386 505 C242 505 128 403 101 250 L101 250 Z " />
<glyph glyph-name="Obreve" unicode="&#x14e;" horiz-adv-x="772" d="M442 872 C437 819 473 783 534 783 C595 783 644 819 657 872 C657 872 654 872 654 872 C642 826 595 796 536 796 C477 796 441 826 446 872 C446 872 442 872 442 872 L442 872 Z M396 2 C206 2 135 153 166 330 C197 507 322 658 512 658 C702 658 774 507 742 330 C711 153 586 2 396 2 L396 2 Z M134 330 C102 149 184 -5 395 -5 C606 -5 742 149 774 330 C806 511 724 665 513 665 C302 665 166 511 134 330 L134 330 Z " />
<glyph glyph-name="obreve" unicode="&#x14f;" horiz-adv-x="594" d="M315 712 C310 659 346 623 407 623 C468 623 517 659 530 712 C530 712 527 712 527 712 C516 666 469 636 409 636 C350 636 314 666 319 712 C319 712 315 712 315 712 L315 712 Z M297 -1 C166 -1 97 99 123 250 C150 401 255 501 385 501 C516 501 586 401 559 250 C533 99 428 -1 297 -1 L297 -1 Z M101 250 C74 97 152 -5 296 -5 C440 -5 554 97 582 250 C608 403 530 505 386 505 C242 505 128 403 101 250 L101 250 Z " />
<glyph glyph-name="Racute" unicode="&#x154;" horiz-adv-x="557" d="M178 645 C178 645 182 645 182 645 C193 645 198 622 192 587 C192 587 103 80 103 80 C103 80 103 80 103 80 C96 41 83 15 71 15 C71 15 67 15 67 15 C68 15 65 0 65 0 C65 0 89 0 89 0 C89 0 103 0 103 0 C103 0 117 0 117 0 C117 0 141 0 141 0 C141 0 141 3 143 8 C143 12 144 15 144 15 C144 15 140 15 140 15 C129 15 125 39 130 74 C130 74 234 660 234 660 C234 660 233 654 233 654 C233 654 385 654 385 654 C476 654 526 588 509 490 C491 390 406 324 296 324 C296 324 280 324 280 324 C280 324 175 324 175 324 C175 324 174 319 174 319 C174 319 284 319 284 319 C284 319 438 106 438 106 C511 4 515 0 539 0 C539 0 550 0 550 0 C550 0 551 4 551 4 C551 4 546 4 546 4 C538 4 535 8 467 102 C467 102 309 319 309 319 C431 324 522 391 539 490 C557 592 496 660 386 660 C386 660 234 660 234 660 C234 660 219 660 219 660 C219 660 205 660 205 660 C205 660 181 660 181 660 C181 659 179 645 178 645 C178 645 178 645 178 645 L178 645 Z M314 692 C314 692 444 823 444 823 C477 857 499 880 499 881 C500 883 493 889 489 889 C489 889 467 866 435 831 C435 831 312 693 312 693 C312 693 314 692 314 692 L314 692 Z " />
<glyph glyph-name="Rcaron" unicode="&#x158;" horiz-adv-x="496" d="M178 645 C178 645 182 645 182 645 C193 645 198 622 192 587 C192 587 103 80 103 80 C103 80 103 80 103 80 C96 41 83 15 71 15 C71 15 67 15 67 15 C68 15 65 0 65 0 C65 0 89 0 89 0 C89 0 103 0 103 0 C103 0 117 0 117 0 C117 0 141 0 141 0 C141 0 141 3 143 8 C143 12 144 15 144 15 C144 15 140 15 140 15 C129 15 125 39 130 74 C130 74 234 660 234 660 C234 660 233 654 233 654 C233 654 385 654 385 654 C476 654 526 588 509 490 C491 390 406 324 296 324 C296 324 175 324 175 324 C175 324 174 319 174 319 C174 319 296 319 296 319 C325 163 400 19 483 -42 C483 -42 485 -39 485 -39 C417 12 351 155 320 320 C436 328 522 394 539 490 C557 592 496 660 386 660 C386 660 234 660 234 660 C234 660 219 660 219 660 C219 660 205 660 205 660 C205 660 181 660 181 660 C181 659 179 645 178 645 C178 645 178 645 178 645 L178 645 Z M400 738 C400 738 548 926 548 926 C548 926 550 924 550 924 C550 924 404 721 404 721 C404 721 404 721 404 721 C403 718 401 715 397 715 C393 715 392 719 391 721 C391 721 317 924 317 924 C317 924 320 926 320 926 C320 926 400 738 400 738 L400 738 Z " />
<glyph glyph-name="rcaron" unicode="&#x159;" horiz-adv-x="366" d="M143 385 C143 385 144 385 144 385 C144 385 90 80 90 80 C90 80 90 80 90 80 C83 41 70 15 58 15 C58 15 54 15 54 15 C55 15 52 0 52 0 C52 0 76 0 76 0 C76 0 86 0 86 0 C86 0 96 0 96 0 C96 0 120 0 120 0 C119 0 122 14 122 15 C122 15 119 15 119 15 C107 15 103 38 109 72 C109 72 161 369 161 369 C191 443 256 490 326 490 C359 490 389 460 421 460 C427 460 432 464 433 470 C437 491 413 505 345 505 C267 505 195 453 162 374 C162 374 169 415 169 415 C169 415 168 415 168 415 C168 415 181 500 181 500 C181 500 177 500 177 500 C177 500 138 488 138 488 C138 488 138 487 138 487 C137 482 136 479 136 479 C153 456 154 442 143 385 C143 385 143 385 143 385 L143 385 Z M267 578 C267 578 415 766 415 766 C415 766 417 764 417 764 C417 764 271 561 271 561 C271 561 271 561 271 561 C270 558 268 555 264 555 C260 555 259 559 258 561 C258 561 184 764 184 764 C184 764 187 766 187 766 C187 766 267 578 267 578 L267 578 Z " />
<glyph glyph-name="Sacute" unicode="&#x15a;" horiz-adv-x="513" d="M310 692 C310 692 440 823 440 823 C473 857 495 880 495 881 C496 883 489 889 485 889 C485 889 463 866 431 831 C431 831 308 693 308 693 C308 693 310 692 310 692 L310 692 Z M72 126 C72 126 64 80 64 80 C89 29 178 -5 287 -5 C391 -5 473 61 490 161 C504 236 440 308 331 341 C224 374 160 438 171 501 C188 595 260 658 352 658 C377 658 401 655 423 648 C423 648 423 648 423 648 C454 640 484 608 500 568 C504 558 509 544 513 534 C513 534 526 534 526 534 C526 534 534 580 534 580 C509 631 437 665 355 665 C250 665 168 595 149 489 C137 419 199 351 305 319 C414 285 480 217 468 149 C452 61 380 2 288 2 C262 2 237 4 214 8 C161 20 114 57 94 104 C91 111 88 119 85 126 C85 126 72 126 72 126 L72 126 Z " />
<glyph glyph-name="sacute" unicode="&#x15b;" horiz-adv-x="436" d="M227 532 C227 532 357 663 357 663 C390 697 412 720 412 721 C412 723 405 729 402 729 C401 729 379 706 348 671 C348 671 225 533 225 533 C225 533 227 532 227 532 L227 532 Z M72 94 C72 94 67 63 67 63 C87 22 156 -5 240 -5 C323 -5 388 48 402 128 C411 175 365 226 288 257 C205 290 155 344 163 392 C175 457 229 501 300 501 C316 501 331 499 345 494 C345 494 345 494 345 494 C380 483 404 447 415 404 C415 404 427 404 427 404 C427 404 432 432 432 432 C432 432 429 430 429 430 C429 430 429 430 429 430 C429 430 432 432 432 432 C410 476 358 505 300 505 C221 505 159 457 147 385 C138 334 188 277 271 243 C347 213 392 164 384 120 C372 48 314 0 242 0 C221 0 200 2 181 5 C144 15 108 43 91 78 C89 83 86 89 83 94 C83 94 72 94 72 94 L72 94 Z " />
<glyph glyph-name="Scircumflex" unicode="&#x15c;" horiz-adv-x="513" d="M72 126 C72 126 64 80 64 80 C89 29 178 -5 287 -5 C391 -5 473 61 490 161 C504 236 440 308 331 341 C224 374 160 438 171 501 C188 595 260 658 352 658 C377 658 401 655 423 648 C423 648 423 648 423 648 C454 640 484 608 500 568 C504 558 509 544 513 534 C513 534 526 534 526 534 C526 534 534 580 534 580 C509 631 437 665 355 665 C250 665 168 595 149 489 C137 419 199 351 305 319 C414 285 480 217 468 149 C452 61 380 2 288 2 C262 2 237 4 214 8 C161 20 114 57 94 104 C91 111 88 119 85 126 C85 126 72 126 72 126 L72 126 Z M392 882 C392 882 473 694 473 694 C473 694 475 696 475 696 C475 696 401 899 401 899 C400 901 398 905 396 905 C392 905 390 902 389 899 C389 899 388 899 388 899 C388 899 243 696 243 696 C243 696 244 694 244 694 C244 694 392 882 392 882 L392 882 Z " />
<glyph glyph-name="Scedilla" unicode="&#x15e;" horiz-adv-x="513" d="M72 126 C72 126 64 80 64 80 C89 29 178 -5 287 -5 C391 -5 473 61 490 161 C504 236 440 308 331 341 C224 374 160 438 171 501 C188 595 260 658 352 658 C377 658 401 655 423 648 C423 648 423 648 423 648 C454 640 484 608 500 568 C504 558 509 544 513 534 C513 534 526 534 526 534 C526 534 534 580 534 580 C509 631 437 665 355 665 C250 665 168 595 149 489 C137 419 199 351 305 319 C414 285 480 217 468 149 C452 61 380 2 288 2 C262 2 237 4 214 8 C161 20 114 57 94 104 C91 111 88 119 85 126 C85 126 72 126 72 126 L72 126 Z " />
<glyph glyph-name="scedilla" unicode="&#x15f;" horiz-adv-x="436" d="M72 94 C72 94 67 63 67 63 C87 22 156 -5 240 -5 C323 -5 388 48 402 128 C411 175 365 226 288 257 C205 290 155 344 163 392 C175 457 229 501 300 501 C316 501 331 499 345 494 C345 494 345 494 345 494 C380 483 404 447 415 404 C415 404 427 404 427 404 C427 404 432 432 432 432 C432 432 429 430 429 430 C429 430 429 430 429 430 C429 430 432 432 432 432 C410 476 358 505 300 505 C221 505 159 457 147 385 C138 334 188 277 271 243 C347 213 392 164 384 120 C372 48 314 0 242 0 C221 0 200 2 181 5 C144 15 108 43 91 78 C89 83 86 89 83 94 C83 94 72 94 72 94 L72 94 Z " />
<glyph glyph-name="Scaron" unicode="&#x160;" horiz-adv-x="513" d="M72 126 C72 126 64 80 64 80 C89 29 178 -5 287 -5 C391 -5 473 61 490 161 C504 236 440 308 331 341 C224 374 160 438 171 501 C188 595 260 658 352 658 C377 658 401 655 423 648 C423 648 423 648 423 648 C454 640 484 608 500 568 C504 558 509 544 513 534 C513 534 526 534 526 534 C526 534 534 580 534 580 C509 631 437 665 355 665 C250 665 168 595 149 489 C137 419 199 351 305 319 C414 285 480 217 468 149 C452 61 380 2 288 2 C262 2 237 4 214 8 C161 20 114 57 94 104 C91 111 88 119 85 126 C85 126 72 126 72 126 L72 126 Z M366 738 C366 738 514 926 514 926 C514 926 515 924 515 924 C515 924 370 721 370 721 C368 719 365 715 362 715 C359 715 358 719 357 721 C357 721 283 924 283 924 C283 924 285 926 285 926 C285 926 366 738 366 738 L366 738 Z " />
<glyph glyph-name="scaron" unicode="&#x161;" horiz-adv-x="436" d="M72 94 C72 94 67 63 67 63 C87 22 156 -5 240 -5 C323 -5 388 48 402 128 C411 175 365 226 288 257 C205 290 155 344 163 392 C175 457 229 501 300 501 C316 501 331 499 345 494 C345 494 345 494 345 494 C380 483 404 447 415 404 C415 404 427 404 427 404 C427 404 432 432 432 432 C432 432 429 430 429 430 C429 430 429 430 429 430 C429 430 432 432 432 432 C410 476 358 505 300 505 C221 505 159 457 147 385 C138 334 188 277 271 243 C347 213 392 164 384 120 C372 48 314 0 242 0 C221 0 200 2 181 5 C144 15 108 43 91 78 C89 83 86 89 83 94 C83 94 72 94 72 94 L72 94 Z M313 578 C313 578 460 766 460 766 C460 766 462 764 462 764 C462 764 317 561 317 561 C315 559 312 555 309 555 C306 555 304 559 304 561 C304 561 230 764 230 764 C230 764 232 766 232 766 C232 766 313 578 313 578 L313 578 Z " />
<glyph glyph-name="Tcaron" unicode="&#x164;" horiz-adv-x="633" d="M279 0 C279 0 303 0 303 0 C303 0 317 0 317 0 C317 0 331 0 331 0 C331 0 355 0 355 0 C355 0 356 3 356 8 C358 12 358 15 358 15 C358 15 354 15 354 15 C342 15 339 40 345 77 C345 77 446 653 446 653 C446 653 568 653 568 653 C616 653 663 637 685 612 C685 612 692 605 692 605 C692 605 704 605 704 605 C705 621 707 641 708 656 C708 657 709 659 709 660 C709 660 703 660 703 660 C703 660 629 660 629 660 C629 660 238 660 238 660 C238 660 163 660 163 660 C163 660 158 660 158 660 C158 659 157 657 157 656 C153 641 148 621 143 605 C143 605 155 605 155 605 C155 605 165 612 165 612 C195 637 248 653 296 653 C296 653 418 653 418 653 C418 653 317 80 317 80 C317 80 317 80 317 80 C310 41 297 15 285 15 C285 15 281 15 281 15 C282 15 279 0 279 0 L279 0 Z M447 737 C447 737 594 926 594 926 C594 926 596 924 596 924 C596 924 450 721 450 721 C450 721 450 721 450 721 C449 718 447 715 443 715 C440 715 438 719 438 721 C438 721 364 924 364 924 C364 924 366 926 366 926 C366 926 447 737 447 737 L447 737 Z " />
<glyph glyph-name="tcaron" unicode="&#x165;" horiz-adv-x="357" d="M408 500 C408 500 227 500 227 500 C236 547 244 593 252 640 C252 640 248 640 248 640 C248 640 208 499 208 499 C208 499 208 499 208 499 C208 499 215 525 215 525 C215 525 215 525 215 525 C215 525 215 525 215 525 C210 509 171 497 119 494 C119 494 119 492 119 492 C119 492 206 492 206 492 C206 492 138 110 138 110 C123 20 136 -5 201 -5 C259 -5 304 35 347 94 C347 94 345 95 345 95 C305 40 264 4 212 4 C156 4 144 27 158 106 C181 235 203 363 226 492 C226 492 407 492 407 492 C407 492 408 500 408 500 L408 500 Z M528 614 C555 671 575 716 576 720 C577 723 568 724 564 724 C559 725 534 663 516 619 C516 619 450 458 450 458 C450 458 452 457 452 457 C452 457 528 614 528 614 L528 614 Z " />
<glyph glyph-name="Utilde" unicode="&#x168;" horiz-adv-x="596" d="M300 755 C308 798 332 827 361 827 C423 827 473 764 535 764 C569 764 597 793 605 837 C605 837 601 837 601 837 C595 801 571 777 541 777 C479 777 430 840 368 840 C334 840 306 806 297 755 C297 755 300 755 300 755 L300 755 Z M621 645 C621 645 625 645 625 645 C640 645 644 615 636 570 C636 570 636 570 636 570 C636 570 566 176 566 176 C548 73 475 5 320 5 C167 5 122 82 142 198 C142 198 210 580 210 580 C210 580 210 580 210 580 C217 619 229 645 241 645 C241 645 245 645 245 645 C245 645 247 660 248 660 C248 660 224 660 224 660 C224 660 209 660 209 660 C209 660 195 660 195 660 C195 660 171 660 171 660 C171 659 169 645 168 645 C168 645 172 645 172 645 C183 645 187 623 183 590 C183 590 114 203 114 203 C93 78 144 -5 314 -5 C478 -5 554 66 573 173 C573 173 645 578 645 578 C653 619 666 645 679 645 C679 645 683 645 683 645 C683 645 684 648 684 653 C685 657 686 660 686 660 C686 660 659 660 659 660 C659 660 655 660 655 660 C655 660 652 660 652 660 C652 660 623 660 623 660 C622 657 621 646 621 645 L621 645 Z " />
<glyph glyph-name="utilde" unicode="&#x169;" horiz-adv-x="489" d="M196 595 C204 638 228 667 257 667 C319 667 369 604 431 604 C465 604 493 633 501 677 C501 677 497 677 497 677 C491 641 467 617 438 617 C376 617 326 680 264 680 C230 680 202 646 193 595 C193 595 196 595 196 595 L196 595 Z M465 485 C465 485 469 485 469 485 C480 485 485 462 479 427 C479 427 423 110 423 110 C423 110 423 110 423 110 C423 110 420 90 420 90 C391 41 331 8 224 8 C121 8 78 68 94 159 C94 159 154 500 154 500 C154 500 144 500 144 500 C144 500 134 500 134 500 C134 500 110 500 110 500 C110 499 107 485 107 485 C107 485 111 485 111 485 C122 485 126 463 122 430 C122 430 73 156 73 156 C56 60 100 -5 206 -5 C319 -5 386 31 419 85 C419 85 404 0 404 0 C404 0 408 0 408 0 C408 0 450 12 450 12 C449 12 450 12 450 13 C450 17 451 21 451 21 C438 38 435 52 439 84 C439 84 512 500 512 500 C512 500 502 500 502 500 C502 500 492 500 492 500 C492 500 468 500 468 500 C468 499 465 485 465 485 C465 485 465 485 465 485 L465 485 Z " />
<glyph glyph-name="Umacron" unicode="&#x16a;" horiz-adv-x="596" d="M297 774 C297 774 597 774 597 774 C597 774 599 785 599 785 C599 785 299 785 299 785 C299 785 297 774 297 774 L297 774 Z M621 645 C621 645 625 645 625 645 C640 645 644 615 636 570 C636 570 636 570 636 570 C636 570 566 176 566 176 C548 73 475 5 320 5 C167 5 122 82 142 198 C142 198 210 580 210 580 C210 580 210 580 210 580 C217 619 229 645 241 645 C241 645 245 645 245 645 C245 645 247 660 248 660 C248 660 224 660 224 660 C224 660 209 660 209 660 C209 660 195 660 195 660 C195 660 171 660 171 660 C171 659 169 645 168 645 C168 645 172 645 172 645 C183 645 187 623 183 590 C183 590 114 203 114 203 C93 78 144 -5 314 -5 C478 -5 554 66 573 173 C573 173 645 578 645 578 C653 619 666 645 679 645 C679 645 683 645 683 645 C683 645 684 648 684 653 C685 657 686 660 686 660 C686 660 659 660 659 660 C659 660 655 660 655 660 C655 660 652 660 652 660 C652 660 623 660 623 660 C622 657 621 646 621 645 L621 645 Z " />
<glyph glyph-name="umacron" unicode="&#x16b;" horiz-adv-x="489" d="M193 614 C193 614 493 614 493 614 C493 614 495 625 495 625 C495 625 195 625 195 625 C195 625 193 614 193 614 L193 614 Z M465 485 C465 485 469 485 469 485 C480 485 485 462 479 427 C479 427 423 110 423 110 C423 110 423 110 423 110 C423 110 420 90 420 90 C391 41 331 8 224 8 C121 8 78 68 94 159 C94 159 154 500 154 500 C154 500 144 500 144 500 C144 500 134 500 134 500 C134 500 110 500 110 500 C110 499 107 485 107 485 C107 485 111 485 111 485 C122 485 126 463 122 430 C122 430 73 156 73 156 C56 60 100 -5 206 -5 C319 -5 386 31 419 85 C419 85 404 0 404 0 C404 0 408 0 408 0 C408 0 450 12 450 12 C449 12 450 12 450 13 C450 17 451 21 451 21 C438 38 435 52 439 84 C439 84 512 500 512 500 C512 500 502 500 502 500 C502 500 492 500 492 500 C492 500 468 500 468 500 C468 499 465 485 465 485 C465 485 465 485 465 485 L465 485 Z " />
<glyph glyph-name="Ubreve" unicode="&#x16c;" horiz-adv-x="596" d="M357 872 C351 819 388 783 448 783 C509 783 559 819 571 872 C571 872 568 872 568 872 C557 826 510 796 451 796 C392 796 356 826 360 872 C360 872 357 872 357 872 L357 872 Z M621 645 C621 645 625 645 625 645 C640 645 644 615 636 570 C636 570 636 570 636 570 C636 570 566 176 566 176 C548 73 475 5 320 5 C167 5 122 82 142 198 C142 198 210 580 210 580 C210 580 210 580 210 580 C217 619 229 645 241 645 C241 645 245 645 245 645 C245 645 247 660 248 660 C248 660 224 660 224 660 C224 660 209 660 209 660 C209 660 195 660 195 660 C195 660 171 660 171 660 C171 659 169 645 168 645 C168 645 172 645 172 645 C183 645 187 623 183 590 C183 590 114 203 114 203 C93 78 144 -5 314 -5 C478 -5 554 66 573 173 C573 173 645 578 645 578 C653 619 666 645 679 645 C679 645 683 645 683 645 C683 645 684 648 684 653 C685 657 686 660 686 660 C686 660 659 660 659 660 C659 660 655 660 655 660 C655 660 652 660 652 660 C652 660 623 660 623 660 C622 657 621 646 621 645 L621 645 Z " />
<glyph glyph-name="ubreve" unicode="&#x16d;" horiz-adv-x="489" d="M253 712 C247 659 284 623 345 623 C405 623 455 659 468 712 C468 712 464 712 464 712 C453 666 406 636 347 636 C288 636 251 666 256 712 C256 712 253 712 253 712 L253 712 Z M465 485 C465 485 469 485 469 485 C480 485 485 462 479 427 C479 427 423 110 423 110 C423 110 423 110 423 110 C423 110 420 90 420 90 C391 41 331 8 224 8 C121 8 78 68 94 159 C94 159 154 500 154 500 C154 500 144 500 144 500 C144 500 134 500 134 500 C134 500 110 500 110 500 C110 499 107 485 107 485 C107 485 111 485 111 485 C122 485 126 463 122 430 C122 430 73 156 73 156 C56 60 100 -5 206 -5 C319 -5 386 31 419 85 C419 85 404 0 404 0 C404 0 408 0 408 0 C408 0 450 12 450 12 C449 12 450 12 450 13 C450 17 451 21 451 21 C438 38 435 52 439 84 C439 84 512 500 512 500 C512 500 502 500 502 500 C502 500 492 500 492 500 C492 500 468 500 468 500 C468 499 465 485 465 485 C465 485 465 485 465 485 L465 485 Z " />
<glyph glyph-name="Uring" unicode="&#x16e;" horiz-adv-x="596" d="M434 699 C386 699 353 740 362 788 C371 841 412 876 465 876 C517 876 546 841 537 788 C528 740 481 699 434 699 L434 699 Z M356 788 C347 738 383 695 433 695 C483 695 534 738 542 788 C552 843 522 880 466 880 C410 880 366 843 356 788 L356 788 Z M621 645 C621 645 625 645 625 645 C640 645 644 615 636 570 C636 570 636 570 636 570 C636 570 566 176 566 176 C548 73 475 5 320 5 C167 5 122 82 142 198 C142 198 210 580 210 580 C210 580 210 580 210 580 C217 619 229 645 241 645 C241 645 245 645 245 645 C245 645 247 660 248 660 C248 660 224 660 224 660 C224 660 209 660 209 660 C209 660 195 660 195 660 C195 660 171 660 171 660 C171 659 169 645 168 645 C168 645 172 645 172 645 C183 645 187 623 183 590 C183 590 114 203 114 203 C93 78 144 -5 314 -5 C478 -5 554 66 573 173 C573 173 645 578 645 578 C653 619 666 645 679 645 C679 645 683 645 683 645 C683 645 684 648 684 653 C685 657 686 660 686 660 C686 660 659 660 659 660 C659 660 655 660 655 660 C655 660 652 660 652 660 C652 660 623 660 623 660 C622 657 621 646 621 645 L621 645 Z " />
<glyph glyph-name="uring" unicode="&#x16f;" horiz-adv-x="489" d="M330 539 C282 539 249 580 258 628 C267 681 308 716 361 716 C413 716 442 681 433 628 C424 580 377 539 330 539 L330 539 Z M252 628 C244 578 279 535 329 535 C379 535 430 578 438 628 C448 683 418 720 362 720 C306 720 262 683 252 628 L252 628 Z M465 485 C465 485 469 485 469 485 C480 485 485 462 479 427 C479 427 423 110 423 110 C423 110 423 110 423 110 C423 110 420 90 420 90 C391 41 331 8 224 8 C121 8 78 68 94 159 C94 159 154 500 154 500 C154 500 144 500 144 500 C144 500 134 500 134 500 C134 500 110 500 110 500 C110 499 107 485 107 485 C107 485 111 485 111 485 C122 485 126 463 122 430 C122 430 73 156 73 156 C56 60 100 -5 206 -5 C319 -5 386 31 419 85 C419 85 404 0 404 0 C404 0 408 0 408 0 C408 0 450 12 450 12 C449 12 450 12 450 13 C450 17 451 21 451 21 C438 38 435 52 439 84 C439 84 512 500 512 500 C512 500 502 500 502 500 C502 500 492 500 492 500 C492 500 468 500 468 500 C468 499 465 485 465 485 C465 485 465 485 465 485 L465 485 Z " />
<glyph glyph-name="Wcircumflex" unicode="&#x174;" horiz-adv-x="820" d="M860 645 C860 645 865 645 865 645 C878 645 878 625 865 593 C865 593 607 22 607 22 C607 22 535 670 535 670 C535 670 530 670 530 670 C530 670 243 19 243 19 C243 19 183 580 183 580 C183 580 183 580 183 580 C179 619 184 645 196 645 C196 645 200 645 200 645 C200 646 199 648 203 660 C203 660 174 660 174 660 C174 660 158 660 158 660 C158 660 142 660 142 660 C142 660 128 660 128 660 C128 660 127 657 126 653 C126 648 125 645 125 645 C125 645 128 645 128 645 C138 645 148 619 152 580 C152 580 152 580 152 580 C152 580 228 -15 228 -15 C228 -15 233 -15 233 -15 C233 -15 518 632 518 632 C518 632 590 -15 590 -15 C590 -15 596 -15 596 -15 C596 -15 867 580 867 580 C867 580 867 580 867 580 C884 619 904 645 916 645 C916 645 920 645 920 645 C920 645 921 648 921 653 C922 657 923 660 923 660 C923 660 903 660 903 660 C903 660 900 660 900 660 C900 660 896 660 896 660 C896 660 863 660 863 660 C863 659 861 645 860 645 C860 645 860 645 860 645 L860 645 Z M570 882 C570 882 651 694 651 694 C651 694 653 696 653 696 C653 696 579 899 579 899 C579 901 577 905 574 905 C570 905 568 902 567 899 C567 899 566 899 566 899 C566 899 421 696 421 696 C421 696 422 694 422 694 C422 694 570 882 570 882 L570 882 Z " />
<glyph glyph-name="Ycircumflex" unicode="&#x176;" horiz-adv-x="523" d="M568 645 C568 645 572 645 572 645 C585 645 572 613 540 566 C540 566 330 266 330 266 C330 266 323 266 323 266 C323 266 225 591 225 591 C216 624 216 645 226 645 C226 645 229 645 229 645 C229 645 230 648 231 653 C231 657 232 660 232 660 C232 660 204 660 204 660 C204 660 186 660 186 660 C186 660 169 660 169 660 C169 660 159 660 159 660 C159 660 158 657 158 653 C157 648 156 645 156 645 C156 645 159 645 159 645 C168 645 182 619 195 580 C195 580 195 580 195 580 C195 580 304 248 304 248 C295 196 284 136 274 80 C274 80 274 80 274 80 C267 41 254 15 242 15 C242 15 239 15 239 15 C239 15 238 12 237 8 C237 3 236 0 236 0 C236 0 260 0 260 0 C260 0 274 0 274 0 C274 0 289 0 289 0 C289 0 312 0 312 0 C312 0 313 3 314 8 C314 12 315 15 315 15 C315 15 312 15 312 15 C300 15 296 38 302 73 C313 137 325 207 335 265 C335 265 556 580 556 580 C556 580 556 580 556 580 C583 619 608 645 619 645 C619 645 622 645 622 645 C622 645 623 648 624 653 C624 657 625 660 625 660 C625 660 612 660 612 660 C612 660 609 660 609 660 C609 660 606 660 606 660 C606 660 571 660 571 660 C571 658 568 651 568 645 C568 645 568 645 568 645 L568 645 Z M430 882 C430 882 511 694 511 694 C511 694 513 696 513 696 C513 696 439 899 439 899 C439 901 437 905 434 905 C430 905 428 902 427 899 C427 899 426 899 426 899 C426 899 281 696 281 696 C281 696 282 694 282 694 C282 694 430 882 430 882 L430 882 Z " />
<glyph glyph-name="Ydieresis" unicode="&#x178;" horiz-adv-x="523" d="M486 730 C499 730 508 738 510 750 C512 762 506 770 494 770 C482 770 472 762 470 750 C468 738 475 730 486 730 L486 730 Z M319 730 C332 730 341 738 343 750 C345 762 339 770 326 770 C315 770 305 762 303 750 C301 738 308 730 319 730 L319 730 Z M568 645 C568 645 572 645 572 645 C585 645 572 613 540 566 C540 566 330 266 330 266 C330 266 323 266 323 266 C323 266 225 591 225 591 C216 624 216 645 226 645 C226 645 229 645 229 645 C229 645 230 648 231 653 C231 657 232 660 232 660 C232 660 204 660 204 660 C204 660 186 660 186 660 C186 660 169 660 169 660 C169 660 159 660 159 660 C159 660 158 657 158 653 C157 648 156 645 156 645 C156 645 159 645 159 645 C168 645 182 619 195 580 C195 580 195 580 195 580 C195 580 304 248 304 248 C295 196 284 136 274 80 C274 80 274 80 274 80 C267 41 254 15 242 15 C242 15 239 15 239 15 C239 15 238 12 237 8 C237 3 236 0 236 0 C236 0 260 0 260 0 C260 0 274 0 274 0 C274 0 289 0 289 0 C289 0 312 0 312 0 C312 0 313 3 314 8 C314 12 315 15 315 15 C315 15 312 15 312 15 C300 15 296 38 302 73 C313 137 325 207 335 265 C335 265 556 580 556 580 C556 580 556 580 556 580 C583 619 608 645 619 645 C619 645 622 645 622 645 C622 645 623 648 624 653 C624 657 625 660 625 660 C625 660 612 660 612 660 C612 660 609 660 609 660 C609 660 606 660 606 660 C606 660 571 660 571 660 C571 658 568 651 568 645 C568 645 568 645 568 645 L568 645 Z " />
<glyph glyph-name="Zacute" unicode="&#x179;" horiz-adv-x="590" d="M461 692 C461 692 591 823 591 823 C624 857 646 880 646 881 C647 883 640 889 636 889 C636 889 614 866 582 831 C582 831 459 693 459 693 C459 693 461 692 461 692 L461 692 Z M530 4 C535 18 542 38 547 53 C547 53 544 53 544 53 C535 54 529 55 529 55 C529 55 521 48 521 48 C494 24 440 8 386 7 C386 7 105 7 105 7 C105 7 652 660 652 660 C652 660 636 660 636 660 C636 660 620 660 620 660 C620 660 338 660 338 660 C338 660 263 660 263 660 C263 660 258 660 258 660 C257 659 257 657 256 656 C251 644 243 627 238 615 C238 615 250 615 250 615 C250 615 259 620 259 620 C293 640 347 653 395 653 C395 653 614 653 614 653 C614 653 67 0 67 0 C67 0 83 0 83 0 C83 0 99 0 99 0 C99 0 448 0 448 0 C448 0 528 0 528 0 C529 1 529 3 530 4 L530 4 Z " />
<glyph glyph-name="zacute" unicode="&#x17a;" horiz-adv-x="497" d="M277 532 C277 532 407 663 407 663 C441 697 463 720 463 721 C463 723 456 729 453 729 C452 729 430 706 399 671 C399 671 275 533 275 533 C275 533 277 532 277 532 L277 532 Z M293 5 C293 5 293 5 293 5 C293 5 99 4 99 4 C99 4 529 500 529 500 C529 500 517 500 517 500 C517 500 506 500 506 500 C506 500 246 500 246 500 C246 500 171 500 171 500 C171 500 166 500 166 500 C166 499 165 498 165 498 C161 488 155 476 151 467 C151 467 163 467 163 467 C198 482 250 495 304 495 C304 495 304 495 304 495 C304 495 502 496 502 496 C502 496 72 0 72 0 C72 0 84 0 84 0 C84 0 96 0 96 0 C96 0 356 0 356 0 C356 0 435 0 435 0 C435 0 436 0 436 0 C436 1 437 2 437 2 C442 17 449 36 454 50 C454 50 450 50 450 50 C441 51 435 52 435 52 C435 52 427 45 427 45 C400 20 346 4 293 5 C293 5 293 5 293 5 L293 5 Z " />
<glyph glyph-name="Zdotaccent" unicode="&#x17b;" horiz-adv-x="590" d="M470 730 C482 730 491 738 494 750 C496 762 489 770 477 770 C465 770 456 762 454 750 C451 738 458 730 470 730 L470 730 Z M530 4 C535 18 542 38 547 53 C547 53 544 53 544 53 C535 54 529 55 529 55 C529 55 521 48 521 48 C494 24 440 8 386 7 C386 7 105 7 105 7 C105 7 652 660 652 660 C652 660 636 660 636 660 C636 660 620 660 620 660 C620 660 338 660 338 660 C338 660 263 660 263 660 C263 660 258 660 258 660 C257 659 257 657 256 656 C251 644 243 627 238 615 C238 615 250 615 250 615 C250 615 259 620 259 620 C293 640 347 653 395 653 C395 653 614 653 614 653 C614 653 67 0 67 0 C67 0 83 0 83 0 C83 0 99 0 99 0 C99 0 448 0 448 0 C448 0 528 0 528 0 C529 1 529 3 530 4 L530 4 Z " />
<glyph glyph-name="zdotaccent" unicode="&#x17c;" horiz-adv-x="497" d="M362 570 C374 570 384 578 386 590 C388 602 382 610 370 610 C358 610 348 602 346 590 C344 578 350 570 362 570 L362 570 Z M293 5 C293 5 293 5 293 5 C293 5 99 4 99 4 C99 4 529 500 529 500 C529 500 517 500 517 500 C517 500 506 500 506 500 C506 500 246 500 246 500 C246 500 171 500 171 500 C171 500 166 500 166 500 C166 499 165 498 165 498 C161 488 155 476 151 467 C151 467 163 467 163 467 C198 482 250 495 304 495 C304 495 304 495 304 495 C304 495 502 496 502 496 C502 496 72 0 72 0 C72 0 84 0 84 0 C84 0 96 0 96 0 C96 0 356 0 356 0 C356 0 435 0 435 0 C435 0 436 0 436 0 C436 1 437 2 437 2 C442 17 449 36 454 50 C454 50 450 50 450 50 C441 51 435 52 435 52 C435 52 427 45 427 45 C400 20 346 4 293 5 C293 5 293 5 293 5 L293 5 Z " />
<glyph glyph-name="Zcaron" unicode="&#x17d;" horiz-adv-x="590" d="M471 738 C471 738 619 926 619 926 C619 926 621 924 621 924 C621 924 475 721 475 721 C475 721 475 721 475 721 C474 718 472 715 468 715 C464 715 463 719 462 721 C462 721 388 924 388 924 C388 924 391 926 391 926 C391 926 471 738 471 738 L471 738 Z M530 4 C535 18 542 38 547 53 C547 53 544 53 544 53 C535 54 529 55 529 55 C529 55 521 48 521 48 C494 24 440 8 386 7 C386 7 105 7 105 7 C105 7 652 660 652 660 C652 660 636 660 636 660 C636 660 620 660 620 660 C620 660 338 660 338 660 C338 660 263 660 263 660 C263 660 258 660 258 660 C257 659 257 657 256 656 C251 644 243 627 238 615 C238 615 250 615 250 615 C250 615 259 620 259 620 C293 640 347 653 395 653 C395 653 614 653 614 653 C614 653 67 0 67 0 C67 0 83 0 83 0 C83 0 99 0 99 0 C99 0 448 0 448 0 C448 0 528 0 528 0 C529 1 529 3 530 4 L530 4 Z " />
<glyph glyph-name="zcaron" unicode="&#x17e;" horiz-adv-x="497" d="M293 5 C293 5 293 5 293 5 C293 5 99 4 99 4 C99 4 529 500 529 500 C529 500 517 500 517 500 C517 500 506 500 506 500 C506 500 246 500 246 500 C246 500 171 500 171 500 C171 500 166 500 166 500 C166 499 165 498 165 498 C161 488 155 476 151 467 C151 467 163 467 163 467 C198 482 250 495 304 495 C304 495 304 495 304 495 C304 495 502 496 502 496 C502 496 72 0 72 0 C72 0 84 0 84 0 C84 0 96 0 96 0 C96 0 356 0 356 0 C356 0 435 0 435 0 C435 0 436 0 436 0 C436 1 437 2 437 2 C442 17 449 36 454 50 C454 50 450 50 450 50 C441 51 435 52 435 52 C435 52 427 45 427 45 C400 20 346 4 293 5 C293 5 293 5 293 5 L293 5 Z M364 577 C364 577 511 766 511 766 C511 766 513 764 513 764 C513 764 367 561 367 561 C367 561 367 561 367 561 C366 558 364 555 360 555 C357 555 355 559 355 561 C355 561 280 764 280 764 C280 764 283 766 283 766 C283 766 364 577 364 577 L364 577 Z " />
<glyph glyph-name="SmallLetterOwithogon" unicode="&#x1eb;" horiz-adv-x="712" d="M711 -50 C711 -50 709 -49 709 -49 C672 -85 615 -109 565 -109 C486 -109 420 -67 368 -5 C558 -4 678 126 705 277 C732 429 656 558 465 558 C274 558 152 429 126 277 C99 126 174 -3 360 -5 C420 -75 487 -122 560 -122 C607 -122 667 -93 711 -50 L711 -50 Z M367 1 C194 1 128 128 154 277 C180 425 291 552 464 552 C636 552 702 425 676 277 C650 128 539 1 367 1 L367 1 Z " />
<glyph glyph-name="CapitalLetterAwithdo" unicode="&#x226;" horiz-adv-x="538" d="M393 730 C405 730 414 738 416 750 C418 762 412 770 400 770 C388 770 378 762 376 750 C374 738 381 730 393 730 L393 730 Z M440 0 C440 0 470 0 470 0 C470 0 485 0 485 0 C485 0 501 0 501 0 C501 0 520 0 520 0 C520 0 521 3 521 7 C522 12 523 15 523 15 C523 15 519 15 519 15 C508 15 497 35 490 67 C490 67 387 675 387 675 C387 675 379 675 379 675 C379 675 78 80 78 80 C78 80 78 80 78 80 C59 41 37 15 25 15 C25 15 22 15 22 15 C22 15 21 12 20 8 C20 3 19 0 19 0 C19 0 38 0 38 0 C38 0 43 0 43 0 C43 0 47 0 47 0 C47 0 82 0 82 0 C82 0 83 3 84 8 C84 12 85 15 85 15 C85 15 81 15 81 15 C65 15 71 47 95 95 C95 95 95 95 95 95 C95 95 167 238 167 238 C167 238 432 238 432 238 C432 238 457 80 457 80 C457 80 457 80 457 80 C463 41 458 15 446 15 C446 15 442 15 442 15 C443 15 440 0 440 0 L440 0 Z M430 246 C430 246 171 246 171 246 C171 246 367 636 367 636 C367 636 430 246 430 246 L430 246 Z " />
<glyph glyph-name="LETTERSMALLCAPITALG" unicode="&#x262;" horiz-adv-x="720" d="M667 260 C667 260 644 260 644 260 C644 260 632 260 632 260 C632 260 620 260 620 260 C620 260 596 260 596 260 C597 260 596 257 595 252 C595 248 594 245 594 245 C594 245 597 245 597 245 C608 245 612 223 607 189 C594 113 585 63 584 54 C515 22 431 1 368 1 C210 1 125 111 154 277 C183 442 308 552 465 552 C482 552 498 551 514 549 C514 549 514 548 514 548 C580 539 635 486 654 419 C654 419 667 419 667 419 C667 419 675 463 675 463 C675 463 672 461 672 461 C672 461 672 461 672 461 C672 461 675 463 675 463 C647 520 564 558 466 558 C292 558 155 445 126 277 C96 108 193 -5 367 -5 C439 -5 536 20 608 59 C608 59 616 105 630 180 C630 180 630 180 630 180 C636 219 649 245 661 245 C661 245 665 245 665 245 C666 248 667 259 667 260 L667 260 Z " />
<glyph glyph-name="LETTERSMALLCAPITALI" unicode="&#x26a;" horiz-adv-x="165" d="M216 553 C205 554 191 554 179 553 C168 554 153 554 143 553 C143 553 142 551 141 546 C141 542 140 539 140 538 C140 538 144 538 144 538 C156 539 159 515 153 477 C153 477 83 80 83 80 C83 80 83 80 83 80 C76 41 64 15 51 15 C51 15 48 15 48 15 C48 15 47 12 46 8 C46 3 45 0 45 0 C45 0 69 0 69 0 C69 0 82 0 82 0 C82 0 95 0 95 0 C95 0 119 0 119 0 C119 1 121 12 121 15 C121 15 118 15 118 15 C106 15 102 38 108 74 C108 74 178 473 178 473 C178 473 178 473 178 473 C185 513 198 539 210 538 C210 538 214 538 214 538 C214 539 216 553 216 553 L216 553 Z " />
<glyph glyph-name="LETTERSMALLCAPITALN" unicode="&#x274;" horiz-adv-x="537" d="M537 538 C537 538 540 538 540 538 C552 539 556 516 550 479 C550 479 471 32 471 32 C471 32 199 553 199 553 C199 553 181 553 181 553 C181 553 180 545 180 545 C180 545 199 553 199 553 C199 553 180 545 180 545 C180 545 181 553 181 553 C181 553 177 553 177 553 C169 554 158 554 150 553 C150 553 147 540 147 538 C147 538 150 538 150 538 C163 539 166 515 160 477 C160 477 90 80 90 80 C90 80 90 80 90 80 C83 41 70 15 58 15 C58 15 55 15 55 15 C55 15 54 12 53 8 C53 3 52 0 52 0 C52 0 76 0 76 0 C76 0 80 0 80 0 C80 0 84 0 84 0 C84 0 107 0 107 0 C107 0 108 3 109 8 C109 12 110 15 110 15 C110 15 107 15 107 15 C96 15 91 39 97 75 C97 75 178 533 178 533 C178 533 455 4 455 4 C455 4 459 -4 459 -4 C459 -4 473 -4 473 -4 C473 -4 476 13 476 13 C476 13 557 473 557 473 C557 473 557 473 557 473 C564 513 576 539 589 538 C589 538 592 538 592 538 C592 539 593 542 594 546 C594 551 595 553 595 553 C586 554 575 554 567 553 C559 552 548 554 539 553 C539 553 537 539 537 538 C537 538 537 538 537 538 L537 538 Z " />
<glyph glyph-name="LETTERSMALLCAPITALR" unicode="&#x280;" horiz-adv-x="512" d="M505 0 C505 0 506 4 506 4 C506 4 501 4 501 4 C493 4 489 8 405 102 C405 102 258 267 258 267 C367 272 448 328 463 412 C478 497 419 553 316 553 C316 553 213 553 213 553 C213 553 200 553 200 553 C189 554 174 554 163 553 C163 553 162 551 162 546 C161 542 160 539 160 538 C160 538 164 538 164 538 C175 539 179 515 174 478 C174 478 103 80 103 80 C103 80 103 80 103 80 C96 41 84 15 72 15 C72 15 68 15 68 15 C68 15 67 12 67 8 C66 3 65 0 65 0 C65 0 89 0 89 0 C89 0 102 0 102 0 C102 0 115 0 115 0 C115 0 139 0 139 0 C139 0 140 3 140 8 C141 12 142 15 142 15 C142 15 138 15 138 15 C127 15 123 39 128 74 C128 74 162 267 162 267 C162 267 234 267 234 267 C234 267 379 106 379 106 C470 4 475 0 494 0 C494 0 505 0 505 0 L505 0 Z M246 272 C246 272 230 272 230 272 C230 272 163 272 163 272 C163 272 212 548 212 548 C212 548 316 548 316 548 C402 548 450 494 436 412 C421 328 345 272 246 272 L246 272 Z " />
<glyph glyph-name="LETTERSMALLCAPITALY" unicode="&#x28f;" horiz-adv-x="460" d="M139 538 C139 538 141 538 141 538 C150 539 165 513 178 473 C178 473 178 473 178 473 C178 473 268 210 268 210 C260 170 252 124 244 80 C244 80 244 80 244 80 C237 41 225 15 213 15 C213 15 209 15 209 15 C209 15 208 12 208 8 C207 3 206 0 206 0 C206 0 230 0 230 0 C230 0 243 0 243 0 C243 0 256 0 256 0 C256 0 280 0 280 0 C280 0 281 3 281 8 C282 12 283 15 283 15 C283 15 279 15 279 15 C268 15 264 38 269 72 C278 124 288 179 296 224 C296 224 474 473 474 473 C474 473 474 473 474 473 C475 474 475 475 476 475 C476 475 487 491 487 491 C509 521 529 539 537 538 C537 538 541 538 541 538 C541 539 541 542 542 546 C543 551 544 554 543 553 C539 554 532 554 528 553 C516 554 501 554 490 553 C490 553 489 551 488 546 C488 542 487 539 487 538 C487 538 491 538 491 538 C505 539 491 506 456 456 C456 456 291 224 291 224 C291 224 283 224 283 224 C283 224 206 473 206 473 C206 473 207 473 207 473 C195 513 194 539 205 538 C205 538 208 538 208 538 C208 539 209 542 209 546 C210 551 211 553 211 553 C198 554 180 554 167 553 C159 554 149 554 141 553 C141 553 139 539 139 538 C139 538 139 538 139 538 L139 538 Z " />
<glyph glyph-name="LETTERSMALLCAPITALB" unicode="&#x299;" horiz-adv-x="467" d="M116 5 C116 5 115 0 115 0 C115 0 240 0 240 0 C360 0 451 60 467 150 C480 228 414 284 299 297 C299 297 299 297 299 297 C388 310 452 360 464 431 C477 504 418 553 316 553 C316 553 213 553 213 553 C213 553 200 553 200 553 C189 554 174 554 163 553 C163 553 162 551 162 546 C161 542 160 539 160 538 C160 538 164 538 164 538 C175 539 179 515 174 478 C174 478 103 80 103 80 C103 80 103 80 103 80 C96 41 84 15 72 15 C72 15 68 15 68 15 C68 15 67 12 67 8 C66 3 65 0 65 0 C65 0 89 0 89 0 C89 0 102 0 102 0 C102 0 115 0 115 0 C115 0 167 293 167 293 C167 293 167 293 167 293 C167 293 250 293 250 293 C258 293 266 293 274 294 C388 285 454 230 440 150 C424 63 344 5 239 5 C239 5 116 5 116 5 L116 5 Z M282 298 C271 299 260 299 249 299 C249 299 168 298 168 298 C168 298 168 297 168 297 C168 297 212 548 212 548 C212 548 315 548 315 548 C401 548 451 501 438 431 C426 359 365 308 282 298 C282 298 282 298 282 298 L282 298 Z " />
<glyph glyph-name="LETTERSMALLCAPITALH" unicode="&#x29c;" horiz-adv-x="612" d="M586 538 C586 538 590 538 590 538 C601 539 605 517 600 482 C600 482 567 296 567 296 C567 296 148 296 148 296 C148 296 179 473 179 473 C179 473 179 473 179 473 C186 513 199 539 211 538 C211 538 215 538 215 538 C215 539 217 553 217 553 C206 554 192 554 180 553 C169 554 154 554 144 553 C144 553 141 540 141 538 C141 538 145 538 145 538 C157 539 160 515 154 477 C154 477 84 80 84 80 C84 80 84 80 84 80 C77 41 64 15 52 15 C52 15 49 15 49 15 C49 15 48 12 47 8 C47 3 46 0 46 0 C46 0 70 0 70 0 C70 0 83 0 83 0 C83 0 96 0 96 0 C96 0 120 0 120 0 C120 1 122 12 122 15 C122 15 119 15 119 15 C107 15 103 38 109 74 C109 74 147 290 147 290 C147 290 566 290 566 290 C566 290 526 64 526 64 C519 34 508 15 498 15 C498 15 494 15 494 15 C493 12 492 1 492 0 C492 0 515 0 515 0 C515 0 528 0 528 0 C528 0 541 0 541 0 C541 0 565 0 565 0 C565 0 566 3 566 8 C568 12 568 15 568 15 C568 15 564 15 564 15 C553 15 549 39 554 74 C554 74 625 473 625 473 C625 473 625 473 625 473 C632 513 645 539 657 538 C657 538 660 538 660 538 C660 539 661 542 661 546 C663 551 663 553 663 553 C652 554 637 554 626 553 C615 552 600 554 589 553 C589 552 587 539 586 538 C586 538 586 538 586 538 L586 538 Z " />
<glyph glyph-name="LETTERSMALLCAPITALL" unicode="&#x29f;" horiz-adv-x="416" d="M217 553 C206 554 192 554 180 553 C169 554 154 554 144 553 C144 553 141 540 141 538 C141 538 145 538 145 538 C157 539 160 515 154 477 C154 477 84 80 84 80 C84 80 84 80 84 80 C77 41 64 15 52 15 C52 15 49 15 49 15 C49 15 48 12 47 8 C47 3 46 0 46 0 C46 0 70 0 70 0 C70 0 83 0 83 0 C83 0 96 0 96 0 C96 0 266 0 266 0 C266 0 346 0 346 0 C347 1 347 2 347 3 C353 18 360 37 364 52 C364 52 361 52 361 52 C352 53 346 54 346 54 C346 54 338 47 338 47 C312 23 258 7 203 6 C203 6 97 6 97 6 C97 6 179 473 179 473 C179 473 179 473 179 473 C186 513 199 539 211 538 C211 538 215 538 215 538 C215 539 217 553 217 553 L217 553 Z " />
<glyph glyph-name="LETTERSMALLCAPITALA" unicode="&#x1d00;" horiz-adv-x="475" d="M380 0 C380 0 410 0 410 0 C410 0 424 0 424 0 C424 0 438 0 438 0 C438 0 457 0 457 0 C457 0 458 3 458 7 C459 12 460 15 460 15 C460 15 456 15 456 15 C445 15 434 36 426 68 C426 68 336 566 336 566 C336 566 330 566 330 566 C330 566 79 80 79 80 C79 80 79 80 79 80 C59 41 38 15 26 15 C26 15 22 15 22 15 C22 15 21 12 21 8 C20 3 19 0 19 0 C19 0 38 0 38 0 C38 0 42 0 42 0 C42 0 47 0 47 0 C47 0 82 0 82 0 C82 0 85 15 84 15 C84 15 80 15 80 15 C67 15 70 40 88 80 C88 80 149 200 149 200 C149 200 375 200 375 200 C375 200 396 80 396 80 C396 80 396 80 396 80 C402 41 398 15 386 15 C386 15 383 15 383 15 C383 13 380 6 380 0 L380 0 Z M374 206 C374 206 152 206 152 206 C152 206 318 531 318 531 C318 531 374 206 374 206 L374 206 Z " />
<glyph glyph-name="LETTERSMALLCAPITALC" unicode="&#x1d04;" horiz-adv-x="680" d="M674 419 C674 419 687 419 687 419 C687 419 695 463 695 463 C695 463 692 461 692 461 C692 461 692 461 692 461 C692 461 695 463 695 463 C667 520 580 558 478 558 C296 558 155 445 126 277 C96 108 197 -5 378 -5 C481 -5 581 33 629 91 C629 91 627 93 627 93 C627 93 627 93 627 93 C627 93 629 91 629 91 C629 91 637 134 637 134 C637 134 624 134 624 134 C619 128 612 118 607 111 C561 49 477 5 397 2 C397 2 397 1 397 1 C391 1 385 1 379 1 C215 1 125 111 154 277 C183 442 312 552 477 552 C497 552 517 550 535 548 C535 548 535 547 535 547 C601 538 655 485 674 419 C674 419 674 419 674 419 L674 419 Z " />
<glyph glyph-name="LETTERSMALLCAPITALD" unicode="&#x1d05;" horiz-adv-x="565" d="M102 0 C102 0 115 0 115 0 C115 0 212 548 212 548 C212 548 304 548 304 548 C469 548 560 439 531 277 C502 114 385 5 239 5 C239 5 116 5 116 5 C116 5 115 0 115 0 C115 0 238 0 238 0 C400 0 528 111 557 277 C586 442 485 553 305 553 C305 553 213 553 213 553 C213 553 200 553 200 553 C189 554 174 554 163 553 C163 553 162 551 162 546 C161 542 160 539 160 538 C160 538 164 538 164 538 C175 539 179 515 174 478 C174 478 103 80 103 80 C103 80 103 80 103 80 C96 41 84 15 72 15 C72 15 68 15 68 15 C68 15 67 12 67 8 C66 3 65 0 65 0 C65 0 89 0 89 0 C89 0 102 0 102 0 L102 0 Z " />
<glyph glyph-name="LETTERSMALLCAPITALE" unicode="&#x1d07;" horiz-adv-x="416" d="M427 504 C430 518 433 536 435 550 C435 551 436 552 436 553 C436 554 433 554 428 553 C426 554 423 554 421 553 C401 554 375 554 356 553 C356 553 193 553 193 553 C193 553 180 553 180 553 C169 554 154 554 144 553 C144 553 141 540 141 538 C141 538 145 538 145 538 C157 539 160 515 154 477 C154 477 84 80 84 80 C84 80 84 80 84 80 C77 41 64 15 52 15 C52 15 49 15 49 15 C49 15 48 12 47 8 C47 3 46 0 46 0 C46 0 70 0 70 0 C70 0 83 0 83 0 C83 0 96 0 96 0 C96 0 266 0 266 0 C266 0 346 0 346 0 C347 1 347 2 347 3 C352 17 359 35 364 49 C364 49 353 49 353 49 C353 49 344 43 344 43 C314 21 254 7 193 6 C193 6 97 6 97 6 C97 6 147 292 147 292 C147 292 212 292 212 292 C266 292 306 284 315 265 C315 265 327 265 327 265 C329 274 331 286 333 295 C334 303 336 314 338 322 C338 322 325 322 325 322 C325 322 321 319 321 319 C308 307 265 299 213 298 C213 298 148 298 148 298 C148 298 193 553 193 553 C193 553 192 547 192 547 C192 547 280 547 280 547 C340 547 392 532 411 510 C411 510 416 504 416 504 C416 504 427 504 427 504 L427 504 Z " />
<glyph glyph-name="LETTERSMALLCAPITALJ" unicode="&#x1d0a;" horiz-adv-x="244" d="M295 553 C285 554 270 554 259 553 C248 552 233 554 222 553 C222 553 221 551 220 546 C220 542 219 539 219 538 C219 538 223 538 223 538 C235 539 238 513 231 473 C231 473 232 473 232 473 C232 473 178 168 178 168 C156 43 126 -6 74 -6 C52 -6 35 16 33 50 C32 55 29 58 25 58 C19 58 15 55 16 50 C18 14 39 -10 68 -10 C143 -10 182 46 207 189 C207 189 257 473 257 473 C257 473 257 473 257 473 C264 513 277 539 289 538 C289 538 293 538 293 538 C293 539 295 553 295 553 L295 553 Z " />
<glyph glyph-name="LETTERSMALLCAPITALK" unicode="&#x1d0b;" horiz-adv-x="520" d="M476 538 C476 538 477 538 477 538 C480 539 458 521 421 491 C421 491 185 311 185 311 C185 311 185 311 185 311 C185 311 168 298 168 298 C168 298 171 292 171 292 C171 292 172 293 172 293 C172 293 260 197 260 197 C392 51 457 -5 492 -5 C492 -5 503 -5 503 -5 C503 -5 504 -1 504 -1 C504 -1 499 -1 499 -1 C478 -1 416 58 277 210 C277 210 189 306 189 306 C189 306 426 488 426 488 C468 519 501 539 511 538 C511 538 515 538 515 538 C514 539 517 552 517 553 C514 554 510 554 506 553 C498 554 487 554 479 553 C477 555 476 540 476 538 C476 538 476 538 476 538 L476 538 Z M102 0 C102 0 115 0 115 0 C115 0 139 0 139 0 C139 0 140 3 140 8 C141 12 142 15 142 15 C142 15 138 15 138 15 C127 15 123 39 128 74 C128 74 199 473 199 473 C199 473 199 473 199 473 C206 513 218 539 230 538 C230 538 234 538 234 538 C234 539 235 542 235 546 C236 551 237 553 237 553 C225 554 211 554 200 553 C189 552 174 554 163 553 C163 553 162 551 162 546 C161 542 160 539 160 538 C160 538 164 538 164 538 C175 539 179 515 174 478 C174 478 103 80 103 80 C103 80 103 80 103 80 C96 41 84 15 72 15 C72 15 68 15 68 15 C68 15 67 12 67 8 C66 3 65 0 65 0 C65 0 89 0 89 0 C89 0 102 0 102 0 L102 0 Z " />
<glyph glyph-name="LETTERSMALLCAPITALM" unicode="&#x1d0d;" horiz-adv-x="638" d="M555 0 C555 0 579 0 579 0 C579 0 592 0 592 0 C592 0 605 0 605 0 C605 0 628 0 628 0 C628 0 630 15 630 15 C630 15 627 15 627 15 C617 15 611 34 613 65 C613 65 664 485 664 485 C669 518 679 539 689 538 C689 538 693 538 693 538 C693 538 693 542 694 546 C694 551 695 553 695 553 C685 554 671 554 661 553 C661 553 656 553 656 553 C656 553 649 553 649 553 C649 553 340 26 340 26 C340 26 215 553 215 553 C215 553 198 553 198 553 C198 553 194 553 194 553 C186 554 175 554 166 553 C166 553 163 538 163 538 C163 538 167 538 167 538 C179 539 181 513 172 473 C172 473 83 71 83 71 C74 37 62 15 50 15 C50 15 47 15 47 15 C47 15 46 12 46 8 C45 3 44 0 44 0 C44 0 67 0 67 0 C67 0 71 0 71 0 C71 0 75 0 75 0 C75 0 110 0 110 0 C110 0 111 3 111 8 C112 12 113 15 113 15 C113 15 108 15 108 15 C91 15 86 45 95 89 C95 89 192 525 192 525 C192 525 320 4 320 4 C320 4 322 -5 322 -5 C322 -5 328 -5 328 -5 C328 -5 647 538 647 538 C647 538 589 80 589 80 C584 41 573 15 561 15 C561 15 558 15 558 15 C558 13 555 6 555 0 L555 0 Z " />
<glyph glyph-name="LETTERSMALLCAPITALO" unicode="&#x1d0f;" horiz-adv-x="712" d="M367 1 C194 1 128 128 154 277 C180 425 291 552 464 552 C636 552 702 425 676 277 C650 128 539 1 367 1 L367 1 Z M126 277 C99 125 175 -5 365 -5 C557 -5 678 125 705 277 C732 429 656 558 465 558 C274 558 152 429 126 277 L126 277 Z " />
<glyph glyph-name="LETTERSMALLCAPITALP" unicode="&#x1d18;" horiz-adv-x="456" d="M102 0 C102 0 115 0 115 0 C115 0 139 0 139 0 C139 0 140 3 140 8 C141 12 142 15 142 15 C142 15 138 15 138 15 C127 15 123 39 128 74 C128 74 212 548 212 548 C212 548 332 548 332 548 C432 548 488 489 473 400 C458 314 371 257 257 257 C257 257 161 257 161 257 C161 257 160 252 160 252 C160 252 256 252 256 252 C387 252 485 311 500 400 C517 492 450 553 333 553 C333 553 213 553 213 553 C213 553 200 553 200 553 C189 554 174 554 163 553 C163 553 162 551 162 546 C161 542 160 539 160 538 C160 538 164 538 164 538 C175 539 179 515 174 478 C174 478 103 80 103 80 C103 80 103 80 103 80 C96 41 84 15 72 15 C72 15 68 15 68 15 C68 15 67 12 67 8 C66 3 65 0 65 0 C65 0 89 0 89 0 C89 0 102 0 102 0 L102 0 Z " />
<glyph glyph-name="LETTERSMALLCAPITALT" unicode="&#x1d1b;" horiz-adv-x="573" d="M625 499 C626 515 628 535 629 550 C629 550 629 553 629 553 C629 554 626 554 622 553 C620 554 617 554 614 553 C595 554 569 554 549 553 C549 553 220 553 220 553 C200 554 174 554 155 553 C152 554 149 554 147 553 C143 554 140 554 140 553 C139 552 139 551 139 550 C135 535 129 515 125 499 C125 499 137 499 137 499 C137 499 146 506 146 506 C177 531 230 547 278 547 C278 547 370 547 370 547 C370 547 288 80 288 80 C288 80 288 80 288 80 C281 41 269 15 256 15 C256 15 253 15 253 15 C253 15 252 12 251 8 C251 3 250 0 250 0 C250 0 274 0 274 0 C274 0 287 0 287 0 C287 0 300 0 300 0 C300 0 324 0 324 0 C324 1 326 12 326 15 C326 15 323 15 323 15 C312 15 307 38 313 74 C313 74 396 547 396 547 C396 547 489 547 489 547 C537 547 584 531 606 506 C606 506 613 499 613 499 C613 499 625 499 625 499 L625 499 Z " />
<glyph glyph-name="LETTERSMALLCAPITALU" unicode="&#x1d1c;" horiz-adv-x="536" d="M607 553 C598 554 586 554 577 553 C568 552 555 554 546 553 C546 553 545 551 544 546 C544 542 543 539 543 538 C543 538 547 538 547 538 C562 539 567 509 558 463 C558 463 558 463 558 463 C558 463 502 146 502 146 C488 61 425 4 290 4 C157 4 117 68 134 164 C134 164 189 473 189 473 C189 473 189 473 189 473 C196 513 208 539 220 538 C220 538 224 538 224 538 C224 539 225 542 225 546 C226 551 227 553 227 553 C215 554 201 554 190 553 C179 552 164 554 153 553 C153 553 152 551 152 546 C151 542 150 539 150 538 C150 538 154 538 154 538 C166 539 169 515 164 478 C164 478 109 169 109 169 C91 65 136 -5 284 -5 C427 -5 493 55 508 144 C508 144 566 474 566 474 C574 514 588 539 601 538 C601 538 605 538 605 538 C605 539 607 553 607 553 L607 553 Z " />
</font>
</svg>
