<?xml version="1.0" encoding="UTF-8"?>
<svg xmlns="http://www.w3.org/2000/svg" xmlns:xlink="http://www.w3.org/1999/xlink" version="1.2" >
<font id="Veera Bold">
<font-face  font-family="Veera" units-per-em="1024" ascent="1115" descent="-280" font-style="normal" font-weight="700" font-stretch="normal" cap-height="798" x-height="638" underline-position="0" underline-thickness="0" />
<missing-glyph  horiz-adv-x="472" d="M0 700 C0 700 432 700 432 700 C432 700 432 0 432 0 C432 0 0 0 0 0 C0 0 0 700 0 700 L0 700 Z M50 50 C50 50 382 50 382 50 C382 50 382 650 382 650 C382 650 50 650 50 650 C50 650 50 50 50 50 L50 50 Z " />
<glyph glyph-name="NULL" d="" />
<glyph glyph-name="CR" unicode="&#xd;" horiz-adv-x="256" d="" />
<glyph glyph-name="space" unicode="&#x20;" horiz-adv-x="234" d="" />
<glyph glyph-name="exclam" unicode="&#x21;" horiz-adv-x="265" d="M143 -5 C187 -5 223 31 223 75 C223 119 187 155 143 155 C99 155 63 119 63 75 C63 31 99 -5 143 -5 L143 -5 Z M206 721 C211 767 180 803 135 803 C90 803 58 767 65 721 C65 721 135 230 135 230 C135 230 151 230 151 230 C151 230 206 721 206 721 L206 721 Z " />
<glyph glyph-name="quotedbl" unicode="&#x22;" horiz-adv-x="403" d="M216 798 C216 798 280 538 280 538 C280 538 299 538 299 538 C299 538 363 798 363 798 C363 798 216 798 216 798 L216 798 Z M39 798 C39 798 103 538 103 538 C103 538 122 538 122 538 C122 538 186 798 186 798 C186 798 39 798 39 798 L39 798 Z " />
<glyph glyph-name="numbersign" unicode="&#x23;" horiz-adv-x="507" d="M366 794 C366 794 343 642 343 642 C343 642 254 642 254 642 C254 642 277 794 277 794 C277 794 232 794 232 794 C232 794 209 642 209 642 C209 642 90 642 90 642 C90 642 78 554 78 554 C78 554 196 554 196 554 C196 554 149 244 149 244 C149 244 28 244 28 244 C28 244 16 156 16 156 C16 156 136 156 136 156 C136 156 112 0 112 0 C112 0 157 0 157 0 C157 0 181 156 181 156 C181 156 270 156 270 156 C270 156 246 0 246 0 C246 0 291 0 291 0 C291 0 314 156 314 156 C314 156 407 156 407 156 C407 156 419 244 419 244 C419 244 328 244 328 244 C328 244 374 554 374 554 C374 554 475 554 475 554 C475 554 487 642 487 642 C487 642 387 642 387 642 C387 642 410 794 410 794 C410 794 366 794 366 794 L366 794 Z M241 554 C241 554 330 554 330 554 C330 554 283 244 283 244 C283 244 194 244 194 244 C194 244 241 554 241 554 L241 554 Z " />
<glyph glyph-name="dollar" unicode="&#x24;" horiz-adv-x="450" d="M247 873 C247 873 247 802 247 802 C241 802 236 803 231 803 C222 803 214 802 205 801 C205 801 205 873 205 873 C205 873 167 873 167 873 C167 873 167 790 167 790 C92 757 39 669 39 565 C39 489 96 395 167 353 C167 353 167 35 167 35 C121 52 77 97 59 147 C56 155 52 167 49 175 C49 175 39 175 39 175 C39 175 39 40 39 40 C72 21 123 5 167 -2 C167 -2 167 -75 167 -75 C167 -75 205 -75 205 -75 C205 -75 205 -5 205 -5 C206 -5 206 -5 207 -5 C221 -5 234 -3 247 0 C247 0 247 -75 247 -75 C247 -75 285 -75 285 -75 C285 -75 285 13 285 13 C356 47 405 127 405 220 C405 293 353 382 285 432 C285 432 285 740 285 740 C307 721 325 696 334 673 C338 659 346 637 351 623 C351 623 361 623 361 623 C361 623 361 757 361 757 C338 771 310 783 285 792 C285 792 285 873 285 873 C285 873 247 873 247 873 L247 873 Z M205 487 C205 487 205 768 205 768 C212 770 219 771 226 771 C230 771 237 769 247 765 C247 765 247 455 247 455 C232 465 218 476 205 487 C205 487 205 487 205 487 L205 487 Z M167 527 C142 558 127 590 127 616 C127 667 143 713 167 741 C167 741 167 527 167 527 L167 527 Z M205 328 C220 317 234 305 247 292 C247 292 247 37 247 37 C235 30 221 27 207 27 C206 27 206 27 205 27 C205 27 205 328 205 328 L205 328 Z M285 247 C304 219 315 191 315 168 C315 130 304 95 285 70 C285 70 285 247 285 247 L285 247 Z " />
<glyph glyph-name="ampersand" unicode="&#x26;" horiz-adv-x="726" d="M601 443 C601 443 430 443 430 443 C430 443 430 431 430 431 C430 431 441 431 441 431 C473 431 499 408 499 326 C499 326 499 290 499 290 C499 266 496 242 491 220 C480 232 470 244 459 257 C420 303 357 397 309 485 C381 519 433 593 433 671 C433 744 371 803 294 803 C217 803 155 713 155 602 C155 571 176 516 206 456 C116 407 50 301 50 199 C50 86 135 -5 241 -5 C329 -5 408 36 460 102 C555 20 653 -13 726 0 C726 0 726 19 726 19 C697 15 620 74 510 198 C519 227 524 258 524 290 C524 290 524 326 524 326 C524 408 553 431 590 431 C590 431 601 431 601 431 C601 431 601 443 601 443 L601 443 Z M294 513 C264 571 243 624 243 653 C243 722 262 778 287 778 C319 778 344 728 344 665 C344 603 324 546 294 513 C294 513 294 513 294 513 L294 513 Z M442 117 C407 73 358 46 304 46 C224 46 159 134 159 243 C159 318 184 389 220 429 C269 336 335 235 376 187 C398 161 420 138 442 117 C442 117 442 117 442 117 L442 117 Z " />
<glyph glyph-name="quotesingle" unicode="&#x27;" horiz-adv-x="226" d="M39 798 C39 798 103 538 103 538 C103 538 122 538 122 538 C122 538 186 798 186 798 C186 798 39 798 39 798 L39 798 Z " />
<glyph glyph-name="parenleft" unicode="&#x28;" horiz-adv-x="256" d="M235 828 C137 757 59 600 59 339 C59 78 137 -79 235 -150 C235 -150 246 -135 246 -135 C192 -95 149 48 149 339 C149 629 192 773 246 812 C246 812 235 828 235 828 L235 828 Z " />
<glyph glyph-name="parenright" unicode="&#x29;" horiz-adv-x="256" d="M10 -150 C108 -79 186 78 185 339 C186 600 108 757 10 828 C10 828 -1 812 -1 812 C53 773 96 630 96 339 C96 49 53 -95 -1 -135 C-1 -135 10 -150 10 -150 L10 -150 Z " />
<glyph glyph-name="asterisk" unicode="&#x2a;" horiz-adv-x="300" d="M137 678 C137 678 29 648 29 648 C9 643 3 621 16 600 C28 579 49 573 64 587 C64 587 144 667 144 667 C144 667 115 558 115 558 C110 538 126 523 150 523 C174 523 190 538 185 558 C185 558 156 667 156 667 C156 667 236 587 236 587 C251 573 272 579 284 600 C296 622 291 643 271 648 C271 648 163 678 163 678 C163 678 271 707 271 707 C291 713 296 734 284 755 C272 776 251 782 236 768 C236 768 156 689 156 689 C156 689 185 798 185 798 C190 817 174 833 150 833 C126 833 110 817 115 798 C115 798 144 689 144 689 C144 689 64 768 64 768 C49 782 28 777 16 755 C3 734 9 713 29 707 C29 707 137 678 137 678 L137 678 Z " />
<glyph glyph-name="plus" unicode="&#x2b;" horiz-adv-x="491" d="M215 481 C215 481 215 339 215 339 C215 339 75 339 75 339 C75 339 75 288 75 288 C75 288 215 288 215 288 C215 288 215 145 215 145 C215 145 271 145 271 145 C271 145 271 288 271 288 C271 288 411 288 411 288 C411 288 411 339 411 339 C411 339 271 339 271 339 C271 339 271 481 271 481 C271 481 215 481 215 481 L215 481 Z " />
<glyph glyph-name="comma" unicode="&#x2c;" horiz-adv-x="282" d="M159 -93 C146 -119 117 -144 83 -157 C83 -157 89 -174 89 -174 C169 -144 233 -71 233 -10 C233 -61 188 -57 126 -4 C130 -5 134 -5 139 -5 C184 -5 219 30 219 74 C219 119 184 154 139 154 C95 154 60 119 60 74 C60 52 69 32 83 18 C83 18 31 -32 31 -32 C90 -94 141 -116 159 -93 C159 -93 159 -93 159 -93 L159 -93 Z " />
<glyph glyph-name="hyphen" unicode="&#x2d;" horiz-adv-x="197" d="M20 244 C20 244 177 244 177 244 C177 244 177 334 177 334 C177 334 20 334 20 334 C20 334 20 244 20 244 L20 244 Z " />
<glyph glyph-name="period" unicode="&#x2e;" horiz-adv-x="265" d="M125 -5 C169 -5 205 31 205 75 C205 119 169 155 125 155 C81 155 45 119 45 75 C45 31 81 -5 125 -5 L125 -5 Z " />
<glyph glyph-name="slash" unicode="&#x2f;" horiz-adv-x="361" d="M0 -145 C0 -145 51 -145 51 -145 C51 -145 361 848 361 848 C361 848 310 848 310 848 C310 848 0 -145 0 -145 L0 -145 Z " />
<glyph glyph-name="zero" unicode="0" horiz-adv-x="690" d="M345 21 C252 21 178 153 178 319 C178 484 252 617 345 617 C439 617 513 484 513 319 C513 153 439 21 345 21 L345 21 Z M50 319 C50 139 181 -5 345 -5 C510 -5 641 139 641 319 C641 499 510 643 345 643 C181 643 50 499 50 319 L50 319 Z " />
<glyph glyph-name="one" unicode="1" horiz-adv-x="339" d="M285 638 C285 638 227 638 227 638 C227 638 170 638 170 638 C170 638 112 638 112 638 C112 638 55 638 55 638 C55 638 55 626 55 626 C55 626 64 626 64 626 C90 626 112 598 112 561 C112 561 112 76 112 76 C112 40 90 11 64 11 C64 11 55 11 55 11 C55 11 55 0 55 0 C55 0 112 0 112 0 C112 0 170 0 170 0 C170 0 227 0 227 0 C227 0 285 0 285 0 C285 0 285 11 285 11 C285 11 276 11 276 11 C249 11 228 40 227 76 C227 76 227 561 227 561 C228 598 249 626 276 626 C276 626 285 626 285 626 C285 626 285 638 285 638 L285 638 Z " />
<glyph glyph-name="two" unicode="2" horiz-adv-x="423" d="M385 172 C385 172 384 164 384 164 C382 137 351 115 315 115 C315 115 165 115 165 115 C291 220 378 310 378 450 C378 557 316 643 239 643 C177 643 102 578 69 497 C69 497 84 488 84 488 C99 527 143 558 182 558 C220 558 250 493 250 411 C250 170 150 130 25 26 C25 26 25 0 25 0 C25 0 381 0 381 0 C381 0 387 63 387 63 C388 78 389 97 391 115 C393 136 395 156 396 172 C396 172 385 172 385 172 L385 172 Z " />
<glyph glyph-name="three" unicode="3" horiz-adv-x="406" d="M23 -215 C209 -202 357 -67 357 90 C357 185 283 264 183 285 C270 342 328 416 328 482 C328 572 272 643 203 643 C132 643 45 582 8 506 C8 506 23 499 23 499 C39 531 92 557 143 557 C181 557 212 507 212 445 C212 390 181 333 134 291 C132 291 130 291 128 291 C130 291 132 291 133 291 C114 274 92 259 69 249 C59 245 49 241 38 237 C38 237 38 218 38 218 C42 219 47 221 51 222 C68 227 89 230 102 230 C176 230 235 165 235 84 C235 -65 140 -191 22 -199 C22 -199 23 -215 23 -215 L23 -215 Z " />
<glyph glyph-name="four" unicode="4" horiz-adv-x="396" d="M55 51 C55 51 197 359 197 359 C197 359 197 358 197 358 C197 358 197 51 197 51 C197 51 55 51 55 51 L55 51 Z M197 0 C197 0 197 -150 197 -150 C197 -150 312 -150 312 -150 C312 -150 312 0 312 0 C312 0 387 0 387 0 C387 0 387 51 387 51 C387 51 312 51 312 51 C312 51 312 608 312 608 C312 608 312 643 312 643 C312 643 292 643 292 643 C292 643 9 16 9 16 C9 16 9 0 9 0 C9 0 26 0 26 0 C26 0 32 0 32 0 C32 0 197 0 197 0 L197 0 Z " />
<glyph glyph-name="five" unicode="5" horiz-adv-x="393" d="M64 250 C64 250 82 250 82 250 C163 250 228 179 228 90 C228 -46 140 -158 30 -164 C30 -164 31 -182 31 -182 C204 -173 343 -36 343 127 C343 259 253 364 140 364 C140 364 99 364 99 364 C99 364 93 250 93 250 C93 250 106 516 106 516 C106 516 291 516 291 516 C291 516 311 577 311 577 C311 577 311 577 311 577 C321 610 338 663 349 695 C349 695 338 695 338 695 C338 695 335 687 335 687 C326 659 290 638 254 638 C254 638 112 638 112 638 C112 638 77 638 77 638 C77 638 64 250 64 250 L64 250 Z " />
<glyph glyph-name="six" unicode="6" horiz-adv-x="505" d="M425 852 C218 845 53 633 53 375 C53 164 140 -5 249 -5 C372 -5 463 120 455 276 C455 428 380 550 286 550 C260 550 225 509 187 443 C195 657 298 828 425 833 C425 833 425 852 425 852 L425 852 Z M186 400 C222 472 252 519 267 519 C304 519 334 408 334 269 C341 135 309 27 262 27 C219 27 184 132 184 264 C184 302 186 360 186 400 C186 400 186 400 186 400 L186 400 Z " />
<glyph glyph-name="seven" unicode="7" horiz-adv-x="379" d="M26 463 C26 463 27 471 27 471 C29 498 60 520 96 520 C96 520 329 520 329 520 C329 520 84 -140 84 -140 C84 -140 212 -140 212 -140 C265 116 317 371 370 627 C370 627 361 638 361 638 C361 638 30 638 30 638 C30 638 25 579 25 579 C22 547 17 495 15 463 C15 463 26 463 26 463 L26 463 Z " />
<glyph glyph-name="eight" unicode="8" horiz-adv-x="476" d="M276 451 C269 454 262 457 254 460 C209 477 173 556 173 638 C173 716 198 778 229 778 C267 778 298 703 298 609 C298 545 290 487 276 451 C276 451 276 451 276 451 L276 451 Z M308 432 C358 472 393 546 393 627 C393 725 323 803 235 803 C147 803 77 710 77 593 C77 513 110 433 158 385 C94 354 49 281 49 195 C49 84 133 -5 238 -5 C342 -5 426 93 426 215 C426 297 377 384 308 432 C308 432 308 432 308 432 L308 432 Z M188 361 C196 356 205 351 214 348 C272 327 318 250 318 176 C318 89 285 20 244 20 C196 20 157 106 157 214 C157 275 169 328 188 361 C188 361 188 361 188 361 L188 361 Z " />
<glyph glyph-name="nine" unicode="9" horiz-adv-x="505" d="M80 -214 C287 -207 452 5 453 263 C452 474 365 643 256 643 C133 643 42 518 50 362 C50 210 125 88 219 87 C245 88 280 129 318 195 C310 -20 207 -190 80 -195 C80 -195 80 -214 80 -214 L80 -214 Z M319 238 C283 166 253 119 238 119 C201 119 171 230 171 368 C164 503 196 611 243 611 C286 611 321 505 321 373 C321 336 319 278 319 238 C319 238 319 238 319 238 L319 238 Z " />
<glyph glyph-name="colon" unicode="&#x3a;" horiz-adv-x="265" d="M125 499 C169 499 205 535 205 579 C205 624 169 659 125 659 C81 659 45 624 45 579 C45 535 81 499 125 499 L125 499 Z M125 -5 C169 -5 205 31 205 75 C205 119 169 155 125 155 C81 155 45 119 45 75 C45 31 81 -5 125 -5 L125 -5 Z " />
<glyph glyph-name="semicolon" unicode="&#x3b;" horiz-adv-x="282" d="M139 502 C184 502 219 537 219 581 C219 625 184 660 139 660 C95 660 60 625 60 581 C60 537 95 502 139 502 L139 502 Z M159 -93 C146 -119 117 -144 83 -157 C83 -157 89 -174 89 -174 C169 -144 233 -71 233 -10 C233 -61 188 -57 126 -4 C130 -5 134 -5 139 -5 C184 -5 219 30 219 74 C219 119 184 154 139 154 C95 154 60 119 60 74 C60 52 69 32 83 18 C83 18 31 -32 31 -32 C90 -94 141 -116 159 -93 C159 -93 159 -93 159 -93 L159 -93 Z " />
<glyph glyph-name="less" unicode="&#x3c;" horiz-adv-x="476" d="M401 638 C401 638 50 378 50 378 C50 378 40 370 40 370 C40 370 40 318 40 318 C40 318 50 310 50 310 C50 310 401 50 401 50 C401 50 401 108 401 108 C401 108 74 344 74 344 C74 344 401 580 401 580 C401 580 401 638 401 638 L401 638 Z " />
<glyph glyph-name="equal" unicode="&#x3d;" horiz-adv-x="474" d="M88 294 C88 294 88 243 88 243 C88 243 404 243 404 243 C404 243 404 294 404 294 C404 294 88 294 88 294 L88 294 Z M88 394 C88 394 88 343 88 343 C88 343 404 343 404 343 C404 343 404 394 404 394 C404 394 88 394 88 394 L88 394 Z " />
<glyph glyph-name="greater" unicode="&#x3e;" horiz-adv-x="466" d="M390 344 C390 344 75 108 75 108 C75 108 75 50 75 50 C75 50 413 310 413 310 C413 310 426 320 426 320 C426 320 426 368 426 368 C426 368 413 378 413 378 C413 378 75 638 75 638 C75 638 75 580 75 580 C75 580 390 344 390 344 L390 344 Z " />
<glyph glyph-name="question" unicode="&#x3f;" horiz-adv-x="308" d="M120 -5 C164 -5 200 31 200 75 C200 119 164 155 120 155 C75 155 40 119 40 75 C40 31 75 -5 120 -5 L120 -5 Z M104 452 C93 452 85 445 86 435 C86 435 112 251 112 251 C112 251 127 251 127 251 C127 251 143 365 143 365 C143 365 178 365 178 365 C253 365 274 464 274 513 C274 674 196 803 99 803 C100 803 100 803 99 802 C99 802 99 803 99 803 C64 803 36 771 36 730 C36 702 58 680 85 680 C101 680 112 702 125 710 C129 712 133 713 135 713 C197 713 247 630 247 526 C247 501 223 452 139 452 C139 452 104 452 104 452 L104 452 Z " />
<glyph glyph-name="at" unicode="&#x40;" horiz-adv-x="1082" d="M943 0 C883 -130 714 -234 563 -234 C331 -234 145 16 145 328 C145 640 321 890 541 890 C762 890 938 689 938 438 C938 200 865 10 774 10 C710 10 681 119 708 255 C708 255 778 612 778 612 C778 612 669 612 669 612 C669 612 652 526 652 526 C634 584 593 625 545 625 C385 625 258 455 258 241 C258 110 327 4 414 4 C484 4 554 62 593 145 C605 42 665 -30 753 -30 C905 -30 1027 178 1027 438 C1027 707 811 922 541 922 C272 922 56 658 56 328 C56 -2 282 -266 563 -266 C727 -266 913 -148 982 0 C982 0 943 0 943 0 L943 0 Z M638 454 C638 454 599 255 599 255 C578 151 522 68 473 68 C423 68 384 155 384 264 C384 447 454 593 542 593 C595 593 638 531 638 454 L638 454 Z " />
<glyph glyph-name="A" unicode="A" horiz-adv-x="631" d="M624 11 C624 11 617 11 617 11 C594 11 565 40 554 76 C554 76 553 76 553 76 C553 76 314 816 314 816 C314 816 282 816 282 816 C282 816 86 76 86 76 C86 76 86 76 86 76 C76 40 47 11 20 11 C20 11 11 11 11 11 C11 11 11 0 11 0 C11 0 66 0 66 0 C66 0 87 0 87 0 C87 0 108 0 108 0 C108 0 192 0 192 0 C192 0 192 11 192 11 C192 11 180 11 180 11 C142 11 120 47 131 91 C131 91 131 91 131 91 C131 91 185 305 185 305 C185 305 352 304 352 304 C352 304 417 76 417 76 C417 76 417 76 417 76 C428 40 407 11 371 11 C371 11 358 11 358 11 C358 11 358 0 358 0 C358 0 439 0 439 0 C439 0 509 0 509 0 C509 0 578 0 578 0 C578 0 624 0 624 0 C624 0 624 11 624 11 L624 11 Z M342 337 C342 337 193 338 193 338 C193 338 263 613 263 613 C263 613 342 337 342 337 L342 337 Z " />
<glyph glyph-name="B" unicode="B" horiz-adv-x="561" d="M33 786 C33 786 42 786 42 786 C69 786 91 758 91 721 C91 721 91 76 91 76 C91 40 69 11 42 11 C42 11 33 11 33 11 C33 11 33 0 33 0 C33 0 91 0 91 0 C91 0 154 0 154 0 C154 0 218 0 218 0 C218 0 296 0 296 0 C432 0 541 107 541 241 C541 326 462 397 356 415 C449 442 515 516 515 604 C515 712 414 798 288 798 C288 798 218 798 218 798 C218 798 154 798 154 798 C154 798 91 798 91 798 C91 798 33 798 33 798 C33 798 33 786 33 786 L33 786 Z M218 422 C218 422 218 766 218 766 C218 766 288 766 288 766 C344 766 388 694 388 604 C388 503 337 422 274 422 C274 422 218 422 218 422 L218 422 Z M218 394 C218 394 265 394 265 394 C344 394 407 326 407 241 C407 125 352 32 283 32 C283 32 218 32 218 32 C218 32 218 394 218 394 L218 394 Z " />
<glyph glyph-name="C" unicode="C" horiz-adv-x="667" d="M608 620 C608 620 608 745 608 745 C552 777 454 803 387 803 C195 803 42 623 42 399 C42 175 195 -5 387 -5 C454 -5 552 21 608 53 C608 53 608 177 608 177 C608 177 598 177 598 177 C595 169 591 157 588 149 C568 90 494 40 418 29 C407 28 397 27 387 27 C273 27 182 192 182 399 C182 606 273 771 387 771 C403 771 421 769 440 766 C440 766 440 766 440 766 C503 756 569 704 588 648 C591 640 595 628 598 620 C598 620 608 620 608 620 L608 620 Z " />
<glyph glyph-name="D" unicode="D" horiz-adv-x="685" d="M33 786 C33 786 42 786 42 786 C69 786 91 758 91 721 C91 721 91 76 91 76 C91 40 69 11 42 11 C42 11 33 11 33 11 C33 11 33 0 33 0 C33 0 91 0 91 0 C91 0 154 0 154 0 C154 0 218 0 218 0 C218 0 314 0 314 0 C492 0 635 177 635 399 C635 621 482 798 290 798 C290 798 218 798 218 798 C218 798 154 798 154 798 C154 798 91 798 91 798 C91 798 33 798 33 798 C33 798 33 786 33 786 L33 786 Z M218 32 C218 32 218 766 218 766 C218 766 290 766 290 766 C411 766 508 603 508 399 C508 195 422 32 314 32 C314 32 218 32 218 32 L218 32 Z " />
<glyph glyph-name="E" unicode="E" horiz-adv-x="569" d="M407 329 C407 329 407 394 407 394 C407 394 407 410 407 410 C407 410 407 426 407 426 C407 426 407 484 407 484 C407 484 398 484 398 484 C398 484 396 475 396 475 C387 448 343 426 296 426 C296 426 225 426 225 426 C225 426 225 766 225 766 C225 766 336 766 336 766 C392 766 449 727 464 678 C464 678 469 662 469 662 C469 662 478 662 478 662 C478 662 478 782 478 782 C478 782 478 798 478 798 C478 798 462 798 462 798 C462 798 401 798 401 798 C401 798 225 798 225 798 C225 798 161 798 161 798 C161 798 97 798 97 798 C97 798 40 798 40 798 C40 798 40 786 40 786 C40 786 49 786 49 786 C75 786 97 758 97 721 C97 721 97 76 97 76 C97 40 75 11 49 11 C49 11 40 11 40 11 C40 11 40 0 40 0 C40 0 97 0 97 0 C97 0 161 0 161 0 C161 0 225 0 225 0 C225 0 401 0 401 0 C401 0 472 0 472 0 C472 0 477 0 477 0 C477 4 479 12 480 16 C485 49 495 102 501 135 C501 136 500 136 500 135 C496 136 492 136 492 135 C492 135 485 120 485 120 C460 71 396 32 341 32 C341 32 225 32 225 32 C225 32 225 394 225 394 C225 394 296 394 296 394 C343 394 387 370 396 339 C396 339 398 329 398 329 C398 329 407 329 407 329 L407 329 Z " />
<glyph glyph-name="F" unicode="F" horiz-adv-x="502" d="M397 323 C397 323 397 388 397 388 C397 388 397 404 397 404 C397 404 397 420 397 420 C397 420 397 478 397 478 C397 478 388 478 388 478 C388 478 386 469 386 469 C377 442 333 421 286 420 C286 420 225 420 225 420 C225 420 225 766 225 766 C225 766 366 766 366 766 C422 766 479 727 494 678 C494 678 499 662 499 662 C499 662 508 662 508 662 C508 662 508 782 508 782 C508 782 508 798 508 798 C508 798 492 798 492 798 C492 798 431 798 431 798 C431 798 225 798 225 798 C225 798 161 798 161 798 C161 798 97 798 97 798 C97 798 40 798 40 798 C40 798 40 786 40 786 C40 786 49 786 49 786 C75 786 97 758 97 721 C97 721 97 76 97 76 C97 40 75 11 49 11 C49 11 40 11 40 11 C40 11 40 0 40 0 C40 0 97 0 97 0 C97 0 161 0 161 0 C161 0 225 0 225 0 C225 0 293 0 293 0 C293 0 293 11 293 11 C293 11 283 11 283 11 C251 11 225 40 225 76 C225 76 225 388 225 388 C225 388 286 388 286 388 C333 388 377 364 386 333 C386 333 388 323 388 323 C388 323 397 323 397 323 L397 323 Z " />
<glyph glyph-name="G" unicode="G" horiz-adv-x="694" d="M631 375 C631 375 573 375 573 375 C573 375 516 375 516 375 C516 375 458 375 458 375 C458 375 401 375 401 375 C401 375 401 363 401 363 C401 363 410 363 410 363 C436 363 458 334 458 298 C458 298 458 43 458 43 C422 33 386 27 357 27 C249 27 162 192 162 399 C162 606 249 771 357 771 C370 771 384 770 399 767 C399 767 399 767 399 767 C462 758 528 705 548 649 C551 641 555 629 558 620 C558 620 568 620 568 620 C568 620 568 745 568 745 C512 777 419 803 357 803 C171 803 22 623 22 399 C22 175 171 -5 357 -5 C421 -5 518 21 573 53 C573 53 573 298 573 298 C574 334 595 363 622 363 C622 363 631 363 631 363 C631 363 631 375 631 375 L631 375 Z " />
<glyph glyph-name="H" unicode="H" horiz-adv-x="688" d="M648 798 C648 798 591 798 591 798 C591 798 527 798 527 798 C527 798 463 798 463 798 C463 798 405 798 405 798 C405 798 405 786 405 786 C405 786 414 786 414 786 C441 786 463 758 463 721 C463 721 463 418 463 418 C463 418 225 418 225 418 C225 418 225 721 225 721 C225 758 247 786 274 786 C274 786 283 786 283 786 C283 786 283 798 283 798 C283 798 225 798 225 798 C225 798 161 798 161 798 C161 798 97 798 97 798 C97 798 40 798 40 798 C40 798 40 786 40 786 C40 786 49 786 49 786 C75 786 97 758 97 721 C97 721 97 76 97 76 C97 40 75 11 49 11 C49 11 40 11 40 11 C40 11 40 0 40 0 C40 0 97 0 97 0 C97 0 161 0 161 0 C161 0 225 0 225 0 C225 0 283 0 283 0 C283 0 283 11 283 11 C283 11 274 11 274 11 C247 11 225 40 225 76 C225 76 225 386 225 386 C225 386 463 386 463 386 C463 386 463 76 463 76 C463 40 441 11 414 11 C414 11 405 11 405 11 C405 11 405 0 405 0 C405 0 463 0 463 0 C463 0 527 0 527 0 C527 0 591 0 591 0 C591 0 648 0 648 0 C648 0 648 11 648 11 C648 11 640 11 640 11 C613 11 592 38 591 71 C591 71 591 76 591 76 C591 76 591 721 591 721 C591 721 591 726 591 726 C592 760 613 786 640 786 C640 786 648 786 648 786 C648 786 648 798 648 798 L648 798 Z " />
<glyph glyph-name="I" unicode="I" horiz-adv-x="322" d="M283 798 C283 798 225 798 225 798 C225 798 161 798 161 798 C161 798 97 798 97 798 C97 798 40 798 40 798 C40 798 40 786 40 786 C40 786 49 786 49 786 C75 786 97 758 97 721 C97 721 97 76 97 76 C97 40 75 11 49 11 C49 11 40 11 40 11 C40 11 40 0 40 0 C40 0 97 0 97 0 C97 0 161 0 161 0 C161 0 225 0 225 0 C225 0 283 0 283 0 C283 0 283 11 283 11 C283 11 274 11 274 11 C247 11 225 40 225 76 C225 76 225 721 225 721 C225 758 247 786 274 786 C274 786 283 786 283 786 C283 786 283 798 283 798 L283 798 Z " />
<glyph glyph-name="J" unicode="J" horiz-adv-x="394" d="M355 798 C355 798 297 798 297 798 C297 798 233 798 233 798 C233 798 169 798 169 798 C169 798 112 798 112 798 C112 798 112 786 112 786 C112 786 121 786 121 786 C147 786 169 758 169 721 C169 721 169 242 169 242 C169 91 162 16 147 16 C128 16 111 37 108 64 C106 92 80 115 51 115 C20 115 -3 92 0 64 C3 23 54 -10 115 -10 C237 -10 298 110 298 349 C298 349 297 726 297 726 C299 761 320 786 346 786 C346 786 355 786 355 786 C355 786 355 798 355 798 L355 798 Z " />
<glyph glyph-name="K" unicode="K" horiz-adv-x="598" d="M370 786 C370 786 377 786 377 786 C399 786 403 763 389 730 C389 730 218 429 218 429 C218 429 218 721 218 721 C218 758 240 786 267 786 C267 786 276 786 276 786 C276 786 276 798 276 798 C276 798 218 798 218 798 C218 798 154 798 154 798 C154 798 91 798 91 798 C91 798 33 798 33 798 C33 798 33 786 33 786 C33 786 42 786 42 786 C69 786 91 758 91 721 C91 721 91 76 91 76 C91 40 69 11 42 11 C42 11 33 11 33 11 C33 11 33 0 33 0 C33 0 91 0 91 0 C91 0 154 0 154 0 C154 0 218 0 218 0 C218 0 276 0 276 0 C276 0 276 11 276 11 C276 11 267 11 267 11 C240 11 218 40 218 76 C218 76 218 429 218 429 C218 429 372 99 372 99 C404 30 462 -5 545 -5 C545 -5 589 -5 589 -5 C589 -5 589 20 589 20 C589 20 584 20 584 20 C544 20 494 83 435 210 C435 210 298 506 298 506 C298 506 421 721 421 721 C421 721 421 721 421 721 C442 758 480 786 507 786 C507 786 516 786 516 786 C516 786 516 798 516 798 C516 798 465 798 465 798 C465 798 446 798 446 798 C446 798 427 798 427 798 C427 798 370 798 370 798 C370 798 370 786 370 786 L370 786 Z " />
<glyph glyph-name="L" unicode="L" horiz-adv-x="569" d="M488 147 C488 147 478 122 478 122 C457 72 401 32 351 32 C351 32 225 32 225 32 C225 32 225 721 225 721 C225 758 247 786 274 786 C274 786 283 786 283 786 C283 786 283 798 283 798 C283 798 225 798 225 798 C225 798 161 798 161 798 C161 798 97 798 97 798 C97 798 40 798 40 798 C40 798 40 786 40 786 C40 786 49 786 49 786 C75 786 97 758 97 721 C97 721 97 76 97 76 C97 40 75 11 49 11 C49 11 40 11 40 11 C40 11 40 0 40 0 C40 0 97 0 97 0 C97 0 161 0 161 0 C161 0 225 0 225 0 C225 0 401 0 401 0 C401 0 472 0 472 0 C472 0 477 0 477 0 C477 4 479 12 480 16 C486 51 495 107 502 141 C497 143 488 147 488 147 L488 147 Z " />
<glyph glyph-name="M" unicode="M" horiz-adv-x="794" d="M756 798 C756 798 699 798 699 798 C699 798 642 798 642 798 C642 798 629 798 629 798 C629 798 584 798 584 798 C584 798 400 185 400 185 C400 185 412 144 412 144 C412 144 400 184 400 184 C400 184 376 106 376 106 C376 106 343 -5 343 -5 C343 -5 375 -5 375 -5 C375 -5 587 665 587 665 C587 665 600 67 600 67 C596 35 577 11 552 11 C552 11 544 11 544 11 C544 11 544 0 544 0 C544 0 601 0 601 0 C601 0 665 0 665 0 C665 0 729 0 729 0 C729 0 786 0 786 0 C786 0 786 11 786 11 C786 11 778 11 778 11 C752 11 730 38 726 72 C726 72 702 721 702 721 C702 721 702 721 702 721 C700 758 721 786 748 786 C748 786 756 786 756 786 C756 786 756 798 756 798 L756 798 Z M56 786 C56 786 65 786 65 786 C92 786 113 758 111 721 C111 721 112 721 112 721 C112 721 91 76 91 76 C91 76 91 76 91 76 C90 40 67 11 40 11 C40 11 32 11 32 11 C32 11 32 0 32 0 C32 0 89 0 89 0 C89 0 108 0 108 0 C108 0 127 0 127 0 C127 0 211 0 211 0 C211 0 211 11 211 11 C211 11 199 11 199 11 C159 11 128 47 130 91 C130 91 130 91 130 91 C130 91 146 615 146 615 C146 615 325 51 325 51 C325 51 343 -5 343 -5 C343 -5 376 106 376 106 C376 106 400 184 400 184 C400 184 213 798 213 798 C213 798 152 798 152 798 C152 798 133 798 133 798 C133 798 114 798 114 798 C114 798 56 798 56 798 C56 798 56 786 56 786 L56 786 Z M400 184 C400 184 400 184 400 184 C400 184 400 185 400 185 C400 185 400 185 400 185 C400 185 400 184 400 184 L400 184 Z " />
<glyph glyph-name="N" unicode="N" horiz-adv-x="622" d="M431 786 C431 786 440 786 440 786 C467 786 489 758 489 721 C489 721 489 203 489 203 C489 203 209 798 209 798 C209 798 133 798 133 798 C133 798 114 798 114 798 C114 798 95 798 95 798 C95 798 37 798 37 798 C37 798 37 786 37 786 C37 786 46 786 46 786 C73 786 95 758 95 721 C95 721 95 76 95 76 C95 40 73 11 46 11 C46 11 37 11 37 11 C37 11 37 0 37 0 C37 0 95 0 95 0 C95 0 114 0 114 0 C114 0 133 0 133 0 C133 0 191 0 191 0 C191 0 191 11 191 11 C191 11 182 11 182 11 C155 11 133 40 133 76 C133 76 133 665 133 665 C133 665 430 51 430 51 C430 51 465 -20 465 -20 C465 -20 527 -20 527 -20 C527 -20 527 98 527 98 C527 98 527 721 527 721 C527 758 549 786 576 786 C576 786 585 786 585 786 C584 786 584 789 585 792 C584 795 584 798 585 798 C585 798 527 798 527 798 C527 798 508 798 508 798 C508 798 489 798 489 798 C489 798 431 798 431 798 C431 798 431 786 431 786 L431 786 Z " />
<glyph glyph-name="O" unicode="O" horiz-adv-x="695" d="M344 27 C245 27 182 213 182 399 C182 585 245 771 344 771 C442 771 505 585 505 399 C505 213 442 27 344 27 L344 27 Z M42 399 C42 197 159 -5 344 -5 C528 -5 645 197 645 399 C645 601 528 803 344 803 C159 803 42 601 42 399 L42 399 Z " />
<glyph glyph-name="P" unicode="P" horiz-adv-x="527" d="M33 786 C33 786 42 786 42 786 C69 786 91 758 91 721 C91 721 91 76 91 76 C91 40 69 11 42 11 C42 11 33 11 33 11 C33 11 33 0 33 0 C33 0 91 0 91 0 C91 0 154 0 154 0 C154 0 218 0 218 0 C218 0 276 0 276 0 C276 0 276 11 276 11 C276 11 267 11 267 11 C240 11 218 40 218 76 C218 76 218 342 218 342 C218 342 269 342 269 342 C401 342 507 444 507 571 C507 697 407 798 282 798 C282 798 218 798 218 798 C218 798 154 798 154 798 C154 798 91 798 91 798 C91 798 33 798 33 798 C33 798 33 786 33 786 L33 786 Z M218 374 C218 374 218 766 218 766 C218 766 282 766 282 766 C333 766 373 679 373 571 C373 461 327 374 269 374 C269 374 218 374 218 374 L218 374 Z " />
<glyph glyph-name="Q" unicode="Q" horiz-adv-x="695" d="M710 -28 C710 -28 697 -20 697 -20 C685 -41 625 -57 563 -57 C475 -57 402 -35 360 -5 C535 7 645 203 645 399 C645 601 528 803 344 803 C159 803 42 601 42 399 C42 210 145 20 310 -3 C391 -80 485 -140 550 -140 C600 -140 672 -90 710 -28 L710 -28 Z M344 27 C245 27 182 213 182 399 C182 585 245 771 344 771 C442 771 505 585 505 399 C505 213 442 27 344 27 L344 27 Z " />
<glyph glyph-name="R" unicode="R" horiz-adv-x="636" d="M33 786 C33 786 42 786 42 786 C69 786 91 758 91 721 C91 721 91 76 91 76 C91 40 69 11 42 11 C42 11 33 11 33 11 C33 11 33 0 33 0 C33 0 91 0 91 0 C91 0 154 0 154 0 C154 0 218 0 218 0 C218 0 276 0 276 0 C276 0 276 11 276 11 C276 11 267 11 267 11 C240 11 218 40 218 76 C218 76 218 365 218 365 C218 365 242 365 242 365 C242 365 368 106 368 106 C414 12 437 0 572 0 C572 0 615 0 615 0 C615 0 615 25 615 25 C615 25 610 25 610 25 C576 25 569 31 542 81 C542 81 384 387 384 387 C465 423 521 497 521 583 C521 702 417 798 288 798 C288 798 218 798 218 798 C218 798 154 798 154 798 C154 798 91 798 91 798 C91 798 33 798 33 798 C33 798 33 786 33 786 L33 786 Z M274 397 C274 397 226 397 226 397 C226 397 218 397 218 397 C218 397 218 766 218 766 C218 766 288 766 288 766 C343 766 387 685 387 583 C387 480 337 397 274 397 L274 397 Z " />
<glyph glyph-name="S" unicode="S" horiz-adv-x="450" d="M39 175 C39 175 39 40 39 40 C83 15 157 -5 207 -5 C317 -5 405 95 405 220 C405 301 342 401 263 446 C187 488 127 564 127 616 C127 702 171 771 226 771 C230 771 238 769 248 764 C284 748 321 709 334 673 C338 659 346 637 351 623 C351 623 361 623 361 623 C361 623 361 757 361 757 C318 783 260 803 231 803 C125 803 39 697 39 565 C39 488 97 393 169 352 C250 306 315 224 315 168 C315 89 267 27 207 27 C200 27 191 28 181 30 C131 43 79 91 59 147 C56 155 52 167 49 175 C49 175 39 175 39 175 L39 175 Z " />
<glyph glyph-name="T" unicode="T" horiz-adv-x="581" d="M568 651 C565 687 560 745 556 782 C556 786 555 793 555 798 C555 798 524 798 524 798 C524 798 479 798 479 798 C479 798 94 798 94 798 C94 798 48 798 48 798 C48 798 17 798 17 798 C17 793 16 786 16 782 C13 745 7 687 4 651 C4 651 13 651 13 651 C13 651 28 686 28 686 C46 730 96 766 140 766 C140 766 222 766 222 766 C222 766 222 76 222 76 C222 40 200 11 173 11 C173 11 165 11 165 11 C165 11 165 0 165 0 C165 0 222 0 222 0 C222 0 286 0 286 0 C286 0 350 0 350 0 C350 0 407 0 407 0 C407 0 407 11 407 11 C407 11 399 11 399 11 C372 11 350 40 350 76 C350 76 350 766 350 766 C350 766 432 766 432 766 C477 766 527 730 545 686 C545 686 559 651 559 651 C559 651 568 651 568 651 L568 651 Z " />
<glyph glyph-name="U" unicode="U" horiz-adv-x="599" d="M571 798 C571 798 506 798 506 798 C506 798 487 798 487 798 C487 798 468 798 468 798 C468 798 399 798 399 798 C399 798 399 786 399 786 C399 786 409 786 409 786 C441 786 466 756 468 716 C468 716 467 234 467 234 C467 126 415 40 312 40 C236 40 198 126 198 233 C198 233 198 721 198 721 C198 758 220 786 247 786 C247 786 256 786 256 786 C256 786 256 798 256 798 C256 798 198 798 198 798 C198 798 134 798 134 798 C134 798 71 798 71 798 C71 798 13 798 13 798 C13 798 13 786 13 786 C13 786 22 786 22 786 C49 786 71 758 71 721 C71 721 71 258 71 258 C71 112 145 -5 293 -5 C435 -5 506 96 506 221 C506 221 506 711 506 711 C506 753 531 786 561 786 C561 786 571 786 571 786 C571 786 571 798 571 798 L571 798 Z " />
<glyph glyph-name="V" unicode="V" horiz-adv-x="682" d="M647 798 C647 798 593 798 593 798 C593 798 573 798 573 798 C573 798 554 798 554 798 C554 798 462 798 462 798 C462 798 462 786 462 786 C462 786 476 786 476 786 C516 786 539 748 529 698 C529 698 399 186 399 186 C399 186 238 730 238 730 C233 763 252 786 283 786 C283 786 294 786 294 786 C294 786 294 798 294 798 C294 798 218 798 218 798 C218 798 147 798 147 798 C147 798 77 798 77 798 C77 798 35 798 35 798 C35 798 35 786 35 786 C35 786 42 786 42 786 C62 786 86 763 99 731 C99 731 348 -15 348 -15 C348 -15 380 -15 380 -15 C380 -15 573 721 573 721 C573 721 573 721 573 721 C582 758 611 786 638 786 C638 786 647 786 647 786 C647 786 647 798 647 798 L647 798 Z " />
<glyph glyph-name="W" unicode="W" horiz-adv-x="933" d="M896 798 C896 798 841 798 841 798 C841 798 822 798 822 798 C822 798 803 798 803 798 C803 798 722 798 722 798 C723 798 723 795 722 792 C723 789 723 786 722 786 C722 786 736 786 736 786 C771 786 793 760 788 725 C788 725 681 214 681 214 C681 214 527 635 527 635 C527 635 495 635 495 635 C495 635 310 -15 310 -15 C310 -15 342 -15 342 -15 C342 -15 527 635 527 635 C527 635 460 399 460 399 C460 399 633 -15 633 -15 C633 -15 665 -15 665 -15 C665 -15 824 721 824 721 C824 721 825 721 825 721 C832 758 860 786 888 786 C888 786 896 786 896 786 C896 786 896 798 896 798 L896 798 Z M294 798 C294 798 225 798 225 798 C225 798 155 798 155 798 C155 798 85 798 85 798 C85 798 42 798 42 798 C42 798 42 786 42 786 C42 786 49 786 49 786 C70 786 96 758 106 721 C106 721 106 721 106 721 C106 721 310 -15 310 -15 C310 -15 369 194 369 194 C369 194 242 727 242 727 C237 761 255 786 284 786 C284 786 294 786 294 786 C294 786 294 798 294 798 L294 798 Z " />
<glyph glyph-name="X" unicode="X" horiz-adv-x="637" d="M564 798 C564 798 511 798 511 798 C511 798 490 798 490 798 C490 798 470 798 470 798 C470 798 385 798 385 798 C385 798 385 786 385 786 C385 786 400 786 400 786 C436 786 454 758 440 722 C440 722 347 481 347 481 C347 481 238 721 238 721 C238 721 238 721 238 721 C221 758 235 786 269 786 C269 786 280 786 280 786 C280 786 280 798 280 798 C280 798 203 798 203 798 C203 798 130 798 130 798 C130 798 57 798 57 798 C57 798 20 798 20 798 C20 798 20 786 20 786 C20 786 27 786 27 786 C46 786 72 762 89 728 C89 728 247 380 247 380 C247 380 104 65 104 65 C87 34 56 11 32 11 C32 11 23 11 23 11 C23 11 23 0 23 0 C23 0 75 0 75 0 C75 0 95 0 95 0 C95 0 115 0 115 0 C115 0 199 0 199 0 C199 0 199 11 199 11 C199 11 187 11 187 11 C151 11 137 43 151 84 C151 84 263 343 263 343 C263 343 388 68 388 68 C399 36 385 11 353 11 C353 11 343 11 343 11 C343 11 343 0 343 0 C343 0 419 0 419 0 C419 0 492 0 492 0 C492 0 565 0 565 0 C565 0 602 0 602 0 C602 0 602 11 602 11 C602 11 596 11 596 11 C578 11 552 35 535 67 C535 67 364 444 364 444 C364 444 364 444 364 444 C364 444 480 724 480 724 C496 760 529 786 555 786 C555 786 564 786 564 786 C564 786 564 798 564 798 L564 798 Z " />
<glyph glyph-name="Y" unicode="Y" horiz-adv-x="610" d="M185 0 C185 0 242 0 242 0 C242 0 306 0 306 0 C306 0 370 0 370 0 C370 0 428 0 428 0 C427 0 427 3 428 6 C427 9 427 11 428 11 C428 11 419 11 419 11 C392 11 370 40 370 76 C370 76 370 414 370 414 C370 414 370 414 370 414 C370 414 521 721 521 721 C521 721 522 721 522 721 C539 758 572 786 596 786 C596 786 603 786 603 786 C604 786 604 789 603 792 C604 795 604 798 603 798 C603 798 559 798 559 798 C559 798 540 798 540 798 C540 798 521 798 521 798 C521 798 437 798 437 798 C437 798 437 786 437 786 C437 786 448 786 448 786 C483 786 496 755 480 713 C480 713 350 442 350 442 C350 442 236 724 236 724 C224 759 236 786 266 786 C266 786 275 786 275 786 C275 786 275 798 275 798 C275 798 206 798 206 798 C206 798 130 798 130 798 C130 798 53 798 53 798 C53 798 16 798 16 798 C16 798 16 786 16 786 C16 786 22 786 22 786 C42 786 71 758 86 721 C86 721 86 721 86 721 C86 721 242 358 242 358 C242 358 242 76 242 76 C242 40 220 11 193 11 C193 11 185 11 185 11 C185 11 185 0 185 0 L185 0 Z " />
<glyph glyph-name="Z" unicode="Z" horiz-adv-x="523" d="M437 17 C443 52 452 107 459 142 C459 142 457 143 456 143 C450 146 445 148 445 148 C445 148 435 123 435 123 C414 73 358 33 308 33 C308 33 187 33 187 33 C187 33 466 798 466 798 C466 798 393 798 393 798 C393 798 320 798 320 798 C320 798 158 798 158 798 C158 798 112 798 112 798 C112 798 81 798 81 798 C80 793 78 786 77 782 C69 752 56 704 48 674 C48 674 57 674 57 674 C57 674 67 688 67 688 C95 731 154 766 199 766 C199 766 308 766 308 766 C308 766 32 0 32 0 C32 0 104 0 104 0 C104 0 175 0 175 0 C175 0 357 0 357 0 C357 0 429 0 429 0 C429 0 434 0 434 0 C434 4 436 12 437 17 L437 17 Z " />
<glyph glyph-name="bracketleft" unicode="&#x5b;" horiz-adv-x="269" d="M154 772 C154 772 259 772 259 772 C259 772 259 798 259 798 C259 798 154 798 154 798 C154 798 65 798 65 798 C65 798 65 -120 65 -120 C65 -120 154 -120 154 -120 C154 -120 259 -120 259 -120 C259 -120 259 -94 259 -94 C259 -94 154 -94 154 -94 C154 -94 154 772 154 772 L154 772 Z " />
<glyph glyph-name="backslash" unicode="&#x5c;" horiz-adv-x="270" d="M230 -145 C230 -145 270 -145 270 -145 C270 -145 -20 848 -20 848 C-20 848 -60 848 -60 848 C-60 848 230 -145 230 -145 L230 -145 Z " />
<glyph glyph-name="bracketright" unicode="&#x5d;" horiz-adv-x="268" d="M109 772 C109 772 109 -94 109 -94 C109 -94 4 -94 4 -94 C4 -94 4 -120 4 -120 C4 -120 109 -120 109 -120 C109 -120 199 -120 199 -120 C199 -120 199 798 199 798 C199 798 109 798 109 798 C109 798 4 798 4 798 C4 798 4 772 4 772 C4 772 109 772 109 772 L109 772 Z " />
<glyph glyph-name="underscore" unicode="&#x5f;" horiz-adv-x="311" d="M5 -50 C5 -50 5 -114 5 -114 C5 -114 306 -114 306 -114 C306 -114 306 -50 306 -50 C306 -50 5 -50 5 -50 L5 -50 Z " />
<glyph glyph-name="a" unicode="a" horiz-adv-x="448" d="M426 64 C419 53 405 45 381 45 C352 45 341 75 341 112 C341 112 341 490 341 490 C341 575 289 643 224 643 C140 643 62 591 49 526 C49 526 164 526 164 526 C174 573 189 610 200 610 C211 610 220 568 220 516 C220 516 220 326 220 326 C220 326 185 321 185 321 C102 310 36 228 36 136 C36 58 75 -5 124 -5 C159 -5 199 12 231 38 C243 9 265 -10 302 -10 C373 -10 417 16 439 48 C439 48 426 64 426 64 L426 64 Z M220 294 C220 294 220 100 220 100 C220 93 220 86 221 80 C208 76 193 74 179 74 C163 74 150 116 150 169 C150 229 166 281 187 286 C187 286 220 294 220 294 L220 294 Z " />
<glyph glyph-name="b" unicode="b" horiz-adv-x="520" d="M13 805 C56 795 71 785 71 728 C71 728 71 0 71 0 C71 0 84 0 84 0 C84 1 85 1 85 2 C95 24 118 41 135 41 C173 41 204 -5 255 -5 C372 -5 465 141 465 323 C465 501 397 643 311 643 C252 643 196 622 186 596 C186 596 186 759 186 759 C186 759 186 828 186 828 C186 828 186 858 186 858 C186 858 163 858 163 858 C163 858 13 812 13 812 C13 812 13 805 13 805 L13 805 Z M186 577 C189 585 206 592 223 592 C289 592 341 454 341 281 C341 140 303 27 255 27 C217 27 186 115 186 225 C186 225 186 577 186 577 L186 577 Z " />
<glyph glyph-name="c" unicode="c" horiz-adv-x="464" d="M408 79 C408 79 397 91 397 91 C379 77 347 65 325 65 C240 65 172 187 172 339 C172 490 206 611 248 611 C273 611 295 571 299 520 C302 488 328 463 357 463 C385 463 408 486 408 514 C402 586 337 643 261 643 C144 643 50 488 50 295 C50 128 130 -5 229 -5 C273 -5 352 32 408 79 L408 79 Z " />
<glyph glyph-name="d" unicode="d" horiz-adv-x="534" d="M482 53 C438 63 425 74 424 130 C424 130 424 759 424 759 C424 759 424 828 424 828 C424 828 424 858 424 858 C424 858 401 858 401 858 C401 858 252 812 252 812 C252 812 252 805 252 805 C294 794 309 784 309 728 C309 728 309 611 309 611 C288 630 264 643 243 643 C131 643 41 483 41 282 C41 123 111 -5 198 -5 C221 -5 267 23 309 61 C309 61 309 30 309 30 C309 30 309 0 309 0 C309 0 332 0 332 0 C332 0 482 46 482 46 C482 46 482 53 482 53 L482 53 Z M309 99 C309 99 309 79 309 79 C297 71 278 65 262 65 C206 65 161 181 161 326 C161 484 195 611 238 611 C262 611 290 590 309 563 C309 563 309 99 309 99 L309 99 Z " />
<glyph glyph-name="e" unicode="e" horiz-adv-x="464" d="M414 79 C414 79 403 91 403 91 C385 77 352 65 328 65 C241 65 172 187 172 339 C172 362 173 384 174 405 C174 405 414 405 414 405 C414 537 340 643 249 643 C138 643 50 488 50 295 C50 128 131 -5 232 -5 C278 -5 358 32 414 79 L414 79 Z M176 428 C185 535 211 611 242 611 C278 611 307 562 307 502 C307 501 307 501 307 500 C306 470 282 444 254 439 C254 439 306 447 306 447 C306 447 176 428 176 428 L176 428 Z M254 439 C253 439 253 439 252 439 C252 439 254 439 254 439 L254 439 Z " />
<glyph glyph-name="f" unicode="f" horiz-adv-x="383" d="M244 11 C244 11 236 11 236 11 C208 11 187 40 187 76 C187 76 187 593 187 593 C187 593 279 593 279 593 C279 593 279 638 279 638 C279 638 187 638 187 638 C187 638 187 677 187 677 C187 763 216 832 253 832 C269 832 285 804 288 769 C290 741 316 718 345 718 C373 718 396 741 396 769 C392 818 343 858 285 858 C179 858 87 789 78 702 C78 702 72 638 72 638 C72 638 27 638 27 638 C27 638 27 593 27 593 C27 593 72 593 72 593 C72 593 72 76 72 76 C72 40 50 11 23 11 C23 11 14 11 14 11 C14 11 14 0 14 0 C14 0 72 0 72 0 C72 0 129 0 129 0 C129 0 187 0 187 0 C187 0 244 0 244 0 C244 0 244 11 244 11 L244 11 Z " />
<glyph glyph-name="g" unicode="g" horiz-adv-x="414" d="M415 638 C415 638 274 611 274 611 C252 631 226 643 197 643 C117 643 54 554 54 443 C54 361 88 291 138 260 C83 250 41 199 41 137 C41 99 58 66 86 45 C44 4 16 -56 16 -116 C16 -186 76 -243 150 -243 C286 -243 395 -138 395 -6 C395 70 323 131 233 131 C233 131 167 127 167 127 C140 126 118 150 118 181 C118 216 136 243 159 243 C159 243 197 243 197 243 C276 243 339 332 339 443 C339 490 328 534 308 568 C308 568 415 574 415 574 C415 574 415 638 415 638 L415 638 Z M162 443 C162 540 177 617 197 617 C216 617 231 540 231 443 C231 346 216 269 197 269 C177 269 162 346 162 443 L162 443 Z M120 26 C136 21 154 18 173 19 C173 19 202 21 202 21 C263 21 312 -17 312 -64 C312 -146 246 -211 163 -211 C124 -211 93 -163 93 -102 C93 -53 104 -7 120 26 L120 26 Z " />
<glyph glyph-name="h" unicode="h" horiz-adv-x="537" d="M497 11 C497 11 489 11 489 11 C461 11 440 40 440 76 C440 76 440 476 440 476 C440 569 411 643 353 643 C300 643 245 616 217 579 C217 579 217 759 217 759 C217 759 217 828 217 828 C217 828 217 858 217 858 C217 858 194 858 194 858 C194 858 44 812 44 812 C44 812 44 805 44 805 C87 795 102 785 102 728 C102 728 102 76 102 76 C102 40 80 11 53 11 C53 11 44 11 44 11 C44 11 44 0 44 0 C44 0 102 0 102 0 C102 0 159 0 159 0 C159 0 217 0 217 0 C217 0 267 0 267 0 C267 0 274 0 274 0 C274 0 325 0 325 0 C325 0 382 0 382 0 C382 0 440 0 440 0 C440 0 497 0 497 0 C497 0 497 11 497 11 L497 11 Z M274 11 C274 11 267 11 267 11 C267 11 266 11 266 11 C238 11 217 40 217 76 C217 76 217 556 217 556 C229 562 246 566 264 566 C305 566 325 521 325 464 C325 464 325 76 325 76 C325 40 303 11 276 11 C276 11 274 11 274 11 L274 11 Z " />
<glyph glyph-name="i" unicode="i" horiz-adv-x="319" d="M45 585 C87 576 102 564 102 508 C102 508 102 76 102 76 C102 40 80 11 54 11 C54 11 45 11 45 11 C45 11 45 0 45 0 C45 0 102 0 102 0 C102 0 160 0 160 0 C160 0 217 0 217 0 C217 0 275 0 275 0 C275 0 275 11 275 11 C275 11 266 11 266 11 C239 11 218 40 217 76 C217 76 217 539 217 539 C217 539 217 608 217 608 C217 608 217 638 217 638 C217 638 194 638 194 638 C194 638 45 592 45 592 C45 592 45 585 45 585 L45 585 Z M154 708 C196 708 230 742 230 784 C230 827 196 861 154 861 C111 861 77 827 77 784 C77 742 111 708 154 708 L154 708 Z " />
<glyph glyph-name="j" unicode="j" horiz-adv-x="307" d="M32 585 C73 576 88 566 90 517 C90 517 89 -1 89 -1 C89 -137 66 -190 14 -223 C14 -223 25 -239 25 -239 C151 -160 206 -91 206 31 C206 31 205 608 205 608 C205 608 205 638 205 638 C205 638 182 638 182 638 C182 638 32 592 32 592 C32 592 32 585 32 585 L32 585 Z M141 708 C184 708 218 742 218 784 C218 827 184 861 141 861 C98 861 64 827 64 784 C64 742 98 708 141 708 L141 708 Z " />
<glyph glyph-name="k" unicode="k" horiz-adv-x="501" d="M537 11 C537 11 528 11 528 11 C504 11 473 34 454 64 C454 64 281 427 281 427 C281 427 368 561 368 561 C368 561 369 561 369 561 C392 598 432 626 460 626 C460 626 468 626 468 626 C468 626 468 638 468 638 C468 638 418 638 418 638 C418 638 393 638 393 638 C393 638 367 638 367 638 C367 638 310 638 310 638 C310 638 310 626 310 626 C310 626 317 626 317 626 C341 626 345 600 327 566 C327 566 210 351 210 351 C210 351 210 759 210 759 C210 759 210 828 210 828 C210 828 210 858 210 858 C210 858 187 858 187 858 C187 858 37 812 37 812 C37 812 37 805 37 805 C80 795 95 785 95 728 C95 728 95 76 95 76 C95 40 73 11 46 11 C46 11 37 11 37 11 C37 11 37 0 37 0 C37 0 95 0 95 0 C95 0 152 0 152 0 C152 0 210 0 210 0 C210 0 267 0 267 0 C267 0 267 11 267 11 C267 11 259 11 259 11 C231 11 210 40 210 76 C210 76 210 351 210 351 C210 351 315 69 315 69 C325 36 315 11 292 11 C292 11 284 11 284 11 C284 11 284 0 284 0 C284 0 341 0 341 0 C341 0 413 0 413 0 C413 0 485 0 485 0 C485 0 537 0 537 0 C537 0 537 11 537 11 L537 11 Z " />
<glyph glyph-name="l" unicode="l" horiz-adv-x="319" d="M45 805 C87 796 102 784 102 728 C102 728 102 76 102 76 C102 40 80 11 54 11 C54 11 45 11 45 11 C45 11 45 0 45 0 C45 0 102 0 102 0 C102 0 160 0 160 0 C160 0 217 0 217 0 C217 0 275 0 275 0 C275 0 275 11 275 11 C275 11 266 11 266 11 C239 11 218 40 217 76 C217 76 217 759 217 759 C217 759 217 828 217 828 C217 828 217 858 217 858 C217 858 194 858 194 858 C194 858 45 812 45 812 C45 812 45 805 45 805 L45 805 Z " />
<glyph glyph-name="m" unicode="m" horiz-adv-x="780" d="M740 11 C740 11 732 11 732 11 C704 11 683 40 683 76 C683 76 683 476 683 476 C683 569 638 643 588 643 C517 643 457 613 433 572 C416 615 388 643 359 643 C298 643 245 616 217 580 C217 580 217 638 217 638 C217 638 194 638 194 638 C194 638 44 592 44 592 C44 592 44 585 44 585 C87 575 102 564 102 508 C102 508 102 76 102 76 C102 40 80 11 53 11 C53 11 44 11 44 11 C44 11 44 0 44 0 C44 0 102 0 102 0 C102 0 159 0 159 0 C159 0 217 0 217 0 C217 0 274 0 274 0 C275 0 275 3 274 6 C275 9 275 11 274 11 C274 11 266 11 266 11 C238 11 217 40 217 76 C217 76 217 532 217 532 C217 532 191 532 191 532 C191 532 217 539 217 539 C217 539 217 559 217 559 C229 567 248 573 269 573 C304 573 335 524 335 464 C335 464 335 76 335 76 C335 40 313 11 286 11 C286 11 277 11 277 11 C277 11 277 0 277 0 C277 0 335 0 335 0 C335 0 392 0 392 0 C392 0 450 0 450 0 C450 0 507 0 507 0 C507 0 507 11 507 11 C507 11 499 11 499 11 C471 11 450 40 450 76 C450 76 450 476 450 476 C450 504 446 530 440 553 C450 561 472 566 500 566 C536 566 568 521 568 464 C568 464 568 76 568 76 C568 40 546 11 519 11 C519 11 510 11 510 11 C510 11 510 0 510 0 C510 0 568 0 568 0 C568 0 625 0 625 0 C625 0 683 0 683 0 C683 0 740 0 740 0 C740 0 740 11 740 11 L740 11 Z " />
<glyph glyph-name="n" unicode="n" horiz-adv-x="517" d="M497 11 C497 11 489 11 489 11 C461 11 440 40 440 76 C440 76 440 476 440 476 C440 569 411 643 353 643 C300 643 245 616 217 579 C217 579 217 638 217 638 C217 638 194 638 194 638 C194 638 44 592 44 592 C44 592 44 585 44 585 C87 575 102 564 102 508 C102 508 102 76 102 76 C102 40 80 11 53 11 C53 11 44 11 44 11 C44 11 44 0 44 0 C44 0 102 0 102 0 C102 0 159 0 159 0 C159 0 217 0 217 0 C217 0 267 0 267 0 C267 0 274 0 274 0 C274 0 325 0 325 0 C325 0 382 0 382 0 C382 0 440 0 440 0 C440 0 497 0 497 0 C497 0 497 11 497 11 L497 11 Z M274 11 C274 11 267 11 267 11 C267 11 266 11 266 11 C238 11 217 40 217 76 C217 76 217 532 217 532 C217 532 191 532 191 532 C191 532 217 539 217 539 C217 539 217 556 217 556 C229 562 246 566 264 566 C305 566 325 521 325 464 C325 464 325 76 325 76 C325 40 303 11 276 11 C276 11 274 11 274 11 L274 11 Z " />
<glyph glyph-name="o" unicode="o" horiz-adv-x="529" d="M272 21 C220 21 178 153 178 319 C178 484 220 617 272 617 C323 617 365 484 365 319 C365 153 323 21 272 21 L272 21 Z M50 319 C50 139 148 -5 272 -5 C395 -5 493 139 493 319 C493 499 395 643 272 643 C148 643 50 499 50 319 L50 319 Z " />
<glyph glyph-name="p" unicode="p" horiz-adv-x="548" d="M44 585 C87 575 102 564 102 508 C102 508 102 -154 102 -154 C102 -190 80 -219 53 -219 C53 -219 44 -219 44 -219 C44 -219 44 -230 44 -230 C44 -230 102 -230 102 -230 C102 -230 159 -230 159 -230 C159 -230 217 -230 217 -230 C217 -230 274 -230 274 -230 C275 -230 275 -227 274 -224 C275 -221 275 -219 274 -219 C274 -219 266 -219 266 -219 C238 -219 217 -190 217 -154 C217 -154 217 11 217 11 C239 1 264 -5 290 -5 C414 -5 514 149 514 341 C514 509 445 643 359 643 C291 643 231 615 211 578 C211 578 201 638 201 638 C201 638 178 638 178 638 C178 638 44 592 44 592 C44 592 44 585 44 585 L44 585 Z M215 553 C227 561 248 566 270 566 C339 566 394 430 394 261 C394 131 348 27 290 27 C254 27 222 75 217 135 C217 135 217 532 217 532 C217 532 191 532 191 532 C191 532 217 539 217 539 C217 539 215 553 215 553 L215 553 Z " />
<glyph glyph-name="q" unicode="q" horiz-adv-x="512" d="M237 -230 C237 -230 295 -230 295 -230 C295 -230 352 -230 352 -230 C352 -230 410 -230 410 -230 C410 -230 467 -230 467 -230 C468 -230 468 -227 467 -224 C468 -221 468 -219 467 -219 C467 -219 459 -219 459 -219 C432 -219 410 -190 410 -154 C410 -154 410 638 410 638 C410 638 397 638 397 638 C397 638 397 637 397 637 C386 614 355 597 326 597 C292 597 271 643 226 643 C116 643 28 483 28 282 C28 123 92 -5 171 -5 C197 -5 250 26 295 68 C295 68 295 -154 295 -154 C295 -190 273 -219 246 -219 C246 -219 237 -219 237 -219 C237 -219 237 -230 237 -230 L237 -230 Z M295 89 C278 76 253 65 234 65 C186 65 148 181 148 326 C148 484 183 611 226 611 C264 611 295 523 295 412 C295 412 295 89 295 89 L295 89 Z " />
<glyph glyph-name="r" unicode="r" horiz-adv-x="418" d="M44 585 C87 575 102 564 102 508 C102 508 102 76 102 76 C102 40 80 11 53 11 C53 11 44 11 44 11 C44 11 44 0 44 0 C44 0 102 0 102 0 C102 0 159 0 159 0 C159 0 217 0 217 0 C217 0 274 0 274 0 C275 0 275 3 274 6 C275 9 275 11 274 11 C274 11 266 11 266 11 C238 11 217 40 217 76 C217 76 217 532 217 532 C217 532 191 532 191 532 C191 532 217 539 217 539 C217 539 215 552 215 552 C223 555 234 557 246 557 C280 557 319 514 353 514 C384 514 408 539 408 569 C408 610 384 643 337 643 C283 643 232 614 211 576 C211 576 201 638 201 638 C201 638 178 638 178 638 C178 638 44 592 44 592 C44 592 44 585 44 585 L44 585 Z " />
<glyph glyph-name="s" unicode="s" horiz-adv-x="356" d="M285 511 C285 511 285 604 285 604 C247 626 211 643 202 643 C118 643 50 566 50 469 C50 410 93 325 147 278 C183 248 211 188 211 145 C211 76 185 21 153 21 C149 21 137 26 119 35 C92 55 65 94 53 130 C53 130 45 130 45 130 C45 130 45 29 45 29 C78 10 123 -5 147 -5 C236 -5 307 81 307 188 C307 246 272 322 229 360 C178 403 138 469 138 508 C138 568 166 616 201 617 C209 626 221 620 234 604 C224 606 218 606 215 603 C215 603 200 616 200 616 C200 616 201 617 201 617 C193 615 214 598 251 576 C258 563 265 546 271 527 C272 522 274 515 276 511 C276 511 285 511 285 511 L285 511 Z M201 617 C201 617 202 617 202 617 C202 617 201 617 201 617 C201 617 201 617 201 617 C201 617 201 617 201 617 L201 617 Z " />
<glyph glyph-name="t" unicode="t" horiz-adv-x="354" d="M322 638 C322 638 187 638 187 638 C187 638 187 805 187 805 C187 805 168 805 168 805 C167 803 166 800 165 798 C118 696 56 612 25 606 C25 606 25 593 25 593 C25 593 72 593 72 593 C72 593 72 146 72 146 C72 37 102 -5 180 -5 C240 -5 295 22 334 55 C334 55 326 65 326 65 C314 54 285 46 237 46 C201 46 187 68 187 126 C187 126 187 593 187 593 C187 593 322 593 322 593 C322 593 322 638 322 638 L322 638 Z " />
<glyph glyph-name="u" unicode="u" horiz-adv-x="489" d="M467 53 C425 64 410 73 410 130 C410 130 410 638 410 638 C410 638 352 638 352 638 C352 638 295 638 295 638 C295 638 237 638 237 638 C237 638 237 626 237 626 C237 626 246 626 246 626 C273 626 295 598 295 561 C295 561 295 99 295 99 C295 99 295 92 295 92 C282 80 270 71 265 71 C217 71 186 113 186 166 C186 166 187 638 187 638 C187 638 129 638 129 638 C129 638 72 638 72 638 C72 638 14 638 14 638 C14 638 14 626 14 626 C14 626 23 626 23 626 C50 626 72 598 72 561 C72 561 72 154 72 154 C72 66 112 -5 175 -5 C200 -5 248 29 295 73 C295 73 295 30 295 30 C295 30 295 0 295 0 C295 0 318 0 318 0 C318 0 467 46 467 46 C467 46 467 53 467 53 L467 53 Z " />
<glyph glyph-name="v" unicode="v" horiz-adv-x="524" d="M496 638 C496 638 442 638 442 638 C442 638 423 638 423 638 C423 638 404 638 404 638 C404 638 346 638 346 638 C346 638 346 626 346 626 C346 626 354 626 354 626 C379 626 392 600 385 566 C385 566 286 189 286 189 C286 189 187 561 187 561 C187 561 188 561 188 561 C178 598 191 626 217 626 C217 626 225 626 225 626 C225 626 225 638 225 638 C225 638 167 638 167 638 C167 638 101 638 101 638 C101 638 36 638 36 638 C36 638 -18 638 -18 638 C-19 638 -19 635 -18 632 C-19 629 -19 626 -18 626 C-18 626 -10 626 -10 626 C17 626 48 598 59 561 C59 561 60 561 60 561 C60 561 234 -10 234 -10 C234 -10 253 -10 253 -10 C253 -10 420 561 420 561 C420 561 420 561 420 561 C430 598 461 626 488 626 C488 626 496 626 496 626 C496 626 496 638 496 638 L496 638 Z " />
<glyph glyph-name="w" unicode="w" horiz-adv-x="796" d="M770 638 C770 638 727 638 727 638 C727 638 689 638 689 638 C689 638 608 638 608 638 C608 638 608 626 608 626 C608 626 624 626 624 626 C658 626 681 606 662 537 C662 537 663 537 663 537 C663 537 571 189 571 189 C571 189 475 552 475 552 C475 552 475 552 475 552 C475 553 474 555 474 556 C474 556 472 564 472 564 C460 612 480 626 510 626 C510 626 525 626 525 626 C525 626 525 638 525 638 C525 638 452 638 452 638 C452 638 321 638 321 638 C321 638 282 638 282 638 C282 638 282 626 282 626 C282 626 296 626 296 626 C311 626 329 609 348 549 C348 549 348 549 348 549 C348 549 369 480 369 480 C369 480 369 480 369 480 C369 480 300 185 300 185 C300 185 208 552 208 552 C208 552 209 552 209 552 C191 610 210 626 239 626 C239 626 254 626 254 626 C254 626 254 638 254 638 C254 638 187 638 187 638 C187 638 56 638 56 638 C56 638 13 638 13 638 C13 638 13 626 13 626 C13 626 27 626 27 626 C45 626 64 609 83 549 C83 549 83 549 83 549 C83 549 254 -10 254 -10 C254 -10 273 -10 273 -10 C273 -10 383 435 383 435 C383 435 519 -10 519 -10 C519 -10 538 -10 538 -10 C538 -10 708 571 708 571 C722 613 739 626 756 626 C756 626 770 626 770 626 C770 626 770 638 770 638 L770 638 Z " />
<glyph glyph-name="x" unicode="x" horiz-adv-x="487" d="M445 638 C445 638 394 638 394 638 C394 638 378 638 378 638 C378 638 362 638 362 638 C362 638 285 638 285 638 C285 638 285 626 285 626 C285 626 296 626 296 626 C328 626 342 601 327 567 C327 567 268 444 268 444 C268 444 220 569 220 569 C211 602 224 626 253 626 C253 626 263 626 263 626 C263 626 263 638 263 638 C263 638 194 638 194 638 C194 638 124 638 124 638 C124 638 53 638 53 638 C53 638 12 638 12 638 C12 638 12 626 12 626 C12 626 19 626 19 626 C38 626 63 604 78 572 C78 572 186 289 186 289 C186 289 89 66 89 66 C71 35 38 11 10 11 C10 11 0 11 0 11 C0 11 0 0 0 0 C0 0 60 0 60 0 C60 0 76 0 76 0 C76 0 92 0 92 0 C92 0 184 0 184 0 C184 0 184 11 184 11 C184 11 162 11 162 11 C126 11 109 39 123 75 C123 75 199 255 199 255 C199 255 270 72 270 72 C281 38 272 11 248 11 C248 11 240 11 240 11 C240 11 240 0 240 0 C240 0 297 0 297 0 C297 0 368 0 368 0 C368 0 438 0 438 0 C438 0 472 0 472 0 C472 0 472 11 472 11 C472 11 466 11 466 11 C448 11 423 40 409 76 C409 76 409 76 409 76 C409 76 278 418 278 418 C278 418 354 561 354 561 C354 561 354 561 354 561 C372 598 409 626 437 626 C437 626 445 626 445 626 C445 626 445 638 445 638 L445 638 Z " />
<glyph glyph-name="y" unicode="y" horiz-adv-x="532" d="M516 638 C516 638 462 638 462 638 C462 638 443 638 443 638 C443 638 424 638 424 638 C424 638 366 638 366 638 C366 638 366 626 366 626 C366 626 374 626 374 626 C399 626 412 600 405 566 C405 566 306 189 306 189 C306 189 207 561 207 561 C207 561 208 561 208 561 C198 598 211 626 237 626 C237 626 245 626 245 626 C245 626 245 638 245 638 C245 638 187 638 187 638 C187 638 121 638 121 638 C121 638 56 638 56 638 C56 638 2 638 2 638 C1 638 1 635 2 632 C1 629 1 626 2 626 C2 626 10 626 10 626 C37 626 68 598 79 561 C79 561 80 561 80 561 C80 561 249 7 249 7 C249 7 225 -62 225 -62 C207 -123 183 -154 152 -154 C128 -154 96 -129 71 -129 C40 -129 14 -151 14 -178 C14 -207 44 -230 81 -230 C166 -230 224 -177 255 -72 C255 -72 273 -10 273 -10 C273 -10 440 561 440 561 C440 561 440 561 440 561 C450 598 481 626 508 626 C508 626 516 626 516 626 C516 626 516 638 516 638 L516 638 Z " />
<glyph glyph-name="z" unicode="z" horiz-adv-x="419" d="M352 141 C352 141 342 116 342 116 C321 66 264 26 215 26 C215 26 181 26 181 26 C181 26 370 638 370 638 C370 638 303 638 303 638 C303 638 237 638 237 638 C237 638 147 638 147 638 C147 638 101 638 101 638 C101 638 70 638 70 638 C69 634 68 628 67 624 C60 601 51 565 45 542 C45 542 54 542 54 542 C54 542 62 552 62 552 C88 585 144 611 189 611 C189 611 189 611 189 611 C189 611 229 612 229 612 C229 612 37 0 37 0 C37 0 105 0 105 0 C105 0 173 0 173 0 C173 0 266 0 266 0 C266 0 336 0 336 0 C336 0 342 0 342 0 C342 3 343 9 344 13 C350 47 360 101 366 135 C361 137 352 141 352 141 C352 141 352 141 352 141 L352 141 Z " />
<glyph glyph-name="braceleft" unicode="&#x7b;" horiz-adv-x="211" d="M196 -120 C196 -120 196 -101 196 -101 C196 -101 182 -101 182 -101 C154 -101 132 -60 132 -9 C132 -9 132 207 132 207 C132 273 98 327 54 339 C98 354 132 419 132 497 C132 497 132 687 132 687 C132 738 154 779 182 779 C182 779 196 779 196 779 C196 779 196 798 196 798 C196 798 156 798 156 798 C93 798 42 749 42 687 C42 687 42 434 42 434 C42 386 27 349 8 348 C8 348 5 348 5 348 C5 348 5 329 5 329 C5 329 8 329 8 329 C27 330 42 303 42 270 C42 270 42 -9 42 -9 C42 -71 93 -120 156 -120 C156 -120 196 -120 196 -120 L196 -120 Z " />
<glyph glyph-name="bar" unicode="&#x7c;" horiz-adv-x="209" d="M60 908 C60 908 60 -234 60 -234 C60 -234 149 -234 149 -234 C149 -234 149 908 149 908 C149 908 60 908 60 908 L60 908 Z " />
<glyph glyph-name="braceright" unicode="&#x7d;" horiz-adv-x="211" d="M5 798 C5 798 5 779 5 779 C5 779 19 779 19 779 C47 779 69 738 69 687 C69 687 69 471 69 471 C69 405 103 351 148 339 C103 324 69 259 69 180 C69 180 69 -9 69 -9 C69 -60 47 -101 19 -101 C19 -101 5 -101 5 -101 C5 -101 5 -120 5 -120 C5 -120 45 -120 45 -120 C108 -120 159 -71 159 -9 C159 -9 159 244 159 244 C159 291 174 329 193 329 C193 329 196 329 196 329 C196 329 196 348 196 348 C196 348 193 348 193 348 C174 348 159 374 159 407 C159 407 159 687 159 687 C159 749 108 798 45 798 C45 798 5 798 5 798 L5 798 Z " />
<glyph glyph-name="[namenotfound]" unicode="&#xa0;" horiz-adv-x="149" d="" />
<glyph glyph-name="exclamdown" unicode="&#xa1;" horiz-adv-x="265" d="M123 643 C78 643 43 607 43 563 C43 518 78 483 123 483 C167 483 203 518 203 563 C203 607 167 643 123 643 L123 643 Z M60 -83 C55 -129 86 -165 130 -165 C176 -165 207 -129 201 -83 C201 -83 130 408 130 408 C130 408 115 408 115 408 C115 408 60 -83 60 -83 L60 -83 Z " />
<glyph glyph-name="cent" unicode="&#xa2;" horiz-adv-x="457" d="M227 713 C227 713 227 639 227 639 C126 612 50 469 50 295 C50 129 129 -3 227 -5 C227 -5 227 -75 227 -75 C227 -75 265 -75 265 -75 C265 -75 265 1 265 1 C309 13 365 43 408 79 C408 79 397 91 397 91 C379 77 347 65 325 65 C304 65 283 73 265 87 C265 87 265 605 265 605 C282 592 296 559 299 520 C302 488 328 463 357 463 C385 463 408 486 408 514 C402 585 339 641 265 643 C265 643 265 713 265 713 C265 713 227 713 227 713 L227 713 Z M227 128 C193 178 172 254 172 339 C172 464 195 568 227 601 C227 601 227 128 227 128 L227 128 Z " />
<glyph glyph-name="guillemotleft" unicode="&#xab;" horiz-adv-x="348" d="M238 320 C238 320 300 591 300 591 C300 591 287 604 287 604 C287 604 136 325 136 325 C136 325 136 313 136 313 C136 313 291 34 291 34 C291 34 303 46 303 46 C303 46 238 320 238 320 L238 320 Z M123 320 C123 320 185 591 185 591 C185 591 172 604 172 604 C172 604 20 325 20 325 C20 325 20 313 20 313 C20 313 175 34 175 34 C175 34 188 46 188 46 C188 46 123 320 123 320 L123 320 Z " />
<glyph glyph-name="guillemotright" unicode="&#xbb;" horiz-adv-x="348" d="M110 320 C110 320 48 591 48 591 C48 591 61 604 61 604 C61 604 213 325 213 325 C213 325 213 313 213 313 C213 313 58 34 58 34 C58 34 45 46 45 46 C45 46 110 320 110 320 L110 320 Z M226 320 C226 320 164 591 164 591 C164 591 176 604 176 604 C176 604 328 325 328 325 C328 325 328 313 328 313 C328 313 173 34 173 34 C173 34 161 46 161 46 C161 46 226 320 226 320 L226 320 Z " />
<glyph glyph-name="questiondown" unicode="&#xbf;" horiz-adv-x="308" d="M189 643 C144 643 109 607 109 563 C109 518 144 483 189 483 C233 483 269 518 269 563 C269 607 233 643 189 643 L189 643 Z M204 185 C216 186 224 193 222 203 C222 203 197 387 197 387 C197 387 181 387 181 387 C181 387 156 203 156 203 C156 203 165 273 165 273 C165 273 130 273 130 273 C56 273 35 174 35 125 C35 -36 112 -165 210 -165 C209 -165 209 -165 210 -164 C210 -164 210 -165 210 -165 C245 -165 273 -133 273 -92 C273 -64 251 -42 223 -42 C206 -42 196 -66 182 -73 C178 -74 175 -75 173 -75 C111 -75 62 8 61 112 C61 137 86 186 169 185 C169 185 204 185 204 185 L204 185 Z " />
<glyph glyph-name="Agrave" unicode="&#xc0;" horiz-adv-x="617" d="M610 11 C610 11 603 11 603 11 C580 11 551 40 540 76 C540 76 539 76 539 76 C539 76 300 816 300 816 C300 816 268 816 268 816 C268 816 72 76 72 76 C72 76 72 76 72 76 C62 40 33 11 6 11 C6 11 -3 11 -3 11 C-3 11 -3 0 -3 0 C-3 0 52 0 52 0 C52 0 73 0 73 0 C73 0 94 0 94 0 C94 0 178 0 178 0 C178 0 178 11 178 11 C178 11 166 11 166 11 C128 11 106 47 117 91 C117 91 117 91 117 91 C117 91 162 271 162 271 C162 271 347 272 347 272 C347 272 403 76 403 76 C403 76 403 76 403 76 C414 40 393 11 357 11 C357 11 344 11 344 11 C344 11 344 0 344 0 C344 0 425 0 425 0 C425 0 495 0 495 0 C495 0 564 0 564 0 C564 0 610 0 610 0 C610 0 610 11 610 11 L610 11 Z M295 997 C283 1025 270 1047 265 1047 C247 1047 200 1012 200 999 C200 992 216 972 236 951 C236 951 356 827 356 827 C356 827 369 837 369 837 C369 837 295 997 295 997 L295 997 Z M338 304 C338 304 171 305 171 305 C171 305 249 613 249 613 C249 613 338 304 338 304 L338 304 Z " />
<glyph glyph-name="Aacute" unicode="&#xc1;" horiz-adv-x="617" d="M223 827 C223 827 340 951 340 951 C359 973 375 993 375 999 C375 1012 328 1047 310 1047 C305 1047 293 1025 281 997 C281 997 211 837 211 837 C211 837 223 827 223 827 L223 827 Z M610 11 C610 11 603 11 603 11 C580 11 551 40 540 76 C540 76 539 76 539 76 C539 76 300 816 300 816 C300 816 268 816 268 816 C268 816 72 76 72 76 C72 76 72 76 72 76 C62 40 33 11 6 11 C6 11 -3 11 -3 11 C-3 11 -3 0 -3 0 C-3 0 52 0 52 0 C52 0 73 0 73 0 C73 0 94 0 94 0 C94 0 178 0 178 0 C178 0 178 11 178 11 C178 11 166 11 166 11 C128 11 106 47 117 91 C117 91 117 91 117 91 C117 91 162 271 162 271 C162 271 347 272 347 272 C347 272 403 76 403 76 C403 76 403 76 403 76 C414 40 393 11 357 11 C357 11 344 11 344 11 C344 11 344 0 344 0 C344 0 425 0 425 0 C425 0 495 0 495 0 C495 0 564 0 564 0 C564 0 610 0 610 0 C610 0 610 11 610 11 L610 11 Z M338 304 C338 304 171 305 171 305 C171 305 249 613 249 613 C249 613 338 304 338 304 L338 304 Z " />
<glyph glyph-name="Acircumflex" unicode="&#xc2;" horiz-adv-x="617" d="M610 11 C610 11 603 11 603 11 C580 11 551 40 540 76 C540 76 539 76 539 76 C539 76 300 816 300 816 C300 816 268 816 268 816 C268 816 72 76 72 76 C72 76 72 76 72 76 C62 40 33 11 6 11 C6 11 -3 11 -3 11 C-3 11 -3 0 -3 0 C-3 0 52 0 52 0 C52 0 73 0 73 0 C73 0 94 0 94 0 C94 0 178 0 178 0 C178 0 178 11 178 11 C178 11 166 11 166 11 C128 11 106 47 117 91 C117 91 117 91 117 91 C117 91 162 271 162 271 C162 271 347 272 347 272 C347 272 403 76 403 76 C403 76 403 76 403 76 C414 40 393 11 357 11 C357 11 344 11 344 11 C344 11 344 0 344 0 C344 0 425 0 425 0 C425 0 495 0 495 0 C495 0 564 0 564 0 C564 0 610 0 610 0 C610 0 610 11 610 11 L610 11 Z M284 934 C284 934 382 829 382 829 C382 829 393 839 393 839 C393 839 321 1010 321 1010 C317 1019 303 1042 284 1042 C265 1042 251 1019 248 1010 C248 1010 175 839 175 839 C175 839 186 829 186 829 C186 829 284 934 284 934 L284 934 Z M338 304 C338 304 171 305 171 305 C171 305 249 613 249 613 C249 613 338 304 338 304 L338 304 Z " />
<glyph glyph-name="Atilde" unicode="&#xc3;" horiz-adv-x="617" d="M189 893 C189 924 199 949 212 949 C253 949 284 886 324 886 C365 886 398 947 398 1023 C398 1023 379 1023 379 1023 C379 990 366 963 349 963 C309 963 278 1025 237 1025 C200 1025 170 966 170 893 C170 893 189 893 189 893 L189 893 Z M610 11 C610 11 603 11 603 11 C580 11 551 40 540 76 C540 76 539 76 539 76 C539 76 300 816 300 816 C300 816 268 816 268 816 C268 816 72 76 72 76 C72 76 72 76 72 76 C62 40 33 11 6 11 C6 11 -3 11 -3 11 C-3 11 -3 0 -3 0 C-3 0 52 0 52 0 C52 0 73 0 73 0 C73 0 94 0 94 0 C94 0 178 0 178 0 C178 0 178 11 178 11 C178 11 166 11 166 11 C128 11 106 47 117 91 C117 91 117 91 117 91 C117 91 162 271 162 271 C162 271 347 272 347 272 C347 272 403 76 403 76 C403 76 403 76 403 76 C414 40 393 11 357 11 C357 11 344 11 344 11 C344 11 344 0 344 0 C344 0 425 0 425 0 C425 0 495 0 495 0 C495 0 564 0 564 0 C564 0 610 0 610 0 C610 0 610 11 610 11 L610 11 Z M338 304 C338 304 171 305 171 305 C171 305 249 613 249 613 C249 613 338 304 338 304 L338 304 Z " />
<glyph glyph-name="Adieresis" unicode="&#xc4;" horiz-adv-x="617" d="M378 868 C417 868 448 899 448 938 C448 977 417 1008 378 1008 C339 1008 308 977 308 938 C308 899 339 868 378 868 L378 868 Z M190 868 C229 868 260 899 260 938 C260 977 229 1008 190 1008 C151 1008 120 977 120 938 C120 899 151 868 190 868 L190 868 Z M610 11 C610 11 603 11 603 11 C580 11 551 40 540 76 C540 76 539 76 539 76 C539 76 300 816 300 816 C300 816 268 816 268 816 C268 816 72 76 72 76 C72 76 72 76 72 76 C62 40 33 11 6 11 C6 11 -3 11 -3 11 C-3 11 -3 0 -3 0 C-3 0 52 0 52 0 C52 0 73 0 73 0 C73 0 94 0 94 0 C94 0 178 0 178 0 C178 0 178 11 178 11 C178 11 166 11 166 11 C128 11 106 47 117 91 C117 91 117 91 117 91 C117 91 162 271 162 271 C162 271 347 272 347 272 C347 272 403 76 403 76 C403 76 403 76 403 76 C414 40 393 11 357 11 C357 11 344 11 344 11 C344 11 344 0 344 0 C344 0 425 0 425 0 C425 0 495 0 495 0 C495 0 564 0 564 0 C564 0 610 0 610 0 C610 0 610 11 610 11 L610 11 Z M338 304 C338 304 171 305 171 305 C171 305 249 613 249 613 C249 613 338 304 338 304 L338 304 Z " />
<glyph glyph-name="Aring" unicode="&#xc5;" horiz-adv-x="617" d="M284 858 C252 858 220 892 220 925 C220 962 248 992 284 992 C320 992 348 962 348 925 C348 892 316 858 284 858 L284 858 Z M188 925 C188 879 236 833 284 833 C332 833 380 879 380 925 C380 977 337 1018 284 1018 C231 1018 188 977 188 925 L188 925 Z M610 11 C610 11 603 11 603 11 C580 11 551 40 540 76 C540 76 539 76 539 76 C539 76 300 816 300 816 C300 816 268 816 268 816 C268 816 72 76 72 76 C72 76 72 76 72 76 C62 40 33 11 6 11 C6 11 -3 11 -3 11 C-3 11 -3 0 -3 0 C-3 0 52 0 52 0 C52 0 73 0 73 0 C73 0 94 0 94 0 C94 0 178 0 178 0 C178 0 178 11 178 11 C178 11 166 11 166 11 C128 11 106 47 117 91 C117 91 117 91 117 91 C117 91 162 271 162 271 C162 271 347 272 347 272 C347 272 403 76 403 76 C403 76 403 76 403 76 C414 40 393 11 357 11 C357 11 344 11 344 11 C344 11 344 0 344 0 C344 0 425 0 425 0 C425 0 495 0 495 0 C495 0 564 0 564 0 C564 0 610 0 610 0 C610 0 610 11 610 11 L610 11 Z M338 304 C338 304 171 305 171 305 C171 305 249 613 249 613 C249 613 338 304 338 304 L338 304 Z " />
<glyph glyph-name="Ccedilla" unicode="&#xc7;" horiz-adv-x="667" d="M608 620 C608 620 608 745 608 745 C552 777 454 803 387 803 C195 803 42 623 42 399 C42 175 195 -5 387 -5 C454 -5 552 21 608 53 C608 53 608 177 608 177 C608 177 598 177 598 177 C595 169 591 157 588 149 C568 90 494 40 418 29 C407 28 397 27 387 27 C273 27 182 192 182 399 C182 606 273 771 387 771 C403 771 421 769 440 766 C440 766 440 766 440 766 C503 756 569 704 588 648 C591 640 595 628 598 620 C598 620 608 620 608 620 L608 620 Z " />
<glyph glyph-name="Egrave" unicode="&#xc8;" horiz-adv-x="569" d="M407 329 C407 329 407 394 407 394 C407 394 407 410 407 410 C407 410 407 426 407 426 C407 426 407 484 407 484 C407 484 398 484 398 484 C398 484 396 475 396 475 C387 448 343 426 296 426 C296 426 225 426 225 426 C225 426 225 766 225 766 C225 766 336 766 336 766 C392 766 449 727 464 678 C464 678 469 662 469 662 C469 662 478 662 478 662 C478 662 478 782 478 782 C478 782 478 798 478 798 C478 798 462 798 462 798 C462 798 401 798 401 798 C401 798 225 798 225 798 C225 798 161 798 161 798 C161 798 97 798 97 798 C97 798 40 798 40 798 C40 798 40 786 40 786 C40 786 49 786 49 786 C75 786 97 758 97 721 C97 721 97 76 97 76 C97 40 75 11 49 11 C49 11 40 11 40 11 C40 11 40 0 40 0 C40 0 97 0 97 0 C97 0 161 0 161 0 C161 0 225 0 225 0 C225 0 401 0 401 0 C401 0 472 0 472 0 C472 0 477 0 477 0 C477 4 479 12 480 16 C485 49 495 102 501 135 C501 136 500 136 500 135 C496 136 492 136 492 135 C492 135 485 120 485 120 C460 71 396 32 341 32 C341 32 225 32 225 32 C225 32 225 394 225 394 C225 394 296 394 296 394 C343 394 387 370 396 339 C396 339 398 329 398 329 C398 329 407 329 407 329 L407 329 Z M275 997 C263 1025 251 1047 246 1047 C228 1047 180 1012 180 999 C180 992 197 972 217 951 C217 951 336 827 336 827 C336 827 349 837 349 837 C349 837 275 997 275 997 L275 997 Z " />
<glyph glyph-name="Eacute" unicode="&#xc9;" horiz-adv-x="569" d="M250 827 C250 827 366 951 366 951 C386 973 402 993 402 999 C402 1012 354 1047 336 1047 C332 1047 320 1025 308 997 C308 997 237 837 237 837 C237 837 250 827 250 827 L250 827 Z M407 329 C407 329 407 394 407 394 C407 394 407 410 407 410 C407 410 407 426 407 426 C407 426 407 484 407 484 C407 484 398 484 398 484 C398 484 396 475 396 475 C387 448 343 426 296 426 C296 426 225 426 225 426 C225 426 225 766 225 766 C225 766 336 766 336 766 C392 766 449 727 464 678 C464 678 469 662 469 662 C469 662 478 662 478 662 C478 662 478 782 478 782 C478 782 478 798 478 798 C478 798 462 798 462 798 C462 798 401 798 401 798 C401 798 225 798 225 798 C225 798 161 798 161 798 C161 798 97 798 97 798 C97 798 40 798 40 798 C40 798 40 786 40 786 C40 786 49 786 49 786 C75 786 97 758 97 721 C97 721 97 76 97 76 C97 40 75 11 49 11 C49 11 40 11 40 11 C40 11 40 0 40 0 C40 0 97 0 97 0 C97 0 161 0 161 0 C161 0 225 0 225 0 C225 0 401 0 401 0 C401 0 472 0 472 0 C472 0 477 0 477 0 C477 4 479 12 480 16 C485 49 495 102 501 135 C501 136 500 136 500 135 C496 136 492 136 492 135 C492 135 485 120 485 120 C460 71 396 32 341 32 C341 32 225 32 225 32 C225 32 225 394 225 394 C225 394 296 394 296 394 C343 394 387 370 396 339 C396 339 398 329 398 329 C398 329 407 329 407 329 L407 329 Z " />
<glyph glyph-name="Ecircumflex" unicode="&#xca;" horiz-adv-x="569" d="M407 329 C407 329 407 394 407 394 C407 394 407 410 407 410 C407 410 407 426 407 426 C407 426 407 484 407 484 C407 484 398 484 398 484 C398 484 396 475 396 475 C387 448 343 426 296 426 C296 426 225 426 225 426 C225 426 225 766 225 766 C225 766 336 766 336 766 C392 766 449 727 464 678 C464 678 469 662 469 662 C469 662 478 662 478 662 C478 662 478 782 478 782 C478 782 478 798 478 798 C478 798 462 798 462 798 C462 798 401 798 401 798 C401 798 225 798 225 798 C225 798 161 798 161 798 C161 798 97 798 97 798 C97 798 40 798 40 798 C40 798 40 786 40 786 C40 786 49 786 49 786 C75 786 97 758 97 721 C97 721 97 76 97 76 C97 40 75 11 49 11 C49 11 40 11 40 11 C40 11 40 0 40 0 C40 0 97 0 97 0 C97 0 161 0 161 0 C161 0 225 0 225 0 C225 0 401 0 401 0 C401 0 472 0 472 0 C472 0 477 0 477 0 C477 4 479 12 480 16 C485 49 495 102 501 135 C501 136 500 136 500 135 C496 136 492 136 492 135 C492 135 485 120 485 120 C460 71 396 32 341 32 C341 32 225 32 225 32 C225 32 225 394 225 394 C225 394 296 394 296 394 C343 394 387 370 396 339 C396 339 398 329 398 329 C398 329 407 329 407 329 L407 329 Z M280 934 C280 934 377 829 377 829 C377 829 389 839 389 839 C389 839 317 1010 317 1010 C313 1019 299 1042 280 1042 C261 1042 247 1019 244 1010 C244 1010 171 839 171 839 C171 839 182 829 182 829 C182 829 280 934 280 934 L280 934 Z " />
<glyph glyph-name="Edieresis" unicode="&#xcb;" horiz-adv-x="569" d="M374 868 C413 868 444 899 444 938 C444 977 413 1008 374 1008 C334 1008 303 977 303 938 C303 899 334 868 374 868 L374 868 Z M186 868 C225 868 256 899 256 938 C256 977 225 1008 186 1008 C147 1008 116 977 116 938 C116 899 147 868 186 868 L186 868 Z M407 329 C407 329 407 394 407 394 C407 394 407 410 407 410 C407 410 407 426 407 426 C407 426 407 484 407 484 C407 484 398 484 398 484 C398 484 396 475 396 475 C387 448 343 426 296 426 C296 426 225 426 225 426 C225 426 225 766 225 766 C225 766 336 766 336 766 C392 766 449 727 464 678 C464 678 469 662 469 662 C469 662 478 662 478 662 C478 662 478 782 478 782 C478 782 478 798 478 798 C478 798 462 798 462 798 C462 798 401 798 401 798 C401 798 225 798 225 798 C225 798 161 798 161 798 C161 798 97 798 97 798 C97 798 40 798 40 798 C40 798 40 786 40 786 C40 786 49 786 49 786 C75 786 97 758 97 721 C97 721 97 76 97 76 C97 40 75 11 49 11 C49 11 40 11 40 11 C40 11 40 0 40 0 C40 0 97 0 97 0 C97 0 161 0 161 0 C161 0 225 0 225 0 C225 0 401 0 401 0 C401 0 472 0 472 0 C472 0 477 0 477 0 C477 4 479 12 480 16 C485 49 495 102 501 135 C501 136 500 136 500 135 C496 136 492 136 492 135 C492 135 485 120 485 120 C460 71 396 32 341 32 C341 32 225 32 225 32 C225 32 225 394 225 394 C225 394 296 394 296 394 C343 394 387 370 396 339 C396 339 398 329 398 329 C398 329 407 329 407 329 L407 329 Z " />
<glyph glyph-name="Igrave" unicode="&#xcc;" horiz-adv-x="322" d="M283 798 C283 798 225 798 225 798 C225 798 161 798 161 798 C161 798 97 798 97 798 C97 798 40 798 40 798 C40 798 40 786 40 786 C40 786 49 786 49 786 C75 786 97 758 97 721 C97 721 97 76 97 76 C97 40 75 11 49 11 C49 11 40 11 40 11 C40 11 40 0 40 0 C40 0 97 0 97 0 C97 0 161 0 161 0 C161 0 225 0 225 0 C225 0 283 0 283 0 C283 0 283 11 283 11 C283 11 274 11 274 11 C247 11 225 40 225 76 C225 76 225 721 225 721 C225 758 247 786 274 786 C274 786 283 786 283 786 C283 786 283 798 283 798 L283 798 Z M172 997 C160 1025 148 1047 143 1047 C125 1047 77 1012 77 999 C77 992 93 972 114 951 C114 951 233 827 233 827 C233 827 246 837 246 837 C246 837 172 997 172 997 L172 997 Z " />
<glyph glyph-name="Iacute" unicode="&#xcd;" horiz-adv-x="322" d="M101 827 C101 827 217 951 217 951 C237 973 253 993 253 999 C253 1012 205 1047 187 1047 C183 1047 171 1025 159 997 C159 997 88 837 88 837 C88 837 101 827 101 827 L101 827 Z M283 798 C283 798 225 798 225 798 C225 798 161 798 161 798 C161 798 97 798 97 798 C97 798 40 798 40 798 C40 798 40 786 40 786 C40 786 49 786 49 786 C75 786 97 758 97 721 C97 721 97 76 97 76 C97 40 75 11 49 11 C49 11 40 11 40 11 C40 11 40 0 40 0 C40 0 97 0 97 0 C97 0 161 0 161 0 C161 0 225 0 225 0 C225 0 283 0 283 0 C283 0 283 11 283 11 C283 11 274 11 274 11 C247 11 225 40 225 76 C225 76 225 721 225 721 C225 758 247 786 274 786 C274 786 283 786 283 786 C283 786 283 798 283 798 L283 798 Z " />
<glyph glyph-name="Icircumflex" unicode="&#xce;" horiz-adv-x="322" d="M283 798 C283 798 225 798 225 798 C225 798 161 798 161 798 C161 798 97 798 97 798 C97 798 40 798 40 798 C40 798 40 786 40 786 C40 786 49 786 49 786 C75 786 97 758 97 721 C97 721 97 76 97 76 C97 40 75 11 49 11 C49 11 40 11 40 11 C40 11 40 0 40 0 C40 0 97 0 97 0 C97 0 161 0 161 0 C161 0 225 0 225 0 C225 0 283 0 283 0 C283 0 283 11 283 11 C283 11 274 11 274 11 C247 11 225 40 225 76 C225 76 225 721 225 721 C225 758 247 786 274 786 C274 786 283 786 283 786 C283 786 283 798 283 798 L283 798 Z M162 934 C162 934 259 829 259 829 C259 829 271 839 271 839 C271 839 198 1010 198 1010 C194 1019 180 1042 161 1042 C143 1042 129 1019 125 1010 C125 1010 52 839 52 839 C52 839 64 829 64 829 C64 829 162 934 162 934 L162 934 Z " />
<glyph glyph-name="Idieresis" unicode="&#xcf;" horiz-adv-x="322" d="M255 868 C294 868 325 899 325 938 C325 977 294 1008 255 1008 C216 1008 185 977 185 938 C185 899 216 868 255 868 L255 868 Z M68 868 C107 868 138 899 138 938 C138 977 107 1008 68 1008 C28 1008 -3 977 -3 938 C-3 899 28 868 68 868 L68 868 Z M283 798 C283 798 225 798 225 798 C225 798 161 798 161 798 C161 798 97 798 97 798 C97 798 40 798 40 798 C40 798 40 786 40 786 C40 786 49 786 49 786 C75 786 97 758 97 721 C97 721 97 76 97 76 C97 40 75 11 49 11 C49 11 40 11 40 11 C40 11 40 0 40 0 C40 0 97 0 97 0 C97 0 161 0 161 0 C161 0 225 0 225 0 C225 0 283 0 283 0 C283 0 283 11 283 11 C283 11 274 11 274 11 C247 11 225 40 225 76 C225 76 225 721 225 721 C225 758 247 786 274 786 C274 786 283 786 283 786 C283 786 283 798 283 798 L283 798 Z " />
<glyph glyph-name="Ntilde" unicode="&#xd1;" horiz-adv-x="622" d="M216 893 C216 924 226 949 239 949 C280 949 311 886 351 886 C392 886 425 947 425 1023 C425 1023 406 1023 406 1023 C406 990 393 963 376 963 C336 963 305 1025 264 1025 C227 1025 197 966 197 893 C197 893 216 893 216 893 L216 893 Z M431 786 C431 786 440 786 440 786 C467 786 489 758 489 721 C489 721 489 203 489 203 C489 203 209 798 209 798 C209 798 133 798 133 798 C133 798 114 798 114 798 C114 798 95 798 95 798 C95 798 37 798 37 798 C37 798 37 786 37 786 C37 786 46 786 46 786 C73 786 95 758 95 721 C95 721 95 76 95 76 C95 40 73 11 46 11 C46 11 37 11 37 11 C37 11 37 0 37 0 C37 0 95 0 95 0 C95 0 114 0 114 0 C114 0 133 0 133 0 C133 0 191 0 191 0 C191 0 191 11 191 11 C191 11 182 11 182 11 C155 11 133 40 133 76 C133 76 133 665 133 665 C133 665 430 51 430 51 C430 51 465 -20 465 -20 C465 -20 527 -20 527 -20 C527 -20 527 98 527 98 C527 98 527 721 527 721 C527 758 549 786 576 786 C576 786 585 786 585 786 C584 786 584 789 585 792 C584 795 584 798 585 798 C585 798 527 798 527 798 C527 798 508 798 508 798 C508 798 489 798 489 798 C489 798 431 798 431 798 C431 798 431 786 431 786 L431 786 Z " />
<glyph glyph-name="Ograve" unicode="&#xd2;" horiz-adv-x="695" d="M344 27 C245 27 182 213 182 399 C182 585 245 771 344 771 C442 771 505 585 505 399 C505 213 442 27 344 27 L344 27 Z M42 399 C42 197 159 -5 344 -5 C528 -5 645 197 645 399 C645 601 528 803 344 803 C159 803 42 601 42 399 L42 399 Z M355 997 C342 1025 330 1047 325 1047 C307 1047 259 1012 259 999 C259 992 275 972 296 951 C296 951 415 827 415 827 C415 827 428 837 428 837 C428 837 355 997 355 997 L355 997 Z " />
<glyph glyph-name="Oacute" unicode="&#xd3;" horiz-adv-x="695" d="M321 827 C321 827 437 951 437 951 C457 973 473 993 473 999 C473 1012 426 1047 407 1047 C403 1047 391 1025 379 997 C379 997 308 837 308 837 C308 837 321 827 321 827 L321 827 Z M344 27 C245 27 182 213 182 399 C182 585 245 771 344 771 C442 771 505 585 505 399 C505 213 442 27 344 27 L344 27 Z M42 399 C42 197 159 -5 344 -5 C528 -5 645 197 645 399 C645 601 528 803 344 803 C159 803 42 601 42 399 L42 399 Z " />
<glyph glyph-name="Ocircumflex" unicode="&#xd4;" horiz-adv-x="695" d="M344 27 C245 27 182 213 182 399 C182 585 245 771 344 771 C442 771 505 585 505 399 C505 213 442 27 344 27 L344 27 Z M42 399 C42 197 159 -5 344 -5 C528 -5 645 197 645 399 C645 601 528 803 344 803 C159 803 42 601 42 399 L42 399 Z M344 934 C344 934 441 829 441 829 C441 829 453 839 453 839 C453 839 380 1010 380 1010 C376 1019 362 1042 344 1042 C325 1042 311 1019 307 1010 C307 1010 234 839 234 839 C234 839 246 829 246 829 C246 829 344 934 344 934 L344 934 Z " />
<glyph glyph-name="Otilde" unicode="&#xd5;" horiz-adv-x="695" d="M249 893 C249 924 259 949 272 949 C313 949 343 886 384 886 C425 886 457 947 457 1023 C457 1023 438 1023 438 1023 C438 990 425 963 409 963 C368 963 338 1025 297 1025 C260 1025 230 966 230 893 C230 893 249 893 249 893 L249 893 Z M344 27 C245 27 182 213 182 399 C182 585 245 771 344 771 C442 771 505 585 505 399 C505 213 442 27 344 27 L344 27 Z M42 399 C42 197 159 -5 344 -5 C528 -5 645 197 645 399 C645 601 528 803 344 803 C159 803 42 601 42 399 L42 399 Z " />
<glyph glyph-name="Odieresis" unicode="&#xd6;" horiz-adv-x="695" d="M437 868 C477 868 508 899 508 938 C508 977 477 1008 437 1008 C398 1008 367 977 367 938 C367 899 398 868 437 868 L437 868 Z M250 868 C289 868 320 899 320 938 C320 977 289 1008 250 1008 C210 1008 179 977 179 938 C179 899 210 868 250 868 L250 868 Z M344 27 C245 27 182 213 182 399 C182 585 245 771 344 771 C442 771 505 585 505 399 C505 213 442 27 344 27 L344 27 Z M42 399 C42 197 159 -5 344 -5 C528 -5 645 197 645 399 C645 601 528 803 344 803 C159 803 42 601 42 399 L42 399 Z " />
<glyph glyph-name="Oslash" unicode="&#xd8;" horiz-adv-x="695" d="M65 -22 C65 -22 148 90 148 90 C199 32 265 -5 344 -5 C528 -5 645 197 645 399 C645 493 620 587 574 660 C574 660 668 786 668 786 C668 786 622 820 622 820 C622 820 539 709 539 709 C489 766 422 803 344 803 C159 803 42 601 42 399 C42 305 67 211 113 138 C113 138 19 12 19 12 C19 12 65 -22 65 -22 L65 -22 Z M344 27 C287 27 242 89 214 177 C214 177 491 549 491 549 C500 502 505 450 505 399 C505 213 442 27 344 27 C344 27 344 27 344 27 L344 27 Z M196 249 C187 296 182 348 182 399 C182 585 245 771 344 771 C401 771 445 709 473 621 C473 621 196 249 196 249 L196 249 Z " />
<glyph glyph-name="Ugrave" unicode="&#xd9;" horiz-adv-x="601" d="M581 798 C581 798 516 798 516 798 C516 798 497 798 497 798 C497 798 478 798 478 798 C478 798 409 798 409 798 C409 798 409 786 409 786 C409 786 419 786 419 786 C451 786 476 756 478 716 C478 716 477 234 477 234 C477 126 425 40 322 40 C246 40 208 126 208 233 C208 233 208 721 208 721 C208 758 230 786 257 786 C257 786 266 786 266 786 C266 786 266 798 266 798 C266 798 208 798 208 798 C208 798 144 798 144 798 C144 798 81 798 81 798 C81 798 23 798 23 798 C23 798 23 786 23 786 C23 786 32 786 32 786 C59 786 81 758 81 721 C81 721 81 258 81 258 C81 112 155 -5 303 -5 C445 -5 516 96 516 221 C516 221 516 711 516 711 C516 753 541 786 571 786 C571 786 581 786 581 786 C581 786 581 798 581 798 L581 798 Z M309 997 C297 1025 285 1047 280 1047 C262 1047 214 1012 214 999 C214 992 230 972 251 951 C251 951 370 827 370 827 C370 827 383 837 383 837 C383 837 309 997 309 997 L309 997 Z " />
<glyph glyph-name="Uacute" unicode="&#xda;" horiz-adv-x="601" d="M299 827 C299 827 415 951 415 951 C434 973 450 993 450 999 C450 1012 403 1047 385 1047 C381 1047 369 1025 356 997 C356 997 286 837 286 837 C286 837 299 827 299 827 L299 827 Z M581 798 C581 798 516 798 516 798 C516 798 497 798 497 798 C497 798 478 798 478 798 C478 798 409 798 409 798 C409 798 409 786 409 786 C409 786 419 786 419 786 C451 786 476 756 478 716 C478 716 477 234 477 234 C477 126 425 40 322 40 C246 40 208 126 208 233 C208 233 208 721 208 721 C208 758 230 786 257 786 C257 786 266 786 266 786 C266 786 266 798 266 798 C266 798 208 798 208 798 C208 798 144 798 144 798 C144 798 81 798 81 798 C81 798 23 798 23 798 C23 798 23 786 23 786 C23 786 32 786 32 786 C59 786 81 758 81 721 C81 721 81 258 81 258 C81 112 155 -5 303 -5 C445 -5 516 96 516 221 C516 221 516 711 516 711 C516 753 541 786 571 786 C571 786 581 786 581 786 C581 786 581 798 581 798 L581 798 Z " />
<glyph glyph-name="Ucircumflex" unicode="&#xdb;" horiz-adv-x="601" d="M581 798 C581 798 516 798 516 798 C516 798 497 798 497 798 C497 798 478 798 478 798 C478 798 409 798 409 798 C409 798 409 786 409 786 C409 786 419 786 419 786 C451 786 476 756 478 716 C478 716 477 234 477 234 C477 126 425 40 322 40 C246 40 208 126 208 233 C208 233 208 721 208 721 C208 758 230 786 257 786 C257 786 266 786 266 786 C266 786 266 798 266 798 C266 798 208 798 208 798 C208 798 144 798 144 798 C144 798 81 798 81 798 C81 798 23 798 23 798 C23 798 23 786 23 786 C23 786 32 786 32 786 C59 786 81 758 81 721 C81 721 81 258 81 258 C81 112 155 -5 303 -5 C445 -5 516 96 516 221 C516 221 516 711 516 711 C516 753 541 786 571 786 C571 786 581 786 581 786 C581 786 581 798 581 798 L581 798 Z M299 934 C299 934 396 829 396 829 C396 829 408 839 408 839 C408 839 335 1010 335 1010 C331 1019 317 1042 298 1042 C279 1042 266 1019 262 1010 C262 1010 189 839 189 839 C189 839 201 829 201 829 C201 829 299 934 299 934 L299 934 Z " />
<glyph glyph-name="Udieresis" unicode="&#xdc;" horiz-adv-x="601" d="M392 868 C431 868 462 899 462 938 C462 977 431 1008 392 1008 C353 1008 322 977 322 938 C322 899 353 868 392 868 L392 868 Z M205 868 C244 868 275 899 275 938 C275 977 244 1008 205 1008 C165 1008 134 977 134 938 C134 899 165 868 205 868 L205 868 Z M581 798 C581 798 516 798 516 798 C516 798 497 798 497 798 C497 798 478 798 478 798 C478 798 409 798 409 798 C409 798 409 786 409 786 C409 786 419 786 419 786 C451 786 476 756 478 716 C478 716 477 234 477 234 C477 126 425 40 322 40 C246 40 208 126 208 233 C208 233 208 721 208 721 C208 758 230 786 257 786 C257 786 266 786 266 786 C266 786 266 798 266 798 C266 798 208 798 208 798 C208 798 144 798 144 798 C144 798 81 798 81 798 C81 798 23 798 23 798 C23 798 23 786 23 786 C23 786 32 786 32 786 C59 786 81 758 81 721 C81 721 81 258 81 258 C81 112 155 -5 303 -5 C445 -5 516 96 516 221 C516 221 516 711 516 711 C516 753 541 786 571 786 C571 786 581 786 581 786 C581 786 581 798 581 798 L581 798 Z " />
<glyph glyph-name="Yacute" unicode="&#xdd;" horiz-adv-x="585" d="M289 827 C289 827 406 951 406 951 C425 973 441 993 441 999 C441 1012 394 1047 376 1047 C372 1047 360 1025 347 997 C347 997 277 837 277 837 C277 837 289 827 289 827 L289 827 Z M168 0 C168 0 225 0 225 0 C225 0 289 0 289 0 C289 0 353 0 353 0 C353 0 411 0 411 0 C410 0 410 3 411 6 C410 9 410 11 411 11 C411 11 402 11 402 11 C375 11 353 40 353 76 C353 76 353 414 353 414 C353 414 353 414 353 414 C353 414 504 721 504 721 C504 721 505 721 505 721 C522 758 555 786 579 786 C579 786 586 786 586 786 C587 786 587 789 586 792 C587 795 587 798 586 798 C586 798 542 798 542 798 C542 798 523 798 523 798 C523 798 504 798 504 798 C504 798 420 798 420 798 C420 798 420 786 420 786 C420 786 431 786 431 786 C466 786 479 755 463 713 C463 713 333 442 333 442 C333 442 219 724 219 724 C207 759 219 786 249 786 C249 786 258 786 258 786 C258 786 258 798 258 798 C258 798 189 798 189 798 C189 798 113 798 113 798 C113 798 36 798 36 798 C36 798 -1 798 -1 798 C-1 798 -1 786 -1 786 C-1 786 5 786 5 786 C25 786 54 758 69 721 C69 721 69 721 69 721 C69 721 225 358 225 358 C225 358 225 76 225 76 C225 40 203 11 176 11 C176 11 168 11 168 11 C168 11 168 0 168 0 L168 0 Z " />
<glyph glyph-name="agrave" unicode="&#xe0;" horiz-adv-x="525" d="M473 53 C429 63 416 74 415 130 C415 130 415 638 415 638 C415 638 383 638 383 638 C383 638 323 568 323 568 C304 607 267 643 237 643 C136 643 54 483 54 282 C54 123 116 -5 192 -5 C218 -5 262 36 300 92 C300 92 300 0 300 0 C300 0 300 -5 300 -5 C300 -5 320 -5 320 -5 C320 -5 386 19 386 19 C386 19 473 46 473 46 C473 46 473 53 473 53 L473 53 Z M203 837 C191 865 179 887 174 887 C156 887 108 852 108 839 C108 832 124 812 145 791 C145 791 264 667 264 667 C264 667 277 677 277 677 C277 677 203 837 203 837 L203 837 Z M300 115 C282 86 263 65 256 65 C210 65 174 181 174 326 C174 484 200 611 232 611 C256 611 288 576 300 541 C300 541 300 115 300 115 L300 115 Z " />
<glyph glyph-name="aacute" unicode="&#xe1;" horiz-adv-x="448" d="M165 667 C165 667 281 791 281 791 C301 813 317 833 317 839 C317 852 269 887 251 887 C248 887 235 865 223 837 C223 837 152 677 152 677 C152 677 165 667 165 667 L165 667 Z M426 64 C419 53 405 45 381 45 C352 45 341 75 341 112 C341 112 341 490 341 490 C341 575 289 643 224 643 C140 643 62 591 49 526 C49 526 164 526 164 526 C174 573 189 610 200 610 C211 610 220 568 220 516 C220 516 220 326 220 326 C220 326 185 321 185 321 C102 310 36 228 36 136 C36 58 75 -5 124 -5 C159 -5 199 12 231 38 C243 9 265 -10 302 -10 C373 -10 417 16 439 48 C439 48 426 64 426 64 L426 64 Z M220 294 C220 294 220 100 220 100 C220 93 220 86 221 80 C208 76 193 74 179 74 C163 74 150 116 150 169 C150 229 166 281 187 286 C187 286 220 294 220 294 L220 294 Z " />
<glyph glyph-name="acircumflex" unicode="&#xe2;" horiz-adv-x="525" d="M473 53 C429 63 416 74 415 130 C415 130 415 638 415 638 C415 638 383 638 383 638 C383 638 323 568 323 568 C304 607 267 643 237 643 C136 643 54 483 54 282 C54 123 116 -5 192 -5 C218 -5 262 36 300 92 C300 92 300 0 300 0 C300 0 300 -5 300 -5 C300 -5 320 -5 320 -5 C320 -5 386 19 386 19 C386 19 473 46 473 46 C473 46 473 53 473 53 L473 53 Z M193 774 C193 774 290 669 290 669 C290 669 302 679 302 679 C302 679 229 850 229 850 C225 859 211 882 192 882 C174 882 160 859 156 850 C156 850 83 679 83 679 C83 679 95 669 95 669 C95 669 193 774 193 774 L193 774 Z M300 115 C282 86 263 65 256 65 C210 65 174 181 174 326 C174 484 200 611 232 611 C256 611 288 576 300 541 C300 541 300 115 300 115 L300 115 Z " />
<glyph glyph-name="atilde" unicode="&#xe3;" horiz-adv-x="525" d="M98 733 C98 764 108 789 121 789 C161 789 192 726 233 726 C273 726 306 787 306 863 C306 863 287 863 287 863 C287 830 274 803 258 803 C217 803 186 865 146 865 C109 865 79 806 79 733 C79 733 98 733 98 733 L98 733 Z M473 53 C429 63 416 74 415 130 C415 130 415 638 415 638 C415 638 383 638 383 638 C383 638 323 568 323 568 C304 607 267 643 237 643 C136 643 54 483 54 282 C54 123 116 -5 192 -5 C218 -5 262 36 300 92 C300 92 300 0 300 0 C300 0 300 -5 300 -5 C300 -5 320 -5 320 -5 C320 -5 386 19 386 19 C386 19 473 46 473 46 C473 46 473 53 473 53 L473 53 Z M300 115 C282 86 263 65 256 65 C210 65 174 181 174 326 C174 484 200 611 232 611 C256 611 288 576 300 541 C300 541 300 115 300 115 L300 115 Z " />
<glyph glyph-name="adieresis" unicode="&#xe4;" horiz-adv-x="525" d="M286 708 C325 708 356 739 356 778 C356 817 325 848 286 848 C247 848 216 817 216 778 C216 739 247 708 286 708 L286 708 Z M99 708 C138 708 169 739 169 778 C169 817 138 848 99 848 C59 848 28 817 28 778 C28 739 59 708 99 708 L99 708 Z M473 53 C429 63 416 74 415 130 C415 130 415 638 415 638 C415 638 383 638 383 638 C383 638 323 568 323 568 C304 607 267 643 237 643 C136 643 54 483 54 282 C54 123 116 -5 192 -5 C218 -5 262 36 300 92 C300 92 300 0 300 0 C300 0 300 -5 300 -5 C300 -5 320 -5 320 -5 C320 -5 386 19 386 19 C386 19 473 46 473 46 C473 46 473 53 473 53 L473 53 Z M300 115 C282 86 263 65 256 65 C210 65 174 181 174 326 C174 484 200 611 232 611 C256 611 288 576 300 541 C300 541 300 115 300 115 L300 115 Z " />
<glyph glyph-name="aring" unicode="&#xe5;" horiz-adv-x="525" d="M192 698 C160 698 128 732 128 765 C128 802 157 832 192 832 C228 832 256 802 256 765 C256 732 224 698 192 698 L192 698 Z M96 765 C96 719 144 673 192 673 C240 673 288 719 288 765 C288 817 245 858 192 858 C139 858 96 817 96 765 L96 765 Z M473 53 C429 63 416 74 415 130 C415 130 415 638 415 638 C415 638 383 638 383 638 C383 638 323 568 323 568 C304 607 267 643 237 643 C136 643 54 483 54 282 C54 123 116 -5 192 -5 C218 -5 262 36 300 92 C300 92 300 0 300 0 C300 0 300 -5 300 -5 C300 -5 320 -5 320 -5 C320 -5 386 19 386 19 C386 19 473 46 473 46 C473 46 473 53 473 53 L473 53 Z M300 115 C282 86 263 65 256 65 C210 65 174 181 174 326 C174 484 200 611 232 611 C256 611 288 576 300 541 C300 541 300 115 300 115 L300 115 Z " />
<glyph glyph-name="ccedilla" unicode="&#xe7;" horiz-adv-x="457" d="M408 79 C408 79 397 91 397 91 C379 77 347 65 325 65 C240 65 172 187 172 339 C172 490 206 611 248 611 C273 611 295 571 299 520 C302 488 328 463 357 463 C385 463 408 486 408 514 C402 586 337 643 261 643 C144 643 50 488 50 295 C50 128 130 -5 229 -5 C273 -5 352 32 408 79 L408 79 Z " />
<glyph glyph-name="egrave" unicode="&#xe8;" horiz-adv-x="464" d="M414 79 C414 79 403 91 403 91 C385 77 352 65 328 65 C241 65 172 187 172 339 C172 362 173 384 174 405 C174 405 414 405 414 405 C414 537 340 643 249 643 C138 643 50 488 50 295 C50 128 131 -5 232 -5 C278 -5 358 32 414 79 L414 79 Z M260 837 C247 865 235 887 230 887 C212 887 164 852 164 839 C164 832 180 812 201 791 C201 791 320 667 320 667 C320 667 333 677 333 677 C333 677 260 837 260 837 L260 837 Z M176 428 C185 535 211 611 242 611 C278 611 307 562 307 502 C307 501 307 501 307 500 C306 470 282 444 254 439 C254 439 306 447 306 447 C306 447 176 428 176 428 L176 428 Z M254 439 C253 439 253 439 252 439 C252 439 254 439 254 439 L254 439 Z " />
<glyph glyph-name="eacute" unicode="&#xe9;" horiz-adv-x="464" d="M218 667 C218 667 335 791 335 791 C355 813 371 833 370 839 C370 852 323 887 305 887 C301 887 289 865 276 837 C276 837 206 677 206 677 C206 677 218 667 218 667 L218 667 Z M414 79 C414 79 403 91 403 91 C385 77 352 65 328 65 C241 65 172 187 172 339 C172 362 173 384 174 405 C174 405 414 405 414 405 C414 537 340 643 249 643 C138 643 50 488 50 295 C50 128 131 -5 232 -5 C278 -5 358 32 414 79 L414 79 Z M176 428 C185 535 211 611 242 611 C278 611 307 562 307 502 C307 501 307 501 307 500 C306 470 282 444 254 439 C254 439 306 447 306 447 C306 447 176 428 176 428 L176 428 Z M254 439 C253 439 253 439 252 439 C252 439 254 439 254 439 L254 439 Z " />
<glyph glyph-name="ecircumflex" unicode="&#xea;" horiz-adv-x="464" d="M414 79 C414 79 403 91 403 91 C385 77 352 65 328 65 C241 65 172 187 172 339 C172 362 173 384 174 405 C174 405 414 405 414 405 C414 537 340 643 249 643 C138 643 50 488 50 295 C50 128 131 -5 232 -5 C278 -5 358 32 414 79 L414 79 Z M249 774 C249 774 346 669 346 669 C346 669 358 679 358 679 C358 679 285 850 285 850 C282 859 268 882 249 882 C230 882 216 859 212 850 C212 850 139 679 139 679 C139 679 151 669 151 669 C151 669 249 774 249 774 L249 774 Z M176 428 C185 535 211 611 242 611 C278 611 307 562 307 502 C307 501 307 501 307 500 C306 470 282 444 254 439 C254 439 306 447 306 447 C306 447 176 428 176 428 L176 428 Z M254 439 C253 439 253 439 252 439 C252 439 254 439 254 439 L254 439 Z " />
<glyph glyph-name="edieresis" unicode="&#xeb;" horiz-adv-x="464" d="M342 708 C382 708 413 739 413 778 C413 817 382 848 342 848 C303 848 272 817 272 778 C272 739 303 708 342 708 L342 708 Z M155 708 C194 708 225 739 225 778 C225 817 194 848 155 848 C116 848 85 817 85 778 C85 739 116 708 155 708 L155 708 Z M414 79 C414 79 403 91 403 91 C385 77 352 65 328 65 C241 65 172 187 172 339 C172 362 173 384 174 405 C174 405 414 405 414 405 C414 537 340 643 249 643 C138 643 50 488 50 295 C50 128 131 -5 232 -5 C278 -5 358 32 414 79 L414 79 Z M176 428 C185 535 211 611 242 611 C278 611 307 562 307 502 C307 501 307 501 307 500 C306 470 282 444 254 439 C254 439 306 447 306 447 C306 447 176 428 176 428 L176 428 Z M254 439 C253 439 253 439 252 439 C252 439 254 439 254 439 L254 439 Z " />
<glyph glyph-name="igrave" unicode="&#xec;" horiz-adv-x="319" d="M217 0 C217 0 275 0 275 0 C275 0 275 11 275 11 C275 11 263 11 263 11 C238 11 217 9 217 0 C217 0 217 561 217 561 C217 561 217 643 217 643 C217 643 211 643 211 643 C211 643 54 595 54 595 C54 595 54 586 54 586 C54 586 88 573 88 573 C96 569 102 558 102 528 C102 528 102 0 102 0 C102 0 45 0 45 0 C45 0 45 11 45 11 C45 11 56 11 56 11 C82 11 102 9 102 0 C102 0 217 0 217 0 L217 0 Z M171 837 C159 865 146 887 141 887 C123 887 76 852 76 839 C76 832 92 812 112 791 C112 791 232 667 232 667 C232 667 245 677 245 677 C245 677 171 837 171 837 L171 837 Z " />
<glyph glyph-name="iacute" unicode="&#xed;" horiz-adv-x="319" d="M84 667 C84 667 201 791 201 791 C220 813 236 833 236 839 C236 852 189 887 170 887 C166 887 154 865 142 837 C142 837 71 677 71 677 C71 677 84 667 84 667 L84 667 Z M217 0 C217 0 275 0 275 0 C275 0 275 11 275 11 C275 11 263 11 263 11 C238 11 217 9 217 0 C217 0 217 561 217 561 C217 561 217 643 217 643 C217 643 211 643 211 643 C211 643 54 595 54 595 C54 595 54 586 54 586 C54 586 88 573 88 573 C96 569 102 558 102 528 C102 528 102 0 102 0 C102 0 45 0 45 0 C45 0 45 11 45 11 C45 11 56 11 56 11 C82 11 102 9 102 0 C102 0 217 0 217 0 L217 0 Z " />
<glyph glyph-name="icircumflex" unicode="&#xee;" horiz-adv-x="319" d="M217 0 C217 0 275 0 275 0 C275 0 275 11 275 11 C275 11 263 11 263 11 C238 11 217 9 217 0 C217 0 217 561 217 561 C217 561 217 643 217 643 C217 643 211 643 211 643 C211 643 54 595 54 595 C54 595 54 586 54 586 C54 586 88 573 88 573 C96 569 102 558 102 528 C102 528 102 0 102 0 C102 0 45 0 45 0 C45 0 45 11 45 11 C45 11 56 11 56 11 C82 11 102 9 102 0 C102 0 217 0 217 0 L217 0 Z M123 814 C123 814 160 774 160 774 C160 774 123 814 123 814 L123 814 Z M160 774 C160 774 258 669 258 669 C258 669 269 679 269 679 C269 679 197 850 197 850 C193 859 179 882 160 882 C141 882 127 859 124 850 C124 850 51 679 51 679 C51 679 62 669 62 669 C62 669 160 774 160 774 L160 774 Z " />
<glyph glyph-name="idieresis" unicode="&#xef;" horiz-adv-x="319" d="M254 708 C293 708 324 739 324 778 C324 817 293 848 254 848 C215 848 184 817 184 778 C184 739 215 708 254 708 L254 708 Z M66 708 C105 708 136 739 136 778 C136 817 105 848 66 848 C27 848 -4 817 -4 778 C-4 739 27 708 66 708 L66 708 Z M217 0 C217 0 275 0 275 0 C275 0 275 11 275 11 C275 11 263 11 263 11 C238 11 217 9 217 0 C217 0 217 561 217 561 C217 561 217 643 217 643 C217 643 211 643 211 643 C211 643 54 595 54 595 C54 595 54 586 54 586 C54 586 88 573 88 573 C96 569 102 558 102 528 C102 528 102 0 102 0 C102 0 45 0 45 0 C45 0 45 11 45 11 C45 11 56 11 56 11 C82 11 102 9 102 0 C102 0 217 0 217 0 L217 0 Z " />
<glyph glyph-name="ntilde" unicode="&#xf1;" horiz-adv-x="537" d="M176 733 C176 764 186 789 199 789 C240 789 271 726 311 726 C352 726 385 787 385 863 C385 863 365 863 365 863 C365 830 352 803 336 803 C296 803 265 865 224 865 C187 865 157 806 157 733 C157 733 176 733 176 733 L176 733 Z M497 11 C497 11 489 11 489 11 C461 11 440 40 440 76 C440 76 440 476 440 476 C440 569 411 643 353 643 C300 643 245 616 217 579 C217 579 217 638 217 638 C217 638 194 638 194 638 C194 638 44 592 44 592 C44 592 44 585 44 585 C87 575 102 564 102 508 C102 508 102 76 102 76 C102 40 80 11 53 11 C53 11 44 11 44 11 C44 11 44 0 44 0 C44 0 102 0 102 0 C102 0 159 0 159 0 C159 0 217 0 217 0 C217 0 267 0 267 0 C267 0 274 0 274 0 C274 0 325 0 325 0 C325 0 382 0 382 0 C382 0 440 0 440 0 C440 0 497 0 497 0 C497 0 497 11 497 11 L497 11 Z M274 11 C274 11 267 11 267 11 C267 11 266 11 266 11 C238 11 217 40 217 76 C217 76 217 532 217 532 C217 532 191 532 191 532 C191 532 217 539 217 539 C217 539 217 556 217 556 C229 562 246 566 264 566 C305 566 325 521 325 464 C325 464 325 76 325 76 C325 40 303 11 276 11 C276 11 274 11 274 11 L274 11 Z " />
<glyph glyph-name="ograve" unicode="&#xf2;" horiz-adv-x="543" d="M272 21 C220 21 178 153 178 319 C178 484 220 617 272 617 C323 617 365 484 365 319 C365 153 323 21 272 21 L272 21 Z M50 319 C50 139 148 -5 272 -5 C395 -5 493 139 493 319 C493 499 395 643 272 643 C148 643 50 499 50 319 L50 319 Z M283 837 C270 865 258 887 253 887 C235 887 187 852 187 839 C187 832 203 812 224 791 C224 791 343 667 343 667 C343 667 356 677 356 677 C356 677 283 837 283 837 L283 837 Z " />
<glyph glyph-name="oacute" unicode="&#xf3;" horiz-adv-x="543" d="M241 667 C241 667 358 791 358 791 C378 813 394 833 393 839 C393 852 346 887 328 887 C324 887 312 865 299 837 C299 837 229 677 229 677 C229 677 241 667 241 667 L241 667 Z M272 21 C220 21 178 153 178 319 C178 484 220 617 272 617 C323 617 365 484 365 319 C365 153 323 21 272 21 L272 21 Z M50 319 C50 139 148 -5 272 -5 C395 -5 493 139 493 319 C493 499 395 643 272 643 C148 643 50 499 50 319 L50 319 Z " />
<glyph glyph-name="ocircumflex" unicode="&#xf4;" horiz-adv-x="543" d="M272 21 C220 21 178 153 178 319 C178 484 220 617 272 617 C323 617 365 484 365 319 C365 153 323 21 272 21 L272 21 Z M50 319 C50 139 148 -5 272 -5 C395 -5 493 139 493 319 C493 499 395 643 272 643 C148 643 50 499 50 319 L50 319 Z M272 774 C272 774 369 669 369 669 C369 669 381 679 381 679 C381 679 308 850 308 850 C305 859 291 882 272 882 C253 882 239 859 235 850 C235 850 162 679 162 679 C162 679 174 669 174 669 C174 669 272 774 272 774 L272 774 Z " />
<glyph glyph-name="otilde" unicode="&#xf5;" horiz-adv-x="543" d="M177 733 C177 764 187 789 200 789 C241 789 271 726 312 726 C353 726 385 787 385 863 C385 863 366 863 366 863 C366 830 353 803 337 803 C296 803 266 865 225 865 C188 865 158 806 158 733 C158 733 177 733 177 733 L177 733 Z M272 21 C220 21 178 153 178 319 C178 484 220 617 272 617 C323 617 365 484 365 319 C365 153 323 21 272 21 L272 21 Z M50 319 C50 139 148 -5 272 -5 C395 -5 493 139 493 319 C493 499 395 643 272 643 C148 643 50 499 50 319 L50 319 Z " />
<glyph glyph-name="odieresis" unicode="&#xf6;" horiz-adv-x="543" d="M365 708 C405 708 436 739 436 778 C436 817 405 848 365 848 C326 848 295 817 295 778 C295 739 326 708 365 708 L365 708 Z M178 708 C217 708 248 739 248 778 C248 817 217 848 178 848 C138 848 107 817 107 778 C107 739 138 708 178 708 L178 708 Z M272 21 C220 21 178 153 178 319 C178 484 220 617 272 617 C323 617 365 484 365 319 C365 153 323 21 272 21 L272 21 Z M50 319 C50 139 148 -5 272 -5 C395 -5 493 139 493 319 C493 499 395 643 272 643 C148 643 50 499 50 319 L50 319 Z " />
<glyph glyph-name="oslash" unicode="&#xf8;" horiz-adv-x="543" d="M66 -16 C66 -16 127 73 127 73 C165 24 216 -5 272 -5 C395 -5 493 139 493 319 C493 400 473 474 440 531 C440 531 509 632 509 632 C509 632 477 654 477 654 C477 654 416 565 416 565 C378 614 327 643 272 643 C148 643 50 499 50 319 C50 238 70 164 103 107 C103 107 34 6 34 6 C34 6 66 -16 66 -16 L66 -16 Z M272 21 C237 21 207 79 191 167 C191 167 360 414 360 414 C363 384 365 352 365 319 C365 153 323 21 272 21 C272 21 272 21 272 21 L272 21 Z M183 224 C180 254 178 286 178 319 C178 484 220 617 272 617 C306 617 336 559 352 471 C352 471 183 224 183 224 L183 224 Z " />
<glyph glyph-name="ugrave" unicode="&#xf9;" horiz-adv-x="502" d="M467 53 C425 64 410 73 410 130 C410 130 410 638 410 638 C410 638 352 638 352 638 C352 638 295 638 295 638 C295 638 237 638 237 638 C237 638 237 626 237 626 C237 626 246 626 246 626 C273 626 295 598 295 561 C295 561 295 99 295 99 C295 99 295 92 295 92 C282 80 270 71 265 71 C217 71 186 113 186 166 C186 166 187 638 187 638 C187 638 129 638 129 638 C129 638 72 638 72 638 C72 638 14 638 14 638 C14 638 14 626 14 626 C14 626 23 626 23 626 C50 626 72 598 72 561 C72 561 72 154 72 154 C72 66 112 -5 175 -5 C200 -5 248 29 295 73 C295 73 295 30 295 30 C295 30 295 0 295 0 C295 0 318 0 318 0 C318 0 467 46 467 46 C467 46 467 53 467 53 L467 53 Z M252 837 C240 865 227 887 222 887 C204 887 157 852 157 839 C157 832 173 812 193 791 C193 791 313 667 313 667 C313 667 325 677 325 677 C325 677 252 837 252 837 L252 837 Z " />
<glyph glyph-name="uacute" unicode="&#xfa;" horiz-adv-x="502" d="M211 667 C211 667 327 791 327 791 C347 813 363 833 363 839 C363 852 315 887 297 887 C293 887 281 865 268 837 C268 837 198 677 198 677 C198 677 211 667 211 667 L211 667 Z M467 53 C425 64 410 73 410 130 C410 130 410 638 410 638 C410 638 352 638 352 638 C352 638 295 638 295 638 C295 638 237 638 237 638 C237 638 237 626 237 626 C237 626 246 626 246 626 C273 626 295 598 295 561 C295 561 295 99 295 99 C295 99 295 92 295 92 C282 80 270 71 265 71 C217 71 186 113 186 166 C186 166 187 638 187 638 C187 638 129 638 129 638 C129 638 72 638 72 638 C72 638 14 638 14 638 C14 638 14 626 14 626 C14 626 23 626 23 626 C50 626 72 598 72 561 C72 561 72 154 72 154 C72 66 112 -5 175 -5 C200 -5 248 29 295 73 C295 73 295 30 295 30 C295 30 295 0 295 0 C295 0 318 0 318 0 C318 0 467 46 467 46 C467 46 467 53 467 53 L467 53 Z " />
<glyph glyph-name="ucircumflex" unicode="&#xfb;" horiz-adv-x="502" d="M467 53 C425 64 410 73 410 130 C410 130 410 638 410 638 C410 638 352 638 352 638 C352 638 295 638 295 638 C295 638 237 638 237 638 C237 638 237 626 237 626 C237 626 246 626 246 626 C273 626 295 598 295 561 C295 561 295 99 295 99 C295 99 295 92 295 92 C282 80 270 71 265 71 C217 71 186 113 186 166 C186 166 187 638 187 638 C187 638 129 638 129 638 C129 638 72 638 72 638 C72 638 14 638 14 638 C14 638 14 626 14 626 C14 626 23 626 23 626 C50 626 72 598 72 561 C72 561 72 154 72 154 C72 66 112 -5 175 -5 C200 -5 248 29 295 73 C295 73 295 30 295 30 C295 30 295 0 295 0 C295 0 318 0 318 0 C318 0 467 46 467 46 C467 46 467 53 467 53 L467 53 Z M241 774 C241 774 338 669 338 669 C338 669 350 679 350 679 C350 679 278 850 278 850 C274 859 260 882 241 882 C222 882 208 859 204 850 C204 850 132 679 132 679 C132 679 143 669 143 669 C143 669 241 774 241 774 L241 774 Z " />
<glyph glyph-name="udieresis" unicode="&#xfc;" horiz-adv-x="502" d="M335 708 C374 708 405 739 405 778 C405 817 374 848 335 848 C295 848 264 817 264 778 C264 739 295 708 335 708 L335 708 Z M147 708 C186 708 217 739 217 778 C217 817 186 848 147 848 C108 848 77 817 77 778 C77 739 108 708 147 708 L147 708 Z M467 53 C425 64 410 73 410 130 C410 130 410 638 410 638 C410 638 352 638 352 638 C352 638 295 638 295 638 C295 638 237 638 237 638 C237 638 237 626 237 626 C237 626 246 626 246 626 C273 626 295 598 295 561 C295 561 295 99 295 99 C295 99 295 92 295 92 C282 80 270 71 265 71 C217 71 186 113 186 166 C186 166 187 638 187 638 C187 638 129 638 129 638 C129 638 72 638 72 638 C72 638 14 638 14 638 C14 638 14 626 14 626 C14 626 23 626 23 626 C50 626 72 598 72 561 C72 561 72 154 72 154 C72 66 112 -5 175 -5 C200 -5 248 29 295 73 C295 73 295 30 295 30 C295 30 295 0 295 0 C295 0 318 0 318 0 C318 0 467 46 467 46 C467 46 467 53 467 53 L467 53 Z " />
<glyph glyph-name="ydieresis" unicode="&#xff;" horiz-adv-x="437" d="M333 708 C372 708 403 739 403 778 C403 817 372 848 333 848 C293 848 262 817 262 778 C262 739 293 708 333 708 L333 708 Z M145 708 C184 708 215 739 215 778 C215 817 184 848 145 848 C106 848 75 817 75 778 C75 739 106 708 145 708 L145 708 Z M496 638 C496 638 442 638 442 638 C442 638 423 638 423 638 C423 638 404 638 404 638 C404 638 346 638 346 638 C346 638 346 626 346 626 C346 626 354 626 354 626 C379 626 392 600 385 566 C385 566 286 189 286 189 C286 189 187 561 187 561 C187 561 188 561 188 561 C178 598 191 626 217 626 C217 626 225 626 225 626 C225 626 225 638 225 638 C225 638 167 638 167 638 C167 638 101 638 101 638 C101 638 36 638 36 638 C36 638 -18 638 -18 638 C-19 638 -19 635 -18 632 C-19 629 -19 626 -18 626 C-18 626 -10 626 -10 626 C17 626 48 598 59 561 C59 561 60 561 60 561 C60 561 229 7 229 7 C229 7 205 -62 205 -62 C187 -123 163 -154 132 -154 C108 -154 76 -129 51 -129 C20 -129 -6 -151 -6 -178 C-6 -207 24 -230 61 -230 C146 -230 204 -177 235 -72 C235 -72 253 -10 253 -10 C253 -10 420 561 420 561 C420 561 420 561 420 561 C430 598 461 626 488 626 C488 626 496 626 496 626 C496 626 496 638 496 638 L496 638 Z " />
<glyph glyph-name="Amacron" unicode="&#x100;" horiz-adv-x="617" d="M166 899 C166 899 402 899 402 899 C402 899 402 963 402 963 C402 963 166 963 166 963 C166 963 166 899 166 899 L166 899 Z M610 11 C610 11 603 11 603 11 C580 11 551 40 540 76 C540 76 539 76 539 76 C539 76 300 816 300 816 C300 816 268 816 268 816 C268 816 72 76 72 76 C72 76 72 76 72 76 C62 40 33 11 6 11 C6 11 -3 11 -3 11 C-3 11 -3 0 -3 0 C-3 0 52 0 52 0 C52 0 73 0 73 0 C73 0 94 0 94 0 C94 0 178 0 178 0 C178 0 178 11 178 11 C178 11 166 11 166 11 C128 11 106 47 117 91 C117 91 117 91 117 91 C117 91 162 271 162 271 C162 271 347 272 347 272 C347 272 403 76 403 76 C403 76 403 76 403 76 C414 40 393 11 357 11 C357 11 344 11 344 11 C344 11 344 0 344 0 C344 0 425 0 425 0 C425 0 495 0 495 0 C495 0 564 0 564 0 C564 0 610 0 610 0 C610 0 610 11 610 11 L610 11 Z M338 304 C338 304 171 305 171 305 C171 305 249 613 249 613 C249 613 338 304 338 304 L338 304 Z " />
<glyph glyph-name="amacron" unicode="&#x101;" horiz-adv-x="525" d="M74 739 C74 739 310 739 310 739 C310 739 310 803 310 803 C310 803 74 803 74 803 C74 803 74 739 74 739 L74 739 Z M473 53 C429 63 416 74 415 130 C415 130 415 638 415 638 C415 638 383 638 383 638 C383 638 323 568 323 568 C304 607 267 643 237 643 C136 643 54 483 54 282 C54 123 116 -5 192 -5 C218 -5 262 36 300 92 C300 92 300 0 300 0 C300 0 300 -5 300 -5 C300 -5 320 -5 320 -5 C320 -5 386 19 386 19 C386 19 473 46 473 46 C473 46 473 53 473 53 L473 53 Z M300 115 C282 86 263 65 256 65 C210 65 174 181 174 326 C174 484 200 611 232 611 C256 611 288 576 300 541 C300 541 300 115 300 115 L300 115 Z " />
<glyph glyph-name="Abreve" unicode="&#x102;" horiz-adv-x="617" d="M184 1008 C216 933 260 873 284 873 C308 873 352 933 384 1008 C384 1008 365 1016 365 1016 C349 979 313 950 284 950 C255 950 219 979 203 1016 C203 1016 184 1008 184 1008 L184 1008 Z M610 11 C610 11 603 11 603 11 C580 11 551 40 540 76 C540 76 539 76 539 76 C539 76 300 816 300 816 C300 816 268 816 268 816 C268 816 72 76 72 76 C72 76 72 76 72 76 C62 40 33 11 6 11 C6 11 -3 11 -3 11 C-3 11 -3 0 -3 0 C-3 0 52 0 52 0 C52 0 73 0 73 0 C73 0 94 0 94 0 C94 0 178 0 178 0 C178 0 178 11 178 11 C178 11 166 11 166 11 C128 11 106 47 117 91 C117 91 117 91 117 91 C117 91 162 271 162 271 C162 271 347 272 347 272 C347 272 403 76 403 76 C403 76 403 76 403 76 C414 40 393 11 357 11 C357 11 344 11 344 11 C344 11 344 0 344 0 C344 0 425 0 425 0 C425 0 495 0 495 0 C495 0 564 0 564 0 C564 0 610 0 610 0 C610 0 610 11 610 11 L610 11 Z M338 304 C338 304 171 305 171 305 C171 305 249 613 249 613 C249 613 338 304 338 304 L338 304 Z " />
<glyph glyph-name="abreve" unicode="&#x103;" horiz-adv-x="525" d="M93 818 C125 743 169 683 192 683 C216 683 260 743 292 818 C292 818 273 826 273 826 C258 789 222 760 192 760 C163 760 127 789 111 826 C111 826 93 818 93 818 L93 818 Z M473 53 C429 63 416 74 415 130 C415 130 415 638 415 638 C415 638 383 638 383 638 C383 638 323 568 323 568 C304 607 267 643 237 643 C136 643 54 483 54 282 C54 123 116 -5 192 -5 C218 -5 262 36 300 92 C300 92 300 0 300 0 C300 0 300 -5 300 -5 C300 -5 320 -5 320 -5 C320 -5 386 19 386 19 C386 19 473 46 473 46 C473 46 473 53 473 53 L473 53 Z M300 115 C282 86 263 65 256 65 C210 65 174 181 174 326 C174 484 200 611 232 611 C256 611 288 576 300 541 C300 541 300 115 300 115 L300 115 Z " />
<glyph glyph-name="Aogonek" unicode="&#x104;" horiz-adv-x="617" d="M610 11 C610 11 603 11 603 11 C580 11 551 40 540 76 C540 76 539 76 539 76 C539 76 300 816 300 816 C300 816 268 816 268 816 C268 816 72 76 72 76 C72 76 72 76 72 76 C62 40 33 11 6 11 C6 11 -3 11 -3 11 C-3 11 -3 0 -3 0 C-3 0 52 0 52 0 C52 0 73 0 73 0 C73 0 94 0 94 0 C94 0 178 0 178 0 C178 0 178 11 178 11 C178 11 166 11 166 11 C128 11 106 47 117 91 C117 91 117 91 117 91 C117 91 162 271 162 271 C162 271 347 272 347 272 C347 272 403 76 403 76 C403 76 403 76 403 76 C414 40 393 11 357 11 C357 11 344 11 344 11 C344 11 344 0 344 0 C344 0 378 0 378 0 C323 -37 252 -103 252 -150 C252 -198 314 -236 391 -236 C421 -236 459 -219 477 -199 C477 -199 469 -189 469 -189 C462 -197 438 -204 416 -204 C364 -204 323 -174 323 -137 C323 -82 397 -10 425 0 C425 0 495 0 495 0 C495 0 564 0 564 0 C564 0 610 0 610 0 C610 0 610 11 610 11 L610 11 Z M338 304 C338 304 171 305 171 305 C171 305 249 613 249 613 C249 613 338 304 338 304 L338 304 Z " />
<glyph glyph-name="aogonek" unicode="&#x105;" horiz-adv-x="448" d="M426 64 C420 54 407 46 386 45 C386 45 386 57 386 57 C381 55 374 52 367 48 C348 56 341 82 341 112 C341 112 341 490 341 490 C341 575 289 643 224 643 C140 643 62 591 49 526 C49 526 164 526 164 526 C174 573 189 610 200 610 C211 610 220 568 220 516 C220 516 220 326 220 326 C220 326 185 321 185 321 C102 310 36 228 36 136 C36 58 75 -5 124 -5 C159 -5 199 12 231 38 C241 12 260 -5 290 -9 C249 -46 213 -92 213 -129 C213 -188 274 -236 351 -236 C382 -236 420 -219 437 -199 C437 -199 429 -189 429 -189 C422 -197 398 -204 376 -204 C324 -204 283 -165 283 -116 C283 -79 310 -38 337 -8 C388 -1 421 22 439 48 C439 48 426 64 426 64 L426 64 Z M220 294 C220 294 220 100 220 100 C220 93 220 86 221 80 C208 76 193 74 179 74 C163 74 150 116 150 169 C150 229 166 281 187 286 C187 286 220 294 220 294 L220 294 Z " />
<glyph glyph-name="Cacute" unicode="&#x106;" horiz-adv-x="667" d="M341 827 C341 827 458 951 458 951 C478 973 493 993 493 999 C493 1012 446 1047 428 1047 C424 1047 412 1025 399 997 C399 997 329 837 329 837 C329 837 341 827 341 827 L341 827 Z M608 620 C608 620 608 745 608 745 C552 777 454 803 387 803 C195 803 42 623 42 399 C42 175 195 -5 387 -5 C454 -5 552 21 608 53 C608 53 608 177 608 177 C608 177 598 177 598 177 C595 169 591 157 588 149 C568 90 494 40 418 29 C407 28 397 27 387 27 C273 27 182 192 182 399 C182 606 273 771 387 771 C403 771 421 769 440 766 C440 766 440 766 440 766 C503 756 569 704 588 648 C591 640 595 628 598 620 C598 620 608 620 608 620 L608 620 Z " />
<glyph glyph-name="cacute" unicode="&#x107;" horiz-adv-x="457" d="M185 667 C185 667 302 791 302 791 C321 813 337 833 337 839 C337 852 290 887 272 887 C268 887 256 865 243 837 C243 837 173 677 173 677 C173 677 185 667 185 667 L185 667 Z M408 79 C408 79 397 91 397 91 C379 77 347 65 325 65 C240 65 172 187 172 339 C172 490 206 611 248 611 C273 611 295 571 299 520 C302 488 328 463 357 463 C385 463 408 486 408 514 C402 586 337 643 261 643 C144 643 50 488 50 295 C50 128 130 -5 229 -5 C273 -5 352 32 408 79 L408 79 Z " />
<glyph glyph-name="Ccircumflex" unicode="&#x108;" horiz-adv-x="667" d="M608 620 C608 620 608 745 608 745 C552 777 454 803 387 803 C195 803 42 623 42 399 C42 175 195 -5 387 -5 C454 -5 552 21 608 53 C608 53 608 177 608 177 C608 177 598 177 598 177 C595 169 591 157 588 149 C568 90 494 40 418 29 C407 28 397 27 387 27 C273 27 182 192 182 399 C182 606 273 771 387 771 C403 771 421 769 440 766 C440 766 440 766 440 766 C503 756 569 704 588 648 C591 640 595 628 598 620 C598 620 608 620 608 620 L608 620 Z M387 934 C387 934 484 829 484 829 C484 829 496 839 496 839 C496 839 424 1010 424 1010 C420 1019 406 1042 387 1042 C368 1042 354 1019 350 1010 C350 1010 278 839 278 839 C278 839 289 829 289 829 C289 829 387 934 387 934 L387 934 Z " />
<glyph glyph-name="Cdotaccent" unicode="&#x10a;" horiz-adv-x="667" d="M387 868 C426 868 457 899 457 938 C457 977 426 1008 387 1008 C348 1008 317 977 317 938 C317 899 348 868 387 868 L387 868 Z M608 620 C608 620 608 745 608 745 C552 777 454 803 387 803 C195 803 42 623 42 399 C42 175 195 -5 387 -5 C454 -5 552 21 608 53 C608 53 608 177 608 177 C608 177 598 177 598 177 C595 169 591 157 588 149 C568 90 494 40 418 29 C407 28 397 27 387 27 C273 27 182 192 182 399 C182 606 273 771 387 771 C403 771 421 769 440 766 C440 766 440 766 440 766 C503 756 569 704 588 648 C591 640 595 628 598 620 C598 620 608 620 608 620 L608 620 Z " />
<glyph glyph-name="cdotaccent" unicode="&#x10b;" horiz-adv-x="457" d="M261 708 C300 708 331 739 331 778 C331 817 300 848 261 848 C222 848 191 817 191 778 C191 739 222 708 261 708 L261 708 Z M408 79 C408 79 397 91 397 91 C379 77 347 65 325 65 C240 65 172 187 172 339 C172 490 206 611 248 611 C273 611 295 571 299 520 C302 488 328 463 357 463 C385 463 408 486 408 514 C402 586 337 643 261 643 C144 643 50 488 50 295 C50 128 130 -5 229 -5 C273 -5 352 32 408 79 L408 79 Z " />
<glyph glyph-name="Ccaron" unicode="&#x10c;" horiz-adv-x="667" d="M608 620 C608 620 608 745 608 745 C552 777 454 803 387 803 C195 803 42 623 42 399 C42 175 195 -5 387 -5 C454 -5 552 21 608 53 C608 53 608 177 608 177 C608 177 598 177 598 177 C595 169 591 157 588 149 C568 90 494 40 418 29 C407 28 397 27 387 27 C273 27 182 192 182 399 C182 606 273 771 387 771 C403 771 421 769 440 766 C440 766 440 766 440 766 C503 756 569 704 588 648 C591 640 595 628 598 620 C598 620 608 620 608 620 L608 620 Z M387 961 C387 961 484 1067 484 1067 C484 1067 496 1057 496 1057 C496 1057 424 886 424 886 C420 877 406 854 387 853 C368 852 354 877 350 885 C350 885 278 1057 278 1057 C278 1057 289 1067 289 1067 C289 1067 387 961 387 961 L387 961 Z " />
<glyph glyph-name="ccaron" unicode="&#x10d;" horiz-adv-x="457" d="M408 79 C408 79 397 91 397 91 C379 77 347 65 325 65 C240 65 172 187 172 339 C172 490 206 611 248 611 C273 611 295 571 299 520 C302 488 328 463 357 463 C385 463 408 486 408 514 C402 586 337 643 261 643 C144 643 50 488 50 295 C50 128 130 -5 229 -5 C273 -5 352 32 408 79 L408 79 Z M261 802 C261 802 359 907 359 907 C359 907 370 897 370 897 C370 897 298 726 298 726 C294 717 280 694 261 693 C242 692 228 717 225 725 C225 725 152 897 152 897 C152 897 164 907 164 907 C164 907 261 802 261 802 L261 802 Z " />
<glyph glyph-name="Dcaron" unicode="&#x10e;" horiz-adv-x="685" d="M33 786 C33 786 42 786 42 786 C69 786 91 758 91 721 C91 721 91 76 91 76 C91 40 69 11 42 11 C42 11 33 11 33 11 C33 11 33 0 33 0 C33 0 91 0 91 0 C91 0 154 0 154 0 C154 0 218 0 218 0 C218 0 314 0 314 0 C492 0 635 177 635 399 C635 621 482 798 290 798 C290 798 218 798 218 798 C218 798 154 798 154 798 C154 798 91 798 91 798 C91 798 33 798 33 798 C33 798 33 786 33 786 L33 786 Z M299 961 C299 961 397 1067 397 1067 C397 1067 408 1057 408 1057 C408 1057 336 886 336 886 C332 877 318 854 299 853 C280 852 266 877 263 885 C263 885 190 1057 190 1057 C190 1057 202 1067 202 1067 C202 1067 299 961 299 961 L299 961 Z M218 32 C218 32 218 766 218 766 C218 766 290 766 290 766 C411 766 508 603 508 399 C508 195 422 32 314 32 C314 32 218 32 218 32 L218 32 Z " />
<glyph glyph-name="dcaron" unicode="&#x10f;" horiz-adv-x="547" d="M495 53 C451 63 438 74 437 130 C437 130 437 759 437 759 C437 759 437 828 437 828 C437 828 437 858 437 858 C437 858 414 858 414 858 C414 858 265 812 265 812 C265 812 265 805 265 805 C307 794 322 784 322 728 C322 728 322 611 322 611 C301 630 277 643 256 643 C144 643 54 483 54 282 C54 123 124 -5 211 -5 C234 -5 280 23 322 61 C322 61 322 30 322 30 C322 30 322 0 322 0 C322 0 345 0 345 0 C345 0 495 46 495 46 C495 46 495 53 495 53 L495 53 Z M571 754 C593 796 610 854 610 863 C610 880 558 889 538 889 C516 889 502 823 499 780 C499 780 484 615 484 615 C484 615 498 610 498 610 C498 610 571 754 571 754 L571 754 Z M322 99 C322 99 322 79 322 79 C310 71 291 65 275 65 C219 65 174 181 174 326 C174 484 208 611 251 611 C275 611 303 590 322 563 C322 563 322 99 322 99 L322 99 Z " />
<glyph glyph-name="Emacron" unicode="&#x112;" horiz-adv-x="569" d="M162 899 C162 899 398 899 398 899 C398 899 398 963 398 963 C398 963 162 963 162 963 C162 963 162 899 162 899 L162 899 Z M407 329 C407 329 407 394 407 394 C407 394 407 410 407 410 C407 410 407 426 407 426 C407 426 407 484 407 484 C407 484 398 484 398 484 C398 484 396 475 396 475 C387 448 343 426 296 426 C296 426 225 426 225 426 C225 426 225 766 225 766 C225 766 336 766 336 766 C392 766 449 727 464 678 C464 678 469 662 469 662 C469 662 478 662 478 662 C478 662 478 782 478 782 C478 782 478 798 478 798 C478 798 462 798 462 798 C462 798 401 798 401 798 C401 798 225 798 225 798 C225 798 161 798 161 798 C161 798 97 798 97 798 C97 798 40 798 40 798 C40 798 40 786 40 786 C40 786 49 786 49 786 C75 786 97 758 97 721 C97 721 97 76 97 76 C97 40 75 11 49 11 C49 11 40 11 40 11 C40 11 40 0 40 0 C40 0 97 0 97 0 C97 0 161 0 161 0 C161 0 225 0 225 0 C225 0 401 0 401 0 C401 0 472 0 472 0 C472 0 477 0 477 0 C477 4 479 12 480 16 C485 49 495 102 501 135 C501 136 500 136 500 135 C496 136 492 136 492 135 C492 135 485 120 485 120 C460 71 396 32 341 32 C341 32 225 32 225 32 C225 32 225 394 225 394 C225 394 296 394 296 394 C343 394 387 370 396 339 C396 339 398 329 398 329 C398 329 407 329 407 329 L407 329 Z " />
<glyph glyph-name="emacron" unicode="&#x113;" horiz-adv-x="464" d="M131 739 C131 739 367 739 367 739 C367 739 367 803 367 803 C367 803 131 803 131 803 C131 803 131 739 131 739 L131 739 Z M414 79 C414 79 403 91 403 91 C385 77 352 65 328 65 C241 65 172 187 172 339 C172 362 173 384 174 405 C174 405 414 405 414 405 C414 537 340 643 249 643 C138 643 50 488 50 295 C50 128 131 -5 232 -5 C278 -5 358 32 414 79 L414 79 Z M176 428 C185 535 211 611 242 611 C278 611 307 562 307 502 C307 501 307 501 307 500 C306 470 282 444 254 439 C254 439 306 447 306 447 C306 447 176 428 176 428 L176 428 Z M254 439 C253 439 253 439 252 439 C252 439 254 439 254 439 L254 439 Z " />
<glyph glyph-name="Ebreve" unicode="&#x114;" horiz-adv-x="569" d="M180 1008 C212 933 256 873 280 873 C304 873 348 933 380 1008 C380 1008 361 1016 361 1016 C345 979 309 950 280 950 C251 950 215 979 199 1016 C199 1016 180 1008 180 1008 L180 1008 Z M407 329 C407 329 407 394 407 394 C407 394 407 410 407 410 C407 410 407 426 407 426 C407 426 407 484 407 484 C407 484 398 484 398 484 C398 484 396 475 396 475 C387 448 343 426 296 426 C296 426 225 426 225 426 C225 426 225 766 225 766 C225 766 336 766 336 766 C392 766 449 727 464 678 C464 678 469 662 469 662 C469 662 478 662 478 662 C478 662 478 782 478 782 C478 782 478 798 478 798 C478 798 462 798 462 798 C462 798 401 798 401 798 C401 798 225 798 225 798 C225 798 161 798 161 798 C161 798 97 798 97 798 C97 798 40 798 40 798 C40 798 40 786 40 786 C40 786 49 786 49 786 C75 786 97 758 97 721 C97 721 97 76 97 76 C97 40 75 11 49 11 C49 11 40 11 40 11 C40 11 40 0 40 0 C40 0 97 0 97 0 C97 0 161 0 161 0 C161 0 225 0 225 0 C225 0 401 0 401 0 C401 0 472 0 472 0 C472 0 477 0 477 0 C477 4 479 12 480 16 C485 49 495 102 501 135 C501 136 500 136 500 135 C496 136 492 136 492 135 C492 135 485 120 485 120 C460 71 396 32 341 32 C341 32 225 32 225 32 C225 32 225 394 225 394 C225 394 296 394 296 394 C343 394 387 370 396 339 C396 339 398 329 398 329 C398 329 407 329 407 329 L407 329 Z " />
<glyph glyph-name="ebreve" unicode="&#x115;" horiz-adv-x="464" d="M149 848 C181 773 225 713 249 713 C272 713 317 773 348 848 C348 848 330 856 330 856 C314 819 278 790 249 790 C219 790 183 819 168 856 C168 856 149 848 149 848 L149 848 Z M414 79 C414 79 403 91 403 91 C385 77 352 65 328 65 C241 65 172 187 172 339 C172 362 173 384 174 405 C174 405 414 405 414 405 C414 537 340 643 249 643 C138 643 50 488 50 295 C50 128 131 -5 232 -5 C278 -5 358 32 414 79 L414 79 Z M176 428 C185 535 211 611 242 611 C278 611 307 562 307 502 C307 501 307 501 307 500 C306 470 282 444 254 439 C254 439 306 447 306 447 C306 447 176 428 176 428 L176 428 Z M254 439 C253 439 253 439 252 439 C252 439 254 439 254 439 L254 439 Z " />
<glyph glyph-name="Edotaccent" unicode="&#x116;" horiz-adv-x="569" d="M280 868 C319 868 350 899 350 938 C350 977 319 1008 280 1008 C241 1008 210 977 210 938 C210 899 241 868 280 868 L280 868 Z M407 329 C407 329 407 394 407 394 C407 394 407 410 407 410 C407 410 407 426 407 426 C407 426 407 484 407 484 C407 484 398 484 398 484 C398 484 396 475 396 475 C387 448 343 426 296 426 C296 426 225 426 225 426 C225 426 225 766 225 766 C225 766 336 766 336 766 C392 766 449 727 464 678 C464 678 469 662 469 662 C469 662 478 662 478 662 C478 662 478 782 478 782 C478 782 478 798 478 798 C478 798 462 798 462 798 C462 798 401 798 401 798 C401 798 225 798 225 798 C225 798 161 798 161 798 C161 798 97 798 97 798 C97 798 40 798 40 798 C40 798 40 786 40 786 C40 786 49 786 49 786 C75 786 97 758 97 721 C97 721 97 76 97 76 C97 40 75 11 49 11 C49 11 40 11 40 11 C40 11 40 0 40 0 C40 0 97 0 97 0 C97 0 161 0 161 0 C161 0 225 0 225 0 C225 0 401 0 401 0 C401 0 472 0 472 0 C472 0 477 0 477 0 C477 4 479 12 480 16 C485 49 495 102 501 135 C501 136 500 136 500 135 C496 136 492 136 492 135 C492 135 485 120 485 120 C460 71 396 32 341 32 C341 32 225 32 225 32 C225 32 225 394 225 394 C225 394 296 394 296 394 C343 394 387 370 396 339 C396 339 398 329 398 329 C398 329 407 329 407 329 L407 329 Z " />
<glyph glyph-name="edotaccent" unicode="&#x117;" horiz-adv-x="464" d="M249 708 C288 708 319 739 319 778 C319 817 288 848 249 848 C209 848 178 817 178 778 C178 739 209 708 249 708 L249 708 Z M414 79 C414 79 403 91 403 91 C385 77 352 65 328 65 C241 65 172 187 172 339 C172 362 173 384 174 405 C174 405 414 405 414 405 C414 537 340 643 249 643 C138 643 50 488 50 295 C50 128 131 -5 232 -5 C278 -5 358 32 414 79 L414 79 Z M176 428 C185 535 211 611 242 611 C278 611 307 562 307 502 C307 501 307 501 307 500 C306 470 282 444 254 439 C254 439 306 447 306 447 C306 447 176 428 176 428 L176 428 Z M254 439 C253 439 253 439 252 439 C252 439 254 439 254 439 L254 439 Z " />
<glyph glyph-name="Eogonek" unicode="&#x118;" horiz-adv-x="569" d="M407 329 C407 329 407 394 407 394 C407 394 407 410 407 410 C407 410 407 426 407 426 C407 426 407 484 407 484 C407 484 398 484 398 484 C398 484 396 475 396 475 C387 448 343 426 296 426 C296 426 225 426 225 426 C225 426 225 766 225 766 C225 766 336 766 336 766 C392 766 449 727 464 678 C464 678 469 662 469 662 C469 662 478 662 478 662 C478 662 478 782 478 782 C478 782 478 798 478 798 C478 798 462 798 462 798 C462 798 401 798 401 798 C401 798 225 798 225 798 C225 798 161 798 161 798 C161 798 97 798 97 798 C97 798 40 798 40 798 C40 798 40 786 40 786 C40 786 49 786 49 786 C75 786 97 758 97 721 C97 721 97 76 97 76 C97 40 75 11 49 11 C49 11 40 11 40 11 C40 11 40 0 40 0 C40 0 97 0 97 0 C97 0 161 0 161 0 C161 0 225 0 225 0 C225 0 401 0 401 0 C401 0 426 0 426 0 C371 -37 300 -103 300 -150 C300 -198 361 -236 438 -236 C469 -236 507 -219 524 -199 C524 -199 516 -189 516 -189 C509 -197 485 -204 463 -204 C411 -204 370 -174 370 -137 C370 -82 444 -10 472 0 C472 0 477 0 477 0 C477 4 479 12 480 16 C485 49 495 102 501 135 C501 136 500 136 500 135 C496 136 492 136 492 135 C492 135 485 120 485 120 C460 71 396 32 341 32 C341 32 225 32 225 32 C225 32 225 394 225 394 C225 394 296 394 296 394 C343 394 387 370 396 339 C396 339 398 329 398 329 C398 329 407 329 407 329 L407 329 Z " />
<glyph glyph-name="eogonek" unicode="&#x119;" horiz-adv-x="464" d="M414 79 C414 79 403 91 403 91 C385 77 352 65 328 65 C241 65 172 187 172 339 C172 362 173 384 174 405 C174 405 414 405 414 405 C414 537 340 643 249 643 C138 643 50 488 50 295 C50 152 109 34 190 3 C133 -32 52 -103 52 -153 C52 -199 113 -236 190 -236 C221 -236 259 -219 276 -199 C276 -199 268 -189 268 -189 C261 -197 237 -204 215 -204 C163 -204 122 -176 122 -140 C122 -87 193 -18 223 -5 C226 -5 229 -5 232 -5 C278 -5 358 32 414 79 L414 79 Z M176 428 C185 535 211 611 242 611 C278 611 307 562 307 502 C307 501 307 501 307 500 C306 470 282 444 254 439 C254 439 306 447 306 447 C306 447 176 428 176 428 L176 428 Z M254 439 C253 439 253 439 252 439 C252 439 254 439 254 439 L254 439 Z " />
<glyph glyph-name="Ecaron" unicode="&#x11a;" horiz-adv-x="569" d="M407 329 C407 329 407 394 407 394 C407 394 407 410 407 410 C407 410 407 426 407 426 C407 426 407 484 407 484 C407 484 398 484 398 484 C398 484 396 475 396 475 C387 448 343 426 296 426 C296 426 225 426 225 426 C225 426 225 766 225 766 C225 766 336 766 336 766 C392 766 449 727 464 678 C464 678 469 662 469 662 C469 662 478 662 478 662 C478 662 478 782 478 782 C478 782 478 798 478 798 C478 798 462 798 462 798 C462 798 401 798 401 798 C401 798 225 798 225 798 C225 798 161 798 161 798 C161 798 97 798 97 798 C97 798 40 798 40 798 C40 798 40 786 40 786 C40 786 49 786 49 786 C75 786 97 758 97 721 C97 721 97 76 97 76 C97 40 75 11 49 11 C49 11 40 11 40 11 C40 11 40 0 40 0 C40 0 97 0 97 0 C97 0 161 0 161 0 C161 0 225 0 225 0 C225 0 401 0 401 0 C401 0 472 0 472 0 C472 0 477 0 477 0 C477 4 479 12 480 16 C485 49 495 102 501 135 C501 136 500 136 500 135 C496 136 492 136 492 135 C492 135 485 120 485 120 C460 71 396 32 341 32 C341 32 225 32 225 32 C225 32 225 394 225 394 C225 394 296 394 296 394 C343 394 387 370 396 339 C396 339 398 329 398 329 C398 329 407 329 407 329 L407 329 Z M280 961 C280 961 377 1067 377 1067 C377 1067 389 1057 389 1057 C389 1057 317 886 317 886 C313 877 299 854 280 853 C261 852 247 877 244 885 C244 885 171 1057 171 1057 C171 1057 182 1067 182 1067 C182 1067 280 961 280 961 L280 961 Z " />
<glyph glyph-name="ecaron" unicode="&#x11b;" horiz-adv-x="464" d="M414 79 C414 79 403 91 403 91 C385 77 352 65 328 65 C241 65 172 187 172 339 C172 362 173 384 174 405 C174 405 414 405 414 405 C414 537 340 643 249 643 C138 643 50 488 50 295 C50 128 131 -5 232 -5 C278 -5 358 32 414 79 L414 79 Z M249 801 C249 801 346 907 346 907 C346 907 358 897 358 897 C358 897 285 726 285 726 C282 717 268 694 249 693 C230 692 216 717 212 725 C212 725 139 897 139 897 C139 897 151 907 151 907 C151 907 249 801 249 801 L249 801 Z M176 428 C185 535 211 611 242 611 C278 611 307 562 307 502 C307 501 307 501 307 500 C306 470 282 444 254 439 C254 439 306 447 306 447 C306 447 176 428 176 428 L176 428 Z M254 439 C253 439 253 439 252 439 C252 439 254 439 254 439 L254 439 Z " />
<glyph glyph-name="Gcircumflex" unicode="&#x11c;" horiz-adv-x="744" d="M651 375 C651 375 593 375 593 375 C593 375 536 375 536 375 C536 375 478 375 478 375 C478 375 421 375 421 375 C421 375 421 363 421 363 C421 363 430 363 430 363 C456 363 478 334 478 298 C478 298 478 43 478 43 C442 33 406 27 377 27 C269 27 182 192 182 399 C182 606 269 771 377 771 C390 771 404 770 419 767 C419 767 419 767 419 767 C482 758 548 705 568 649 C571 641 575 629 578 620 C578 620 588 620 588 620 C588 620 588 745 588 745 C532 777 439 803 377 803 C191 803 42 623 42 399 C42 175 191 -5 377 -5 C441 -5 538 21 593 53 C593 53 593 298 593 298 C594 334 615 363 642 363 C642 363 651 363 651 363 C651 363 651 375 651 375 L651 375 Z M377 934 C377 934 474 829 474 829 C474 829 486 839 486 839 C486 839 414 1010 414 1010 C410 1019 396 1042 377 1042 C358 1042 344 1019 340 1010 C340 1010 268 839 268 839 C268 839 279 829 279 829 C279 829 377 934 377 934 L377 934 Z " />
<glyph glyph-name="Gbreve" unicode="&#x11e;" horiz-adv-x="744" d="M277 1008 C309 933 353 873 377 873 C400 873 445 933 477 1008 C477 1008 458 1016 458 1016 C442 979 406 950 377 950 C347 950 312 979 296 1016 C296 1016 277 1008 277 1008 L277 1008 Z M651 375 C651 375 593 375 593 375 C593 375 536 375 536 375 C536 375 478 375 478 375 C478 375 421 375 421 375 C421 375 421 363 421 363 C421 363 430 363 430 363 C456 363 478 334 478 298 C478 298 478 43 478 43 C442 33 406 27 377 27 C269 27 182 192 182 399 C182 606 269 771 377 771 C390 771 404 770 419 767 C419 767 419 767 419 767 C482 758 548 705 568 649 C571 641 575 629 578 620 C578 620 588 620 588 620 C588 620 588 745 588 745 C532 777 439 803 377 803 C191 803 42 623 42 399 C42 175 191 -5 377 -5 C441 -5 538 21 593 53 C593 53 593 298 593 298 C594 334 615 363 642 363 C642 363 651 363 651 363 C651 363 651 375 651 375 L651 375 Z " />
<glyph glyph-name="gbreve" unicode="&#x11f;" horiz-adv-x="414" d="M97 848 C129 773 173 713 197 713 C220 713 264 773 296 848 C296 848 278 856 278 856 C262 819 226 790 197 790 C167 790 131 819 116 856 C116 856 97 848 97 848 L97 848 Z M415 638 C415 638 274 611 274 611 C252 631 226 643 197 643 C117 643 54 554 54 443 C54 361 88 291 138 260 C83 250 41 199 41 137 C41 99 58 66 86 45 C44 4 16 -56 16 -116 C16 -186 76 -243 150 -243 C286 -243 395 -138 395 -6 C395 70 323 131 233 131 C233 131 167 127 167 127 C140 126 118 150 118 181 C118 216 136 243 159 243 C159 243 197 243 197 243 C276 243 339 332 339 443 C339 490 328 534 308 568 C308 568 415 574 415 574 C415 574 415 638 415 638 L415 638 Z M162 443 C162 540 177 617 197 617 C216 617 231 540 231 443 C231 346 216 269 197 269 C177 269 162 346 162 443 L162 443 Z M120 26 C136 21 154 18 173 19 C173 19 202 21 202 21 C263 21 312 -17 312 -64 C312 -146 246 -211 163 -211 C124 -211 93 -163 93 -102 C93 -53 104 -7 120 26 L120 26 Z " />
<glyph glyph-name="Gdotaccent" unicode="&#x120;" horiz-adv-x="744" d="M377 868 C416 868 447 899 447 938 C447 977 416 1008 377 1008 C338 1008 307 977 307 938 C307 899 338 868 377 868 L377 868 Z M651 375 C651 375 593 375 593 375 C593 375 536 375 536 375 C536 375 478 375 478 375 C478 375 421 375 421 375 C421 375 421 363 421 363 C421 363 430 363 430 363 C456 363 478 334 478 298 C478 298 478 43 478 43 C442 33 406 27 377 27 C269 27 182 192 182 399 C182 606 269 771 377 771 C390 771 404 770 419 767 C419 767 419 767 419 767 C482 758 548 705 568 649 C571 641 575 629 578 620 C578 620 588 620 588 620 C588 620 588 745 588 745 C532 777 439 803 377 803 C191 803 42 623 42 399 C42 175 191 -5 377 -5 C441 -5 538 21 593 53 C593 53 593 298 593 298 C594 334 615 363 642 363 C642 363 651 363 651 363 C651 363 651 375 651 375 L651 375 Z " />
<glyph glyph-name="gdotaccent" unicode="&#x121;" horiz-adv-x="414" d="M197 708 C236 708 267 739 267 778 C267 817 236 848 197 848 C157 848 126 817 126 778 C126 739 157 708 197 708 L197 708 Z M415 638 C415 638 274 611 274 611 C252 631 226 643 197 643 C117 643 54 554 54 443 C54 361 88 291 138 260 C83 250 41 199 41 137 C41 99 58 66 86 45 C44 4 16 -56 16 -116 C16 -186 76 -243 150 -243 C286 -243 395 -138 395 -6 C395 70 323 131 233 131 C233 131 167 127 167 127 C140 126 118 150 118 181 C118 216 136 243 159 243 C159 243 197 243 197 243 C276 243 339 332 339 443 C339 490 328 534 308 568 C308 568 415 574 415 574 C415 574 415 638 415 638 L415 638 Z M162 443 C162 540 177 617 197 617 C216 617 231 540 231 443 C231 346 216 269 197 269 C177 269 162 346 162 443 L162 443 Z M120 26 C136 21 154 18 173 19 C173 19 202 21 202 21 C263 21 312 -17 312 -64 C312 -146 246 -211 163 -211 C124 -211 93 -163 93 -102 C93 -53 104 -7 120 26 L120 26 Z " />
<glyph glyph-name="Hcircumflex" unicode="&#x124;" horiz-adv-x="688" d="M648 798 C648 798 591 798 591 798 C591 798 527 798 527 798 C527 798 463 798 463 798 C463 798 405 798 405 798 C405 798 405 786 405 786 C405 786 414 786 414 786 C441 786 463 758 463 721 C463 721 463 418 463 418 C463 418 225 418 225 418 C225 418 225 721 225 721 C225 758 247 786 274 786 C274 786 283 786 283 786 C283 786 283 798 283 798 C283 798 225 798 225 798 C225 798 161 798 161 798 C161 798 97 798 97 798 C97 798 40 798 40 798 C40 798 40 786 40 786 C40 786 49 786 49 786 C75 786 97 758 97 721 C97 721 97 76 97 76 C97 40 75 11 49 11 C49 11 40 11 40 11 C40 11 40 0 40 0 C40 0 97 0 97 0 C97 0 161 0 161 0 C161 0 225 0 225 0 C225 0 283 0 283 0 C283 0 283 11 283 11 C283 11 274 11 274 11 C247 11 225 40 225 76 C225 76 225 386 225 386 C225 386 463 386 463 386 C463 386 463 76 463 76 C463 40 441 11 414 11 C414 11 405 11 405 11 C405 11 405 0 405 0 C405 0 463 0 463 0 C463 0 527 0 527 0 C527 0 591 0 591 0 C591 0 648 0 648 0 C648 0 648 11 648 11 C648 11 640 11 640 11 C613 11 592 38 591 71 C591 71 591 76 591 76 C591 76 591 721 591 721 C591 721 591 726 591 726 C592 760 613 786 640 786 C640 786 648 786 648 786 C648 786 648 798 648 798 L648 798 Z M344 934 C344 934 442 829 442 829 C442 829 453 839 453 839 C453 839 381 1010 381 1010 C377 1019 363 1042 344 1042 C325 1042 311 1019 308 1010 C308 1010 235 839 235 839 C235 839 247 829 247 829 C247 829 344 934 344 934 L344 934 Z " />
<glyph glyph-name="Itilde" unicode="&#x128;" horiz-adv-x="322" d="M67 893 C67 924 77 949 90 949 C130 949 161 886 202 886 C242 886 275 947 275 1023 C275 1023 256 1023 256 1023 C256 990 243 963 227 963 C186 963 155 1025 115 1025 C78 1025 48 966 48 893 C48 893 67 893 67 893 L67 893 Z M283 798 C283 798 225 798 225 798 C225 798 161 798 161 798 C161 798 97 798 97 798 C97 798 40 798 40 798 C40 798 40 786 40 786 C40 786 49 786 49 786 C75 786 97 758 97 721 C97 721 97 76 97 76 C97 40 75 11 49 11 C49 11 40 11 40 11 C40 11 40 0 40 0 C40 0 97 0 97 0 C97 0 161 0 161 0 C161 0 225 0 225 0 C225 0 283 0 283 0 C283 0 283 11 283 11 C283 11 274 11 274 11 C247 11 225 40 225 76 C225 76 225 721 225 721 C225 758 247 786 274 786 C274 786 283 786 283 786 C283 786 283 798 283 798 L283 798 Z " />
<glyph glyph-name="itilde" unicode="&#x129;" horiz-adv-x="319" d="M65 733 C65 764 75 789 88 789 C129 789 160 726 200 726 C241 726 274 787 274 863 C274 863 255 863 255 863 C255 830 242 803 225 803 C185 803 154 865 113 865 C76 865 46 806 46 733 C46 733 65 733 65 733 L65 733 Z M217 0 C217 0 275 0 275 0 C275 0 275 11 275 11 C275 11 263 11 263 11 C238 11 217 9 217 0 C217 0 217 561 217 561 C217 561 217 643 217 643 C217 643 211 643 211 643 C211 643 54 595 54 595 C54 595 54 586 54 586 C54 586 88 573 88 573 C96 569 102 558 102 528 C102 528 102 0 102 0 C102 0 45 0 45 0 C45 0 45 11 45 11 C45 11 56 11 56 11 C82 11 102 9 102 0 C102 0 217 0 217 0 L217 0 Z " />
<glyph glyph-name="Imacron" unicode="&#x12a;" horiz-adv-x="322" d="M43 899 C43 899 279 899 279 899 C279 899 279 963 279 963 C279 963 43 963 43 963 C43 963 43 899 43 899 L43 899 Z M283 798 C283 798 225 798 225 798 C225 798 161 798 161 798 C161 798 97 798 97 798 C97 798 40 798 40 798 C40 798 40 786 40 786 C40 786 49 786 49 786 C75 786 97 758 97 721 C97 721 97 76 97 76 C97 40 75 11 49 11 C49 11 40 11 40 11 C40 11 40 0 40 0 C40 0 97 0 97 0 C97 0 161 0 161 0 C161 0 225 0 225 0 C225 0 283 0 283 0 C283 0 283 11 283 11 C283 11 274 11 274 11 C247 11 225 40 225 76 C225 76 225 721 225 721 C225 758 247 786 274 786 C274 786 283 786 283 786 C283 786 283 798 283 798 L283 798 Z " />
<glyph glyph-name="imacron" unicode="&#x12b;" horiz-adv-x="319" d="M42 739 C42 739 278 739 278 739 C278 739 278 803 278 803 C278 803 42 803 42 803 C42 803 42 739 42 739 L42 739 Z M217 0 C217 0 275 0 275 0 C275 0 275 11 275 11 C275 11 263 11 263 11 C238 11 217 9 217 0 C217 0 217 561 217 561 C217 561 217 643 217 643 C217 643 211 643 211 643 C211 643 54 595 54 595 C54 595 54 586 54 586 C54 586 88 573 88 573 C96 569 102 558 102 528 C102 528 102 0 102 0 C102 0 45 0 45 0 C45 0 45 11 45 11 C45 11 56 11 56 11 C82 11 102 9 102 0 C102 0 217 0 217 0 L217 0 Z " />
<glyph glyph-name="Ibreve" unicode="&#x12c;" horiz-adv-x="322" d="M62 1008 C94 933 138 873 161 873 C185 873 229 933 261 1008 C261 1008 242 1016 242 1016 C227 979 191 950 161 950 C132 950 96 979 80 1016 C80 1016 62 1008 62 1008 L62 1008 Z M283 798 C283 798 225 798 225 798 C225 798 161 798 161 798 C161 798 97 798 97 798 C97 798 40 798 40 798 C40 798 40 786 40 786 C40 786 49 786 49 786 C75 786 97 758 97 721 C97 721 97 76 97 76 C97 40 75 11 49 11 C49 11 40 11 40 11 C40 11 40 0 40 0 C40 0 97 0 97 0 C97 0 161 0 161 0 C161 0 225 0 225 0 C225 0 283 0 283 0 C283 0 283 11 283 11 C283 11 274 11 274 11 C247 11 225 40 225 76 C225 76 225 721 225 721 C225 758 247 786 274 786 C274 786 283 786 283 786 C283 786 283 798 283 798 L283 798 Z " />
<glyph glyph-name="ibreve" unicode="&#x12d;" horiz-adv-x="319" d="M60 848 C92 773 136 713 160 713 C184 713 228 773 260 848 C260 848 241 856 241 856 C225 819 189 790 160 790 C131 790 95 819 79 856 C79 856 60 848 60 848 L60 848 Z M217 0 C217 0 275 0 275 0 C275 0 275 11 275 11 C275 11 263 11 263 11 C238 11 217 9 217 0 C217 0 217 561 217 561 C217 561 217 643 217 643 C217 643 211 643 211 643 C211 643 54 595 54 595 C54 595 54 586 54 586 C54 586 88 573 88 573 C96 569 102 558 102 528 C102 528 102 0 102 0 C102 0 45 0 45 0 C45 0 45 11 45 11 C45 11 56 11 56 11 C82 11 102 9 102 0 C102 0 217 0 217 0 L217 0 Z " />
<glyph glyph-name="Idotaccent" unicode="&#x130;" horiz-adv-x="322" d="M161 868 C201 868 232 899 232 938 C232 977 201 1008 161 1008 C122 1008 91 977 91 938 C91 899 122 868 161 868 L161 868 Z M283 798 C283 798 225 798 225 798 C225 798 161 798 161 798 C161 798 97 798 97 798 C97 798 40 798 40 798 C40 798 40 786 40 786 C40 786 49 786 49 786 C75 786 97 758 97 721 C97 721 97 76 97 76 C97 40 75 11 49 11 C49 11 40 11 40 11 C40 11 40 0 40 0 C40 0 97 0 97 0 C97 0 161 0 161 0 C161 0 225 0 225 0 C225 0 283 0 283 0 C283 0 283 11 283 11 C283 11 274 11 274 11 C247 11 225 40 225 76 C225 76 225 721 225 721 C225 758 247 786 274 786 C274 786 283 786 283 786 C283 786 283 798 283 798 L283 798 Z " />
<glyph glyph-name="dotlessi" unicode="&#x131;" horiz-adv-x="319" d="M217 0 C217 0 275 0 275 0 C275 0 275 11 275 11 C275 11 263 11 263 11 C238 11 217 9 217 0 C217 0 217 561 217 561 C217 561 217 643 217 643 C217 643 211 643 211 643 C211 643 54 595 54 595 C54 595 54 586 54 586 C54 586 88 573 88 573 C96 569 102 558 102 528 C102 528 102 0 102 0 C102 0 45 0 45 0 C45 0 45 11 45 11 C45 11 56 11 56 11 C82 11 102 9 102 0 C102 0 217 0 217 0 L217 0 Z " />
<glyph glyph-name="Jcircumflex" unicode="&#x134;" horiz-adv-x="394" d="M355 798 C355 798 297 798 297 798 C297 798 233 798 233 798 C233 798 169 798 169 798 C169 798 112 798 112 798 C112 798 112 786 112 786 C112 786 121 786 121 786 C147 786 169 758 169 721 C169 721 169 242 169 242 C169 91 162 16 147 16 C128 16 111 37 108 64 C106 92 80 115 51 115 C20 115 -3 92 0 64 C3 23 54 -10 115 -10 C237 -10 298 110 298 349 C298 349 297 726 297 726 C299 761 320 786 346 786 C346 786 355 786 355 786 C355 786 355 798 355 798 L355 798 Z M234 934 C234 934 331 829 331 829 C331 829 343 839 343 839 C343 839 270 1010 270 1010 C266 1019 252 1042 233 1042 C214 1042 201 1019 197 1010 C197 1010 124 839 124 839 C124 839 136 829 136 829 C136 829 234 934 234 934 L234 934 Z " />
<glyph glyph-name="Lacute" unicode="&#x139;" horiz-adv-x="569" d="M139 827 C139 827 255 951 255 951 C275 973 291 993 291 999 C291 1012 243 1047 225 1047 C221 1047 209 1025 197 997 C197 997 126 837 126 837 C126 837 139 827 139 827 L139 827 Z M488 147 C488 147 478 122 478 122 C457 72 401 32 351 32 C351 32 225 32 225 32 C225 32 225 721 225 721 C225 758 247 786 274 786 C274 786 283 786 283 786 C283 786 283 798 283 798 C283 798 225 798 225 798 C225 798 161 798 161 798 C161 798 97 798 97 798 C97 798 40 798 40 798 C40 798 40 786 40 786 C40 786 49 786 49 786 C75 786 97 758 97 721 C97 721 97 76 97 76 C97 40 75 11 49 11 C49 11 40 11 40 11 C40 11 40 0 40 0 C40 0 97 0 97 0 C97 0 161 0 161 0 C161 0 225 0 225 0 C225 0 401 0 401 0 C401 0 472 0 472 0 C472 0 477 0 477 0 C477 4 479 12 480 16 C486 51 495 107 502 141 C497 143 488 147 488 147 L488 147 Z " />
<glyph glyph-name="Lcaron" unicode="&#x13d;" horiz-adv-x="569" d="M488 147 C488 147 478 122 478 122 C457 72 401 32 351 32 C351 32 225 32 225 32 C225 32 225 721 225 721 C225 758 247 786 274 786 C274 786 283 786 283 786 C283 786 283 798 283 798 C283 798 225 798 225 798 C225 798 161 798 161 798 C161 798 97 798 97 798 C97 798 40 798 40 798 C40 798 40 786 40 786 C40 786 49 786 49 786 C75 786 97 758 97 721 C97 721 97 76 97 76 C97 40 75 11 49 11 C49 11 40 11 40 11 C40 11 40 0 40 0 C40 0 97 0 97 0 C97 0 161 0 161 0 C161 0 225 0 225 0 C225 0 401 0 401 0 C401 0 472 0 472 0 C472 0 477 0 477 0 C477 4 479 12 480 16 C486 51 495 107 502 141 C497 143 488 147 488 147 L488 147 Z M416 694 C438 736 455 794 455 803 C455 820 403 829 383 829 C361 829 348 763 344 720 C344 720 329 555 329 555 C329 555 344 550 344 550 C344 550 416 694 416 694 L416 694 Z " />
<glyph glyph-name="lcaron" unicode="&#x13e;" horiz-adv-x="319" d="M45 805 C87 796 102 784 102 728 C102 728 102 76 102 76 C102 40 80 11 54 11 C54 11 45 11 45 11 C45 11 45 0 45 0 C45 0 102 0 102 0 C102 0 160 0 160 0 C160 0 217 0 217 0 C217 0 275 0 275 0 C275 0 275 11 275 11 C275 11 266 11 266 11 C239 11 218 40 217 76 C217 76 217 759 217 759 C217 759 217 828 217 828 C217 828 217 858 217 858 C217 858 194 858 194 858 C194 858 45 812 45 812 C45 812 45 805 45 805 L45 805 Z M351 724 C373 766 390 824 390 833 C390 850 338 859 318 859 C296 859 282 793 279 750 C279 750 264 585 264 585 C264 585 278 580 278 580 C278 580 351 724 351 724 L351 724 Z " />
<glyph glyph-name="Lslash" unicode="&#x141;" horiz-adv-x="569" d="M47 330 C47 330 97 347 97 347 C97 347 97 76 97 76 C97 40 75 11 49 11 C49 11 40 11 40 11 C40 11 40 0 40 0 C40 0 97 0 97 0 C97 0 161 0 161 0 C161 0 225 0 225 0 C225 0 401 0 401 0 C401 0 472 0 472 0 C472 0 477 0 477 0 C477 4 479 12 480 16 C486 51 495 107 502 141 C497 143 488 147 488 147 C488 147 478 122 478 122 C457 72 401 32 351 32 C351 32 225 32 225 32 C225 32 225 389 225 389 C225 389 349 430 349 430 C349 430 349 468 349 468 C349 468 225 427 225 427 C225 427 225 721 225 721 C225 758 247 786 274 786 C274 786 283 786 283 786 C283 786 283 798 283 798 C283 798 225 798 225 798 C225 798 161 798 161 798 C161 798 97 798 97 798 C97 798 40 798 40 798 C40 798 40 786 40 786 C40 786 49 786 49 786 C75 786 97 758 97 721 C97 721 97 385 97 385 C97 385 47 368 47 368 C47 368 47 330 47 330 L47 330 Z " />
<glyph glyph-name="lslash" unicode="&#x142;" horiz-adv-x="319" d="M2 360 C2 360 102 392 102 392 C102 392 102 76 102 76 C102 40 80 11 54 11 C54 11 45 11 45 11 C45 11 45 0 45 0 C45 0 102 0 102 0 C102 0 160 0 160 0 C160 0 217 0 217 0 C217 0 275 0 275 0 C275 0 275 11 275 11 C275 11 266 11 266 11 C239 11 218 40 217 76 C217 76 217 428 217 428 C217 428 317 460 317 460 C317 460 317 498 317 498 C317 498 217 466 217 466 C217 466 217 759 217 759 C217 759 217 828 217 828 C217 828 217 858 217 858 C217 858 194 858 194 858 C194 858 45 812 45 812 C45 812 45 805 45 805 C87 796 102 784 102 728 C102 728 102 430 102 430 C102 430 2 398 2 398 C2 398 2 360 2 360 L2 360 Z " />
<glyph glyph-name="Nacute" unicode="&#x143;" horiz-adv-x="622" d="M281 827 C281 827 397 951 397 951 C417 973 433 993 433 999 C433 1012 385 1047 367 1047 C363 1047 351 1025 339 997 C339 997 268 837 268 837 C268 837 281 827 281 827 L281 827 Z M431 786 C431 786 440 786 440 786 C467 786 489 758 489 721 C489 721 489 203 489 203 C489 203 209 798 209 798 C209 798 133 798 133 798 C133 798 114 798 114 798 C114 798 95 798 95 798 C95 798 37 798 37 798 C37 798 37 786 37 786 C37 786 46 786 46 786 C73 786 95 758 95 721 C95 721 95 76 95 76 C95 40 73 11 46 11 C46 11 37 11 37 11 C37 11 37 0 37 0 C37 0 95 0 95 0 C95 0 114 0 114 0 C114 0 133 0 133 0 C133 0 191 0 191 0 C191 0 191 11 191 11 C191 11 182 11 182 11 C155 11 133 40 133 76 C133 76 133 665 133 665 C133 665 430 51 430 51 C430 51 465 -20 465 -20 C465 -20 527 -20 527 -20 C527 -20 527 98 527 98 C527 98 527 721 527 721 C527 758 549 786 576 786 C576 786 585 786 585 786 C584 786 584 789 585 792 C584 795 584 798 585 798 C585 798 527 798 527 798 C527 798 508 798 508 798 C508 798 489 798 489 798 C489 798 431 798 431 798 C431 798 431 786 431 786 L431 786 Z " />
<glyph glyph-name="nacute" unicode="&#x144;" horiz-adv-x="537" d="M195 667 C195 667 312 791 312 791 C331 813 347 833 347 839 C347 852 300 887 281 887 C277 887 265 865 253 837 C253 837 182 677 182 677 C182 677 195 667 195 667 L195 667 Z M497 11 C497 11 489 11 489 11 C461 11 440 40 440 76 C440 76 440 476 440 476 C440 569 411 643 353 643 C300 643 245 616 217 579 C217 579 217 638 217 638 C217 638 194 638 194 638 C194 638 44 592 44 592 C44 592 44 585 44 585 C87 575 102 564 102 508 C102 508 102 76 102 76 C102 40 80 11 53 11 C53 11 44 11 44 11 C44 11 44 0 44 0 C44 0 102 0 102 0 C102 0 159 0 159 0 C159 0 217 0 217 0 C217 0 267 0 267 0 C267 0 274 0 274 0 C274 0 325 0 325 0 C325 0 382 0 382 0 C382 0 440 0 440 0 C440 0 497 0 497 0 C497 0 497 11 497 11 L497 11 Z M274 11 C274 11 267 11 267 11 C267 11 266 11 266 11 C238 11 217 40 217 76 C217 76 217 532 217 532 C217 532 191 532 191 532 C191 532 217 539 217 539 C217 539 217 556 217 556 C229 562 246 566 264 566 C305 566 325 521 325 464 C325 464 325 76 325 76 C325 40 303 11 276 11 C276 11 274 11 274 11 L274 11 Z " />
<glyph glyph-name="Ncaron" unicode="&#x147;" horiz-adv-x="622" d="M431 786 C431 786 440 786 440 786 C467 786 489 758 489 721 C489 721 489 203 489 203 C489 203 209 798 209 798 C209 798 133 798 133 798 C133 798 114 798 114 798 C114 798 95 798 95 798 C95 798 37 798 37 798 C37 798 37 786 37 786 C37 786 46 786 46 786 C73 786 95 758 95 721 C95 721 95 76 95 76 C95 40 73 11 46 11 C46 11 37 11 37 11 C37 11 37 0 37 0 C37 0 95 0 95 0 C95 0 114 0 114 0 C114 0 133 0 133 0 C133 0 191 0 191 0 C191 0 191 11 191 11 C191 11 182 11 182 11 C155 11 133 40 133 76 C133 76 133 665 133 665 C133 665 430 51 430 51 C430 51 465 -20 465 -20 C465 -20 527 -20 527 -20 C527 -20 527 98 527 98 C527 98 527 721 527 721 C527 758 549 786 576 786 C576 786 585 786 585 786 C584 786 584 789 585 792 C584 795 584 798 585 798 C585 798 527 798 527 798 C527 798 508 798 508 798 C508 798 489 798 489 798 C489 798 431 798 431 798 C431 798 431 786 431 786 L431 786 Z M311 961 C311 961 409 1067 409 1067 C409 1067 420 1057 420 1057 C420 1057 348 886 348 886 C344 877 330 854 311 853 C292 852 278 877 275 885 C275 885 202 1057 202 1057 C202 1057 213 1067 213 1067 C213 1067 311 961 311 961 L311 961 Z " />
<glyph glyph-name="ncaron" unicode="&#x148;" horiz-adv-x="537" d="M497 11 C497 11 489 11 489 11 C461 11 440 40 440 76 C440 76 440 476 440 476 C440 569 411 643 353 643 C300 643 245 616 217 579 C217 579 217 638 217 638 C217 638 194 638 194 638 C194 638 44 592 44 592 C44 592 44 585 44 585 C87 575 102 564 102 508 C102 508 102 76 102 76 C102 40 80 11 53 11 C53 11 44 11 44 11 C44 11 44 0 44 0 C44 0 102 0 102 0 C102 0 159 0 159 0 C159 0 217 0 217 0 C217 0 267 0 267 0 C267 0 274 0 274 0 C274 0 325 0 325 0 C325 0 382 0 382 0 C382 0 440 0 440 0 C440 0 497 0 497 0 C497 0 497 11 497 11 L497 11 Z M271 801 C271 801 368 907 368 907 C368 907 380 897 380 897 C380 897 308 726 308 726 C304 717 290 694 271 693 C252 692 238 717 234 725 C234 725 162 897 162 897 C162 897 173 907 173 907 C173 907 271 801 271 801 L271 801 Z M274 11 C274 11 267 11 267 11 C267 11 266 11 266 11 C238 11 217 40 217 76 C217 76 217 532 217 532 C217 532 191 532 191 532 C191 532 217 539 217 539 C217 539 217 556 217 556 C229 562 246 566 264 566 C305 566 325 521 325 464 C325 464 325 76 325 76 C325 40 303 11 276 11 C276 11 274 11 274 11 L274 11 Z " />
<glyph glyph-name="Omacron" unicode="&#x14c;" horiz-adv-x="695" d="M225 899 C225 899 462 899 462 899 C462 899 462 963 462 963 C462 963 225 963 225 963 C225 963 225 899 225 899 L225 899 Z M344 27 C245 27 182 213 182 399 C182 585 245 771 344 771 C442 771 505 585 505 399 C505 213 442 27 344 27 L344 27 Z M42 399 C42 197 159 -5 344 -5 C528 -5 645 197 645 399 C645 601 528 803 344 803 C159 803 42 601 42 399 L42 399 Z " />
<glyph glyph-name="omacron" unicode="&#x14d;" horiz-adv-x="543" d="M153 739 C153 739 390 739 390 739 C390 739 390 803 390 803 C390 803 153 803 153 803 C153 803 153 739 153 739 L153 739 Z M272 21 C220 21 178 153 178 319 C178 484 220 617 272 617 C323 617 365 484 365 319 C365 153 323 21 272 21 L272 21 Z M50 319 C50 139 148 -5 272 -5 C395 -5 493 139 493 319 C493 499 395 643 272 643 C148 643 50 499 50 319 L50 319 Z " />
<glyph glyph-name="Obreve" unicode="&#x14e;" horiz-adv-x="695" d="M244 1008 C276 933 320 873 344 873 C367 873 411 933 443 1008 C443 1008 424 1016 424 1016 C409 979 373 950 344 950 C314 950 278 979 263 1016 C263 1016 244 1008 244 1008 L244 1008 Z M344 27 C245 27 182 213 182 399 C182 585 245 771 344 771 C442 771 505 585 505 399 C505 213 442 27 344 27 L344 27 Z M42 399 C42 197 159 -5 344 -5 C528 -5 645 197 645 399 C645 601 528 803 344 803 C159 803 42 601 42 399 L42 399 Z " />
<glyph glyph-name="obreve" unicode="&#x14f;" horiz-adv-x="543" d="M172 848 C204 773 248 713 272 713 C295 713 339 773 371 848 C371 848 352 856 352 856 C337 819 301 790 272 790 C242 790 206 819 191 856 C191 856 172 848 172 848 L172 848 Z M272 21 C220 21 178 153 178 319 C178 484 220 617 272 617 C323 617 365 484 365 319 C365 153 323 21 272 21 L272 21 Z M50 319 C50 139 148 -5 272 -5 C395 -5 493 139 493 319 C493 499 395 643 272 643 C148 643 50 499 50 319 L50 319 Z " />
<glyph glyph-name="Racute" unicode="&#x154;" horiz-adv-x="615" d="M230 827 C230 827 347 951 347 951 C366 973 382 993 382 999 C382 1012 335 1047 316 1047 C312 1047 300 1025 288 997 C288 997 217 837 217 837 C217 837 230 827 230 827 L230 827 Z M33 786 C33 786 42 786 42 786 C69 786 91 758 91 721 C91 721 91 76 91 76 C91 40 69 11 42 11 C42 11 33 11 33 11 C33 11 33 0 33 0 C33 0 91 0 91 0 C91 0 154 0 154 0 C154 0 218 0 218 0 C218 0 276 0 276 0 C276 0 276 11 276 11 C276 11 267 11 267 11 C240 11 218 40 218 76 C218 76 218 365 218 365 C218 365 242 365 242 365 C242 365 368 106 368 106 C414 12 437 0 572 0 C572 0 615 0 615 0 C615 0 615 25 615 25 C615 25 610 25 610 25 C576 25 569 31 542 81 C542 81 384 387 384 387 C465 423 521 497 521 583 C521 702 417 798 288 798 C288 798 218 798 218 798 C218 798 154 798 154 798 C154 798 91 798 91 798 C91 798 33 798 33 798 C33 798 33 786 33 786 L33 786 Z M274 397 C274 397 226 397 226 397 C226 397 218 397 218 397 C218 397 218 766 218 766 C218 766 288 766 288 766 C343 766 387 685 387 583 C387 480 337 397 274 397 L274 397 Z " />
<glyph glyph-name="Rcaron" unicode="&#x158;" horiz-adv-x="556" d="M33 786 C33 786 42 786 42 786 C69 786 91 758 91 721 C91 721 91 76 91 76 C91 40 69 11 42 11 C42 11 33 11 33 11 C33 11 33 0 33 0 C33 0 91 0 91 0 C91 0 154 0 154 0 C154 0 218 0 218 0 C218 0 276 0 276 0 C276 0 276 11 276 11 C276 11 267 11 267 11 C240 11 218 40 218 76 C218 76 218 365 218 365 C218 365 274 365 274 365 C334 199 459 17 556 -46 C556 -46 568 -27 568 -27 C548 -14 468 171 389 390 C468 426 521 499 521 583 C521 702 417 798 288 798 C288 798 218 798 218 798 C218 798 154 798 154 798 C154 798 91 798 91 798 C91 798 33 798 33 798 C33 798 33 786 33 786 L33 786 Z M306 961 C306 961 403 1067 403 1067 C403 1067 415 1057 415 1057 C415 1057 343 886 343 886 C339 877 325 854 306 853 C287 852 273 877 269 885 C269 885 197 1057 197 1057 C197 1057 208 1067 208 1067 C208 1067 306 961 306 961 L306 961 Z M218 397 C218 397 218 766 218 766 C218 766 288 766 288 766 C343 766 387 685 387 583 C387 480 337 397 274 397 C274 397 218 397 218 397 L218 397 Z " />
<glyph glyph-name="rcaron" unicode="&#x159;" horiz-adv-x="418" d="M44 585 C87 575 102 564 102 508 C102 508 102 76 102 76 C102 40 80 11 53 11 C53 11 44 11 44 11 C44 11 44 0 44 0 C44 0 102 0 102 0 C102 0 159 0 159 0 C159 0 217 0 217 0 C217 0 274 0 274 0 C275 0 275 3 274 6 C275 9 275 11 274 11 C274 11 266 11 266 11 C238 11 217 40 217 76 C217 76 217 532 217 532 C217 532 191 532 191 532 C191 532 217 539 217 539 C217 539 215 552 215 552 C223 555 234 557 246 557 C280 557 319 514 353 514 C384 514 408 539 408 569 C408 610 384 643 337 643 C283 643 232 614 211 576 C211 576 201 638 201 638 C201 638 178 638 178 638 C178 638 44 592 44 592 C44 592 44 585 44 585 L44 585 Z M220 801 C220 801 317 907 317 907 C317 907 329 897 329 897 C329 897 256 726 256 726 C253 717 239 694 220 693 C201 692 187 717 183 725 C183 725 110 897 110 897 C110 897 122 907 122 907 C122 907 220 801 220 801 L220 801 Z " />
<glyph glyph-name="Sacute" unicode="&#x15a;" horiz-adv-x="450" d="M181 827 C181 827 297 951 297 951 C317 973 332 993 333 999 C332 1012 285 1047 267 1047 C263 1047 251 1025 238 997 C238 997 168 837 168 837 C168 837 181 827 181 827 L181 827 Z M39 175 C39 175 39 40 39 40 C83 15 157 -5 207 -5 C317 -5 405 95 405 220 C405 301 342 401 263 446 C187 488 127 564 127 616 C127 702 171 771 226 771 C230 771 238 769 248 764 C284 748 321 709 334 673 C338 659 346 637 351 623 C351 623 361 623 361 623 C361 623 361 757 361 757 C318 783 260 803 231 803 C125 803 39 697 39 565 C39 488 97 393 169 352 C250 306 315 224 315 168 C315 89 267 27 207 27 C200 27 191 28 181 30 C131 43 79 91 59 147 C56 155 52 167 49 175 C49 175 39 175 39 175 L39 175 Z " />
<glyph glyph-name="sacute" unicode="&#x15b;" horiz-adv-x="356" d="M127 667 C127 667 243 791 243 791 C263 813 279 833 279 839 C279 852 231 887 213 887 C209 887 197 865 184 837 C184 837 114 677 114 677 C114 677 127 667 127 667 L127 667 Z M285 511 C285 511 285 604 285 604 C247 626 211 643 202 643 C118 643 50 566 50 469 C50 410 93 325 147 278 C183 248 211 188 211 145 C211 76 185 21 153 21 C149 21 137 26 119 35 C92 55 65 94 53 130 C53 130 45 130 45 130 C45 130 45 29 45 29 C78 10 123 -5 147 -5 C236 -5 307 81 307 188 C307 246 272 322 229 360 C178 403 138 469 138 508 C138 568 166 616 201 617 C209 626 221 620 234 604 C224 606 218 606 215 603 C215 603 200 616 200 616 C200 616 201 617 201 617 C193 615 214 598 251 576 C258 563 265 546 271 527 C272 522 274 515 276 511 C276 511 285 511 285 511 L285 511 Z M201 617 C201 617 202 617 202 617 C202 617 201 617 201 617 C201 617 201 617 201 617 C201 617 201 617 201 617 L201 617 Z " />
<glyph glyph-name="Scircumflex" unicode="&#x15c;" horiz-adv-x="450" d="M39 175 C39 175 39 40 39 40 C83 15 157 -5 207 -5 C317 -5 405 95 405 220 C405 301 342 401 263 446 C187 488 127 564 127 616 C127 702 171 771 226 771 C230 771 238 769 248 764 C284 748 321 709 334 673 C338 659 346 637 351 623 C351 623 361 623 361 623 C361 623 361 757 361 757 C318 783 260 803 231 803 C125 803 39 697 39 565 C39 488 97 393 169 352 C250 306 315 224 315 168 C315 89 267 27 207 27 C200 27 191 28 181 30 C131 43 79 91 59 147 C56 155 52 167 49 175 C49 175 39 175 39 175 L39 175 Z M226 934 C226 934 323 829 323 829 C323 829 335 839 335 839 C335 839 263 1010 263 1010 C259 1019 245 1042 226 1042 C207 1042 193 1019 190 1010 C190 1010 117 839 117 839 C117 839 128 829 128 829 C128 829 226 934 226 934 L226 934 Z " />
<glyph glyph-name="Scedilla" unicode="&#x15e;" horiz-adv-x="450" d="M39 175 C39 175 39 40 39 40 C83 15 157 -5 207 -5 C317 -5 405 95 405 220 C405 301 342 401 263 446 C187 488 127 564 127 616 C127 702 171 771 226 771 C230 771 238 769 248 764 C284 748 321 709 334 673 C338 659 346 637 351 623 C351 623 361 623 361 623 C361 623 361 757 361 757 C318 783 260 803 231 803 C125 803 39 697 39 565 C39 488 97 393 169 352 C250 306 315 224 315 168 C315 89 267 27 207 27 C200 27 191 28 181 30 C131 43 79 91 59 147 C56 155 52 167 49 175 C49 175 39 175 39 175 L39 175 Z " />
<glyph glyph-name="scedilla" unicode="&#x15f;" horiz-adv-x="356" d="M285 511 C285 511 285 604 285 604 C247 626 211 643 202 643 C118 643 50 566 50 469 C50 410 93 325 147 278 C183 248 211 188 211 145 C211 76 185 21 153 21 C149 21 137 26 119 35 C92 55 65 94 53 130 C53 130 45 130 45 130 C45 130 45 29 45 29 C78 10 123 -5 147 -5 C236 -5 307 81 307 188 C307 246 272 322 229 360 C178 403 138 469 138 508 C138 568 166 616 201 617 C209 626 221 620 234 604 C224 606 218 606 215 603 C215 603 200 616 200 616 C200 616 201 617 201 617 C193 615 214 598 251 576 C258 563 265 546 271 527 C272 522 274 515 276 511 C276 511 285 511 285 511 L285 511 Z M201 617 C201 617 202 617 202 617 C202 617 201 617 201 617 C201 617 201 617 201 617 C201 617 201 617 201 617 L201 617 Z " />
<glyph glyph-name="Scaron" unicode="&#x160;" horiz-adv-x="450" d="M39 175 C39 175 39 40 39 40 C83 15 157 -5 207 -5 C317 -5 405 95 405 220 C405 301 342 401 263 446 C187 488 127 564 127 616 C127 702 171 771 226 771 C230 771 238 769 248 764 C284 748 321 709 334 673 C338 659 346 637 351 623 C351 623 361 623 361 623 C361 623 361 757 361 757 C318 783 260 803 231 803 C125 803 39 697 39 565 C39 488 97 393 169 352 C250 306 315 224 315 168 C315 89 267 27 207 27 C200 27 191 28 181 30 C131 43 79 91 59 147 C56 155 52 167 49 175 C49 175 39 175 39 175 L39 175 Z M226 961 C226 961 323 1067 323 1067 C323 1067 335 1057 335 1057 C335 1057 263 886 263 886 C259 877 245 854 226 853 C207 852 193 877 190 885 C190 885 117 1057 117 1057 C117 1057 128 1067 128 1067 C128 1067 226 961 226 961 L226 961 Z " />
<glyph glyph-name="scaron" unicode="&#x161;" horiz-adv-x="356" d="M285 511 C285 511 285 604 285 604 C247 626 211 643 202 643 C118 643 50 566 50 469 C50 410 93 325 147 278 C183 248 211 188 211 145 C211 76 185 21 153 21 C149 21 137 26 119 35 C92 55 65 94 53 130 C53 130 45 130 45 130 C45 130 45 29 45 29 C78 10 123 -5 147 -5 C236 -5 307 81 307 188 C307 246 272 322 229 360 C178 403 138 469 138 508 C138 568 166 616 201 617 C209 626 221 620 234 604 C224 606 218 606 215 603 C215 603 200 616 200 616 C200 616 201 617 201 617 C193 615 214 598 251 576 C258 563 265 546 271 527 C272 522 274 515 276 511 C276 511 285 511 285 511 L285 511 Z M203 801 C203 801 300 907 300 907 C300 907 312 897 312 897 C312 897 239 726 239 726 C235 717 221 694 202 693 C184 694 170 717 166 725 C166 725 93 897 93 897 C93 897 105 907 105 907 C105 907 203 801 203 801 L203 801 Z M201 617 C201 617 202 617 202 617 C202 617 201 617 201 617 C201 617 201 617 201 617 C201 617 201 617 201 617 L201 617 Z " />
<glyph glyph-name="Tcaron" unicode="&#x164;" horiz-adv-x="556" d="M560 651 C557 687 552 745 548 782 C548 786 547 793 547 798 C547 798 516 798 516 798 C516 798 471 798 471 798 C471 798 86 798 86 798 C86 798 40 798 40 798 C40 798 9 798 9 798 C9 793 8 786 8 782 C5 745 -1 687 -4 651 C-4 651 5 651 5 651 C5 651 20 686 20 686 C38 730 88 766 132 766 C132 766 214 766 214 766 C214 766 214 76 214 76 C214 40 192 11 165 11 C165 11 157 11 157 11 C157 11 157 0 157 0 C157 0 214 0 214 0 C214 0 278 0 278 0 C278 0 342 0 342 0 C342 0 399 0 399 0 C399 0 399 11 399 11 C399 11 391 11 391 11 C364 11 342 40 342 76 C342 76 342 766 342 766 C342 766 424 766 424 766 C469 766 519 730 537 686 C537 686 551 651 551 651 C551 651 560 651 560 651 L560 651 Z M278 962 C278 962 376 1067 376 1067 C376 1067 387 1057 387 1057 C387 1057 315 886 315 886 C311 877 297 854 278 853 C259 852 245 877 242 885 C242 885 169 1057 169 1057 C169 1057 181 1067 181 1067 C181 1067 278 962 278 962 L278 962 Z " />
<glyph glyph-name="tcaron" unicode="&#x165;" horiz-adv-x="354" d="M322 638 C322 638 187 638 187 638 C187 638 187 805 187 805 C187 805 168 805 168 805 C167 803 166 800 165 798 C118 696 56 612 25 606 C25 606 25 593 25 593 C25 593 72 593 72 593 C72 593 72 146 72 146 C72 37 102 -5 180 -5 C240 -5 295 22 334 55 C334 55 326 65 326 65 C314 54 285 46 237 46 C201 46 187 68 187 126 C187 126 187 593 187 593 C187 593 322 593 322 593 C322 593 322 638 322 638 L322 638 Z M456 724 C478 766 495 824 495 833 C495 850 443 859 423 859 C401 859 387 793 384 750 C384 750 369 585 369 585 C369 585 383 580 383 580 C383 580 456 724 456 724 L456 724 Z " />
<glyph glyph-name="Utilde" unicode="&#x168;" horiz-adv-x="601" d="M204 893 C204 924 214 949 227 949 C267 949 298 886 339 886 C379 886 412 947 412 1023 C412 1023 393 1023 393 1023 C393 990 380 963 364 963 C323 963 292 1025 252 1025 C215 1025 185 966 185 893 C185 893 204 893 204 893 L204 893 Z M581 798 C581 798 516 798 516 798 C516 798 497 798 497 798 C497 798 478 798 478 798 C478 798 409 798 409 798 C409 798 409 786 409 786 C409 786 419 786 419 786 C451 786 476 756 478 716 C478 716 477 234 477 234 C477 126 425 40 322 40 C246 40 208 126 208 233 C208 233 208 721 208 721 C208 758 230 786 257 786 C257 786 266 786 266 786 C266 786 266 798 266 798 C266 798 208 798 208 798 C208 798 144 798 144 798 C144 798 81 798 81 798 C81 798 23 798 23 798 C23 798 23 786 23 786 C23 786 32 786 32 786 C59 786 81 758 81 721 C81 721 81 258 81 258 C81 112 155 -5 303 -5 C445 -5 516 96 516 221 C516 221 516 711 516 711 C516 753 541 786 571 786 C571 786 581 786 581 786 C581 786 581 798 581 798 L581 798 Z " />
<glyph glyph-name="utilde" unicode="&#x169;" horiz-adv-x="502" d="M146 733 C146 764 156 789 169 789 C210 789 241 726 281 726 C322 726 355 787 355 863 C355 863 335 863 335 863 C335 830 322 803 306 803 C266 803 235 865 194 865 C157 865 127 806 127 733 C127 733 146 733 146 733 L146 733 Z M467 53 C425 64 410 73 410 130 C410 130 410 638 410 638 C410 638 352 638 352 638 C352 638 295 638 295 638 C295 638 237 638 237 638 C237 638 237 626 237 626 C237 626 246 626 246 626 C273 626 295 598 295 561 C295 561 295 99 295 99 C295 99 295 92 295 92 C282 80 270 71 265 71 C217 71 186 113 186 166 C186 166 187 638 187 638 C187 638 129 638 129 638 C129 638 72 638 72 638 C72 638 14 638 14 638 C14 638 14 626 14 626 C14 626 23 626 23 626 C50 626 72 598 72 561 C72 561 72 154 72 154 C72 66 112 -5 175 -5 C200 -5 248 29 295 73 C295 73 295 30 295 30 C295 30 295 0 295 0 C295 0 318 0 318 0 C318 0 467 46 467 46 C467 46 467 53 467 53 L467 53 Z " />
<glyph glyph-name="Umacron" unicode="&#x16a;" horiz-adv-x="601" d="M180 899 C180 899 416 899 416 899 C416 899 416 963 416 963 C416 963 180 963 180 963 C180 963 180 899 180 899 L180 899 Z M581 798 C581 798 516 798 516 798 C516 798 497 798 497 798 C497 798 478 798 478 798 C478 798 409 798 409 798 C409 798 409 786 409 786 C409 786 419 786 419 786 C451 786 476 756 478 716 C478 716 477 234 477 234 C477 126 425 40 322 40 C246 40 208 126 208 233 C208 233 208 721 208 721 C208 758 230 786 257 786 C257 786 266 786 266 786 C266 786 266 798 266 798 C266 798 208 798 208 798 C208 798 144 798 144 798 C144 798 81 798 81 798 C81 798 23 798 23 798 C23 798 23 786 23 786 C23 786 32 786 32 786 C59 786 81 758 81 721 C81 721 81 258 81 258 C81 112 155 -5 303 -5 C445 -5 516 96 516 221 C516 221 516 711 516 711 C516 753 541 786 571 786 C571 786 581 786 581 786 C581 786 581 798 581 798 L581 798 Z " />
<glyph glyph-name="umacron" unicode="&#x16b;" horiz-adv-x="502" d="M123 739 C123 739 359 739 359 739 C359 739 359 803 359 803 C359 803 123 803 123 803 C123 803 123 739 123 739 L123 739 Z M467 53 C425 64 410 73 410 130 C410 130 410 638 410 638 C410 638 352 638 352 638 C352 638 295 638 295 638 C295 638 237 638 237 638 C237 638 237 626 237 626 C237 626 246 626 246 626 C273 626 295 598 295 561 C295 561 295 99 295 99 C295 99 295 92 295 92 C282 80 270 71 265 71 C217 71 186 113 186 166 C186 166 187 638 187 638 C187 638 129 638 129 638 C129 638 72 638 72 638 C72 638 14 638 14 638 C14 638 14 626 14 626 C14 626 23 626 23 626 C50 626 72 598 72 561 C72 561 72 154 72 154 C72 66 112 -5 175 -5 C200 -5 248 29 295 73 C295 73 295 30 295 30 C295 30 295 0 295 0 C295 0 318 0 318 0 C318 0 467 46 467 46 C467 46 467 53 467 53 L467 53 Z " />
<glyph glyph-name="Ubreve" unicode="&#x16c;" horiz-adv-x="601" d="M199 1008 C230 933 275 873 298 873 C322 873 366 933 398 1008 C398 1008 379 1016 379 1016 C364 979 328 950 298 950 C269 950 233 979 217 1016 C217 1016 199 1008 199 1008 L199 1008 Z M581 798 C581 798 516 798 516 798 C516 798 497 798 497 798 C497 798 478 798 478 798 C478 798 409 798 409 798 C409 798 409 786 409 786 C409 786 419 786 419 786 C451 786 476 756 478 716 C478 716 477 234 477 234 C477 126 425 40 322 40 C246 40 208 126 208 233 C208 233 208 721 208 721 C208 758 230 786 257 786 C257 786 266 786 266 786 C266 786 266 798 266 798 C266 798 208 798 208 798 C208 798 144 798 144 798 C144 798 81 798 81 798 C81 798 23 798 23 798 C23 798 23 786 23 786 C23 786 32 786 32 786 C59 786 81 758 81 721 C81 721 81 258 81 258 C81 112 155 -5 303 -5 C445 -5 516 96 516 221 C516 221 516 711 516 711 C516 753 541 786 571 786 C571 786 581 786 581 786 C581 786 581 798 581 798 L581 798 Z " />
<glyph glyph-name="ubreve" unicode="&#x16d;" horiz-adv-x="502" d="M141 848 C173 773 217 713 241 713 C264 713 309 773 341 848 C341 848 322 856 322 856 C306 819 270 790 241 790 C211 790 176 819 160 856 C160 856 141 848 141 848 L141 848 Z M467 53 C425 64 410 73 410 130 C410 130 410 638 410 638 C410 638 352 638 352 638 C352 638 295 638 295 638 C295 638 237 638 237 638 C237 638 237 626 237 626 C237 626 246 626 246 626 C273 626 295 598 295 561 C295 561 295 99 295 99 C295 99 295 92 295 92 C282 80 270 71 265 71 C217 71 186 113 186 166 C186 166 187 638 187 638 C187 638 129 638 129 638 C129 638 72 638 72 638 C72 638 14 638 14 638 C14 638 14 626 14 626 C14 626 23 626 23 626 C50 626 72 598 72 561 C72 561 72 154 72 154 C72 66 112 -5 175 -5 C200 -5 248 29 295 73 C295 73 295 30 295 30 C295 30 295 0 295 0 C295 0 318 0 318 0 C318 0 467 46 467 46 C467 46 467 53 467 53 L467 53 Z " />
<glyph glyph-name="Uring" unicode="&#x16e;" horiz-adv-x="601" d="M298 858 C266 858 234 892 234 925 C234 962 263 992 298 992 C334 992 362 962 362 925 C362 892 330 858 298 858 L298 858 Z M202 925 C202 879 250 833 298 833 C346 833 394 879 394 925 C394 977 351 1018 298 1018 C245 1018 202 977 202 925 L202 925 Z M581 798 C581 798 516 798 516 798 C516 798 497 798 497 798 C497 798 478 798 478 798 C478 798 409 798 409 798 C409 798 409 786 409 786 C409 786 419 786 419 786 C451 786 476 756 478 716 C478 716 477 234 477 234 C477 126 425 40 322 40 C246 40 208 126 208 233 C208 233 208 721 208 721 C208 758 230 786 257 786 C257 786 266 786 266 786 C266 786 266 798 266 798 C266 798 208 798 208 798 C208 798 144 798 144 798 C144 798 81 798 81 798 C81 798 23 798 23 798 C23 798 23 786 23 786 C23 786 32 786 32 786 C59 786 81 758 81 721 C81 721 81 258 81 258 C81 112 155 -5 303 -5 C445 -5 516 96 516 221 C516 221 516 711 516 711 C516 753 541 786 571 786 C571 786 581 786 581 786 C581 786 581 798 581 798 L581 798 Z " />
<glyph glyph-name="uring" unicode="&#x16f;" horiz-adv-x="502" d="M241 698 C209 698 177 732 177 765 C177 802 205 832 241 832 C276 832 305 802 305 765 C305 732 273 698 241 698 L241 698 Z M145 765 C145 719 193 673 241 673 C289 673 337 719 337 765 C337 817 294 858 241 858 C188 858 145 817 145 765 L145 765 Z M467 53 C425 64 410 73 410 130 C410 130 410 638 410 638 C410 638 352 638 352 638 C352 638 295 638 295 638 C295 638 237 638 237 638 C237 638 237 626 237 626 C237 626 246 626 246 626 C273 626 295 598 295 561 C295 561 295 99 295 99 C295 99 295 92 295 92 C282 80 270 71 265 71 C217 71 186 113 186 166 C186 166 187 638 187 638 C187 638 129 638 129 638 C129 638 72 638 72 638 C72 638 14 638 14 638 C14 638 14 626 14 626 C14 626 23 626 23 626 C50 626 72 598 72 561 C72 561 72 154 72 154 C72 66 112 -5 175 -5 C200 -5 248 29 295 73 C295 73 295 30 295 30 C295 30 295 0 295 0 C295 0 318 0 318 0 C318 0 467 46 467 46 C467 46 467 53 467 53 L467 53 Z " />
<glyph glyph-name="Wcircumflex" unicode="&#x174;" horiz-adv-x="857" d="M854 798 C854 798 799 798 799 798 C799 798 780 798 780 798 C780 798 761 798 761 798 C761 798 680 798 680 798 C681 798 681 795 680 792 C681 789 681 786 680 786 C680 786 694 786 694 786 C729 786 751 760 746 725 C746 725 639 214 639 214 C639 214 485 808 485 808 C485 808 453 808 453 808 C453 808 316 198 316 198 C316 198 200 723 200 723 C193 759 212 786 242 786 C242 786 252 786 252 786 C252 786 252 798 252 798 C252 798 183 798 183 798 C183 798 113 798 113 798 C113 798 43 798 43 798 C43 798 0 798 0 798 C0 798 0 786 0 786 C0 786 7 786 7 786 C28 786 54 758 64 721 C64 721 64 721 64 721 C64 721 268 -15 268 -15 C268 -15 300 -15 300 -15 C300 -15 431 568 431 568 C431 568 591 -15 591 -15 C591 -15 623 -15 623 -15 C623 -15 782 721 782 721 C782 721 783 721 783 721 C790 758 818 786 846 786 C846 786 854 786 854 786 C854 786 854 798 854 798 L854 798 Z M470 934 C470 934 567 829 567 829 C567 829 579 839 579 839 C579 839 506 1010 506 1010 C502 1019 488 1042 469 1042 C451 1042 437 1019 433 1010 C433 1010 360 839 360 839 C360 839 372 829 372 829 C372 829 470 934 470 934 L470 934 Z " />
<glyph glyph-name="Ycircumflex" unicode="&#x176;" horiz-adv-x="585" d="M168 0 C168 0 225 0 225 0 C225 0 289 0 289 0 C289 0 353 0 353 0 C353 0 411 0 411 0 C410 0 410 3 411 6 C410 9 410 11 411 11 C411 11 402 11 402 11 C375 11 353 40 353 76 C353 76 353 414 353 414 C353 414 353 414 353 414 C353 414 504 721 504 721 C504 721 505 721 505 721 C522 758 555 786 579 786 C579 786 586 786 586 786 C587 786 587 789 586 792 C587 795 587 798 586 798 C586 798 542 798 542 798 C542 798 523 798 523 798 C523 798 504 798 504 798 C504 798 420 798 420 798 C420 798 420 786 420 786 C420 786 431 786 431 786 C466 786 479 755 463 713 C463 713 333 442 333 442 C333 442 219 724 219 724 C207 759 219 786 249 786 C249 786 258 786 258 786 C258 786 258 798 258 798 C258 798 189 798 189 798 C189 798 113 798 113 798 C113 798 36 798 36 798 C36 798 -1 798 -1 798 C-1 798 -1 786 -1 786 C-1 786 5 786 5 786 C25 786 54 758 69 721 C69 721 69 721 69 721 C69 721 225 358 225 358 C225 358 225 76 225 76 C225 40 203 11 176 11 C176 11 168 11 168 11 C168 11 168 0 168 0 L168 0 Z M289 934 C289 934 387 829 387 829 C387 829 399 839 399 839 C399 839 326 1010 326 1010 C322 1019 308 1042 289 1042 C270 1042 256 1019 253 1010 C253 1010 180 839 180 839 C180 839 192 829 192 829 C192 829 289 934 289 934 L289 934 Z " />
<glyph glyph-name="Ydieresis" unicode="&#x178;" horiz-adv-x="585" d="M383 868 C422 868 453 899 453 938 C453 977 422 1008 383 1008 C344 1008 313 977 313 938 C313 899 344 868 383 868 L383 868 Z M195 868 C235 868 266 899 266 938 C266 977 235 1008 195 1008 C156 1008 125 977 125 938 C125 899 156 868 195 868 L195 868 Z M168 0 C168 0 225 0 225 0 C225 0 289 0 289 0 C289 0 353 0 353 0 C353 0 411 0 411 0 C410 0 410 3 411 6 C410 9 410 11 411 11 C411 11 402 11 402 11 C375 11 353 40 353 76 C353 76 353 414 353 414 C353 414 353 414 353 414 C353 414 504 721 504 721 C504 721 505 721 505 721 C522 758 555 786 579 786 C579 786 586 786 586 786 C587 786 587 789 586 792 C587 795 587 798 586 798 C586 798 542 798 542 798 C542 798 523 798 523 798 C523 798 504 798 504 798 C504 798 420 798 420 798 C420 798 420 786 420 786 C420 786 431 786 431 786 C466 786 479 755 463 713 C463 713 333 442 333 442 C333 442 219 724 219 724 C207 759 219 786 249 786 C249 786 258 786 258 786 C258 786 258 798 258 798 C258 798 189 798 189 798 C189 798 113 798 113 798 C113 798 36 798 36 798 C36 798 -1 798 -1 798 C-1 798 -1 786 -1 786 C-1 786 5 786 5 786 C25 786 54 758 69 721 C69 721 69 721 69 721 C69 721 225 358 225 358 C225 358 225 76 225 76 C225 40 203 11 176 11 C176 11 168 11 168 11 C168 11 168 0 168 0 L168 0 Z " />
<glyph glyph-name="Zacute" unicode="&#x179;" horiz-adv-x="523" d="M289 827 C289 827 406 951 406 951 C425 973 441 993 441 999 C441 1012 394 1047 376 1047 C372 1047 360 1025 347 997 C347 997 276 837 276 837 C276 837 289 827 289 827 L289 827 Z M437 17 C443 52 452 107 459 142 C459 142 457 143 456 143 C450 146 445 148 445 148 C445 148 435 123 435 123 C414 73 358 33 308 33 C308 33 187 33 187 33 C187 33 466 798 466 798 C466 798 393 798 393 798 C393 798 320 798 320 798 C320 798 158 798 158 798 C158 798 112 798 112 798 C112 798 81 798 81 798 C80 793 78 786 77 782 C69 752 56 704 48 674 C48 674 57 674 57 674 C57 674 67 688 67 688 C95 731 154 766 199 766 C199 766 308 766 308 766 C308 766 32 0 32 0 C32 0 104 0 104 0 C104 0 175 0 175 0 C175 0 357 0 357 0 C357 0 429 0 429 0 C429 0 434 0 434 0 C434 4 436 12 437 17 L437 17 Z " />
<glyph glyph-name="zacute" unicode="&#x17a;" horiz-adv-x="419" d="M160 667 C160 667 276 791 276 791 C295 813 311 833 311 839 C311 852 264 887 246 887 C242 887 230 865 217 837 C217 837 147 677 147 677 C147 677 160 667 160 667 L160 667 Z M352 141 C352 141 342 116 342 116 C321 66 264 26 215 26 C215 26 181 26 181 26 C181 26 370 638 370 638 C370 638 303 638 303 638 C303 638 237 638 237 638 C237 638 147 638 147 638 C147 638 101 638 101 638 C101 638 70 638 70 638 C69 634 68 628 67 624 C60 601 51 565 45 542 C45 542 54 542 54 542 C54 542 62 552 62 552 C88 585 144 611 189 611 C189 611 189 611 189 611 C189 611 229 612 229 612 C229 612 37 0 37 0 C37 0 105 0 105 0 C105 0 173 0 173 0 C173 0 266 0 266 0 C266 0 336 0 336 0 C336 0 342 0 342 0 C342 3 343 9 344 13 C350 47 360 101 366 135 C361 137 352 141 352 141 C352 141 352 141 352 141 L352 141 Z " />
<glyph glyph-name="Zdotaccent" unicode="&#x17b;" horiz-adv-x="523" d="M289 868 C328 868 359 899 359 938 C359 977 328 1008 289 1008 C250 1008 219 977 219 938 C219 899 250 868 289 868 L289 868 Z M437 17 C443 52 452 107 459 142 C459 142 457 143 456 143 C450 146 445 148 445 148 C445 148 435 123 435 123 C414 73 358 33 308 33 C308 33 187 33 187 33 C187 33 466 798 466 798 C466 798 393 798 393 798 C393 798 320 798 320 798 C320 798 158 798 158 798 C158 798 112 798 112 798 C112 798 81 798 81 798 C80 793 78 786 77 782 C69 752 56 704 48 674 C48 674 57 674 57 674 C57 674 67 688 67 688 C95 731 154 766 199 766 C199 766 308 766 308 766 C308 766 32 0 32 0 C32 0 104 0 104 0 C104 0 175 0 175 0 C175 0 357 0 357 0 C357 0 429 0 429 0 C429 0 434 0 434 0 C434 4 436 12 437 17 L437 17 Z " />
<glyph glyph-name="zdotaccent" unicode="&#x17c;" horiz-adv-x="419" d="M235 708 C275 708 306 739 306 778 C306 817 275 848 235 848 C196 848 165 817 165 778 C165 739 196 708 235 708 L235 708 Z M352 141 C352 141 342 116 342 116 C321 66 264 26 215 26 C215 26 181 26 181 26 C181 26 370 638 370 638 C370 638 303 638 303 638 C303 638 237 638 237 638 C237 638 147 638 147 638 C147 638 101 638 101 638 C101 638 70 638 70 638 C69 634 68 628 67 624 C60 601 51 565 45 542 C45 542 54 542 54 542 C54 542 62 552 62 552 C88 585 144 611 189 611 C189 611 189 611 189 611 C189 611 229 612 229 612 C229 612 37 0 37 0 C37 0 105 0 105 0 C105 0 173 0 173 0 C173 0 266 0 266 0 C266 0 336 0 336 0 C336 0 342 0 342 0 C342 3 343 9 344 13 C350 47 360 101 366 135 C361 137 352 141 352 141 C352 141 352 141 352 141 L352 141 Z " />
<glyph glyph-name="Zcaron" unicode="&#x17d;" horiz-adv-x="523" d="M289 961 C289 961 387 1067 387 1067 C387 1067 398 1057 398 1057 C398 1057 326 886 326 886 C322 877 308 854 289 853 C270 852 256 877 253 885 C253 885 180 1057 180 1057 C180 1057 191 1067 191 1067 C191 1067 289 961 289 961 L289 961 Z M437 17 C443 52 452 107 459 142 C459 142 457 143 456 143 C450 146 445 148 445 148 C445 148 435 123 435 123 C414 73 358 33 308 33 C308 33 187 33 187 33 C187 33 466 798 466 798 C466 798 393 798 393 798 C393 798 320 798 320 798 C320 798 158 798 158 798 C158 798 112 798 112 798 C112 798 81 798 81 798 C80 793 78 786 77 782 C69 752 56 704 48 674 C48 674 57 674 57 674 C57 674 67 688 67 688 C95 731 154 766 199 766 C199 766 308 766 308 766 C308 766 32 0 32 0 C32 0 104 0 104 0 C104 0 175 0 175 0 C175 0 357 0 357 0 C357 0 429 0 429 0 C429 0 434 0 434 0 C434 4 436 12 437 17 L437 17 Z " />
<glyph glyph-name="zcaron" unicode="&#x17e;" horiz-adv-x="419" d="M352 141 C352 141 342 116 342 116 C321 66 264 26 215 26 C215 26 181 26 181 26 C181 26 370 638 370 638 C370 638 303 638 303 638 C303 638 237 638 237 638 C237 638 147 638 147 638 C147 638 101 638 101 638 C101 638 70 638 70 638 C69 634 68 628 67 624 C60 601 51 565 45 542 C45 542 54 542 54 542 C54 542 62 552 62 552 C88 585 144 611 189 611 C189 611 189 611 189 611 C189 611 229 612 229 612 C229 612 37 0 37 0 C37 0 105 0 105 0 C105 0 173 0 173 0 C173 0 266 0 266 0 C266 0 336 0 336 0 C336 0 342 0 342 0 C342 3 343 9 344 13 C350 47 360 101 366 135 C361 137 352 141 352 141 C352 141 352 141 352 141 L352 141 Z M236 801 C236 801 333 907 333 907 C333 907 345 897 345 897 C345 897 272 726 272 726 C268 717 254 694 235 693 C216 692 203 717 199 725 C199 725 126 897 126 897 C126 897 138 907 138 907 C138 907 236 801 236 801 L236 801 Z " />
<glyph glyph-name="SmallLetterOwithogon" unicode="&#x1eb;" horiz-adv-x="654" d="M650 -39 C650 -39 639 -31 639 -31 C626 -49 573 -63 519 -63 C446 -63 380 -38 338 -5 C501 4 604 175 604 346 C604 521 495 696 325 696 C154 696 45 521 45 346 C45 181 141 16 294 -3 C373 -78 458 -138 507 -138 C548 -138 611 -94 650 -39 L650 -39 Z M325 24 C231 24 172 185 172 346 C172 506 231 667 325 667 C418 667 478 506 478 346 C478 185 418 24 325 24 L325 24 Z " />
<glyph glyph-name="CapitalLetterAwithdo" unicode="&#x226;" horiz-adv-x="617" d="M284 868 C323 868 354 899 354 938 C354 977 323 1008 284 1008 C245 1008 214 977 214 938 C214 899 245 868 284 868 L284 868 Z M610 11 C610 11 603 11 603 11 C580 11 551 40 540 76 C540 76 539 76 539 76 C539 76 300 816 300 816 C300 816 268 816 268 816 C268 816 72 76 72 76 C72 76 72 76 72 76 C62 40 33 11 6 11 C6 11 -3 11 -3 11 C-3 11 -3 0 -3 0 C-3 0 52 0 52 0 C52 0 73 0 73 0 C73 0 94 0 94 0 C94 0 178 0 178 0 C178 0 178 11 178 11 C178 11 166 11 166 11 C128 11 106 47 117 91 C117 91 117 91 117 91 C117 91 162 271 162 271 C162 271 347 272 347 272 C347 272 403 76 403 76 C403 76 403 76 403 76 C414 40 393 11 357 11 C357 11 344 11 344 11 C344 11 344 0 344 0 C344 0 425 0 425 0 C425 0 495 0 495 0 C495 0 564 0 564 0 C564 0 610 0 610 0 C610 0 610 11 610 11 L610 11 Z M338 304 C338 304 171 305 171 305 C171 305 249 613 249 613 C249 613 338 304 338 304 L338 304 Z " />
<glyph glyph-name="LETTERSMALLCAPITALG" unicode="&#x262;" horiz-adv-x="692" d="M599 325 C583 324 562 324 542 324 C542 324 542 325 542 325 C542 325 490 325 490 325 C490 325 438 325 438 325 C438 325 438 324 438 324 C417 324 397 324 381 325 C381 325 381 313 381 313 C381 313 389 313 389 313 C416 313 438 284 438 248 C438 248 438 41 438 41 C404 31 371 24 346 24 C250 24 172 167 172 346 C172 524 250 667 346 667 C357 667 370 665 384 663 C441 648 498 599 516 544 C519 536 523 524 526 516 C526 516 536 516 536 516 C536 516 536 638 536 638 C480 670 396 696 346 696 C179 696 45 540 45 346 C45 151 179 -5 346 -5 C398 -5 485 21 542 54 C542 54 542 248 542 248 C542 248 542 253 542 253 C543 286 564 313 590 313 C590 313 599 313 599 313 C599 313 599 325 599 325 L599 325 Z " />
<glyph glyph-name="LETTERSMALLCAPITALI" unicode="&#x26a;" horiz-adv-x="316" d="M46 680 C46 680 55 680 55 680 C82 679 104 651 104 615 C104 615 104 76 104 76 C104 40 82 11 55 11 C55 11 46 11 46 11 C46 11 46 0 46 0 C46 0 104 0 104 0 C104 0 161 0 161 0 C161 0 219 0 219 0 C219 0 276 0 276 0 C277 0 277 3 276 6 C277 9 277 11 276 11 C276 11 268 11 268 11 C241 11 219 40 219 76 C219 76 219 615 219 615 C219 651 241 679 268 680 C268 680 276 680 276 680 C277 679 277 682 276 685 C277 689 277 691 276 691 C276 691 219 691 219 691 C219 691 161 691 161 691 C161 691 104 691 104 691 C104 691 46 691 46 691 C46 691 46 680 46 680 L46 680 Z " />
<glyph glyph-name="LETTERSMALLCAPITALN" unicode="&#x274;" horiz-adv-x="577" d="M540 691 C540 691 482 691 482 691 C482 691 465 691 465 691 C465 691 448 691 448 691 C448 691 390 691 390 691 C390 691 390 680 390 680 C390 680 399 680 399 680 C426 679 448 651 448 615 C448 615 448 183 448 183 C448 183 199 691 199 691 C199 691 130 644 130 644 C130 644 130 644 130 644 C130 644 199 691 199 691 C199 691 130 691 130 691 C130 691 113 691 113 691 C113 691 96 691 96 691 C96 691 38 691 38 691 C38 691 38 680 38 680 C38 680 47 680 47 680 C74 679 96 651 96 615 C96 615 96 76 96 76 C96 40 74 11 47 11 C47 11 38 11 38 11 C38 11 38 0 38 0 C38 0 96 0 96 0 C96 0 113 0 113 0 C113 0 130 0 130 0 C130 0 188 0 188 0 C188 0 188 11 188 11 C188 11 179 11 179 11 C152 11 130 40 130 76 C130 76 130 574 130 574 C130 574 395 46 395 46 C395 46 428 -20 428 -20 C428 -20 482 -20 482 -20 C482 -20 482 88 482 88 C482 88 482 615 482 615 C483 651 504 679 531 680 C531 680 540 680 540 680 C540 680 540 691 540 691 L540 691 Z " />
<glyph glyph-name="LETTERSMALLCAPITALR" unicode="&#x280;" horiz-adv-x="553" d="M36 680 C36 680 45 680 45 680 C72 679 94 651 94 615 C94 615 94 76 94 76 C94 40 72 11 45 11 C45 11 36 11 36 11 C36 11 36 0 36 0 C36 0 94 0 94 0 C94 0 151 0 151 0 C151 0 209 0 209 0 C209 0 266 0 266 0 C266 0 266 11 266 11 C266 11 258 11 258 11 C230 11 209 40 209 76 C209 76 209 316 209 316 C209 316 215 316 215 316 C215 316 323 106 323 106 C371 12 392 0 514 0 C514 0 554 0 554 0 C554 0 554 23 554 23 C554 23 549 23 549 23 C517 23 509 30 480 84 C480 84 343 336 343 336 C413 368 461 432 461 506 C461 609 369 691 254 691 C254 691 209 691 209 691 C209 691 151 691 151 691 C151 691 94 691 94 691 C94 691 36 691 36 691 C36 691 36 680 36 680 L36 680 Z M245 345 C245 345 209 345 209 345 C209 345 209 662 209 662 C209 662 254 662 254 662 C302 662 340 593 340 506 C340 417 298 345 245 345 L245 345 Z " />
<glyph glyph-name="LETTERSMALLCAPITALY" unicode="&#x28f;" horiz-adv-x="532" d="M149 0 C149 0 207 0 207 0 C207 0 264 0 264 0 C264 0 322 0 322 0 C322 0 379 0 379 0 C380 0 380 3 379 6 C380 9 380 11 379 11 C379 11 371 11 371 11 C344 11 322 40 322 76 C322 76 322 360 322 360 C322 360 322 360 322 360 C322 360 456 626 456 626 C475 657 505 679 526 680 C526 680 533 680 533 680 C533 680 533 691 533 691 C533 691 489 691 489 691 C489 691 472 691 472 691 C472 691 454 691 454 691 C454 691 370 691 370 691 C370 691 370 680 370 680 C370 680 382 680 382 680 C418 679 430 643 408 598 C408 598 299 375 299 375 C299 375 205 620 205 620 C194 654 209 679 237 680 C237 680 247 680 247 680 C247 680 247 691 247 691 C247 691 178 691 178 691 C178 691 109 691 109 691 C109 691 40 691 40 691 C40 691 3 691 3 691 C3 691 3 680 3 680 C3 680 9 680 9 680 C27 679 52 656 69 626 C69 626 207 312 207 312 C207 312 207 76 207 76 C207 40 185 11 158 11 C158 11 149 11 149 11 C149 11 149 0 149 0 L149 0 Z " />
<glyph glyph-name="LETTERSMALLCAPITALB" unicode="&#x299;" horiz-adv-x="530" d="M36 680 C36 680 45 680 45 680 C72 679 94 651 94 615 C94 615 94 76 94 76 C94 40 72 11 45 11 C45 11 36 11 36 11 C36 11 36 0 36 0 C36 0 94 0 94 0 C94 0 151 0 151 0 C151 0 209 0 209 0 C209 0 271 0 271 0 C404 0 511 82 511 185 C511 273 431 346 323 361 C401 386 455 449 455 522 C455 616 366 691 254 691 C254 691 209 691 209 691 C209 691 151 691 151 691 C151 691 94 691 94 691 C94 691 36 691 36 691 C36 691 36 680 36 680 L36 680 Z M209 366 C209 366 209 662 209 662 C209 662 254 662 254 662 C302 662 340 600 340 522 C340 435 298 366 245 366 C245 366 209 366 209 366 L209 366 Z M209 341 C209 341 246 341 246 341 C326 341 390 272 390 185 C390 98 332 29 260 29 C260 29 209 29 209 29 C209 29 209 341 209 341 L209 341 Z " />
<glyph glyph-name="LETTERSMALLCAPITALH" unicode="&#x29c;" horiz-adv-x="647" d="M607 691 C607 691 550 691 550 691 C550 691 492 691 492 691 C492 691 435 691 435 691 C435 691 377 691 377 691 C377 691 377 680 377 680 C377 680 386 680 386 680 C413 679 435 651 435 615 C435 615 435 365 435 365 C435 365 216 365 216 365 C216 365 216 615 216 615 C216 615 216 620 216 620 C217 653 238 679 265 680 C265 680 273 680 273 680 C273 680 273 691 273 691 C273 691 216 691 216 691 C216 691 158 691 158 691 C158 691 101 691 101 691 C101 691 43 691 43 691 C43 691 43 680 43 680 C43 680 52 680 52 680 C79 679 101 651 101 615 C101 615 101 76 101 76 C101 40 79 11 52 11 C52 11 43 11 43 11 C43 11 43 0 43 0 C43 0 101 0 101 0 C101 0 158 0 158 0 C158 0 216 0 216 0 C216 0 273 0 273 0 C273 0 273 11 273 11 C273 11 265 11 265 11 C238 11 217 38 216 71 C216 71 216 76 216 76 C216 76 216 336 216 336 C216 336 435 336 435 336 C435 336 435 76 435 76 C435 40 413 11 386 11 C386 11 377 11 377 11 C377 11 377 0 377 0 C377 0 435 0 435 0 C435 0 492 0 492 0 C492 0 550 0 550 0 C550 0 607 0 607 0 C607 0 607 11 607 11 C607 11 599 11 599 11 C571 11 550 40 550 76 C550 76 550 615 550 615 C550 651 571 679 599 680 C599 680 607 680 607 680 C607 680 607 691 607 691 L607 691 Z " />
<glyph glyph-name="LETTERSMALLCAPITALL" unicode="&#x29f;" horiz-adv-x="529" d="M447 144 C447 144 437 119 437 119 C416 69 359 29 309 29 C309 29 216 29 216 29 C216 29 216 615 216 615 C216 615 216 620 216 620 C217 653 238 679 265 680 C265 680 273 680 273 680 C273 680 273 691 273 691 C273 691 216 691 216 691 C216 691 158 691 158 691 C158 691 101 691 101 691 C101 691 43 691 43 691 C43 691 43 680 43 680 C43 680 52 680 52 680 C79 679 101 651 101 615 C101 615 101 76 101 76 C101 40 79 11 52 11 C52 11 43 11 43 11 C43 11 43 0 43 0 C43 0 101 0 101 0 C101 0 158 0 158 0 C158 0 216 0 216 0 C216 0 360 0 360 0 C360 0 432 0 432 0 C432 0 436 0 436 0 C437 4 438 10 439 14 C445 49 454 104 461 138 C456 138 447 144 447 144 C447 144 447 144 447 144 L447 144 Z " />
<glyph glyph-name="LETTERSMALLCAPITALA" unicode="&#x1d00;" horiz-adv-x="563" d="M556 11 C556 11 548 11 548 11 C527 11 502 34 488 65 C488 65 274 707 274 707 C274 707 245 707 245 707 C245 707 74 76 74 76 C74 76 73 76 73 76 C64 40 34 11 7 11 C7 11 -2 11 -2 11 C-2 11 -2 0 -2 0 C-2 0 53 0 53 0 C53 0 72 0 72 0 C72 0 91 0 91 0 C91 0 175 0 175 0 C175 0 175 11 175 11 C175 11 163 11 163 11 C127 11 106 41 112 80 C112 80 152 235 152 235 C152 235 315 235 315 235 C315 235 362 76 362 76 C362 76 362 76 362 76 C372 40 352 11 316 11 C316 11 304 11 304 11 C304 11 304 0 304 0 C304 0 385 0 385 0 C385 0 447 0 447 0 C447 0 510 0 510 0 C510 0 556 0 556 0 C556 0 556 11 556 11 L556 11 Z M306 264 C306 264 160 265 160 265 C160 265 228 528 228 528 C228 528 306 264 306 264 L306 264 Z " />
<glyph glyph-name="LETTERSMALLCAPITALC" unicode="&#x1d04;" horiz-adv-x="615" d="M556 516 C556 516 556 638 556 638 C500 670 411 696 356 696 C183 696 45 540 45 346 C45 151 183 -5 356 -5 C411 -5 500 21 556 54 C556 54 556 175 556 175 C556 175 546 175 546 175 C543 167 539 155 536 147 C512 79 432 24 356 24 C254 24 172 167 172 346 C172 524 254 667 356 667 C370 667 386 665 403 662 C461 647 518 597 536 544 C539 536 543 524 546 516 C546 516 556 516 556 516 L556 516 Z " />
<glyph glyph-name="LETTERSMALLCAPITALD" unicode="&#x1d05;" horiz-adv-x="625" d="M36 680 C36 680 45 680 45 680 C72 679 94 651 94 615 C94 615 94 76 94 76 C94 40 72 11 45 11 C45 11 36 11 36 11 C36 11 36 0 36 0 C36 0 94 0 94 0 C94 0 151 0 151 0 C151 0 209 0 209 0 C209 0 278 0 278 0 C443 0 575 154 575 346 C575 537 435 691 261 691 C261 691 209 691 209 691 C209 691 151 691 151 691 C151 691 94 691 94 691 C94 691 36 691 36 691 C36 691 36 680 36 680 L36 680 Z M209 29 C209 29 209 662 209 662 C209 662 261 662 261 662 C371 662 460 521 460 346 C460 170 379 29 278 29 C278 29 209 29 209 29 L209 29 Z " />
<glyph glyph-name="LETTERSMALLCAPITALE" unicode="&#x1d07;" horiz-adv-x="529" d="M367 276 C367 276 367 341 367 341 C367 341 367 355 367 355 C367 355 367 370 367 370 C367 370 367 427 367 427 C367 427 358 427 358 427 C358 427 355 419 355 419 C347 391 303 370 256 370 C256 370 216 370 216 370 C216 370 216 662 216 662 C216 662 294 662 294 662 C350 662 407 623 423 574 C423 574 428 559 428 559 C428 559 436 559 436 559 C436 559 436 677 436 677 C436 677 436 691 436 691 C436 691 422 691 422 691 C422 691 360 691 360 691 C360 691 216 691 216 691 C216 691 158 691 158 691 C158 691 101 691 101 691 C101 691 43 691 43 691 C43 691 43 680 43 680 C43 680 52 680 52 680 C79 679 101 651 101 615 C101 615 101 76 101 76 C101 40 79 11 52 11 C52 11 43 11 43 11 C43 11 43 0 43 0 C43 0 101 0 101 0 C101 0 158 0 158 0 C158 0 216 0 216 0 C216 0 360 0 360 0 C360 0 432 0 432 0 C432 0 436 0 436 0 C437 4 438 10 439 14 C444 47 454 100 460 132 C460 132 451 132 451 132 C451 132 443 117 443 117 C419 68 355 29 299 29 C299 29 216 29 216 29 C216 29 216 341 216 341 C216 341 256 341 256 341 C303 341 347 316 355 286 C355 286 358 276 358 276 C358 276 367 276 367 276 L367 276 Z " />
<glyph glyph-name="LETTERSMALLCAPITALJ" unicode="&#x1d0a;" horiz-adv-x="353" d="M314 691 C314 691 256 691 256 691 C256 691 199 691 199 691 C199 691 141 691 141 691 C141 691 84 691 84 691 C84 691 84 680 84 680 C84 680 93 680 93 680 C119 679 141 651 141 615 C141 615 141 209 141 209 C141 78 136 13 127 13 C111 13 98 33 97 57 C97 83 74 104 46 104 C20 104 -1 83 0 58 C0 20 44 -10 99 -10 C204 -10 257 95 257 306 C257 306 256 619 256 619 C259 653 279 679 305 680 C305 680 314 680 314 680 C314 680 314 691 314 691 L314 691 Z " />
<glyph glyph-name="LETTERSMALLCAPITALK" unicode="&#x1d0b;" horiz-adv-x="546" d="M331 680 C331 680 339 680 339 680 C363 679 366 651 346 615 C346 615 346 615 346 615 C346 615 265 471 265 471 C265 471 264 472 264 472 C264 472 209 372 209 372 C209 372 209 615 209 615 C209 651 230 679 258 680 C258 680 266 680 266 680 C266 680 266 691 266 691 C266 691 209 691 209 691 C209 691 151 691 151 691 C151 691 94 691 94 691 C94 691 36 691 36 691 C36 691 36 680 36 680 C36 680 45 680 45 680 C72 679 94 651 94 615 C94 615 94 76 94 76 C94 40 72 11 45 11 C45 11 36 11 36 11 C36 11 36 0 36 0 C36 0 94 0 94 0 C94 0 151 0 151 0 C151 0 209 0 209 0 C209 0 266 0 266 0 C266 0 266 11 266 11 C266 11 258 11 258 11 C230 11 209 40 209 76 C209 76 209 372 209 372 C209 372 331 109 331 109 C366 33 422 -5 497 -5 C497 -5 537 -5 537 -5 C537 -5 537 18 537 18 C537 18 532 18 532 18 C495 18 446 82 386 210 C386 210 278 441 278 441 C278 441 375 615 375 615 C375 615 375 615 375 615 C395 651 432 679 460 680 C460 680 468 680 468 680 C468 680 468 691 468 691 C468 691 417 691 417 691 C417 691 403 691 403 691 C403 691 389 691 389 691 C389 691 331 691 331 691 C331 691 331 680 331 680 L331 680 Z " />
<glyph glyph-name="LETTERSMALLCAPITALM" unicode="&#x1d0d;" horiz-adv-x="740" d="M703 691 C703 691 646 691 646 691 C646 691 594 691 594 691 C594 691 583 691 583 691 C583 691 542 691 542 691 C542 691 376 161 376 161 C376 161 204 691 204 691 C204 691 149 691 149 691 C149 691 132 691 132 691 C132 691 115 691 115 691 C115 691 57 691 57 691 C57 691 57 680 57 680 C57 680 66 680 66 680 C93 679 113 651 112 615 C112 615 112 615 112 615 C112 615 93 76 93 76 C93 76 92 76 92 76 C91 40 68 11 41 11 C41 11 33 11 33 11 C33 11 33 0 33 0 C33 0 90 0 90 0 C90 0 107 0 107 0 C107 0 124 0 124 0 C124 0 208 0 208 0 C208 0 208 11 208 11 C208 11 196 11 196 11 C159 11 129 44 127 85 C127 85 143 533 143 533 C143 533 307 46 307 46 C307 46 324 -5 324 -5 C324 -5 353 -5 353 -5 C353 -5 545 576 545 576 C545 576 559 74 559 74 C558 39 538 11 512 11 C512 11 503 11 503 11 C503 11 503 0 503 0 C503 0 561 0 561 0 C561 0 618 0 618 0 C618 0 676 0 676 0 C676 0 733 0 733 0 C733 0 733 11 733 11 C733 11 724 11 724 11 C700 11 678 35 673 66 C673 66 649 621 649 621 C650 654 669 679 694 680 C694 680 703 680 703 680 C703 680 703 691 703 691 L703 691 Z " />
<glyph glyph-name="LETTERSMALLCAPITALO" unicode="&#x1d0f;" horiz-adv-x="654" d="M325 24 C231 24 172 185 172 346 C172 506 231 667 325 667 C418 667 478 506 478 346 C478 185 418 24 325 24 L325 24 Z M45 346 C45 170 154 -5 325 -5 C495 -5 604 170 604 346 C604 521 495 696 325 696 C154 696 45 521 45 346 L45 346 Z " />
<glyph glyph-name="LETTERSMALLCAPITALP" unicode="&#x1d18;" horiz-adv-x="479" d="M36 680 C36 680 45 680 45 680 C72 679 94 651 94 615 C94 615 94 76 94 76 C94 40 72 11 45 11 C45 11 36 11 36 11 C36 11 36 0 36 0 C36 0 94 0 94 0 C94 0 151 0 151 0 C151 0 209 0 209 0 C209 0 266 0 266 0 C266 0 266 11 266 11 C266 11 258 11 258 11 C230 11 209 40 209 76 C209 76 209 297 209 297 C209 297 245 297 245 297 C364 297 460 385 460 494 C460 604 368 691 254 691 C254 691 209 691 209 691 C209 691 151 691 151 691 C151 691 94 691 94 691 C94 691 36 691 36 691 C36 691 36 680 36 680 L36 680 Z M209 325 C209 325 209 662 209 662 C209 662 254 662 254 662 C301 662 339 588 339 494 C339 400 297 325 245 325 C245 325 209 325 209 325 L209 325 Z " />
<glyph glyph-name="LETTERSMALLCAPITALT" unicode="&#x1d1b;" horiz-adv-x="515" d="M516 547 C512 583 507 641 504 677 C504 681 503 687 503 691 C503 691 475 691 475 691 C475 691 427 691 427 691 C427 691 89 691 89 691 C89 691 40 691 40 691 C40 691 12 691 12 691 C12 687 11 681 11 677 C8 641 3 583 0 547 C0 547 9 547 9 547 C9 547 23 582 23 582 C41 627 91 662 135 662 C135 662 200 662 200 662 C200 662 200 76 200 76 C200 40 178 11 151 11 C151 11 143 11 143 11 C143 11 143 0 143 0 C143 0 200 0 200 0 C200 0 258 0 258 0 C258 0 315 0 315 0 C315 0 373 0 373 0 C372 0 372 3 373 6 C372 9 372 11 373 11 C373 11 364 11 364 11 C337 11 315 40 315 76 C315 76 315 662 315 662 C315 662 380 662 380 662 C425 662 475 627 492 582 C492 582 507 547 507 547 C507 547 516 547 516 547 L516 547 Z " />
<glyph glyph-name="LETTERSMALLCAPITALU" unicode="&#x1d1c;" horiz-adv-x="549" d="M530 691 C530 691 465 691 465 691 C465 691 447 691 447 691 C447 691 430 691 430 691 C430 691 361 691 361 691 C361 691 361 680 361 680 C361 680 372 680 372 680 C404 679 430 646 430 605 C430 605 430 198 430 198 C430 107 385 35 295 35 C231 35 199 106 199 196 C199 196 199 615 199 615 C199 651 220 679 248 680 C248 680 256 680 256 680 C256 680 256 691 256 691 C256 691 199 691 199 691 C199 691 141 691 141 691 C141 691 84 691 84 691 C84 691 26 691 26 691 C26 691 26 680 26 680 C26 680 35 680 35 680 C62 679 84 651 84 615 C84 615 84 218 84 218 C84 94 149 -5 278 -5 C403 -5 465 80 465 187 C465 187 465 605 465 605 C465 646 489 679 520 680 C520 680 530 680 530 680 C530 680 530 691 530 691 L530 691 Z " />
<glyph glyph-name="LETTERSMALLCAPITALV" unicode="&#x1d20;" horiz-adv-x="552" d="M372 680 C372 680 385 680 385 680 C427 679 450 637 436 585 C436 585 437 585 437 585 C437 585 326 151 326 151 C326 151 188 615 188 615 C188 615 188 615 188 615 C177 651 196 679 231 680 C231 680 242 680 242 680 C242 680 242 691 242 691 C242 691 165 691 165 691 C165 691 102 691 102 691 C102 691 39 691 39 691 C39 691 -3 691 -3 691 C-3 691 -3 680 -3 680 C-3 680 4 680 4 680 C25 679 52 651 65 615 C65 615 65 615 65 615 C65 615 283 -15 283 -15 C283 -15 311 -15 311 -15 C311 -15 478 615 478 615 C478 615 478 615 478 615 C488 651 517 679 544 680 C544 680 552 680 552 680 C552 681 552 683 553 685 C552 689 552 691 553 691 C553 691 498 691 498 691 C498 691 481 691 481 691 C481 691 464 691 464 691 C464 691 372 691 372 691 C372 691 372 680 372 680 L372 680 Z M552 680 C552 680 553 680 553 680 C553 680 553 680 552 680 L552 680 Z " />
<glyph glyph-name="LETTERSMALLCAPITALW" unicode="&#x1d21;" horiz-adv-x="760" d="M757 691 C757 691 702 691 702 691 C702 691 685 691 685 691 C685 691 667 691 667 691 C667 691 587 691 587 691 C587 691 587 680 587 680 C587 680 600 680 600 680 C636 679 659 651 651 615 C651 615 651 615 651 615 C651 615 560 177 560 177 C560 177 430 701 430 701 C430 701 401 701 401 701 C401 701 241 -15 241 -15 C241 -15 269 -15 269 -15 C269 -15 430 701 430 701 C430 701 385 500 385 500 C385 500 520 -15 520 -15 C520 -15 549 -15 549 -15 C549 -15 688 624 688 624 C698 656 723 679 748 680 C748 680 757 680 757 680 C757 680 757 691 757 691 L757 691 Z M238 691 C238 691 169 691 169 691 C169 691 106 691 106 691 C106 691 43 691 43 691 C43 691 0 691 0 691 C0 691 0 680 0 680 C0 680 7 680 7 680 C28 679 54 651 64 615 C64 615 64 615 64 615 C64 615 241 -15 241 -15 C241 -15 280 163 280 163 C280 163 185 615 185 615 C185 615 185 615 185 615 C178 651 197 679 228 680 C228 680 238 680 238 680 C238 680 238 691 238 691 L238 691 Z " />
<glyph glyph-name="LETTERSMALLCAPITALZ" unicode="&#x1d22;" horiz-adv-x="482" d="M407 145 C407 145 397 120 397 120 C376 70 319 30 269 30 C269 30 176 30 176 30 C176 30 425 691 425 691 C425 691 359 691 359 691 C359 691 294 691 294 691 C294 691 164 691 164 691 C164 691 116 691 116 691 C116 691 88 691 88 691 C87 687 85 681 84 677 C76 647 64 600 56 570 C56 570 65 570 65 570 C65 570 74 584 74 584 C103 627 162 662 206 662 C206 662 283 662 283 662 C283 662 36 0 36 0 C36 0 100 0 100 0 C100 0 165 0 165 0 C165 0 320 0 320 0 C320 0 392 0 392 0 C392 0 396 0 396 0 C397 4 398 11 399 15 C405 49 414 104 421 139 C416 139 407 145 407 145 L407 145 Z " />
<glyph glyph-name="Wgrave" unicode="&#x1e80;" horiz-adv-x="857" d="M854 798 C854 798 799 798 799 798 C799 798 780 798 780 798 C780 798 761 798 761 798 C761 798 680 798 680 798 C681 798 681 795 680 792 C681 789 681 786 680 786 C680 786 694 786 694 786 C729 786 751 760 746 725 C746 725 639 214 639 214 C639 214 485 808 485 808 C485 808 453 808 453 808 C453 808 316 198 316 198 C316 198 200 723 200 723 C193 759 212 786 242 786 C242 786 252 786 252 786 C252 786 252 798 252 798 C252 798 183 798 183 798 C183 798 113 798 113 798 C113 798 43 798 43 798 C43 798 0 798 0 798 C0 798 0 786 0 786 C0 786 7 786 7 786 C28 786 54 758 64 721 C64 721 64 721 64 721 C64 721 268 -15 268 -15 C268 -15 300 -15 300 -15 C300 -15 431 568 431 568 C431 568 591 -15 591 -15 C591 -15 623 -15 623 -15 C623 -15 782 721 782 721 C782 721 783 721 783 721 C790 758 818 786 846 786 C846 786 854 786 854 786 C854 786 854 798 854 798 L854 798 Z M480 997 C468 1025 456 1047 451 1047 C433 1047 385 1012 385 999 C385 992 401 972 422 951 C422 951 541 827 541 827 C541 827 554 837 554 837 C554 837 480 997 480 997 L480 997 Z " />
<glyph glyph-name="Wacute" unicode="&#x1e82;" horiz-adv-x="857" d="M409 827 C409 827 525 951 525 951 C545 973 561 993 561 999 C561 1012 514 1047 495 1047 C491 1047 479 1025 467 997 C467 997 396 837 396 837 C396 837 409 827 409 827 L409 827 Z M854 798 C854 798 799 798 799 798 C799 798 780 798 780 798 C780 798 761 798 761 798 C761 798 680 798 680 798 C681 798 681 795 680 792 C681 789 681 786 680 786 C680 786 694 786 694 786 C729 786 751 760 746 725 C746 725 639 214 639 214 C639 214 485 808 485 808 C485 808 453 808 453 808 C453 808 316 198 316 198 C316 198 200 723 200 723 C193 759 212 786 242 786 C242 786 252 786 252 786 C252 786 252 798 252 798 C252 798 183 798 183 798 C183 798 113 798 113 798 C113 798 43 798 43 798 C43 798 0 798 0 798 C0 798 0 786 0 786 C0 786 7 786 7 786 C28 786 54 758 64 721 C64 721 64 721 64 721 C64 721 268 -15 268 -15 C268 -15 300 -15 300 -15 C300 -15 431 568 431 568 C431 568 591 -15 591 -15 C591 -15 623 -15 623 -15 C623 -15 782 721 782 721 C782 721 783 721 783 721 C790 758 818 786 846 786 C846 786 854 786 854 786 C854 786 854 798 854 798 L854 798 Z " />
<glyph glyph-name="Wdieresis" unicode="&#x1e84;" horiz-adv-x="857" d="M563 868 C603 868 634 899 634 938 C634 977 603 1008 563 1008 C524 1008 493 977 493 938 C493 899 524 868 563 868 L563 868 Z M376 868 C415 868 446 899 446 938 C446 977 415 1008 376 1008 C336 1008 305 977 305 938 C305 899 336 868 376 868 L376 868 Z M854 798 C854 798 799 798 799 798 C799 798 780 798 780 798 C780 798 761 798 761 798 C761 798 680 798 680 798 C681 798 681 795 680 792 C681 789 681 786 680 786 C680 786 694 786 694 786 C729 786 751 760 746 725 C746 725 639 214 639 214 C639 214 485 808 485 808 C485 808 453 808 453 808 C453 808 316 198 316 198 C316 198 200 723 200 723 C193 759 212 786 242 786 C242 786 252 786 252 786 C252 786 252 798 252 798 C252 798 183 798 183 798 C183 798 113 798 113 798 C113 798 43 798 43 798 C43 798 0 798 0 798 C0 798 0 786 0 786 C0 786 7 786 7 786 C28 786 54 758 64 721 C64 721 64 721 64 721 C64 721 268 -15 268 -15 C268 -15 300 -15 300 -15 C300 -15 431 568 431 568 C431 568 591 -15 591 -15 C591 -15 623 -15 623 -15 C623 -15 782 721 782 721 C782 721 783 721 783 721 C790 758 818 786 846 786 C846 786 854 786 854 786 C854 786 854 798 854 798 L854 798 Z " />
<glyph glyph-name="CapitalLetterEWITHTI" unicode="&#x1ebc;" horiz-adv-x="569" d="M185 893 C185 924 195 949 208 949 C249 949 280 886 320 886 C361 886 394 947 394 1023 C394 1023 375 1023 375 1023 C375 990 362 963 345 963 C305 963 274 1025 233 1025 C196 1025 166 966 166 893 C166 893 185 893 185 893 L185 893 Z M407 329 C407 329 407 394 407 394 C407 394 407 410 407 410 C407 410 407 426 407 426 C407 426 407 484 407 484 C407 484 398 484 398 484 C398 484 396 475 396 475 C387 448 343 426 296 426 C296 426 225 426 225 426 C225 426 225 766 225 766 C225 766 336 766 336 766 C392 766 449 727 464 678 C464 678 469 662 469 662 C469 662 478 662 478 662 C478 662 478 782 478 782 C478 782 478 798 478 798 C478 798 462 798 462 798 C462 798 401 798 401 798 C401 798 225 798 225 798 C225 798 161 798 161 798 C161 798 97 798 97 798 C97 798 40 798 40 798 C40 798 40 786 40 786 C40 786 49 786 49 786 C75 786 97 758 97 721 C97 721 97 76 97 76 C97 40 75 11 49 11 C49 11 40 11 40 11 C40 11 40 0 40 0 C40 0 97 0 97 0 C97 0 161 0 161 0 C161 0 225 0 225 0 C225 0 401 0 401 0 C401 0 472 0 472 0 C472 0 477 0 477 0 C477 4 479 12 480 16 C485 49 495 102 501 135 C501 136 500 136 500 135 C496 136 492 136 492 135 C492 135 485 120 485 120 C460 71 396 32 341 32 C341 32 225 32 225 32 C225 32 225 394 225 394 C225 394 296 394 296 394 C343 394 387 370 396 339 C396 339 398 329 398 329 C398 329 407 329 407 329 L407 329 Z " />
<glyph glyph-name="Ygrave" unicode="&#x1ef2;" horiz-adv-x="585" d="M168 0 C168 0 225 0 225 0 C225 0 289 0 289 0 C289 0 353 0 353 0 C353 0 411 0 411 0 C410 0 410 3 411 6 C410 9 410 11 411 11 C411 11 402 11 402 11 C375 11 353 40 353 76 C353 76 353 414 353 414 C353 414 353 414 353 414 C353 414 504 721 504 721 C504 721 505 721 505 721 C522 758 555 786 579 786 C579 786 586 786 586 786 C587 786 587 789 586 792 C587 795 587 798 586 798 C586 798 542 798 542 798 C542 798 523 798 523 798 C523 798 504 798 504 798 C504 798 420 798 420 798 C420 798 420 786 420 786 C420 786 431 786 431 786 C466 786 479 755 463 713 C463 713 333 442 333 442 C333 442 219 724 219 724 C207 759 219 786 249 786 C249 786 258 786 258 786 C258 786 258 798 258 798 C258 798 189 798 189 798 C189 798 113 798 113 798 C113 798 36 798 36 798 C36 798 -1 798 -1 798 C-1 798 -1 786 -1 786 C-1 786 5 786 5 786 C25 786 54 758 69 721 C69 721 69 721 69 721 C69 721 225 358 225 358 C225 358 225 76 225 76 C225 40 203 11 176 11 C176 11 168 11 168 11 C168 11 168 0 168 0 L168 0 Z M300 997 C288 1025 276 1047 271 1047 C252 1047 205 1012 205 999 C205 992 221 972 242 951 C242 951 361 827 361 827 C361 827 374 837 374 837 C374 837 300 997 300 997 L300 997 Z " />
<glyph glyph-name="quoteleft" unicode="&#x2018;" horiz-adv-x="282" d="M65 587 C62 578 60 569 60 559 C60 515 95 479 139 479 C154 479 169 483 181 491 C182 489 184 487 186 485 C186 485 248 544 248 544 C237 555 227 565 218 575 C210 611 179 638 140 638 C122 648 112 649 112 638 C112 705 149 772 196 790 C196 790 189 807 189 807 C110 777 46 677 46 583 C46 592 53 593 65 587 L65 587 Z " />
<glyph glyph-name="quoteright" unicode="&#x2019;" horiz-adv-x="282" d="M214 695 C217 704 219 713 219 723 C219 768 184 803 139 803 C124 803 110 799 98 792 C96 793 95 795 93 797 C93 797 31 738 31 738 C41 727 52 717 61 708 C69 671 100 644 139 644 C139 644 140 644 140 644 C157 634 167 634 167 645 C167 578 130 510 83 492 C83 492 89 475 89 475 C169 505 233 605 233 700 C233 691 226 690 214 695 C214 695 214 695 214 695 L214 695 Z " />
</font>
</svg>
