<?xml version="1.0" encoding="UTF-8"?>
<svg xmlns="http://www.w3.org/2000/svg" xmlns:xlink="http://www.w3.org/1999/xlink" version="1.2" >
<font id="Veera ExtraBold">
<font-face  font-family="Veera" units-per-em="1024" ascent="1115" descent="-280" font-style="normal" font-weight="800" font-stretch="normal" cap-height="798" x-height="638" underline-position="0" underline-thickness="0" />
<missing-glyph  horiz-adv-x="472" d="M0 700 C0 700 432 700 432 700 C432 700 432 0 432 0 C432 0 0 0 0 0 C0 0 0 700 0 700 L0 700 Z M50 50 C50 50 382 50 382 50 C382 50 382 650 382 650 C382 650 50 650 50 650 C50 650 50 50 50 50 L50 50 Z " />
<glyph glyph-name="NULL" d="" />
<glyph glyph-name="CR" unicode="&#xd;" horiz-adv-x="256" d="" />
<glyph glyph-name="space" unicode="&#x20;" horiz-adv-x="234" d="" />
<glyph glyph-name="exclam" unicode="&#x21;" horiz-adv-x="291" d="M158 -5 C202 -5 238 31 238 75 C238 119 202 155 158 155 C113 155 78 119 78 75 C78 31 113 -5 158 -5 L158 -5 Z M231 708 C238 761 202 803 149 803 C94 803 57 761 66 708 C66 708 149 230 149 230 C149 230 167 230 167 230 C167 230 231 708 231 708 L231 708 Z " />
<glyph glyph-name="quotedbl" unicode="&#x22;" horiz-adv-x="416" d="M223 798 C223 798 289 538 289 538 C289 538 309 538 309 538 C309 538 376 798 376 798 C376 798 223 798 223 798 L223 798 Z M39 798 C39 798 106 538 106 538 C106 538 126 538 126 538 C126 538 193 798 193 798 C193 798 39 798 39 798 L39 798 Z " />
<glyph glyph-name="numbersign" unicode="&#x23;" horiz-adv-x="523" d="M366 786 C366 786 345 650 345 650 C345 650 271 650 271 650 C271 650 292 786 292 786 C292 786 239 786 239 786 C239 786 218 650 218 650 C218 650 93 650 93 650 C93 650 78 546 78 546 C78 546 202 546 202 546 C202 546 157 252 157 252 C157 252 29 252 29 252 C29 252 15 148 15 148 C15 148 141 148 141 148 C141 148 118 0 118 0 C118 0 171 0 171 0 C171 0 194 148 194 148 C194 148 268 148 268 148 C268 148 245 0 245 0 C245 0 297 0 297 0 C297 0 320 148 320 148 C320 148 420 148 420 148 C420 148 434 252 434 252 C434 252 336 252 336 252 C336 252 381 546 381 546 C381 546 488 546 488 546 C488 546 503 650 503 650 C503 650 397 650 397 650 C397 650 418 786 418 786 C418 786 366 786 366 786 L366 786 Z M255 546 C255 546 329 546 329 546 C329 546 284 252 284 252 C284 252 210 252 210 252 C210 252 255 546 255 546 L255 546 Z " />
<glyph glyph-name="dollar" unicode="&#x24;" horiz-adv-x="453" d="M251 873 C251 873 251 802 251 802 C246 803 242 803 238 803 C229 803 220 802 211 801 C211 801 211 873 211 873 C211 873 171 873 171 873 C171 873 171 790 171 790 C91 756 35 666 35 558 C35 480 91 385 160 344 C164 342 167 340 171 337 C171 337 171 38 171 38 C168 39 165 40 162 41 C119 58 77 102 58 153 C55 160 51 172 48 180 C48 180 38 180 38 180 C38 180 38 39 38 39 C72 19 127 2 171 -3 C171 -3 171 -75 171 -75 C171 -75 211 -75 211 -75 C211 -75 211 -5 211 -5 C225 -4 238 -1 251 2 C251 2 251 -75 251 -75 C251 -75 291 -75 291 -75 C291 -75 291 18 291 18 C360 56 408 134 408 226 C408 300 358 390 291 440 C291 440 291 728 291 728 C310 710 326 687 334 666 C339 653 347 631 351 618 C351 618 361 618 361 618 C361 618 361 759 361 759 C361 759 348 736 348 736 C348 736 348 736 348 736 C348 736 361 759 361 759 C339 772 314 783 291 791 C291 791 291 873 291 873 C291 873 251 873 251 873 L251 873 Z M251 758 C251 758 251 466 251 466 C237 475 223 486 211 497 C211 497 211 763 211 763 C217 765 224 766 231 766 C233 766 237 765 242 763 C242 763 242 762 242 762 C245 761 248 759 251 758 C251 758 251 758 251 758 L251 758 Z M171 541 C151 568 139 596 139 618 C139 663 151 703 171 730 C171 730 171 541 171 541 L171 541 Z M211 308 C226 296 239 283 251 269 C251 269 251 51 251 51 C239 42 225 36 211 34 C211 34 211 308 211 308 L211 308 Z M291 209 C298 193 302 178 302 165 C302 143 298 123 291 105 C291 105 291 209 291 209 L291 209 Z " />
<glyph glyph-name="ampersand" unicode="&#x26;" horiz-adv-x="733" d="M602 443 C602 443 427 443 427 443 C427 443 427 431 427 431 C427 431 438 431 438 431 C470 431 496 408 496 326 C496 326 496 290 496 290 C496 273 495 257 492 241 C485 249 478 257 471 266 C432 312 370 405 322 491 C389 527 437 598 437 672 C437 745 373 803 294 803 C214 803 151 712 151 599 C151 568 172 515 201 456 C114 404 50 299 50 198 C50 85 134 -5 239 -5 C327 -5 405 35 458 99 C555 18 657 -14 734 0 C734 0 734 23 734 23 C708 18 631 82 516 213 C523 237 526 263 526 290 C526 290 526 326 526 326 C526 408 555 431 591 431 C591 431 602 431 602 431 C602 431 602 443 602 443 L602 443 Z M301 531 C274 585 255 632 255 659 C255 723 269 774 285 774 C312 774 333 725 333 665 C333 612 321 564 301 531 C301 531 301 531 301 531 L301 531 Z M437 117 C405 78 362 55 314 55 C238 55 177 142 177 250 C177 316 194 379 221 418 C270 328 333 231 373 184 C394 159 415 137 437 117 L437 117 Z " />
<glyph glyph-name="quotesingle" unicode="&#x27;" horiz-adv-x="232" d="M39 798 C39 798 106 538 106 538 C106 538 126 538 126 538 C126 538 193 798 193 798 C193 798 39 798 39 798 L39 798 Z " />
<glyph glyph-name="parenleft" unicode="&#x28;" horiz-adv-x="278" d="M257 828 C147 765 59 610 59 339 C59 68 147 -87 257 -150 C257 -150 268 -131 268 -131 C210 -97 164 43 164 339 C164 634 210 775 268 808 C268 808 257 828 257 828 L257 828 Z " />
<glyph glyph-name="parenright" unicode="&#x29;" horiz-adv-x="278" d="M10 -150 C120 -87 208 68 208 339 C208 610 120 764 10 828 C10 828 -1 808 -1 808 C57 775 103 635 103 339 C103 43 57 -97 -1 -131 C-1 -131 10 -150 10 -150 L10 -150 Z " />
<glyph glyph-name="asterisk" unicode="&#x2a;" horiz-adv-x="300" d="M134 678 C134 678 25 654 25 654 C6 649 1 625 16 600 C30 575 53 567 67 582 C67 582 142 664 142 664 C142 664 109 558 109 558 C103 538 121 523 150 523 C179 523 197 538 191 558 C191 558 158 664 158 664 C158 664 233 582 233 582 C247 567 270 575 284 600 C299 625 294 649 275 654 C275 654 166 678 166 678 C166 678 275 702 275 702 C294 707 299 730 284 755 C270 780 247 788 233 774 C233 774 158 692 158 692 C158 692 191 798 191 798 C197 817 179 833 150 833 C121 833 103 817 109 798 C109 798 142 692 142 692 C142 692 67 774 67 774 C53 788 30 780 16 755 C1 730 6 707 25 702 C25 702 134 678 134 678 L134 678 Z " />
<glyph glyph-name="plus" unicode="&#x2b;" horiz-adv-x="491" d="M210 481 C210 481 210 343 210 343 C210 343 75 343 75 343 C75 343 75 283 75 283 C75 283 210 283 210 283 C210 283 210 145 210 145 C210 145 276 145 276 145 C276 145 276 283 276 283 C276 283 411 283 411 283 C411 283 411 343 411 343 C411 343 276 343 276 343 C276 343 276 481 276 481 C276 481 210 481 210 481 L210 481 Z " />
<glyph glyph-name="comma" unicode="&#x2c;" horiz-adv-x="282" d="M197 130 C197 130 197 130 197 130 C182 145 162 154 139 154 C95 154 60 119 60 74 C60 30 95 -5 139 -5 C149 -5 158 -3 166 0 C167 -5 167 -9 167 -13 C167 -75 130 -139 83 -157 C83 -157 89 -174 89 -174 C169 -144 233 -48 233 42 C233 70 217 109 197 130 L197 130 Z " />
<glyph glyph-name="hyphen" unicode="&#x2d;" horiz-adv-x="197" d="M20 237 C20 237 177 237 177 237 C177 237 177 342 177 342 C177 342 20 342 20 342 C20 342 20 237 20 237 L20 237 Z " />
<glyph glyph-name="period" unicode="&#x2e;" horiz-adv-x="265" d="M125 -5 C169 -5 205 31 205 75 C205 119 169 155 125 155 C81 155 45 119 45 75 C45 31 81 -5 125 -5 L125 -5 Z " />
<glyph glyph-name="slash" unicode="&#x2f;" horiz-adv-x="370" d="M0 -145 C0 -145 60 -145 60 -145 C60 -145 370 848 370 848 C370 848 310 848 310 848 C310 848 0 -145 0 -145 L0 -145 Z " />
<glyph glyph-name="zero" unicode="0" horiz-adv-x="696" d="M348 25 C266 25 200 156 200 319 C200 482 266 613 348 613 C431 613 497 482 497 319 C497 156 431 25 348 25 L348 25 Z M50 319 C50 139 183 -5 348 -5 C514 -5 647 139 647 319 C647 499 514 643 348 643 C183 643 50 499 50 319 L50 319 Z " />
<glyph glyph-name="one" unicode="1" horiz-adv-x="359" d="M305 638 C305 638 247 638 247 638 C247 638 180 638 180 638 C180 638 112 638 112 638 C112 638 55 638 55 638 C55 638 55 626 55 626 C55 626 64 626 64 626 C90 626 112 598 112 561 C112 561 112 76 112 76 C112 40 90 11 64 11 C64 11 55 11 55 11 C55 11 55 0 55 0 C55 0 112 0 112 0 C112 0 180 0 180 0 C180 0 247 0 247 0 C247 0 305 0 305 0 C305 0 305 11 305 11 C305 11 296 11 296 11 C269 11 248 40 247 76 C247 76 247 561 247 561 C248 598 269 626 296 626 C296 626 305 626 305 626 C305 626 305 638 305 638 L305 638 Z " />
<glyph glyph-name="two" unicode="2" horiz-adv-x="425" d="M387 192 C387 192 386 184 386 184 C384 157 353 135 317 135 C317 135 189 135 189 135 C305 234 384 323 384 452 C384 558 321 643 242 643 C179 643 102 578 69 496 C69 496 85 486 85 486 C99 517 138 543 175 543 C207 543 233 482 233 406 C233 160 141 127 25 30 C25 30 25 0 25 0 C25 0 381 0 381 0 C381 0 393 135 393 135 C393 135 393 135 393 135 C395 156 397 176 398 192 C398 192 387 192 387 192 L387 192 Z " />
<glyph glyph-name="three" unicode="3" horiz-adv-x="411" d="M23 -215 C211 -202 361 -66 361 91 C361 182 292 258 196 282 C281 340 337 414 337 480 C337 570 280 643 208 643 C136 643 47 578 8 496 C8 496 25 488 25 488 C40 518 90 542 138 542 C173 542 201 495 201 436 C201 384 175 331 136 291 C133 291 131 291 128 291 C131 291 133 291 135 291 C114 269 89 251 61 239 C54 236 46 233 38 230 C38 230 38 207 38 207 C43 209 48 210 54 212 C69 216 87 219 97 219 C165 219 219 159 219 83 C219 -65 131 -189 21 -196 C21 -196 23 -215 23 -215 L23 -215 Z " />
<glyph glyph-name="four" unicode="4" horiz-adv-x="397" d="M60 60 C60 60 179 315 179 315 C179 315 178 312 178 312 C178 312 178 60 178 60 C178 60 60 60 60 60 L60 60 Z M178 0 C178 0 178 -150 178 -150 C178 -150 313 -150 313 -150 C313 -150 313 0 313 0 C313 0 388 0 388 0 C388 0 388 60 388 60 C388 60 313 60 313 60 C313 60 313 602 313 602 C313 602 313 643 313 643 C313 643 290 643 290 643 C290 643 5 19 5 19 C5 19 5 0 5 0 C5 0 26 0 26 0 C26 0 32 0 32 0 C32 0 178 0 178 0 L178 0 Z " />
<glyph glyph-name="five" unicode="5" horiz-adv-x="398" d="M62 235 C62 235 74 235 74 235 C151 235 213 170 213 88 C213 -45 132 -156 30 -161 C30 -161 31 -182 31 -182 C207 -173 348 -34 348 132 C348 264 257 369 143 369 C143 369 103 369 103 369 C103 369 116 638 116 638 C116 638 76 638 76 638 C76 638 62 235 62 235 L62 235 Z M257 638 C257 638 116 638 116 638 C116 638 110 495 110 495 C110 495 287 495 287 495 C287 495 331 631 331 631 C338 654 346 677 352 695 C352 695 340 695 340 695 C332 661 298 638 257 638 C257 638 257 638 257 638 L257 638 Z " />
<glyph glyph-name="six" unicode="6" horiz-adv-x="504" d="M419 852 C212 845 47 632 47 373 C47 163 135 -5 245 -5 C370 -5 463 120 455 276 C455 429 379 552 285 552 C252 552 227 528 207 489 C225 679 313 825 420 829 C420 829 419 852 419 852 L419 852 Z M204 391 C219 465 237 515 263 515 C290 515 312 406 312 269 C319 138 296 33 260 33 C228 33 202 126 202 242 C202 283 203 344 204 391 C204 391 204 391 204 391 L204 391 Z " />
<glyph glyph-name="seven" unicode="7" horiz-adv-x="381" d="M24 442 C24 442 25 451 25 451 C27 478 58 500 94 500 C94 500 326 500 326 500 C326 500 79 -140 79 -140 C79 -140 229 -140 229 -140 C276 115 324 370 371 625 C371 625 361 638 361 638 C361 638 30 638 30 638 C30 638 24 569 24 569 C24 569 20 526 20 526 C18 497 15 465 13 442 C13 442 24 442 24 442 L24 442 Z " />
<glyph glyph-name="eight" unicode="8" horiz-adv-x="476" d="M275 462 C269 465 262 468 256 470 C217 484 186 561 186 644 C186 716 204 774 226 774 C256 774 281 699 281 606 C281 548 279 496 275 462 C275 462 275 462 275 462 L275 462 Z M315 437 C360 474 392 547 392 628 C392 725 321 803 233 803 C144 803 73 709 73 591 C73 513 102 435 144 386 C86 360 44 285 44 194 C44 83 129 -5 235 -5 C341 -5 426 94 426 217 C426 300 380 386 315 437 C315 437 315 437 315 437 L315 437 Z M180 354 C189 347 198 342 208 339 C259 320 299 245 299 171 C299 89 274 24 242 24 C203 24 171 109 171 216 C171 272 174 322 180 354 C180 354 180 354 180 354 L180 354 Z " />
<glyph glyph-name="nine" unicode="9" horiz-adv-x="504" d="M86 -214 C292 -207 458 6 458 265 C458 475 369 643 259 643 C135 643 42 518 50 362 C50 208 125 86 220 86 C254 86 279 110 298 149 C280 -42 192 -188 85 -192 C85 -192 86 -214 86 -214 L86 -214 Z M301 248 C287 173 268 123 242 123 C215 123 192 232 192 369 C185 500 208 605 244 605 C277 605 302 512 302 395 C302 355 301 295 301 248 C301 248 301 248 301 248 L301 248 Z " />
<glyph glyph-name="colon" unicode="&#x3a;" horiz-adv-x="265" d="M125 486 C169 486 205 522 205 566 C205 610 169 646 125 646 C81 646 45 610 45 566 C45 522 81 486 125 486 L125 486 Z M125 -5 C169 -5 205 31 205 75 C205 119 169 155 125 155 C81 155 45 119 45 75 C45 31 81 -5 125 -5 L125 -5 Z " />
<glyph glyph-name="semicolon" unicode="&#x3b;" horiz-adv-x="282" d="M139 502 C184 502 219 537 219 581 C219 625 184 660 139 660 C95 660 60 625 60 581 C60 537 95 502 139 502 L139 502 Z M197 130 C197 130 197 130 197 130 C182 145 162 154 139 154 C95 154 60 119 60 74 C60 30 95 -5 139 -5 C149 -5 158 -3 166 0 C167 -5 167 -9 167 -13 C167 -75 130 -139 83 -157 C83 -157 89 -174 89 -174 C169 -144 233 -48 233 42 C233 70 217 109 197 130 L197 130 Z " />
<glyph glyph-name="less" unicode="&#x3c;" horiz-adv-x="476" d="M401 638 C401 638 50 383 50 383 C50 383 40 376 40 376 C40 376 40 312 40 312 C40 312 50 304 50 304 C50 304 401 50 401 50 C401 50 401 118 401 118 C401 118 79 344 79 344 C79 344 401 570 401 570 C401 570 401 638 401 638 L401 638 Z " />
<glyph glyph-name="equal" unicode="&#x3d;" horiz-adv-x="477" d="M91 299 C91 299 91 239 91 239 C91 239 407 239 407 239 C407 239 407 299 407 299 C407 299 91 299 91 299 L91 299 Z M91 399 C91 399 91 339 91 339 C91 339 407 339 407 339 C407 339 407 399 407 399 C407 399 91 399 91 399 L91 399 Z " />
<glyph glyph-name="greater" unicode="&#x3e;" horiz-adv-x="466" d="M383 344 C383 344 75 118 75 118 C75 118 75 50 75 50 C75 50 411 304 411 304 C411 304 426 316 426 316 C426 316 426 372 426 372 C426 372 411 383 411 383 C411 383 75 638 75 638 C75 638 75 570 75 570 C75 570 383 344 383 344 L383 344 Z " />
<glyph glyph-name="question" unicode="&#x3f;" horiz-adv-x="309" d="M119 -5 C163 -5 199 31 199 75 C199 119 163 155 119 155 C75 155 39 119 39 75 C39 31 75 -5 119 -5 L119 -5 Z M145 353 C145 353 179 353 179 353 C254 353 275 454 275 504 C275 670 196 803 97 803 C99 803 99 802 99 799 C99 799 97 803 97 803 C61 803 33 766 33 720 C33 688 59 662 92 662 C106 662 114 679 124 689 C130 694 136 697 139 697 C197 697 244 618 244 519 C244 498 219 455 134 455 C134 455 99 455 99 455 C87 455 78 446 80 435 C80 435 110 251 110 251 C110 251 128 251 128 251 C128 251 145 353 145 353 L145 353 Z " />
<glyph glyph-name="at" unicode="&#x40;" horiz-adv-x="1093" d="M942 0 C881 -129 718 -233 574 -233 C344 -233 161 16 161 328 C161 639 333 888 547 888 C762 888 934 688 934 438 C934 201 864 12 775 12 C725 12 706 120 732 255 C732 255 802 612 802 612 C802 612 675 612 675 612 C675 612 660 535 660 535 C640 589 599 625 551 625 C385 625 253 453 253 239 C253 107 323 1 411 1 C485 1 558 57 599 136 C611 35 668 -35 751 -35 C911 -35 1039 175 1039 438 C1039 709 820 926 547 926 C274 926 56 660 56 328 C56 -4 286 -270 574 -270 C733 -270 917 -150 987 0 C987 0 942 0 942 0 L942 0 Z M644 454 C644 454 605 255 605 255 C585 156 530 76 481 76 C437 76 401 160 401 265 C401 444 466 588 547 588 C601 588 644 528 644 454 L644 454 Z " />
<glyph glyph-name="A" unicode="A" horiz-adv-x="655" d="M648 11 C648 11 641 11 641 11 C618 11 589 39 577 73 C577 73 323 816 323 816 C323 816 286 816 286 816 C286 816 85 76 85 76 C85 76 84 76 84 76 C75 40 45 11 18 11 C18 11 9 11 9 11 C9 11 9 0 9 0 C9 0 64 0 64 0 C64 0 88 0 88 0 C88 0 113 0 113 0 C113 0 197 0 197 0 C197 0 197 11 197 11 C197 11 185 11 185 11 C147 11 125 47 137 91 C137 91 136 91 136 91 C136 91 191 303 191 303 C191 303 348 302 348 302 C348 302 416 76 416 76 C416 76 415 76 415 76 C426 40 406 11 370 11 C370 11 358 11 358 11 C358 11 358 0 358 0 C358 0 439 0 439 0 C439 0 520 0 520 0 C520 0 602 0 602 0 C602 0 648 0 648 0 C648 0 648 11 648 11 L648 11 Z M336 341 C336 341 201 342 201 342 C201 342 263 583 263 583 C263 583 336 341 336 341 L336 341 Z " />
<glyph glyph-name="B" unicode="B" horiz-adv-x="595" d="M28 786 C28 786 36 786 36 786 C63 786 85 758 85 721 C85 721 85 76 85 76 C85 40 63 11 36 11 C36 11 28 11 28 11 C28 11 28 0 28 0 C28 0 85 0 85 0 C85 0 160 0 160 0 C160 0 235 0 235 0 C235 0 310 0 310 0 C457 0 575 107 575 242 C575 327 493 397 383 415 C480 444 549 516 549 601 C549 711 439 798 303 798 C303 798 235 798 235 798 C235 798 160 798 160 798 C160 798 85 798 85 798 C85 798 28 798 28 798 C28 798 28 786 28 786 L28 786 Z M235 425 C235 425 235 760 235 760 C235 760 303 760 303 760 C356 760 399 689 399 601 C399 503 350 425 289 425 C289 425 235 425 235 425 L235 425 Z M235 390 C235 390 280 390 280 390 C357 390 418 324 418 242 C418 129 363 38 295 38 C295 38 235 38 235 38 C235 38 235 390 235 390 L235 390 Z " />
<glyph glyph-name="C" unicode="C" horiz-adv-x="686" d="M627 617 C627 617 627 746 627 746 C627 746 617 729 617 729 C617 729 617 729 617 729 C617 729 627 746 627 746 C572 778 473 803 404 803 C200 803 36 623 36 399 C36 175 200 -5 404 -5 C473 -5 572 20 627 52 C627 52 627 181 627 181 C627 181 617 181 617 181 C614 173 610 161 607 153 C587 97 515 47 440 35 C427 34 415 33 404 33 C291 33 201 196 201 399 C201 602 291 765 404 765 C421 765 440 763 459 760 C459 760 459 760 459 760 C522 751 588 699 607 644 C610 637 614 625 617 617 C617 617 627 617 627 617 L627 617 Z " />
<glyph glyph-name="D" unicode="D" horiz-adv-x="718" d="M28 786 C28 786 36 786 36 786 C63 786 85 758 85 721 C85 721 85 76 85 76 C85 40 63 11 36 11 C36 11 28 11 28 11 C28 11 28 0 28 0 C28 0 85 0 85 0 C85 0 160 0 160 0 C160 0 235 0 235 0 C235 0 329 0 329 0 C518 0 669 177 669 399 C669 621 507 798 305 798 C305 798 235 798 235 798 C235 798 160 798 160 798 C160 798 85 798 85 798 C85 798 28 798 28 798 C28 798 28 786 28 786 L28 786 Z M235 38 C235 38 235 760 235 760 C235 760 305 760 305 760 C424 760 519 599 519 399 C519 198 434 38 329 38 C329 38 235 38 235 38 L235 38 Z " />
<glyph glyph-name="E" unicode="E" horiz-adv-x="592" d="M430 326 C430 326 430 391 430 391 C430 391 430 410 430 410 C430 410 430 429 430 429 C430 429 430 486 430 486 C430 486 420 486 420 486 C420 486 418 478 418 478 C410 451 365 429 318 429 C318 429 247 429 247 429 C247 429 247 760 247 760 C247 760 361 760 361 760 C417 760 474 721 489 672 C489 672 494 657 494 657 C494 657 503 657 503 657 C503 657 503 779 503 779 C503 779 503 798 503 798 C503 798 485 798 485 798 C485 798 426 798 426 798 C426 798 247 798 247 798 C247 798 172 798 172 798 C172 798 97 798 97 798 C97 798 40 798 40 798 C40 798 40 786 40 786 C40 786 49 786 49 786 C75 786 97 758 97 721 C97 721 97 76 97 76 C97 40 75 11 49 11 C49 11 40 11 40 11 C40 11 40 0 40 0 C40 0 97 0 97 0 C97 0 172 0 172 0 C172 0 247 0 247 0 C247 0 424 0 424 0 C424 0 495 0 495 0 C495 0 500 0 500 0 C501 5 502 13 503 19 C509 53 519 107 525 141 C525 141 516 141 516 141 C516 141 509 125 509 125 C485 77 423 39 369 38 C369 38 365 38 365 38 C365 38 247 38 247 38 C247 38 247 391 247 391 C247 391 318 391 318 391 C365 391 410 367 418 336 C418 336 420 326 420 326 C420 326 430 326 430 326 L430 326 Z " />
<glyph glyph-name="F" unicode="F" horiz-adv-x="524" d="M420 321 C420 321 420 386 420 386 C420 386 420 404 420 404 C420 404 420 423 420 423 C420 423 420 481 420 481 C420 480 419 480 418 481 C414 480 410 480 410 481 C410 481 408 472 408 472 C400 445 355 423 308 423 C308 423 247 423 247 423 C247 423 247 760 247 760 C247 760 391 760 391 760 C447 760 504 721 519 672 C519 672 524 657 524 657 C524 657 533 657 533 657 C533 657 533 779 533 779 C533 779 533 798 533 798 C533 798 515 798 515 798 C515 798 456 798 456 798 C456 798 247 798 247 798 C247 798 172 798 172 798 C172 798 97 798 97 798 C97 798 40 798 40 798 C40 798 40 786 40 786 C40 786 49 786 49 786 C75 786 97 758 97 721 C97 721 97 76 97 76 C97 40 75 11 49 11 C49 11 40 11 40 11 C40 11 40 0 40 0 C40 0 97 0 97 0 C97 0 172 0 172 0 C172 0 247 0 247 0 C247 0 315 0 315 0 C315 0 315 11 315 11 C315 11 305 11 305 11 C273 11 248 40 247 76 C247 76 247 386 247 386 C247 386 308 386 308 386 C355 386 400 361 408 330 C408 330 410 321 410 321 C410 321 420 321 420 321 L420 321 Z " />
<glyph glyph-name="G" unicode="G" horiz-adv-x="713" d="M650 375 C650 375 593 375 593 375 C593 375 525 375 525 375 C525 375 458 375 458 375 C458 375 400 375 400 375 C400 375 400 363 400 363 C400 363 409 363 409 363 C436 363 458 334 458 298 C458 298 458 44 458 44 C428 37 399 33 374 33 C267 33 181 196 181 399 C181 602 267 765 374 765 C391 765 411 763 432 759 C490 745 548 696 567 644 C570 637 574 625 577 617 C577 617 587 617 587 617 C587 617 587 746 587 746 C587 746 577 729 577 729 C577 729 577 729 577 729 C577 729 587 746 587 746 C532 778 438 803 374 803 C175 803 16 623 16 399 C16 175 175 -5 374 -5 C441 -5 538 20 593 52 C593 52 593 298 593 298 C593 298 593 303 593 303 C594 336 615 363 641 363 C641 363 650 363 650 363 C650 363 650 375 650 375 L650 375 Z " />
<glyph glyph-name="H" unicode="H" horiz-adv-x="693" d="M654 798 C654 798 596 798 596 798 C596 798 521 798 521 798 C521 798 446 798 446 798 C446 798 389 798 389 798 C389 798 389 786 389 786 C389 786 397 786 397 786 C424 786 446 758 446 721 C446 721 446 421 446 421 C446 421 247 421 247 421 C247 421 247 721 247 721 C248 758 269 786 296 786 C296 786 305 786 305 786 C305 786 305 798 305 798 C305 798 247 798 247 798 C247 798 172 798 172 798 C172 798 97 798 97 798 C97 798 40 798 40 798 C40 798 40 786 40 786 C40 786 49 786 49 786 C75 786 97 758 97 721 C97 721 97 76 97 76 C97 40 75 11 49 11 C49 11 40 11 40 11 C40 11 40 0 40 0 C40 0 97 0 97 0 C97 0 172 0 172 0 C172 0 247 0 247 0 C247 0 305 0 305 0 C305 0 305 11 305 11 C305 11 296 11 296 11 C269 11 248 40 247 76 C247 76 247 384 247 384 C247 384 446 384 446 384 C446 384 446 76 446 76 C446 40 424 11 397 11 C397 11 389 11 389 11 C389 11 389 0 389 0 C389 0 446 0 446 0 C446 0 521 0 521 0 C521 0 596 0 596 0 C596 0 654 0 654 0 C654 0 654 11 654 11 C654 11 645 11 645 11 C618 11 596 40 596 76 C596 76 596 721 596 721 C596 758 618 786 645 786 C645 786 654 786 654 786 C654 786 654 798 654 798 L654 798 Z " />
<glyph glyph-name="I" unicode="I" horiz-adv-x="344" d="M305 798 C305 798 247 798 247 798 C247 798 172 798 172 798 C172 798 97 798 97 798 C97 798 40 798 40 798 C40 798 40 786 40 786 C40 786 49 786 49 786 C75 786 97 758 97 721 C97 721 97 76 97 76 C97 40 75 11 49 11 C49 11 40 11 40 11 C40 11 40 0 40 0 C40 0 97 0 97 0 C97 0 172 0 172 0 C172 0 247 0 247 0 C247 0 305 0 305 0 C305 0 305 11 305 11 C305 11 296 11 296 11 C269 11 248 40 247 76 C247 76 247 721 247 721 C248 758 269 786 296 786 C296 786 305 786 305 786 C305 786 305 798 305 798 L305 798 Z " />
<glyph glyph-name="J" unicode="J" horiz-adv-x="430" d="M390 798 C390 798 333 798 333 798 C333 798 258 798 258 798 C258 798 183 798 183 798 C183 798 125 798 125 798 C125 798 125 786 125 786 C125 786 134 786 134 786 C161 786 183 758 183 721 C183 721 183 242 183 242 C183 94 177 20 166 20 C145 20 128 44 127 75 C127 108 96 135 60 135 C25 135 -1 108 0 75 C1 28 58 -10 129 -10 C265 -10 333 116 333 368 C333 368 333 721 333 721 C333 758 354 786 382 786 C382 786 390 786 390 786 C390 786 390 798 390 798 L390 798 Z " />
<glyph glyph-name="K" unicode="K" horiz-adv-x="612" d="M524 798 C524 798 473 798 473 798 C473 798 450 798 450 798 C450 798 428 798 428 798 C428 798 371 798 371 798 C370 798 370 795 371 792 C370 789 370 786 371 786 C371 786 378 786 378 786 C401 786 406 761 391 728 C391 728 235 429 235 429 C235 429 235 721 235 721 C235 758 257 786 284 786 C284 786 292 786 292 786 C292 786 292 798 292 798 C292 798 235 798 235 798 C235 798 160 798 160 798 C160 798 85 798 85 798 C85 798 28 798 28 798 C28 798 28 786 28 786 C28 786 36 786 36 786 C63 786 85 758 85 721 C85 721 85 76 85 76 C85 40 63 11 36 11 C36 11 28 11 28 11 C28 11 28 0 28 0 C28 0 85 0 85 0 C85 0 160 0 160 0 C160 0 235 0 235 0 C235 0 292 0 292 0 C292 0 292 11 292 11 C292 11 284 11 284 11 C257 11 235 40 235 76 C235 76 235 429 235 429 C235 429 382 78 382 78 C405 23 462 -5 553 -5 C553 -5 603 -5 603 -5 C603 -5 603 24 603 24 C603 24 598 24 598 24 C553 24 505 86 453 210 C453 210 324 519 324 519 C324 519 432 721 432 721 C432 721 432 721 432 721 C451 758 488 786 515 786 C515 786 524 786 524 786 C524 786 524 798 524 798 L524 798 Z " />
<glyph glyph-name="L" unicode="L" horiz-adv-x="592" d="M512 152 C512 152 502 128 502 128 C482 78 428 39 379 38 C379 38 375 38 375 38 C375 38 247 38 247 38 C247 38 247 721 247 721 C248 758 269 786 296 786 C296 786 305 786 305 786 C305 786 305 798 305 798 C305 798 247 798 247 798 C247 798 172 798 172 798 C172 798 97 798 97 798 C97 798 40 798 40 798 C40 798 40 786 40 786 C40 786 49 786 49 786 C75 786 97 758 97 721 C97 721 97 76 97 76 C97 40 75 11 49 11 C49 11 40 11 40 11 C40 11 40 0 40 0 C40 0 97 0 97 0 C97 0 172 0 172 0 C172 0 247 0 247 0 C247 0 424 0 424 0 C424 0 495 0 495 0 C495 0 500 0 500 0 C501 5 502 13 503 19 C510 54 520 111 526 147 C522 148 512 152 512 152 L512 152 Z " />
<glyph glyph-name="M" unicode="M" horiz-adv-x="815" d="M778 798 C778 798 721 798 721 798 C721 798 653 798 653 798 C653 798 638 798 638 798 C638 798 586 798 586 798 C586 798 409 216 409 216 C409 216 228 798 228 798 C228 798 157 798 157 798 C157 798 135 798 135 798 C135 798 112 798 112 798 C112 798 55 798 55 798 C54 798 54 795 55 792 C54 789 54 786 55 786 C55 786 63 786 63 786 C88 786 108 762 110 729 C110 729 89 76 89 76 C89 76 89 76 89 76 C88 40 65 11 39 11 C39 11 30 11 30 11 C30 11 30 0 30 0 C30 0 87 0 87 0 C87 0 110 0 110 0 C110 0 132 0 132 0 C132 0 216 0 216 0 C216 0 216 11 216 11 C216 11 204 11 204 11 C164 11 133 47 135 91 C135 91 135 91 135 91 C135 91 150 585 150 585 C150 585 320 60 320 60 C320 60 341 -5 341 -5 C341 -5 380 125 380 125 C380 125 408 215 408 215 C408 215 408 215 408 215 C408 215 381 125 381 125 C381 125 341 -5 341 -5 C341 -5 379 -5 379 -5 C379 -5 589 646 589 646 C589 646 600 76 600 76 C600 76 599 76 599 76 C600 40 579 11 552 11 C552 11 543 11 543 11 C543 11 543 0 543 0 C543 0 601 0 601 0 C601 0 676 0 676 0 C676 0 751 0 751 0 C751 0 808 0 808 0 C808 0 808 11 808 11 C808 11 799 11 799 11 C773 11 752 37 748 70 C748 70 724 721 724 721 C724 721 724 721 724 721 C722 758 743 786 769 786 C769 786 778 786 778 786 C778 786 778 798 778 798 L778 798 Z " />
<glyph glyph-name="N" unicode="N" horiz-adv-x="628" d="M591 798 C591 798 534 798 534 798 C534 798 511 798 511 798 C511 798 489 798 489 798 C489 798 431 798 431 798 C431 798 431 786 431 786 C431 786 440 786 440 786 C467 786 489 758 489 721 C489 721 489 240 489 240 C489 240 228 798 228 798 C228 798 138 736 138 736 C138 736 138 736 138 736 C138 736 228 798 228 798 C228 798 138 798 138 798 C138 798 116 798 116 798 C116 798 93 798 93 798 C93 798 36 798 36 798 C36 798 36 786 36 786 C36 786 44 786 44 786 C71 786 93 758 93 721 C93 721 93 76 93 76 C93 40 71 11 44 11 C44 11 36 11 36 11 C36 11 36 0 36 0 C36 0 93 0 93 0 C93 0 116 0 116 0 C116 0 138 0 138 0 C138 0 196 0 196 0 C196 0 196 11 196 11 C196 11 187 11 187 11 C160 11 138 40 138 76 C138 76 138 642 138 642 C138 642 420 60 420 60 C420 60 459 -20 459 -20 C459 -20 534 -20 534 -20 C534 -20 534 115 534 115 C534 115 534 721 534 721 C534 758 555 786 583 786 C583 786 591 786 591 786 C591 786 591 798 591 798 L591 798 Z " />
<glyph glyph-name="O" unicode="O" horiz-adv-x="695" d="M340 33 C255 33 201 216 201 399 C201 582 255 765 340 765 C426 765 480 582 480 399 C480 216 426 33 340 33 L340 33 Z M36 399 C36 197 154 -5 340 -5 C527 -5 645 197 645 399 C645 601 527 803 340 803 C154 803 36 601 36 399 L36 399 Z " />
<glyph glyph-name="P" unicode="P" horiz-adv-x="539" d="M28 786 C28 786 36 786 36 786 C63 786 85 758 85 721 C85 721 85 76 85 76 C85 40 63 11 36 11 C36 11 28 11 28 11 C28 11 28 0 28 0 C28 0 85 0 85 0 C85 0 160 0 160 0 C160 0 235 0 235 0 C235 0 292 0 292 0 C292 0 292 11 292 11 C292 11 284 11 284 11 C257 11 235 40 235 76 C235 76 235 340 235 340 C235 340 277 340 277 340 C411 340 519 443 519 571 C519 697 416 798 287 798 C287 798 235 798 235 798 C235 798 160 798 160 798 C160 798 85 798 85 798 C85 798 28 798 28 798 C28 798 28 786 28 786 L28 786 Z M235 378 C235 378 235 760 235 760 C235 760 287 760 287 760 C329 760 362 676 362 571 C362 464 324 378 277 378 C277 378 235 378 235 378 L235 378 Z " />
<glyph glyph-name="Q" unicode="Q" horiz-adv-x="695" d="M711 -9 C711 -9 695 -2 695 -2 C683 -26 624 -46 561 -46 C473 -46 403 -28 362 -4 C536 11 645 205 645 399 C645 601 527 803 340 803 C154 803 36 601 36 399 C36 211 138 24 301 -2 C385 -81 480 -143 545 -143 C602 -143 676 -83 711 -9 L711 -9 Z M340 33 C255 33 201 216 201 399 C201 582 255 765 340 765 C426 765 480 582 480 399 C480 216 426 33 340 33 L340 33 Z " />
<glyph glyph-name="R" unicode="R" horiz-adv-x="676" d="M28 786 C28 786 36 786 36 786 C63 786 85 758 85 721 C85 721 85 76 85 76 C85 40 63 11 36 11 C36 11 28 11 28 11 C28 11 28 0 28 0 C28 0 85 0 85 0 C85 0 160 0 160 0 C160 0 235 0 235 0 C235 0 292 0 292 0 C292 0 292 11 292 11 C292 11 284 11 284 11 C257 11 235 40 235 76 C235 76 235 364 235 364 C235 364 252 364 252 364 C252 364 375 106 375 106 C420 12 446 0 605 0 C605 0 655 0 655 0 C655 0 655 29 655 29 C655 29 650 29 650 29 C610 29 602 34 580 77 C580 77 419 391 419 391 C500 429 555 500 555 583 C555 702 443 798 302 798 C302 798 235 798 235 798 C235 798 160 798 160 798 C160 798 85 798 85 798 C85 798 28 798 28 798 C28 798 28 786 28 786 L28 786 Z M289 401 C289 401 235 401 235 401 C235 401 235 760 235 760 C235 760 302 760 302 760 C355 760 398 681 398 583 C398 482 349 401 289 401 L289 401 Z " />
<glyph glyph-name="S" unicode="S" horiz-adv-x="453" d="M38 180 C38 180 38 39 38 39 C80 14 152 -5 199 -5 C315 -5 408 98 408 226 C408 308 347 409 270 454 C197 496 139 569 139 618 C139 700 180 766 231 766 C233 766 237 765 242 763 C242 763 242 762 242 762 C279 747 320 704 334 666 C339 653 347 631 351 618 C351 618 361 618 361 618 C361 618 361 759 361 759 C361 759 348 736 348 736 C348 736 348 736 348 736 C348 736 361 759 361 759 C319 784 265 803 238 803 C125 803 35 694 35 558 C35 480 91 385 160 344 C239 298 302 219 302 165 C302 91 256 33 199 33 C190 33 177 36 162 41 C119 58 77 102 58 153 C55 160 51 172 48 180 C48 180 38 180 38 180 L38 180 Z " />
<glyph glyph-name="T" unicode="T" horiz-adv-x="581" d="M574 645 C570 682 565 742 562 779 C561 784 561 793 560 798 C560 798 524 798 524 798 C524 798 484 798 484 798 C484 798 88 798 88 798 C88 798 48 798 48 798 C48 798 12 798 12 798 C11 793 11 784 10 779 C7 742 2 682 -2 645 C-2 645 8 645 8 645 C8 645 22 680 22 680 C40 725 90 760 134 760 C134 760 211 760 211 760 C211 760 211 76 211 76 C211 40 189 11 162 11 C162 11 154 11 154 11 C154 11 154 0 154 0 C154 0 211 0 211 0 C211 0 286 0 286 0 C286 0 361 0 361 0 C361 0 419 0 419 0 C418 0 418 3 419 6 C418 9 418 11 419 11 C419 11 410 11 410 11 C383 11 361 40 361 76 C361 76 361 760 361 760 C361 760 438 760 438 760 C483 760 533 725 550 680 C550 680 565 645 565 645 C565 645 574 645 574 645 L574 645 Z " />
<glyph glyph-name="U" unicode="U" horiz-adv-x="617" d="M590 798 C590 798 524 798 524 798 C524 798 502 798 502 798 C502 798 479 798 479 798 C479 798 410 798 410 798 C410 798 410 786 410 786 C410 786 421 786 421 786 C453 786 479 753 479 711 C479 711 479 239 479 239 C479 132 427 47 322 47 C251 47 215 129 215 231 C215 231 215 721 215 721 C215 758 237 786 264 786 C264 786 272 786 272 786 C272 786 272 798 272 798 C272 798 215 798 215 798 C215 798 140 798 140 798 C140 798 65 798 65 798 C65 798 8 798 8 798 C8 798 8 786 8 786 C8 786 16 786 16 786 C43 786 65 758 65 721 C65 721 65 260 65 260 C65 113 143 -5 299 -5 C449 -5 524 97 524 224 C524 224 524 711 524 711 C525 753 549 786 580 786 C580 786 590 786 590 786 C590 786 590 798 590 798 L590 798 Z " />
<glyph glyph-name="V" unicode="V" horiz-adv-x="702" d="M667 798 C667 798 613 798 613 798 C613 798 590 798 590 798 C590 798 568 798 568 798 C568 798 476 798 476 798 C475 798 475 795 476 792 C475 789 475 786 476 786 C476 786 489 786 489 786 C530 786 552 746 541 696 C541 696 416 219 416 219 C416 219 260 721 260 721 C260 721 260 721 260 721 C248 758 267 786 302 786 C302 786 313 786 313 786 C313 786 313 798 313 798 C313 798 236 798 236 798 C236 798 154 798 154 798 C154 798 71 798 71 798 C71 798 29 798 29 798 C29 798 29 786 29 786 C29 786 36 786 36 786 C57 786 82 761 96 727 C96 727 354 -15 354 -15 C354 -15 392 -15 392 -15 C392 -15 594 728 594 728 C605 761 633 786 658 786 C658 786 667 786 667 786 C667 786 667 798 667 798 L667 798 Z " />
<glyph glyph-name="W" unicode="W" horiz-adv-x="961" d="M743 786 C743 786 756 786 756 786 C792 786 815 758 807 721 C807 721 808 721 808 721 C808 721 651 -15 651 -15 C651 -15 688 -15 688 -15 C688 -15 852 721 852 721 C852 721 852 721 852 721 C860 758 888 786 915 786 C915 786 924 786 924 786 C923 786 923 789 924 792 C923 795 923 798 924 798 C924 798 869 798 869 798 C869 798 846 798 846 798 C846 798 824 798 824 798 C824 798 743 798 743 798 C743 798 743 786 743 786 L743 786 Z M42 786 C42 786 49 786 49 786 C71 786 96 758 107 721 C107 721 107 721 107 721 C107 721 321 -15 321 -15 C321 -15 359 -15 359 -15 C359 -15 471 361 471 361 C471 361 651 -15 651 -15 C651 -15 707 250 707 250 C707 250 553 635 553 635 C553 635 516 635 516 635 C516 635 394 228 394 228 C394 228 267 729 267 729 C262 762 279 786 309 786 C309 786 319 786 319 786 C318 786 318 789 319 792 C318 795 318 798 319 798 C319 798 250 798 250 798 C250 798 167 798 167 798 C167 798 85 798 85 798 C85 798 42 798 42 798 C42 798 42 786 42 786 L42 786 Z " />
<glyph glyph-name="X" unicode="X" horiz-adv-x="669" d="M600 798 C600 798 548 798 548 798 C548 798 524 798 524 798 C524 798 500 798 500 798 C500 798 415 798 415 798 C415 798 415 786 415 786 C415 786 430 786 430 786 C466 786 483 758 467 721 C467 721 468 721 468 721 C468 721 369 486 369 486 C369 486 256 726 256 726 C242 760 255 786 288 786 C288 786 299 786 299 786 C299 786 299 798 299 798 C299 798 222 798 222 798 C222 798 136 798 136 798 C136 798 51 798 51 798 C51 798 14 798 14 798 C14 798 14 786 14 786 C14 786 20 786 20 786 C40 786 70 758 87 721 C87 721 87 721 87 721 C87 721 249 376 249 376 C249 376 249 376 249 376 C249 376 100 69 100 69 C82 36 49 11 24 11 C24 11 15 11 15 11 C15 11 15 0 15 0 C15 0 67 0 67 0 C67 0 90 0 90 0 C90 0 113 0 113 0 C113 0 198 0 198 0 C198 0 198 11 198 11 C198 11 186 11 186 11 C148 11 135 47 155 91 C155 91 155 91 155 91 C155 91 268 337 268 337 C268 337 390 76 390 76 C390 76 390 76 390 76 C407 40 393 11 360 11 C360 11 349 11 349 11 C349 11 349 0 349 0 C349 0 426 0 426 0 C426 0 511 0 511 0 C511 0 597 0 597 0 C597 0 633 0 633 0 C633 0 633 11 633 11 C633 11 627 11 627 11 C609 11 582 36 565 68 C565 68 388 444 388 444 C388 444 516 726 516 726 C533 761 565 786 592 786 C592 786 600 786 600 786 C600 786 600 798 600 798 L600 798 Z " />
<glyph glyph-name="Y" unicode="Y" horiz-adv-x="632" d="M446 11 C446 11 438 11 438 11 C410 11 389 40 389 76 C389 76 389 428 389 428 C389 428 389 428 389 428 C389 428 542 723 542 723 C561 759 594 786 617 786 C617 786 625 786 625 786 C625 786 625 798 625 798 C625 798 581 798 581 798 C581 798 558 798 558 798 C558 798 536 798 536 798 C536 798 452 798 452 798 C452 798 452 786 452 786 C452 786 463 786 463 786 C499 786 510 751 489 704 C489 704 368 465 368 465 C368 465 259 721 259 721 C259 721 259 721 259 721 C243 758 255 786 286 786 C286 786 295 786 295 786 C295 786 295 798 295 798 C295 798 226 798 226 798 C226 798 136 798 136 798 C136 798 46 798 46 798 C46 798 9 798 9 798 C9 798 9 786 9 786 C9 786 16 786 16 786 C34 786 58 764 75 734 C75 734 239 367 239 367 C239 367 239 76 239 76 C239 40 217 11 190 11 C190 11 181 11 181 11 C181 11 181 0 181 0 C181 0 239 0 239 0 C239 0 314 0 314 0 C314 0 389 0 389 0 C389 0 446 0 446 0 C446 0 446 11 446 11 L446 11 Z " />
<glyph glyph-name="Z" unicode="Z" horiz-adv-x="523" d="M65 779 C57 748 43 699 35 668 C35 668 44 668 44 668 C44 668 53 682 53 682 C82 725 141 760 185 760 C185 760 282 760 282 760 C282 760 26 0 26 0 C26 0 110 0 110 0 C110 0 194 0 194 0 C194 0 352 0 352 0 C352 0 423 0 423 0 C423 0 428 0 428 0 C429 6 431 14 432 19 C432 19 423 19 423 19 C423 19 423 20 423 20 C423 20 432 20 432 20 C438 55 448 113 454 148 C454 148 453 149 452 149 C446 152 441 154 441 154 C441 154 430 129 430 129 C410 79 353 39 303 39 C303 39 207 39 207 39 C207 39 466 798 466 798 C466 798 380 798 380 798 C380 798 295 798 295 798 C295 798 146 798 146 798 C146 798 106 798 106 798 C106 798 70 798 70 798 C68 793 66 784 65 779 L65 779 Z " />
<glyph glyph-name="bracketleft" unicode="&#x5b;" horiz-adv-x="280" d="M166 768 C166 768 271 768 271 768 C271 768 271 798 271 798 C271 798 166 798 166 798 C166 798 61 798 61 798 C61 798 61 -120 61 -120 C61 -120 166 -120 166 -120 C166 -120 271 -120 271 -120 C271 -120 271 -90 271 -90 C271 -90 166 -90 166 -90 C166 -90 166 768 166 768 L166 768 Z " />
<glyph glyph-name="backslash" unicode="&#x5c;" horiz-adv-x="283" d="M237 -145 C237 -145 284 -145 284 -145 C284 -145 -13 848 -13 848 C-13 848 -60 848 -60 848 C-60 848 237 -145 237 -145 L237 -145 Z " />
<glyph glyph-name="bracketright" unicode="&#x5d;" horiz-adv-x="284" d="M109 768 C109 768 109 -90 109 -90 C109 -90 4 -90 4 -90 C4 -90 4 -120 4 -120 C4 -120 109 -120 109 -120 C109 -120 214 -120 214 -120 C214 -120 214 798 214 798 C214 798 109 798 109 798 C109 798 4 798 4 798 C4 798 4 768 4 768 C4 768 109 768 109 768 L109 768 Z " />
<glyph glyph-name="underscore" unicode="&#x5f;" horiz-adv-x="311" d="M5 -50 C5 -50 5 -125 5 -125 C5 -125 306 -125 306 -125 C306 -125 306 -50 306 -50 C306 -50 5 -50 5 -50 L5 -50 Z " />
<glyph glyph-name="a" unicode="a" horiz-adv-x="457" d="M435 75 C428 64 414 55 392 55 C363 55 352 86 352 124 C352 124 352 488 352 488 C352 574 297 643 229 643 C140 643 58 588 45 520 C45 520 180 520 180 520 C189 567 198 605 200 605 C205 605 209 566 209 518 C209 518 209 331 209 331 C209 331 190 328 190 328 C104 317 36 232 36 138 C36 59 75 -5 123 -5 C159 -5 196 10 225 33 C239 7 263 -10 300 -10 C381 -10 429 20 451 57 C451 57 435 75 435 75 L435 75 Z M209 292 C209 292 209 110 209 110 C209 103 209 96 210 89 C202 88 195 87 187 87 C178 87 170 127 170 177 C170 235 180 283 192 287 C192 287 209 292 209 292 L209 292 Z " />
<glyph glyph-name="b" unicode="b" horiz-adv-x="521" d="M201 568 C203 576 209 583 216 583 C272 583 317 448 317 280 C317 143 289 33 253 33 C224 33 201 126 201 242 C201 242 201 568 201 568 L201 568 Z M201 590 C201 590 201 759 201 759 C201 759 201 823 201 823 C201 823 201 858 201 858 C201 858 174 858 174 858 C174 858 8 806 8 806 C8 806 8 799 8 799 C53 794 66 776 66 722 C66 722 66 0 66 0 C66 0 81 0 81 0 C93 24 116 44 132 44 C172 44 201 -5 253 -5 C371 -5 466 140 466 322 C466 500 401 643 320 643 C261 643 208 620 201 590 L201 590 Z " />
<glyph glyph-name="c" unicode="c" horiz-adv-x="479" d="M422 90 C422 90 410 105 410 105 C391 90 364 77 349 77 C262 77 193 196 193 345 C193 489 218 605 249 605 C270 605 290 567 295 520 C298 484 328 454 362 454 C395 454 422 481 422 514 C416 586 346 643 264 643 C145 643 50 488 50 293 C50 128 133 -5 236 -5 C277 -5 359 37 422 90 L422 90 Z " />
<glyph glyph-name="d" unicode="d" horiz-adv-x="539" d="M429 759 C429 759 429 823 429 823 C429 823 429 858 429 858 C429 858 402 858 402 858 C402 858 237 806 237 806 C237 806 237 799 237 799 C281 794 294 776 294 722 C294 722 294 622 294 622 C279 635 262 643 248 643 C133 643 41 482 41 281 C41 122 109 -5 195 -5 C207 -5 249 27 294 69 C294 69 294 35 294 35 C294 35 294 0 294 0 C294 0 321 0 321 0 C321 0 487 52 487 52 C487 52 487 58 487 58 C444 68 429 79 429 135 C429 135 429 759 429 759 L429 759 Z M294 99 C294 99 294 90 294 90 C285 82 274 77 269 77 C221 77 182 190 182 332 C182 484 208 606 241 606 C258 606 278 589 294 567 C294 567 294 99 294 99 L294 99 Z " />
<glyph glyph-name="e" unicode="e" horiz-adv-x="478" d="M428 90 C428 90 416 105 416 105 C397 90 369 77 352 77 C264 77 193 196 193 345 C193 361 193 377 194 392 C194 392 428 392 428 392 C428 532 351 643 255 643 C141 643 50 488 50 293 C50 128 134 -5 239 -5 C281 -5 365 37 428 90 L428 90 Z M195 418 C202 526 222 605 248 605 C278 605 302 561 302 506 C302 505 302 505 302 504 C301 469 272 436 238 428 C238 428 195 418 195 418 L195 418 Z " />
<glyph glyph-name="f" unicode="f" horiz-adv-x="413" d="M259 11 C259 11 251 11 251 11 C223 11 202 40 202 76 C202 76 202 585 202 585 C202 585 294 585 294 585 C294 585 294 638 294 638 C294 638 202 638 202 638 C202 638 202 677 202 677 C202 761 230 828 265 828 C280 828 295 795 298 754 C301 721 331 694 366 694 C399 694 426 721 426 754 C420 812 366 858 303 858 C185 858 84 791 74 707 C74 707 67 638 67 638 C67 638 27 638 27 638 C27 638 27 585 27 585 C27 585 67 585 67 585 C67 585 67 76 67 76 C67 40 45 11 18 11 C18 11 9 11 9 11 C9 11 9 0 9 0 C9 0 67 0 67 0 C67 0 134 0 134 0 C134 0 202 0 202 0 C202 0 259 0 259 0 C259 0 259 11 259 11 L259 11 Z " />
<glyph glyph-name="g" unicode="g" horiz-adv-x="418" d="M418 638 C418 638 276 604 276 604 C276 604 276 604 276 604 C252 628 223 643 191 643 C112 643 49 554 49 442 C49 361 82 292 130 260 C77 248 37 195 37 130 C37 82 64 42 104 22 C51 -7 12 -65 12 -123 C12 -190 73 -244 150 -244 C288 -244 398 -136 398 0 C398 77 326 138 236 138 C236 138 167 135 167 135 C145 134 128 155 128 182 C128 215 139 241 154 241 C154 241 191 241 191 241 C270 241 333 330 333 442 C333 484 324 522 309 554 C309 554 418 563 418 563 C418 563 418 638 418 638 L418 638 Z M177 442 C177 537 183 613 191 613 C199 613 206 537 206 442 C206 347 199 271 191 271 C183 271 177 347 177 442 L177 442 Z M135 10 C147 7 160 6 173 7 C173 7 199 10 199 10 C256 10 301 -25 301 -68 C301 -145 241 -207 165 -207 C131 -207 103 -162 103 -107 C103 -57 116 -11 135 10 C135 10 135 10 135 10 L135 10 Z " />
<glyph glyph-name="h" unicode="h" horiz-adv-x="542" d="M502 11 C502 11 494 11 494 11 C466 11 445 40 445 76 C445 76 445 476 445 476 C445 569 417 643 362 643 C312 643 263 615 237 576 C237 576 237 759 237 759 C237 759 237 823 237 823 C237 823 237 858 237 858 C237 858 210 858 210 858 C210 858 44 806 44 806 C44 806 44 799 44 799 C89 794 102 776 102 722 C102 722 102 76 102 76 C102 40 80 11 53 11 C53 11 44 11 44 11 C44 11 44 0 44 0 C44 0 102 0 102 0 C102 0 169 0 169 0 C169 0 237 0 237 0 C237 0 252 0 252 0 C252 0 294 0 294 0 C294 0 310 0 310 0 C310 0 377 0 377 0 C377 0 445 0 445 0 C445 0 502 0 502 0 C502 0 502 11 502 11 L502 11 Z M273 13 C252 20 237 46 237 76 C237 76 237 546 237 546 C243 550 250 552 258 552 C293 552 310 512 310 462 C310 462 310 76 310 76 C310 46 294 20 273 13 C273 13 273 13 273 13 L273 13 Z " />
<glyph glyph-name="i" unicode="i" horiz-adv-x="339" d="M295 11 C295 11 286 11 286 11 C259 11 238 40 237 76 C237 76 237 539 237 539 C237 539 237 603 237 603 C237 603 237 638 237 638 C237 638 210 638 210 638 C210 638 45 586 45 586 C45 586 45 579 45 579 C89 574 102 556 102 502 C102 502 102 76 102 76 C102 40 80 11 54 11 C54 11 45 11 45 11 C45 11 45 0 45 0 C45 0 102 0 102 0 C102 0 170 0 170 0 C170 0 237 0 237 0 C237 0 295 0 295 0 C295 0 295 11 295 11 L295 11 Z M162 708 C207 708 242 743 242 788 C242 832 207 868 162 868 C118 868 82 832 82 788 C82 743 118 708 162 708 L162 708 Z " />
<glyph glyph-name="j" unicode="j" horiz-adv-x="327" d="M150 708 C194 708 230 743 230 788 C230 832 194 868 150 868 C105 868 70 832 70 788 C70 743 105 708 150 708 L150 708 Z M90 511 C90 511 89 -3 89 -3 C89 -137 66 -189 14 -222 C14 -222 26 -241 26 -241 C165 -154 226 -83 226 33 C226 33 225 603 225 603 C225 603 225 638 225 638 C225 638 198 638 198 638 C198 638 32 586 32 586 C32 586 32 579 32 579 C74 574 88 558 90 511 L90 511 Z " />
<glyph glyph-name="k" unicode="k" horiz-adv-x="529" d="M564 11 C564 11 556 11 556 11 C529 11 495 39 478 74 C478 74 310 440 310 440 C310 440 393 567 393 567 C418 601 455 626 481 626 C481 626 490 626 490 626 C490 626 490 638 490 638 C490 638 440 638 440 638 C440 638 410 638 410 638 C410 638 380 638 380 638 C380 638 322 638 322 638 C323 638 323 635 322 632 C323 629 323 626 322 626 C322 626 330 626 330 626 C352 626 357 602 343 570 C343 570 225 351 225 351 C225 351 225 759 225 759 C225 759 225 823 225 823 C225 823 225 858 225 858 C225 858 198 858 198 858 C198 858 32 806 32 806 C32 806 32 799 32 799 C77 794 90 776 90 722 C90 722 90 76 90 76 C90 40 68 11 41 11 C41 11 32 11 32 11 C32 11 32 0 32 0 C32 0 90 0 90 0 C90 0 157 0 157 0 C157 0 225 0 225 0 C225 0 282 0 282 0 C282 0 282 11 282 11 C282 11 274 11 274 11 C246 11 225 40 225 76 C225 76 225 351 225 351 C225 351 318 76 318 76 C318 76 318 76 318 76 C330 40 320 11 295 11 C295 11 286 11 286 11 C286 11 286 0 286 0 C286 0 344 0 344 0 C344 0 428 0 428 0 C428 0 512 0 512 0 C512 0 564 0 564 0 C564 0 564 11 564 11 L564 11 Z " />
<glyph glyph-name="l" unicode="l" horiz-adv-x="339" d="M295 11 C295 11 286 11 286 11 C259 11 238 40 237 76 C237 76 237 759 237 759 C237 759 237 823 237 823 C237 823 237 858 237 858 C237 858 210 858 210 858 C210 858 45 806 45 806 C45 806 45 799 45 799 C89 794 102 776 102 722 C102 722 102 76 102 76 C102 40 80 11 54 11 C54 11 45 11 45 11 C45 11 45 0 45 0 C45 0 102 0 102 0 C102 0 170 0 170 0 C170 0 237 0 237 0 C237 0 295 0 295 0 C295 0 295 11 295 11 L295 11 Z " />
<glyph glyph-name="m" unicode="m" horiz-adv-x="770" d="M730 11 C730 11 721 11 721 11 C695 11 674 38 673 71 C673 71 673 76 673 76 C673 76 673 476 673 476 C673 569 631 643 583 643 C516 643 463 612 440 569 C424 614 397 643 369 643 C311 643 262 615 237 576 C237 576 237 638 237 638 C237 638 210 638 210 638 C210 638 44 586 44 586 C44 586 44 579 44 579 C89 574 102 555 102 502 C102 502 102 76 102 76 C102 40 80 11 53 11 C53 11 44 11 44 11 C44 11 44 0 44 0 C44 0 102 0 102 0 C102 0 169 0 169 0 C169 0 237 0 237 0 C237 0 262 0 262 0 C262 0 294 0 294 0 C294 0 320 0 320 0 C320 0 387 0 387 0 C387 0 455 0 455 0 C455 0 480 0 480 0 C480 0 512 0 512 0 C512 0 538 0 538 0 C538 0 605 0 605 0 C605 0 673 0 673 0 C673 0 730 0 730 0 C730 0 730 11 730 11 L730 11 Z M496 12 C472 16 455 43 455 76 C455 76 455 476 455 476 C455 499 452 522 448 542 C455 548 466 552 479 552 C510 552 537 512 537 462 C537 462 538 71 538 71 C536 41 519 16 496 12 C496 12 496 12 496 12 L496 12 Z M278 12 C254 16 237 43 237 76 C237 76 237 526 237 526 C237 526 190 526 190 526 C190 526 222 535 222 535 C222 535 222 527 222 527 C223 530 224 533 225 536 C225 536 237 539 237 539 C237 539 237 552 237 552 C244 557 253 561 263 561 C293 561 320 517 320 462 C320 462 320 76 320 76 C320 43 302 16 278 12 C278 12 278 12 278 12 L278 12 Z " />
<glyph glyph-name="n" unicode="n" horiz-adv-x="522" d="M502 11 C502 11 494 11 494 11 C466 11 445 40 445 76 C445 76 445 476 445 476 C445 569 417 643 362 643 C312 643 263 615 237 576 C237 576 237 638 237 638 C237 638 210 638 210 638 C210 638 44 586 44 586 C44 586 44 579 44 579 C89 574 102 555 102 502 C102 502 102 76 102 76 C102 40 80 11 53 11 C53 11 44 11 44 11 C44 11 44 0 44 0 C44 0 102 0 102 0 C102 0 169 0 169 0 C169 0 237 0 237 0 C237 0 252 0 252 0 C252 0 294 0 294 0 C294 0 310 0 310 0 C310 0 377 0 377 0 C377 0 445 0 445 0 C445 0 502 0 502 0 C502 0 502 11 502 11 L502 11 Z M273 13 C252 20 237 46 237 76 C237 76 237 526 237 526 C237 526 190 526 190 526 C190 526 222 535 222 535 C222 535 222 527 222 527 C223 530 224 533 226 536 C226 536 237 539 237 539 C237 539 237 546 237 546 C243 550 250 552 258 552 C293 552 310 512 310 462 C310 462 310 76 310 76 C310 46 294 20 273 13 C273 13 273 13 273 13 L273 13 Z " />
<glyph glyph-name="o" unicode="o" horiz-adv-x="534" d="M274 25 C233 25 200 156 200 319 C200 482 233 613 274 613 C316 613 349 482 349 319 C349 156 316 25 274 25 L274 25 Z M50 319 C50 139 150 -5 274 -5 C399 -5 499 139 499 319 C499 499 399 643 274 643 C150 643 50 499 50 319 L50 319 Z " />
<glyph glyph-name="p" unicode="p" horiz-adv-x="555" d="M294 -219 C294 -219 286 -219 286 -219 C258 -219 237 -190 237 -154 C237 -154 237 4 237 4 C254 -2 272 -5 291 -5 C418 -5 520 150 520 343 C520 509 454 643 371 643 C305 643 250 615 230 575 C230 575 218 638 218 638 C218 638 191 638 191 638 C191 638 44 586 44 586 C44 586 44 579 44 579 C89 574 102 555 102 502 C102 502 102 -154 102 -154 C102 -190 80 -219 53 -219 C53 -219 44 -219 44 -219 C44 -219 44 -230 44 -230 C44 -230 102 -230 102 -230 C102 -230 169 -230 169 -230 C169 -230 237 -230 237 -230 C237 -230 294 -230 294 -230 C294 -230 294 -219 294 -219 L294 -219 Z M222 535 C222 535 222 526 222 526 C222 526 190 526 190 526 C190 526 222 535 222 535 L222 535 Z M236 544 C244 549 255 552 267 552 C327 552 375 421 375 256 C375 132 337 33 291 33 C266 33 242 78 237 135 C237 135 237 526 237 526 C237 526 222 526 222 526 C223 530 225 533 227 536 C227 536 237 539 237 539 C237 539 236 544 236 544 L236 544 Z " />
<glyph glyph-name="q" unicode="q" horiz-adv-x="512" d="M467 -219 C467 -219 459 -219 459 -219 C431 -219 410 -190 410 -154 C410 -154 410 638 410 638 C410 638 395 638 395 638 C395 638 395 637 395 637 C382 613 345 594 311 594 C279 594 266 643 223 643 C112 643 23 482 23 281 C23 122 84 -5 160 -5 C177 -5 226 30 275 77 C275 77 275 -154 275 -154 C275 -190 253 -219 226 -219 C226 -219 217 -219 217 -219 C217 -219 217 -230 217 -230 C217 -230 275 -230 275 -230 C275 -230 342 -230 342 -230 C342 -230 410 -230 410 -230 C410 -230 467 -230 467 -230 C467 -230 467 -219 467 -219 L467 -219 Z M275 102 C260 87 243 77 234 77 C195 77 164 190 164 332 C164 484 190 605 223 605 C252 605 275 512 275 395 C275 395 275 102 275 102 L275 102 Z " />
<glyph glyph-name="r" unicode="r" horiz-adv-x="445" d="M294 11 C294 11 286 11 286 11 C258 11 237 40 237 76 C237 76 237 526 237 526 C237 526 222 526 222 526 C223 530 226 535 232 538 C232 538 237 539 237 539 C237 539 237 540 237 540 C242 542 248 543 254 543 C292 543 332 493 371 493 C406 493 435 522 435 557 C435 605 411 643 362 643 C303 643 251 614 231 573 C231 573 218 638 218 638 C218 638 191 638 191 638 C191 638 44 586 44 586 C44 586 44 579 44 579 C89 574 102 555 102 502 C102 502 102 76 102 76 C102 40 80 11 53 11 C53 11 44 11 44 11 C44 11 44 0 44 0 C44 0 102 0 102 0 C102 0 169 0 169 0 C169 0 237 0 237 0 C237 0 294 0 294 0 C294 0 294 11 294 11 L294 11 Z M222 535 C222 535 222 526 222 526 C222 526 190 526 190 526 C190 526 222 535 222 535 L222 535 Z " />
<glyph glyph-name="s" unicode="s" horiz-adv-x="356" d="M44 134 C44 134 44 28 44 28 C75 9 116 -5 136 -5 C231 -5 306 83 306 193 C306 253 275 330 235 367 C187 411 149 475 149 510 C149 565 173 609 204 613 C212 618 222 612 233 597 C227 597 221 596 218 593 C218 593 203 612 203 612 C197 608 216 591 250 570 C257 556 265 540 271 521 C272 517 274 511 276 506 C276 506 285 506 285 506 C285 506 285 605 285 605 C285 605 273 584 273 584 C273 584 273 584 273 584 C273 584 285 605 285 605 C249 626 215 643 208 643 C117 643 45 563 45 464 C45 405 87 319 140 271 C170 243 194 186 194 143 C194 78 172 26 144 26 C142 0 130 1 112 24 C117 24 120 25 120 27 C120 27 144 26 144 26 C144 26 122 38 91 56 C82 72 71 92 61 115 C59 121 55 129 52 134 C52 134 44 134 44 134 L44 134 Z M204 613 C205 613 207 613 208 613 C206 613 204 613 203 612 C203 612 203 612 203 612 C203 612 204 613 204 613 C204 613 204 613 204 613 L204 613 Z " />
<glyph glyph-name="t" unicode="t" horiz-adv-x="369" d="M337 638 C337 638 202 638 202 638 C202 638 202 805 202 805 C202 805 180 805 180 805 C125 698 56 607 25 600 C25 600 25 585 25 585 C25 585 67 585 67 585 C67 585 67 147 67 147 C67 37 100 -5 186 -5 C245 -5 304 25 350 63 C350 63 340 75 340 75 C327 64 299 55 252 55 C216 55 202 74 202 123 C202 123 202 585 202 585 C202 585 337 585 337 585 C337 585 337 638 337 638 L337 638 Z " />
<glyph glyph-name="u" unicode="u" horiz-adv-x="494" d="M222 626 C222 626 231 626 231 626 C258 626 280 598 280 561 C280 561 280 105 280 105 C269 92 266 84 274 84 C233 84 206 121 206 168 C206 168 207 638 207 638 C207 638 139 638 139 638 C139 638 72 638 72 638 C72 638 14 638 14 638 C14 638 14 626 14 626 C14 626 23 626 23 626 C50 626 72 598 72 561 C72 561 72 153 72 153 C72 65 110 -5 168 -5 C182 -5 228 33 280 84 C280 84 280 35 280 35 C280 35 280 0 280 0 C280 0 307 0 307 0 C307 0 472 52 472 52 C472 52 472 58 472 58 C472 58 464 60 464 60 C428 67 416 82 415 124 C415 124 415 135 415 135 C415 135 415 638 415 638 C415 638 347 638 347 638 C347 638 280 638 280 638 C280 638 222 638 222 638 C222 638 222 626 222 626 L222 626 Z " />
<glyph glyph-name="v" unicode="v" horiz-adv-x="543" d="M515 638 C515 638 461 638 461 638 C461 638 438 638 438 638 C438 638 416 638 416 638 C416 638 358 638 358 638 C359 638 359 635 358 632 C359 629 359 626 358 626 C358 626 367 626 367 626 C392 626 405 598 395 561 C395 561 395 561 395 561 C395 561 304 225 304 225 C304 225 206 561 206 561 C206 561 207 561 207 561 C196 598 208 626 234 626 C234 626 242 626 242 626 C242 626 242 638 242 638 C242 638 184 638 184 638 C184 638 107 638 107 638 C107 638 30 638 30 638 C30 638 -24 638 -24 638 C-24 638 -24 626 -24 626 C-24 626 -15 626 -15 626 C11 626 41 599 54 564 C54 564 240 -10 240 -10 C240 -10 263 -10 263 -10 C263 -10 440 569 440 569 C453 602 481 626 506 626 C506 626 515 626 515 626 C515 626 515 638 515 638 L515 638 Z " />
<glyph glyph-name="w" unicode="w" horiz-adv-x="838" d="M811 638 C811 638 769 638 769 638 C769 638 724 638 724 638 C724 638 643 638 643 638 C643 638 643 626 643 626 C643 626 659 626 659 626 C693 626 716 606 696 537 C696 537 697 537 697 537 C697 537 612 225 612 225 C612 225 517 552 517 552 C517 552 517 552 517 552 C517 552 517 552 517 553 C517 553 513 565 513 565 C501 612 520 626 550 626 C550 626 565 626 565 626 C565 626 565 638 565 638 C565 638 492 638 492 638 C492 638 338 638 338 638 C338 638 299 638 299 638 C299 638 299 626 299 626 C299 626 313 626 313 626 C328 626 345 611 364 557 C364 557 384 497 384 497 C384 497 383 497 383 497 C383 497 316 221 316 221 C316 221 221 574 221 574 C214 614 231 626 256 626 C256 626 271 626 271 626 C271 626 271 638 271 638 C271 638 204 638 204 638 C204 638 50 638 50 638 C50 638 8 638 8 638 C8 638 8 626 8 626 C8 626 22 626 22 626 C39 626 57 611 76 557 C76 557 260 -10 260 -10 C260 -10 283 -10 283 -10 C283 -10 400 447 400 447 C400 447 548 -10 548 -10 C548 -10 571 -10 571 -10 C571 -10 741 546 741 546 C741 546 741 546 741 546 C741 547 742 549 742 550 C742 550 746 563 746 563 C762 611 780 626 797 626 C797 626 811 626 811 626 C811 626 811 638 811 638 L811 638 Z " />
<glyph glyph-name="x" unicode="x" horiz-adv-x="488" d="M450 638 C450 638 398 638 398 638 C398 638 380 638 380 638 C380 638 361 638 361 638 C361 638 285 638 285 638 C284 638 284 635 285 632 C284 629 284 626 285 626 C285 626 295 626 295 626 C328 626 340 599 324 564 C324 564 274 462 274 462 C274 462 238 566 238 566 C228 600 242 626 271 626 C271 626 281 626 281 626 C281 626 281 638 281 638 C281 638 212 638 212 638 C212 638 130 638 130 638 C130 638 47 638 47 638 C47 638 5 638 5 638 C5 638 5 626 5 626 C5 626 12 626 12 626 C34 626 62 598 74 561 C74 561 74 561 74 561 C74 561 175 276 175 276 C175 276 83 69 83 69 C66 36 31 11 3 11 C3 11 -7 11 -7 11 C-7 11 -7 0 -7 0 C-7 0 53 0 53 0 C53 0 72 0 72 0 C72 0 90 0 90 0 C90 0 182 0 182 0 C182 0 182 11 182 11 C182 11 160 11 160 11 C124 11 107 39 121 75 C121 75 189 236 189 236 C189 236 246 76 246 76 C246 76 246 76 246 76 C259 40 249 11 224 11 C224 11 216 11 216 11 C216 11 216 0 216 0 C216 0 273 0 273 0 C273 0 356 0 356 0 C356 0 438 0 438 0 C438 0 473 0 473 0 C473 0 473 11 473 11 C473 11 467 11 467 11 C450 11 426 38 412 72 C412 72 286 430 286 430 C286 430 356 561 356 561 C356 561 357 561 357 561 C377 598 414 626 441 626 C441 626 450 626 450 626 C450 626 450 638 450 638 L450 638 Z " />
<glyph glyph-name="y" unicode="y" horiz-adv-x="551" d="M535 638 C535 638 481 638 481 638 C481 638 458 638 458 638 C458 638 436 638 436 638 C436 638 378 638 378 638 C379 638 379 635 378 632 C379 629 379 626 378 626 C378 626 387 626 387 626 C412 626 425 598 415 561 C415 561 415 561 415 561 C415 561 324 225 324 225 C324 225 226 561 226 561 C226 561 227 561 227 561 C216 598 228 626 254 626 C254 626 262 626 262 626 C262 626 262 638 262 638 C262 638 204 638 204 638 C204 638 127 638 127 638 C127 638 50 638 50 638 C50 638 -4 638 -4 638 C-4 638 -4 626 -4 626 C-4 626 5 626 5 626 C31 626 61 599 74 564 C74 564 254 10 254 10 C254 10 228 -60 228 -60 C212 -114 189 -141 158 -141 C132 -141 97 -116 71 -116 C33 -116 3 -141 3 -172 C3 -204 35 -230 75 -230 C169 -230 232 -177 264 -72 C264 -72 283 -10 283 -10 C283 -10 460 569 460 569 C473 602 501 626 526 626 C526 626 535 626 535 626 C535 626 535 638 535 638 L535 638 Z " />
<glyph glyph-name="z" unicode="z" horiz-adv-x="419" d="M348 145 C348 145 338 120 338 120 C317 71 261 31 211 30 C211 30 198 30 198 30 C198 30 369 638 369 638 C369 638 291 638 291 638 C291 638 213 638 213 638 C213 638 146 638 146 638 C146 638 106 638 106 638 C106 638 70 638 70 638 C69 633 67 626 66 622 C60 599 50 561 43 537 C43 537 52 537 52 537 C52 537 61 548 61 548 C86 580 143 606 187 606 C187 606 187 607 187 607 C187 607 204 607 204 607 C204 607 31 0 31 0 C31 0 111 0 111 0 C111 0 190 0 190 0 C190 0 261 0 261 0 C261 0 330 0 330 0 C330 0 337 0 337 0 C338 4 339 11 340 15 C346 50 355 105 362 140 C357 140 348 145 348 145 L348 145 Z " />
<glyph glyph-name="braceleft" unicode="&#x7b;" horiz-adv-x="215" d="M200 -120 C200 -120 200 -97 200 -97 C200 -97 190 -97 190 -97 C166 -97 147 -57 147 -6 C147 -6 147 195 147 195 C147 267 110 326 59 339 C110 355 147 425 147 509 C147 509 147 684 147 684 C147 734 166 775 190 775 C190 775 200 775 200 775 C200 775 200 798 200 798 C200 798 160 798 160 798 C95 798 42 747 42 684 C42 684 42 434 42 434 C42 387 27 350 8 350 C8 350 5 350 5 350 C5 350 5 328 5 328 C5 328 8 328 8 328 C27 328 42 302 42 270 C42 270 42 -6 42 -6 C42 -69 95 -120 160 -120 C160 -120 200 -120 200 -120 L200 -120 Z " />
<glyph glyph-name="bar" unicode="&#x7c;" horiz-adv-x="225" d="M60 908 C60 908 60 -234 60 -234 C60 -234 165 -234 165 -234 C165 -234 165 908 165 908 C165 908 60 908 60 908 L60 908 Z " />
<glyph glyph-name="braceright" unicode="&#x7d;" horiz-adv-x="215" d="M5 798 C5 798 5 775 5 775 C5 775 15 775 15 775 C39 775 58 734 58 684 C58 684 58 482 58 482 C58 411 96 352 146 339 C96 323 58 253 58 169 C58 169 58 -6 58 -6 C58 -57 39 -97 15 -97 C15 -97 5 -97 5 -97 C5 -97 5 -120 5 -120 C5 -120 45 -120 45 -120 C111 -120 163 -69 163 -6 C163 -6 163 244 163 244 C163 291 178 328 197 328 C197 328 200 328 200 328 C200 328 200 350 200 350 C200 350 197 350 197 350 C178 350 163 375 163 407 C163 407 163 684 163 684 C163 747 111 798 45 798 C45 798 5 798 5 798 L5 798 Z " />
<glyph glyph-name="[namenotfound]" unicode="&#xa0;" horiz-adv-x="149" d="" />
<glyph glyph-name="exclamdown" unicode="&#xa1;" horiz-adv-x="291" d="M134 643 C89 643 53 607 54 563 C53 518 89 483 134 483 C178 483 213 518 214 563 C213 607 178 643 134 643 L134 643 Z M60 -70 C53 -123 89 -165 143 -165 C197 -165 234 -123 225 -70 C225 -70 143 408 143 408 C143 408 125 408 125 408 C125 408 60 -70 60 -70 L60 -70 Z " />
<glyph glyph-name="cent" unicode="&#xa2;" horiz-adv-x="472" d="M229 713 C229 713 229 638 229 638 C127 612 50 468 50 293 C50 132 129 1 229 -5 C229 -5 229 -75 229 -75 C229 -75 269 -75 269 -75 C269 -75 269 1 269 1 C313 14 373 49 422 90 C422 90 410 105 410 105 C391 90 364 77 349 77 C320 77 292 91 269 114 C269 114 269 594 269 594 C282 579 292 551 295 520 C298 484 328 454 362 454 C395 454 422 481 422 514 C416 585 349 641 269 643 C269 643 269 713 269 713 C269 713 229 713 229 713 L229 713 Z M229 173 C206 219 193 279 193 345 C193 456 208 551 229 588 C229 588 229 173 229 173 L229 173 Z " />
<glyph glyph-name="guillemotleft" unicode="&#xab;" horiz-adv-x="349" d="M253 320 C253 320 301 590 301 590 C301 590 286 605 286 605 C286 605 141 337 141 337 C141 337 186 590 186 590 C186 590 171 605 171 605 C171 605 20 326 20 326 C20 326 20 311 20 311 C20 311 175 33 175 33 C175 33 189 48 189 48 C189 48 142 299 142 299 C142 299 289 33 289 33 C289 33 304 48 304 48 C304 48 253 320 253 320 L253 320 Z " />
<glyph glyph-name="guillemotright" unicode="&#xbb;" horiz-adv-x="349" d="M96 320 C96 320 49 590 49 590 C49 590 64 605 64 605 C64 605 208 337 208 337 C208 337 164 590 164 590 C164 590 179 605 179 605 C179 605 329 326 329 326 C329 326 329 311 329 311 C329 311 175 33 175 33 C175 33 160 48 160 48 C160 48 207 299 207 299 C207 299 60 33 60 33 C60 33 45 48 45 48 C45 48 96 320 96 320 L96 320 Z " />
<glyph glyph-name="questiondown" unicode="&#xbf;" horiz-adv-x="309" d="M191 643 C147 643 111 607 111 563 C111 518 147 483 191 483 C235 483 271 518 271 563 C271 607 235 643 191 643 L191 643 Z M211 182 C223 183 232 192 230 203 C230 203 200 387 200 387 C200 387 182 387 182 387 C182 387 165 285 165 285 C165 285 130 285 130 285 C56 285 35 184 35 134 C35 -32 114 -165 213 -165 C211 -165 211 -164 211 -161 C211 -161 213 -165 213 -165 C249 -165 277 -128 276 -82 C277 -50 251 -24 218 -24 C204 -24 196 -40 187 -51 C179 -56 174 -59 171 -59 C112 -59 66 20 66 119 C66 140 90 183 176 182 C176 182 211 182 211 182 L211 182 Z " />
<glyph glyph-name="Agrave" unicode="&#xc0;" horiz-adv-x="641" d="M634 11 C634 11 627 11 627 11 C604 11 575 39 563 73 C563 73 309 816 309 816 C309 816 272 816 272 816 C272 816 71 76 71 76 C71 76 70 76 70 76 C61 40 31 11 4 11 C4 11 -5 11 -5 11 C-5 11 -5 0 -5 0 C-5 0 50 0 50 0 C50 0 74 0 74 0 C74 0 99 0 99 0 C99 0 183 0 183 0 C183 0 183 11 183 11 C183 11 171 11 171 11 C133 11 111 47 123 91 C123 91 122 91 122 91 C122 91 168 270 168 270 C168 270 344 270 344 270 C344 270 402 76 402 76 C402 76 401 76 401 76 C412 40 392 11 356 11 C356 11 344 11 344 11 C344 11 344 0 344 0 C344 0 425 0 425 0 C425 0 506 0 506 0 C506 0 588 0 588 0 C588 0 634 0 634 0 C634 0 634 11 634 11 L634 11 Z M309 1003 C299 1030 288 1051 283 1051 C262 1051 206 1010 206 995 C206 988 221 969 241 949 C241 949 362 827 362 827 C362 827 377 839 377 839 C377 839 309 1003 309 1003 L309 1003 Z M332 308 C332 308 178 309 178 309 C178 309 249 583 249 583 C249 583 332 308 332 308 L332 308 Z " />
<glyph glyph-name="Aacute" unicode="&#xc1;" horiz-adv-x="641" d="M231 827 C231 827 349 949 349 949 C368 969 383 988 383 995 C383 1010 327 1051 306 1051 C301 1051 291 1030 280 1003 C280 1003 216 839 216 839 C216 839 231 827 231 827 L231 827 Z M634 11 C634 11 627 11 627 11 C604 11 575 39 563 73 C563 73 309 816 309 816 C309 816 272 816 272 816 C272 816 71 76 71 76 C71 76 70 76 70 76 C61 40 31 11 4 11 C4 11 -5 11 -5 11 C-5 11 -5 0 -5 0 C-5 0 50 0 50 0 C50 0 74 0 74 0 C74 0 99 0 99 0 C99 0 183 0 183 0 C183 0 183 11 183 11 C183 11 171 11 171 11 C133 11 111 47 123 91 C123 91 122 91 122 91 C122 91 168 270 168 270 C168 270 344 270 344 270 C344 270 402 76 402 76 C402 76 401 76 401 76 C412 40 392 11 356 11 C356 11 344 11 344 11 C344 11 344 0 344 0 C344 0 425 0 425 0 C425 0 506 0 506 0 C506 0 588 0 588 0 C588 0 634 0 634 0 C634 0 634 11 634 11 L634 11 Z M332 308 C332 308 178 309 178 309 C178 309 249 583 249 583 C249 583 332 308 332 308 L332 308 Z " />
<glyph glyph-name="Acircumflex" unicode="&#xc2;" horiz-adv-x="641" d="M634 11 C634 11 627 11 627 11 C604 11 575 39 563 73 C563 73 309 816 309 816 C309 816 272 816 272 816 C272 816 71 76 71 76 C71 76 70 76 70 76 C61 40 31 11 4 11 C4 11 -5 11 -5 11 C-5 11 -5 0 -5 0 C-5 0 50 0 50 0 C50 0 74 0 74 0 C74 0 99 0 99 0 C99 0 183 0 183 0 C183 0 183 11 183 11 C183 11 171 11 171 11 C133 11 111 47 123 91 C123 91 122 91 122 91 C122 91 168 270 168 270 C168 270 344 270 344 270 C344 270 402 76 402 76 C402 76 401 76 401 76 C412 40 392 11 356 11 C356 11 344 11 344 11 C344 11 344 0 344 0 C344 0 425 0 425 0 C425 0 506 0 506 0 C506 0 588 0 588 0 C588 0 634 0 634 0 C634 0 634 11 634 11 L634 11 Z M291 921 C291 921 387 828 387 828 C387 828 401 840 401 840 C401 840 334 1004 334 1004 C329 1014 313 1042 291 1042 C268 1042 252 1015 248 1005 C248 1005 180 840 180 840 C180 840 194 828 194 828 C194 828 291 921 291 921 L291 921 Z M332 308 C332 308 178 309 178 309 C178 309 249 583 249 583 C249 583 332 308 332 308 L332 308 Z " />
<glyph glyph-name="Atilde" unicode="&#xc3;" horiz-adv-x="641" d="M197 893 C197 922 206 945 218 945 C258 945 287 883 327 883 C371 883 407 950 407 1033 C407 1033 384 1033 384 1033 C384 1000 372 973 356 973 C316 973 288 1035 247 1035 C207 1035 174 972 174 893 C174 893 197 893 197 893 L197 893 Z M634 11 C634 11 627 11 627 11 C604 11 575 39 563 73 C563 73 309 816 309 816 C309 816 272 816 272 816 C272 816 71 76 71 76 C71 76 70 76 70 76 C61 40 31 11 4 11 C4 11 -5 11 -5 11 C-5 11 -5 0 -5 0 C-5 0 50 0 50 0 C50 0 74 0 74 0 C74 0 99 0 99 0 C99 0 183 0 183 0 C183 0 183 11 183 11 C183 11 171 11 171 11 C133 11 111 47 123 91 C123 91 122 91 122 91 C122 91 168 270 168 270 C168 270 344 270 344 270 C344 270 402 76 402 76 C402 76 401 76 401 76 C412 40 392 11 356 11 C356 11 344 11 344 11 C344 11 344 0 344 0 C344 0 425 0 425 0 C425 0 506 0 506 0 C506 0 588 0 588 0 C588 0 634 0 634 0 C634 0 634 11 634 11 L634 11 Z M332 308 C332 308 178 309 178 309 C178 309 249 583 249 583 C249 583 332 308 332 308 L332 308 Z " />
<glyph glyph-name="Adieresis" unicode="&#xc4;" horiz-adv-x="641" d="M387 868 C431 868 467 903 467 948 C467 992 431 1028 387 1028 C343 1028 307 992 307 948 C307 903 343 868 387 868 L387 868 Z M194 868 C239 868 274 903 274 948 C274 992 239 1028 194 1028 C150 1028 114 992 114 948 C114 903 150 868 194 868 L194 868 Z M634 11 C634 11 627 11 627 11 C604 11 575 39 563 73 C563 73 309 816 309 816 C309 816 272 816 272 816 C272 816 71 76 71 76 C71 76 70 76 70 76 C61 40 31 11 4 11 C4 11 -5 11 -5 11 C-5 11 -5 0 -5 0 C-5 0 50 0 50 0 C50 0 74 0 74 0 C74 0 99 0 99 0 C99 0 183 0 183 0 C183 0 183 11 183 11 C183 11 171 11 171 11 C133 11 111 47 123 91 C123 91 122 91 122 91 C122 91 168 270 168 270 C168 270 344 270 344 270 C344 270 402 76 402 76 C402 76 401 76 401 76 C412 40 392 11 356 11 C356 11 344 11 344 11 C344 11 344 0 344 0 C344 0 425 0 425 0 C425 0 506 0 506 0 C506 0 588 0 588 0 C588 0 634 0 634 0 C634 0 634 11 634 11 L634 11 Z M332 308 C332 308 178 309 178 309 C178 309 249 583 249 583 C249 583 332 308 332 308 L332 308 Z " />
<glyph glyph-name="Aring" unicode="&#xc5;" horiz-adv-x="641" d="M291 863 C261 863 232 894 232 925 C232 960 258 988 291 988 C324 988 350 960 350 925 C350 894 320 863 291 863 L291 863 Z M194 925 C194 879 242 833 291 833 C339 833 387 879 387 925 C387 977 344 1018 291 1018 C237 1018 194 977 194 925 L194 925 Z M634 11 C634 11 627 11 627 11 C604 11 575 39 563 73 C563 73 309 816 309 816 C309 816 272 816 272 816 C272 816 71 76 71 76 C71 76 70 76 70 76 C61 40 31 11 4 11 C4 11 -5 11 -5 11 C-5 11 -5 0 -5 0 C-5 0 50 0 50 0 C50 0 74 0 74 0 C74 0 99 0 99 0 C99 0 183 0 183 0 C183 0 183 11 183 11 C183 11 171 11 171 11 C133 11 111 47 123 91 C123 91 122 91 122 91 C122 91 168 270 168 270 C168 270 344 270 344 270 C344 270 402 76 402 76 C402 76 401 76 401 76 C412 40 392 11 356 11 C356 11 344 11 344 11 C344 11 344 0 344 0 C344 0 425 0 425 0 C425 0 506 0 506 0 C506 0 588 0 588 0 C588 0 634 0 634 0 C634 0 634 11 634 11 L634 11 Z M332 308 C332 308 178 309 178 309 C178 309 249 583 249 583 C249 583 332 308 332 308 L332 308 Z " />
<glyph glyph-name="Ccedilla" unicode="&#xc7;" horiz-adv-x="686" d="M627 617 C627 617 627 746 627 746 C627 746 617 729 617 729 C617 729 617 729 617 729 C617 729 627 746 627 746 C572 778 473 803 404 803 C200 803 36 623 36 399 C36 175 200 -5 404 -5 C473 -5 572 20 627 52 C627 52 627 181 627 181 C627 181 617 181 617 181 C614 173 610 161 607 153 C587 97 515 47 440 35 C427 34 415 33 404 33 C291 33 201 196 201 399 C201 602 291 765 404 765 C421 765 440 763 459 760 C459 760 459 760 459 760 C522 751 588 699 607 644 C610 637 614 625 617 617 C617 617 627 617 627 617 L627 617 Z " />
<glyph glyph-name="Egrave" unicode="&#xc8;" horiz-adv-x="592" d="M430 326 C430 326 430 391 430 391 C430 391 430 410 430 410 C430 410 430 429 430 429 C430 429 430 486 430 486 C430 486 420 486 420 486 C420 486 418 478 418 478 C410 451 365 429 318 429 C318 429 247 429 247 429 C247 429 247 760 247 760 C247 760 361 760 361 760 C417 760 474 721 489 672 C489 672 494 657 494 657 C494 657 503 657 503 657 C503 657 503 779 503 779 C503 779 503 798 503 798 C503 798 485 798 485 798 C485 798 426 798 426 798 C426 798 247 798 247 798 C247 798 172 798 172 798 C172 798 97 798 97 798 C97 798 40 798 40 798 C40 798 40 786 40 786 C40 786 49 786 49 786 C75 786 97 758 97 721 C97 721 97 76 97 76 C97 40 75 11 49 11 C49 11 40 11 40 11 C40 11 40 0 40 0 C40 0 97 0 97 0 C97 0 172 0 172 0 C172 0 247 0 247 0 C247 0 424 0 424 0 C424 0 495 0 495 0 C495 0 500 0 500 0 C501 5 502 13 503 19 C509 53 519 107 525 141 C525 141 516 141 516 141 C516 141 509 125 509 125 C485 77 423 39 369 38 C369 38 365 38 365 38 C365 38 247 38 247 38 C247 38 247 391 247 391 C247 391 318 391 318 391 C365 391 410 367 418 336 C418 336 420 326 420 326 C420 326 430 326 430 326 L430 326 Z M294 1003 C284 1030 273 1051 268 1051 C246 1051 191 1010 191 995 C191 988 206 969 225 949 C225 949 347 827 347 827 C347 827 362 839 362 839 C362 839 294 1003 294 1003 L294 1003 Z " />
<glyph glyph-name="Eacute" unicode="&#xc9;" horiz-adv-x="592" d="M261 827 C261 827 380 949 380 949 C399 969 414 988 414 995 C414 1010 358 1051 337 1051 C333 1051 322 1030 311 1003 C311 1003 246 839 246 839 C246 839 261 827 261 827 L261 827 Z M430 326 C430 326 430 391 430 391 C430 391 430 410 430 410 C430 410 430 429 430 429 C430 429 430 486 430 486 C430 486 420 486 420 486 C420 486 418 478 418 478 C410 451 365 429 318 429 C318 429 247 429 247 429 C247 429 247 760 247 760 C247 760 361 760 361 760 C417 760 474 721 489 672 C489 672 494 657 494 657 C494 657 503 657 503 657 C503 657 503 779 503 779 C503 779 503 798 503 798 C503 798 485 798 485 798 C485 798 426 798 426 798 C426 798 247 798 247 798 C247 798 172 798 172 798 C172 798 97 798 97 798 C97 798 40 798 40 798 C40 798 40 786 40 786 C40 786 49 786 49 786 C75 786 97 758 97 721 C97 721 97 76 97 76 C97 40 75 11 49 11 C49 11 40 11 40 11 C40 11 40 0 40 0 C40 0 97 0 97 0 C97 0 172 0 172 0 C172 0 247 0 247 0 C247 0 424 0 424 0 C424 0 495 0 495 0 C495 0 500 0 500 0 C501 5 502 13 503 19 C509 53 519 107 525 141 C525 141 516 141 516 141 C516 141 509 125 509 125 C485 77 423 39 369 38 C369 38 365 38 365 38 C365 38 247 38 247 38 C247 38 247 391 247 391 C247 391 318 391 318 391 C365 391 410 367 418 336 C418 336 420 326 420 326 C420 326 430 326 430 326 L430 326 Z " />
<glyph glyph-name="Ecircumflex" unicode="&#xca;" horiz-adv-x="592" d="M430 326 C430 326 430 391 430 391 C430 391 430 410 430 410 C430 410 430 429 430 429 C430 429 430 486 430 486 C430 486 420 486 420 486 C420 486 418 478 418 478 C410 451 365 429 318 429 C318 429 247 429 247 429 C247 429 247 760 247 760 C247 760 361 760 361 760 C417 760 474 721 489 672 C489 672 494 657 494 657 C494 657 503 657 503 657 C503 657 503 779 503 779 C503 779 503 798 503 798 C503 798 485 798 485 798 C485 798 426 798 426 798 C426 798 247 798 247 798 C247 798 172 798 172 798 C172 798 97 798 97 798 C97 798 40 798 40 798 C40 798 40 786 40 786 C40 786 49 786 49 786 C75 786 97 758 97 721 C97 721 97 76 97 76 C97 40 75 11 49 11 C49 11 40 11 40 11 C40 11 40 0 40 0 C40 0 97 0 97 0 C97 0 172 0 172 0 C172 0 247 0 247 0 C247 0 424 0 424 0 C424 0 495 0 495 0 C495 0 500 0 500 0 C501 5 502 13 503 19 C509 53 519 107 525 141 C525 141 516 141 516 141 C516 141 509 125 509 125 C485 77 423 39 369 38 C369 38 365 38 365 38 C365 38 247 38 247 38 C247 38 247 391 247 391 C247 391 318 391 318 391 C365 391 410 367 418 336 C418 336 420 326 420 326 C420 326 430 326 430 326 L430 326 Z M291 920 C291 920 388 828 388 828 C388 828 402 840 402 840 C402 840 334 1004 334 1004 C330 1014 314 1042 291 1042 C269 1042 253 1015 248 1005 C248 1005 181 840 181 840 C181 840 194 828 194 828 C194 828 291 920 291 920 L291 920 Z " />
<glyph glyph-name="Edieresis" unicode="&#xcb;" horiz-adv-x="592" d="M387 868 C432 868 467 903 467 948 C467 992 432 1028 387 1028 C343 1028 307 992 307 948 C307 903 343 868 387 868 L387 868 Z M195 868 C239 868 275 903 275 948 C275 992 239 1028 195 1028 C150 1028 115 992 115 948 C115 903 150 868 195 868 L195 868 Z M430 326 C430 326 430 391 430 391 C430 391 430 410 430 410 C430 410 430 429 430 429 C430 429 430 486 430 486 C430 486 420 486 420 486 C420 486 418 478 418 478 C410 451 365 429 318 429 C318 429 247 429 247 429 C247 429 247 760 247 760 C247 760 361 760 361 760 C417 760 474 721 489 672 C489 672 494 657 494 657 C494 657 503 657 503 657 C503 657 503 779 503 779 C503 779 503 798 503 798 C503 798 485 798 485 798 C485 798 426 798 426 798 C426 798 247 798 247 798 C247 798 172 798 172 798 C172 798 97 798 97 798 C97 798 40 798 40 798 C40 798 40 786 40 786 C40 786 49 786 49 786 C75 786 97 758 97 721 C97 721 97 76 97 76 C97 40 75 11 49 11 C49 11 40 11 40 11 C40 11 40 0 40 0 C40 0 97 0 97 0 C97 0 172 0 172 0 C172 0 247 0 247 0 C247 0 424 0 424 0 C424 0 495 0 495 0 C495 0 500 0 500 0 C501 5 502 13 503 19 C509 53 519 107 525 141 C525 141 516 141 516 141 C516 141 509 125 509 125 C485 77 423 39 369 38 C369 38 365 38 365 38 C365 38 247 38 247 38 C247 38 247 391 247 391 C247 391 318 391 318 391 C365 391 410 367 418 336 C418 336 420 326 420 326 C420 326 430 326 430 326 L430 326 Z " />
<glyph glyph-name="Igrave" unicode="&#xcc;" horiz-adv-x="344" d="M305 798 C305 798 247 798 247 798 C247 798 172 798 172 798 C172 798 97 798 97 798 C97 798 40 798 40 798 C40 798 40 786 40 786 C40 786 49 786 49 786 C75 786 97 758 97 721 C97 721 97 76 97 76 C97 40 75 11 49 11 C49 11 40 11 40 11 C40 11 40 0 40 0 C40 0 97 0 97 0 C97 0 172 0 172 0 C172 0 247 0 247 0 C247 0 305 0 305 0 C305 0 305 11 305 11 C305 11 296 11 296 11 C269 11 248 40 247 76 C247 76 247 721 247 721 C248 758 269 786 296 786 C296 786 305 786 305 786 C305 786 305 798 305 798 L305 798 Z M191 1003 C181 1030 170 1051 165 1051 C143 1051 87 1010 88 995 C87 988 103 969 122 949 C122 949 244 827 244 827 C244 827 259 839 259 839 C259 839 191 1003 191 1003 L191 1003 Z " />
<glyph glyph-name="Iacute" unicode="&#xcd;" horiz-adv-x="344" d="M112 827 C112 827 231 949 231 949 C250 969 265 988 265 995 C265 1010 209 1051 188 1051 C183 1051 173 1030 162 1003 C162 1003 97 839 97 839 C97 839 112 827 112 827 L112 827 Z M305 798 C305 798 247 798 247 798 C247 798 172 798 172 798 C172 798 97 798 97 798 C97 798 40 798 40 798 C40 798 40 786 40 786 C40 786 49 786 49 786 C75 786 97 758 97 721 C97 721 97 76 97 76 C97 40 75 11 49 11 C49 11 40 11 40 11 C40 11 40 0 40 0 C40 0 97 0 97 0 C97 0 172 0 172 0 C172 0 247 0 247 0 C247 0 305 0 305 0 C305 0 305 11 305 11 C305 11 296 11 296 11 C269 11 248 40 247 76 C247 76 247 721 247 721 C248 758 269 786 296 786 C296 786 305 786 305 786 C305 786 305 798 305 798 L305 798 Z " />
<glyph glyph-name="Icircumflex" unicode="&#xce;" horiz-adv-x="344" d="M305 798 C305 798 247 798 247 798 C247 798 172 798 172 798 C172 798 97 798 97 798 C97 798 40 798 40 798 C40 798 40 786 40 786 C40 786 49 786 49 786 C75 786 97 758 97 721 C97 721 97 76 97 76 C97 40 75 11 49 11 C49 11 40 11 40 11 C40 11 40 0 40 0 C40 0 97 0 97 0 C97 0 172 0 172 0 C172 0 247 0 247 0 C247 0 305 0 305 0 C305 0 305 11 305 11 C305 11 296 11 296 11 C269 11 248 40 247 76 C247 76 247 721 247 721 C248 758 269 786 296 786 C296 786 305 786 305 786 C305 786 305 798 305 798 L305 798 Z M173 920 C173 920 269 828 269 828 C269 828 283 840 283 840 C283 840 216 1004 216 1004 C211 1014 195 1042 172 1042 C150 1042 134 1015 130 1005 C130 1005 62 840 62 840 C62 840 76 828 76 828 C76 828 173 920 173 920 L173 920 Z " />
<glyph glyph-name="Idieresis" unicode="&#xcf;" horiz-adv-x="344" d="M269 868 C313 868 349 903 349 948 C349 992 313 1028 269 1028 C224 1028 189 992 189 948 C189 903 224 868 269 868 L269 868 Z M76 868 C121 868 156 903 156 948 C156 992 121 1028 76 1028 C32 1028 -4 992 -4 948 C-4 903 32 868 76 868 L76 868 Z M305 798 C305 798 247 798 247 798 C247 798 172 798 172 798 C172 798 97 798 97 798 C97 798 40 798 40 798 C40 798 40 786 40 786 C40 786 49 786 49 786 C75 786 97 758 97 721 C97 721 97 76 97 76 C97 40 75 11 49 11 C49 11 40 11 40 11 C40 11 40 0 40 0 C40 0 97 0 97 0 C97 0 172 0 172 0 C172 0 247 0 247 0 C247 0 305 0 305 0 C305 0 305 11 305 11 C305 11 296 11 296 11 C269 11 248 40 247 76 C247 76 247 721 247 721 C248 758 269 786 296 786 C296 786 305 786 305 786 C305 786 305 798 305 798 L305 798 Z " />
<glyph glyph-name="Ntilde" unicode="&#xd1;" horiz-adv-x="628" d="M220 893 C220 922 229 945 241 945 C281 945 309 883 350 883 C394 883 430 950 430 1033 C430 1033 407 1033 407 1033 C407 1000 394 973 379 973 C338 973 310 1035 270 1035 C229 1035 197 972 197 893 C197 893 220 893 220 893 L220 893 Z M591 798 C591 798 534 798 534 798 C534 798 511 798 511 798 C511 798 489 798 489 798 C489 798 431 798 431 798 C431 798 431 786 431 786 C431 786 440 786 440 786 C467 786 489 758 489 721 C489 721 489 240 489 240 C489 240 228 798 228 798 C228 798 138 736 138 736 C138 736 138 736 138 736 C138 736 228 798 228 798 C228 798 138 798 138 798 C138 798 116 798 116 798 C116 798 93 798 93 798 C93 798 36 798 36 798 C36 798 36 786 36 786 C36 786 44 786 44 786 C71 786 93 758 93 721 C93 721 93 76 93 76 C93 40 71 11 44 11 C44 11 36 11 36 11 C36 11 36 0 36 0 C36 0 93 0 93 0 C93 0 116 0 116 0 C116 0 138 0 138 0 C138 0 196 0 196 0 C196 0 196 11 196 11 C196 11 187 11 187 11 C160 11 138 40 138 76 C138 76 138 642 138 642 C138 642 420 60 420 60 C420 60 459 -20 459 -20 C459 -20 534 -20 534 -20 C534 -20 534 115 534 115 C534 115 534 721 534 721 C534 758 555 786 583 786 C583 786 591 786 591 786 C591 786 591 798 591 798 L591 798 Z " />
<glyph glyph-name="Ograve" unicode="&#xd2;" horiz-adv-x="695" d="M340 33 C255 33 201 216 201 399 C201 582 255 765 340 765 C426 765 480 582 480 399 C480 216 426 33 340 33 L340 33 Z M36 399 C36 197 154 -5 340 -5 C527 -5 645 197 645 399 C645 601 527 803 340 803 C154 803 36 601 36 399 L36 399 Z M359 1003 C349 1030 338 1051 333 1051 C311 1051 255 1010 256 995 C255 988 271 969 290 949 C290 949 412 827 412 827 C412 827 427 839 427 839 C427 839 359 1003 359 1003 L359 1003 Z " />
<glyph glyph-name="Oacute" unicode="&#xd3;" horiz-adv-x="695" d="M318 827 C318 827 437 949 437 949 C456 969 471 988 471 995 C471 1010 415 1051 394 1051 C389 1051 379 1030 368 1003 C368 1003 303 839 303 839 C303 839 318 827 318 827 L318 827 Z M340 33 C255 33 201 216 201 399 C201 582 255 765 340 765 C426 765 480 582 480 399 C480 216 426 33 340 33 L340 33 Z M36 399 C36 197 154 -5 340 -5 C527 -5 645 197 645 399 C645 601 527 803 340 803 C154 803 36 601 36 399 L36 399 Z " />
<glyph glyph-name="Ocircumflex" unicode="&#xd4;" horiz-adv-x="695" d="M340 33 C255 33 201 216 201 399 C201 582 255 765 340 765 C426 765 480 582 480 399 C480 216 426 33 340 33 L340 33 Z M36 399 C36 197 154 -5 340 -5 C527 -5 645 197 645 399 C645 601 527 803 340 803 C154 803 36 601 36 399 L36 399 Z M341 920 C341 920 437 828 437 828 C437 828 451 840 451 840 C451 840 384 1004 384 1004 C379 1014 363 1042 340 1042 C318 1042 302 1015 298 1005 C298 1005 230 840 230 840 C230 840 244 828 244 828 C244 828 341 920 341 920 L341 920 Z " />
<glyph glyph-name="Otilde" unicode="&#xd5;" horiz-adv-x="695" d="M247 893 C247 922 256 945 268 945 C308 945 336 883 377 883 C421 883 457 950 457 1033 C457 1033 434 1033 434 1033 C434 1000 421 973 406 973 C365 973 337 1035 297 1035 C256 1035 224 972 224 893 C224 893 247 893 247 893 L247 893 Z M340 33 C255 33 201 216 201 399 C201 582 255 765 340 765 C426 765 480 582 480 399 C480 216 426 33 340 33 L340 33 Z M36 399 C36 197 154 -5 340 -5 C527 -5 645 197 645 399 C645 601 527 803 340 803 C154 803 36 601 36 399 L36 399 Z " />
<glyph glyph-name="Odieresis" unicode="&#xd6;" horiz-adv-x="695" d="M437 868 C481 868 517 903 517 948 C517 992 481 1028 437 1028 C392 1028 357 992 357 948 C357 903 392 868 437 868 L437 868 Z M244 868 C289 868 324 903 324 948 C324 992 289 1028 244 1028 C200 1028 164 992 164 948 C164 903 200 868 244 868 L244 868 Z M340 33 C255 33 201 216 201 399 C201 582 255 765 340 765 C426 765 480 582 480 399 C480 216 426 33 340 33 L340 33 Z M36 399 C36 197 154 -5 340 -5 C527 -5 645 197 645 399 C645 601 527 803 340 803 C154 803 36 601 36 399 L36 399 Z " />
<glyph glyph-name="Oslash" unicode="&#xd8;" horiz-adv-x="695" d="M63 -25 C63 -25 146 86 146 86 C197 30 262 -5 340 -5 C527 -5 645 197 645 399 C645 491 621 583 576 655 C576 655 672 782 672 782 C672 782 618 823 618 823 C618 823 534 712 534 712 C484 768 418 803 340 803 C154 803 36 601 36 399 C36 307 60 215 105 142 C105 142 9 15 9 15 C9 15 63 -25 63 -25 L63 -25 Z M340 33 C289 33 249 99 226 190 C226 190 472 518 472 518 C477 479 480 439 480 399 C480 216 426 33 340 33 C340 33 340 33 340 33 L340 33 Z M209 280 C204 318 201 359 201 399 C201 582 255 765 340 765 C392 765 432 699 455 607 C455 607 209 280 209 280 L209 280 Z " />
<glyph glyph-name="Ugrave" unicode="&#xd9;" horiz-adv-x="619" d="M600 798 C600 798 534 798 534 798 C534 798 512 798 512 798 C512 798 489 798 489 798 C489 798 420 798 420 798 C420 798 420 786 420 786 C420 786 431 786 431 786 C463 786 489 753 489 711 C489 711 489 239 489 239 C489 132 437 47 332 47 C261 47 225 129 225 231 C225 231 225 721 225 721 C225 758 247 786 274 786 C274 786 282 786 282 786 C282 786 282 798 282 798 C282 798 225 798 225 798 C225 798 150 798 150 798 C150 798 75 798 75 798 C75 798 18 798 18 798 C18 798 18 786 18 786 C18 786 26 786 26 786 C53 786 75 758 75 721 C75 721 75 260 75 260 C75 113 153 -5 309 -5 C459 -5 534 97 534 224 C534 224 534 711 534 711 C535 753 559 786 590 786 C590 786 600 786 600 786 C600 786 600 798 600 798 L600 798 Z M323 1003 C313 1030 302 1051 297 1051 C276 1051 220 1010 220 995 C220 988 235 969 255 949 C255 949 376 827 376 827 C376 827 391 839 391 839 C391 839 323 1003 323 1003 L323 1003 Z " />
<glyph glyph-name="Uacute" unicode="&#xda;" horiz-adv-x="619" d="M305 827 C305 827 424 949 424 949 C443 969 458 988 458 995 C458 1010 402 1051 381 1051 C376 1051 366 1030 355 1003 C355 1003 290 839 290 839 C290 839 305 827 305 827 L305 827 Z M600 798 C600 798 534 798 534 798 C534 798 512 798 512 798 C512 798 489 798 489 798 C489 798 420 798 420 798 C420 798 420 786 420 786 C420 786 431 786 431 786 C463 786 489 753 489 711 C489 711 489 239 489 239 C489 132 437 47 332 47 C261 47 225 129 225 231 C225 231 225 721 225 721 C225 758 247 786 274 786 C274 786 282 786 282 786 C282 786 282 798 282 798 C282 798 225 798 225 798 C225 798 150 798 150 798 C150 798 75 798 75 798 C75 798 18 798 18 798 C18 798 18 786 18 786 C18 786 26 786 26 786 C53 786 75 758 75 721 C75 721 75 260 75 260 C75 113 153 -5 309 -5 C459 -5 534 97 534 224 C534 224 534 711 534 711 C535 753 559 786 590 786 C590 786 600 786 600 786 C600 786 600 798 600 798 L600 798 Z " />
<glyph glyph-name="Ucircumflex" unicode="&#xdb;" horiz-adv-x="619" d="M600 798 C600 798 534 798 534 798 C534 798 512 798 512 798 C512 798 489 798 489 798 C489 798 420 798 420 798 C420 798 420 786 420 786 C420 786 431 786 431 786 C463 786 489 753 489 711 C489 711 489 239 489 239 C489 132 437 47 332 47 C261 47 225 129 225 231 C225 231 225 721 225 721 C225 758 247 786 274 786 C274 786 282 786 282 786 C282 786 282 798 282 798 C282 798 225 798 225 798 C225 798 150 798 150 798 C150 798 75 798 75 798 C75 798 18 798 18 798 C18 798 18 786 18 786 C18 786 26 786 26 786 C53 786 75 758 75 721 C75 721 75 260 75 260 C75 113 153 -5 309 -5 C459 -5 534 97 534 224 C534 224 534 711 534 711 C535 753 559 786 590 786 C590 786 600 786 600 786 C600 786 600 798 600 798 L600 798 Z M305 921 C305 921 401 828 401 828 C401 828 415 840 415 840 C415 840 348 1004 348 1004 C343 1014 327 1042 305 1042 C282 1042 266 1015 262 1005 C262 1005 194 840 194 840 C194 840 208 828 208 828 C208 828 305 921 305 921 L305 921 Z " />
<glyph glyph-name="Udieresis" unicode="&#xdc;" horiz-adv-x="619" d="M401 868 C445 868 481 903 481 948 C481 992 445 1028 401 1028 C357 1028 321 992 321 948 C321 903 357 868 401 868 L401 868 Z M208 868 C253 868 288 903 288 948 C288 992 253 1028 208 1028 C164 1028 128 992 128 948 C128 903 164 868 208 868 L208 868 Z M600 798 C600 798 534 798 534 798 C534 798 512 798 512 798 C512 798 489 798 489 798 C489 798 420 798 420 798 C420 798 420 786 420 786 C420 786 431 786 431 786 C463 786 489 753 489 711 C489 711 489 239 489 239 C489 132 437 47 332 47 C261 47 225 129 225 231 C225 231 225 721 225 721 C225 758 247 786 274 786 C274 786 282 786 282 786 C282 786 282 798 282 798 C282 798 225 798 225 798 C225 798 150 798 150 798 C150 798 75 798 75 798 C75 798 18 798 18 798 C18 798 18 786 18 786 C18 786 26 786 26 786 C53 786 75 758 75 721 C75 721 75 260 75 260 C75 113 153 -5 309 -5 C459 -5 534 97 534 224 C534 224 534 711 534 711 C535 753 559 786 590 786 C590 786 600 786 600 786 C600 786 600 798 600 798 L600 798 Z " />
<glyph glyph-name="Yacute" unicode="&#xdd;" horiz-adv-x="607" d="M297 827 C297 827 416 949 416 949 C435 969 450 988 450 995 C450 1010 394 1051 373 1051 C368 1051 358 1030 347 1003 C347 1003 282 839 282 839 C282 839 297 827 297 827 L297 827 Z M429 11 C429 11 421 11 421 11 C393 11 372 40 372 76 C372 76 372 428 372 428 C372 428 372 428 372 428 C372 428 525 723 525 723 C544 759 577 786 600 786 C600 786 608 786 608 786 C608 786 608 798 608 798 C608 798 564 798 564 798 C564 798 541 798 541 798 C541 798 519 798 519 798 C519 798 435 798 435 798 C435 798 435 786 435 786 C435 786 446 786 446 786 C482 786 493 751 472 704 C472 704 351 465 351 465 C351 465 242 721 242 721 C242 721 242 721 242 721 C226 758 238 786 269 786 C269 786 278 786 278 786 C278 786 278 798 278 798 C278 798 209 798 209 798 C209 798 119 798 119 798 C119 798 29 798 29 798 C29 798 -8 798 -8 798 C-8 798 -8 786 -8 786 C-8 786 -1 786 -1 786 C17 786 41 764 58 734 C58 734 222 367 222 367 C222 367 222 76 222 76 C222 40 200 11 173 11 C173 11 164 11 164 11 C164 11 164 0 164 0 C164 0 222 0 222 0 C222 0 297 0 297 0 C297 0 372 0 372 0 C372 0 429 0 429 0 C429 0 429 11 429 11 L429 11 Z " />
<glyph glyph-name="agrave" unicode="&#xe0;" horiz-adv-x="530" d="M206 843 C196 870 185 891 180 891 C158 891 102 850 102 835 C102 828 118 809 137 789 C137 789 259 667 259 667 C259 667 274 679 274 679 C274 679 206 843 206 843 L206 843 Z M393 25 C393 25 478 52 478 52 C478 52 478 58 478 58 C435 68 420 79 420 135 C420 135 420 638 420 638 C420 638 383 638 383 638 C383 638 314 569 314 569 C296 608 264 643 240 643 C137 643 54 482 54 281 C54 122 113 -5 187 -5 C209 -5 249 33 285 86 C285 86 285 0 285 0 C285 0 285 -5 285 -5 C285 -5 308 -5 308 -5 C308 -5 393 25 393 25 L393 25 Z M285 113 C273 92 263 77 262 77 C225 77 195 190 195 332 C195 484 212 606 234 606 C249 606 274 573 285 541 C285 541 285 113 285 113 L285 113 Z " />
<glyph glyph-name="aacute" unicode="&#xe1;" horiz-adv-x="457" d="M168 667 C168 667 287 789 287 789 C306 809 321 828 321 835 C321 850 265 891 244 891 C240 891 229 870 218 843 C218 843 153 679 153 679 C153 679 168 667 168 667 L168 667 Z M435 75 C428 64 414 55 392 55 C363 55 352 86 352 124 C352 124 352 488 352 488 C352 574 297 643 229 643 C140 643 58 588 45 520 C45 520 180 520 180 520 C189 567 198 605 200 605 C205 605 209 566 209 518 C209 518 209 331 209 331 C209 331 190 328 190 328 C104 317 36 232 36 138 C36 59 75 -5 123 -5 C159 -5 196 10 225 33 C239 7 263 -10 300 -10 C381 -10 429 20 451 57 C451 57 435 75 435 75 L435 75 Z M209 292 C209 292 209 110 209 110 C209 103 209 96 210 89 C202 88 195 87 187 87 C178 87 170 127 170 177 C170 235 180 283 192 287 C192 287 209 292 209 292 L209 292 Z " />
<glyph glyph-name="acircumflex" unicode="&#xe2;" horiz-adv-x="530" d="M188 760 C188 760 284 668 284 668 C284 668 298 680 298 680 C298 680 231 844 231 844 C226 854 210 882 187 882 C165 882 149 855 145 845 C145 845 77 680 77 680 C77 680 91 668 91 668 C91 668 188 760 188 760 L188 760 Z M393 25 C393 25 478 52 478 52 C478 52 478 58 478 58 C435 68 420 79 420 135 C420 135 420 638 420 638 C420 638 383 638 383 638 C383 638 314 569 314 569 C296 608 264 643 240 643 C137 643 54 482 54 281 C54 122 113 -5 187 -5 C209 -5 249 33 285 86 C285 86 285 0 285 0 C285 0 285 -5 285 -5 C285 -5 308 -5 308 -5 C308 -5 393 25 393 25 L393 25 Z M285 113 C273 92 263 77 262 77 C225 77 195 190 195 332 C195 484 212 606 234 606 C249 606 274 573 285 541 C285 541 285 113 285 113 L285 113 Z " />
<glyph glyph-name="atilde" unicode="&#xe3;" horiz-adv-x="530" d="M94 733 C94 762 103 785 115 785 C155 785 183 723 223 723 C268 723 304 790 304 873 C304 873 281 873 281 873 C281 840 268 813 253 813 C212 813 184 875 144 875 C103 875 71 812 71 733 C71 733 94 733 94 733 L94 733 Z M393 25 C393 25 478 52 478 52 C478 52 478 58 478 58 C435 68 420 79 420 135 C420 135 420 638 420 638 C420 638 383 638 383 638 C383 638 314 569 314 569 C296 608 264 643 240 643 C137 643 54 482 54 281 C54 122 113 -5 187 -5 C209 -5 249 33 285 86 C285 86 285 0 285 0 C285 0 285 -5 285 -5 C285 -5 308 -5 308 -5 C308 -5 393 25 393 25 L393 25 Z M285 113 C273 92 263 77 262 77 C225 77 195 190 195 332 C195 484 212 606 234 606 C249 606 274 573 285 541 C285 541 285 113 285 113 L285 113 Z " />
<glyph glyph-name="adieresis" unicode="&#xe4;" horiz-adv-x="530" d="M284 708 C328 708 364 743 364 788 C364 832 328 868 284 868 C239 868 204 832 204 788 C204 743 239 708 284 708 L284 708 Z M91 708 C136 708 171 743 171 788 C171 832 136 868 91 868 C47 868 11 832 11 788 C11 743 47 708 91 708 L91 708 Z M393 25 C393 25 478 52 478 52 C478 52 478 58 478 58 C435 68 420 79 420 135 C420 135 420 638 420 638 C420 638 383 638 383 638 C383 638 314 569 314 569 C296 608 264 643 240 643 C137 643 54 482 54 281 C54 122 113 -5 187 -5 C209 -5 249 33 285 86 C285 86 285 0 285 0 C285 0 285 -5 285 -5 C285 -5 308 -5 308 -5 C308 -5 393 25 393 25 L393 25 Z M285 113 C273 92 263 77 262 77 C225 77 195 190 195 332 C195 484 212 606 234 606 C249 606 274 573 285 541 C285 541 285 113 285 113 L285 113 Z " />
<glyph glyph-name="aring" unicode="&#xe5;" horiz-adv-x="530" d="M187 703 C158 703 128 734 128 765 C128 800 154 828 187 828 C220 828 246 800 246 765 C246 734 217 703 187 703 L187 703 Z M91 765 C91 719 139 673 187 673 C236 673 284 719 284 765 C284 817 241 858 187 858 C134 858 91 817 91 765 L91 765 Z M393 25 C393 25 478 52 478 52 C478 52 478 58 478 58 C435 68 420 79 420 135 C420 135 420 638 420 638 C420 638 383 638 383 638 C383 638 314 569 314 569 C296 608 264 643 240 643 C137 643 54 482 54 281 C54 122 113 -5 187 -5 C209 -5 249 33 285 86 C285 86 285 0 285 0 C285 0 285 -5 285 -5 C285 -5 308 -5 308 -5 C308 -5 393 25 393 25 L393 25 Z M285 113 C273 92 263 77 262 77 C225 77 195 190 195 332 C195 484 212 606 234 606 C249 606 274 573 285 541 C285 541 285 113 285 113 L285 113 Z " />
<glyph glyph-name="ccedilla" unicode="&#xe7;" horiz-adv-x="472" d="M422 90 C422 90 410 105 410 105 C391 90 364 77 349 77 C262 77 193 196 193 345 C193 489 218 605 249 605 C270 605 290 567 295 520 C298 484 328 454 362 454 C395 454 422 481 422 514 C416 586 346 643 264 643 C145 643 50 488 50 293 C50 128 133 -5 236 -5 C277 -5 359 37 422 90 L422 90 Z " />
<glyph glyph-name="egrave" unicode="&#xe8;" horiz-adv-x="478" d="M428 90 C428 90 416 105 416 105 C397 90 369 77 352 77 C264 77 193 196 193 345 C193 361 193 377 194 392 C194 392 428 392 428 392 C428 532 351 643 255 643 C141 643 50 488 50 293 C50 128 134 -5 239 -5 C281 -5 365 37 428 90 L428 90 Z M274 843 C263 870 253 891 247 891 C226 891 170 850 170 835 C170 828 186 809 205 789 C205 789 326 667 326 667 C326 667 342 679 342 679 C342 679 274 843 274 843 L274 843 Z M195 418 C202 526 222 605 248 605 C278 605 302 561 302 506 C302 505 302 505 302 504 C301 469 272 436 238 428 C238 428 195 418 195 418 L195 418 Z " />
<glyph glyph-name="eacute" unicode="&#xe9;" horiz-adv-x="478" d="M225 667 C225 667 344 789 344 789 C363 809 378 828 378 835 C378 850 322 891 301 891 C297 891 286 870 275 843 C275 843 210 679 210 679 C210 679 225 667 225 667 L225 667 Z M428 90 C428 90 416 105 416 105 C397 90 369 77 352 77 C264 77 193 196 193 345 C193 361 193 377 194 392 C194 392 428 392 428 392 C428 532 351 643 255 643 C141 643 50 488 50 293 C50 128 134 -5 239 -5 C281 -5 365 37 428 90 L428 90 Z M195 418 C202 526 222 605 248 605 C278 605 302 561 302 506 C302 505 302 505 302 504 C301 469 272 436 238 428 C238 428 195 418 195 418 L195 418 Z " />
<glyph glyph-name="ecircumflex" unicode="&#xea;" horiz-adv-x="478" d="M428 90 C428 90 416 105 416 105 C397 90 369 77 352 77 C264 77 193 196 193 345 C193 361 193 377 194 392 C194 392 428 392 428 392 C428 532 351 643 255 643 C141 643 50 488 50 293 C50 128 134 -5 239 -5 C281 -5 365 37 428 90 L428 90 Z M255 760 C255 760 352 668 352 668 C352 668 366 680 366 680 C366 680 298 844 298 844 C294 854 278 882 255 882 C233 882 217 855 212 845 C212 845 145 680 145 680 C145 680 158 668 158 668 C158 668 255 760 255 760 L255 760 Z M195 418 C202 526 222 605 248 605 C278 605 302 561 302 506 C302 505 302 505 302 504 C301 469 272 436 238 428 C238 428 195 418 195 418 L195 418 Z " />
<glyph glyph-name="edieresis" unicode="&#xeb;" horiz-adv-x="478" d="M351 708 C396 708 431 743 431 788 C431 832 396 868 351 868 C307 868 271 832 271 788 C271 743 307 708 351 708 L351 708 Z M159 708 C203 708 239 743 239 788 C239 832 203 868 159 868 C115 868 79 832 79 788 C79 743 115 708 159 708 L159 708 Z M428 90 C428 90 416 105 416 105 C397 90 369 77 352 77 C264 77 193 196 193 345 C193 361 193 377 194 392 C194 392 428 392 428 392 C428 532 351 643 255 643 C141 643 50 488 50 293 C50 128 134 -5 239 -5 C281 -5 365 37 428 90 L428 90 Z M195 418 C202 526 222 605 248 605 C278 605 302 561 302 506 C302 505 302 505 302 504 C301 469 272 436 238 428 C238 428 195 418 195 418 L195 418 Z " />
<glyph glyph-name="igrave" unicode="&#xec;" horiz-adv-x="339" d="M237 0 C237 0 295 0 295 0 C295 0 295 11 295 11 C295 11 283 11 283 11 C258 11 237 9 237 0 C237 0 237 561 237 561 C237 561 237 643 237 643 C237 643 230 643 230 643 C230 643 54 589 54 589 C54 589 54 580 54 580 C54 580 88 567 88 567 C96 564 102 552 102 522 C102 522 102 0 102 0 C102 0 45 0 45 0 C45 0 45 11 45 11 C45 11 56 11 56 11 C82 11 102 9 102 0 C102 0 237 0 237 0 L237 0 Z M189 843 C178 870 167 891 162 891 C141 891 85 850 85 835 C85 828 101 809 120 789 C120 789 241 667 241 667 C241 667 256 679 256 679 C256 679 189 843 189 843 L189 843 Z " />
<glyph glyph-name="iacute" unicode="&#xed;" horiz-adv-x="339" d="M95 667 C95 667 213 789 213 789 C232 809 247 828 247 835 C247 850 191 891 170 891 C166 891 155 870 144 843 C144 843 80 679 80 679 C80 679 95 667 95 667 L95 667 Z M237 0 C237 0 295 0 295 0 C295 0 295 11 295 11 C295 11 283 11 283 11 C258 11 237 9 237 0 C237 0 237 561 237 561 C237 561 237 643 237 643 C237 643 230 643 230 643 C230 643 54 589 54 589 C54 589 54 580 54 580 C54 580 88 567 88 567 C96 564 102 552 102 522 C102 522 102 0 102 0 C102 0 45 0 45 0 C45 0 45 11 45 11 C45 11 56 11 56 11 C82 11 102 9 102 0 C102 0 237 0 237 0 L237 0 Z " />
<glyph glyph-name="icircumflex" unicode="&#xee;" horiz-adv-x="339" d="M237 0 C237 0 295 0 295 0 C295 0 295 11 295 11 C295 11 283 11 283 11 C258 11 237 9 237 0 C237 0 237 561 237 561 C237 561 237 643 237 643 C237 643 230 643 230 643 C230 643 54 589 54 589 C54 589 54 580 54 580 C54 580 88 567 88 567 C96 564 102 552 102 522 C102 522 102 0 102 0 C102 0 45 0 45 0 C45 0 45 11 45 11 C45 11 56 11 56 11 C82 11 102 9 102 0 C102 0 237 0 237 0 L237 0 Z M170 823 C170 823 127 845 127 845 C127 845 59 680 59 680 C59 680 73 668 73 668 C73 668 170 760 170 760 C170 760 267 668 267 668 C267 668 280 680 280 680 C280 680 213 844 213 844 C213 844 170 823 170 823 L170 823 Z M127 802 C127 802 170 760 170 760 C170 760 213 801 213 801 C213 801 127 802 127 802 L127 802 Z M213 844 C209 854 192 882 170 882 C147 882 132 855 127 845 C127 845 213 844 213 844 L213 844 Z " />
<glyph glyph-name="idieresis" unicode="&#xef;" horiz-adv-x="339" d="M266 708 C311 708 346 743 346 788 C346 832 311 868 266 868 C222 868 186 832 186 788 C186 743 222 708 266 708 L266 708 Z M74 708 C118 708 154 743 154 788 C154 832 118 868 74 868 C29 868 -6 832 -6 788 C-6 743 29 708 74 708 L74 708 Z M237 0 C237 0 295 0 295 0 C295 0 295 11 295 11 C295 11 283 11 283 11 C258 11 237 9 237 0 C237 0 237 561 237 561 C237 561 237 643 237 643 C237 643 230 643 230 643 C230 643 54 589 54 589 C54 589 54 580 54 580 C54 580 88 567 88 567 C96 564 102 552 102 522 C102 522 102 0 102 0 C102 0 45 0 45 0 C45 0 45 11 45 11 C45 11 56 11 56 11 C82 11 102 9 102 0 C102 0 237 0 237 0 L237 0 Z " />
<glyph glyph-name="ntilde" unicode="&#xf1;" horiz-adv-x="542" d="M179 733 C179 762 189 785 201 785 C241 785 269 723 309 723 C354 723 389 790 389 873 C389 873 367 873 367 873 C367 840 354 813 339 813 C298 813 270 875 230 875 C189 875 157 812 157 733 C157 733 179 733 179 733 L179 733 Z M502 11 C502 11 494 11 494 11 C466 11 445 40 445 76 C445 76 445 476 445 476 C445 569 417 643 362 643 C312 643 263 615 237 576 C237 576 237 638 237 638 C237 638 210 638 210 638 C210 638 44 586 44 586 C44 586 44 579 44 579 C89 574 102 555 102 502 C102 502 102 76 102 76 C102 40 80 11 53 11 C53 11 44 11 44 11 C44 11 44 0 44 0 C44 0 102 0 102 0 C102 0 169 0 169 0 C169 0 237 0 237 0 C237 0 252 0 252 0 C252 0 294 0 294 0 C294 0 310 0 310 0 C310 0 377 0 377 0 C377 0 445 0 445 0 C445 0 502 0 502 0 C502 0 502 11 502 11 L502 11 Z M273 13 C252 20 237 46 237 76 C237 76 237 526 237 526 C237 526 190 526 190 526 C190 526 222 535 222 535 C222 535 222 527 222 527 C223 530 224 533 226 536 C226 536 237 539 237 539 C237 539 237 546 237 546 C243 550 250 552 258 552 C293 552 310 512 310 462 C310 462 310 76 310 76 C310 46 294 20 273 13 C273 13 273 13 273 13 L273 13 Z " />
<glyph glyph-name="ograve" unicode="&#xf2;" horiz-adv-x="548" d="M274 25 C233 25 200 156 200 319 C200 482 233 613 274 613 C316 613 349 482 349 319 C349 156 316 25 274 25 L274 25 Z M50 319 C50 139 150 -5 274 -5 C399 -5 499 139 499 319 C499 499 399 643 274 643 C150 643 50 499 50 319 L50 319 Z M293 843 C283 870 272 891 267 891 C245 891 189 850 189 835 C189 828 205 809 224 789 C224 789 346 667 346 667 C346 667 361 679 361 679 C361 679 293 843 293 843 L293 843 Z " />
<glyph glyph-name="oacute" unicode="&#xf3;" horiz-adv-x="548" d="M245 667 C245 667 363 789 363 789 C382 809 397 828 397 835 C397 850 341 891 320 891 C316 891 305 870 294 843 C294 843 230 679 230 679 C230 679 245 667 245 667 L245 667 Z M274 25 C233 25 200 156 200 319 C200 482 233 613 274 613 C316 613 349 482 349 319 C349 156 316 25 274 25 L274 25 Z M50 319 C50 139 150 -5 274 -5 C399 -5 499 139 499 319 C499 499 399 643 274 643 C150 643 50 499 50 319 L50 319 Z " />
<glyph glyph-name="ocircumflex" unicode="&#xf4;" horiz-adv-x="548" d="M274 25 C233 25 200 156 200 319 C200 482 233 613 274 613 C316 613 349 482 349 319 C349 156 316 25 274 25 L274 25 Z M50 319 C50 139 150 -5 274 -5 C399 -5 499 139 499 319 C499 499 399 643 274 643 C150 643 50 499 50 319 L50 319 Z M275 760 C275 760 371 668 371 668 C371 668 385 680 385 680 C385 680 318 844 318 844 C313 854 297 882 274 882 C252 882 236 855 232 845 C232 845 164 680 164 680 C164 680 178 668 178 668 C178 668 275 760 275 760 L275 760 Z " />
<glyph glyph-name="otilde" unicode="&#xf5;" horiz-adv-x="548" d="M181 733 C181 762 190 785 202 785 C242 785 270 723 310 723 C355 723 391 790 391 873 C391 873 368 873 368 873 C368 840 355 813 340 813 C299 813 271 875 231 875 C190 875 158 812 158 733 C158 733 181 733 181 733 L181 733 Z M274 25 C233 25 200 156 200 319 C200 482 233 613 274 613 C316 613 349 482 349 319 C349 156 316 25 274 25 L274 25 Z M50 319 C50 139 150 -5 274 -5 C399 -5 499 139 499 319 C499 499 399 643 274 643 C150 643 50 499 50 319 L50 319 Z " />
<glyph glyph-name="odieresis" unicode="&#xf6;" horiz-adv-x="548" d="M371 708 C415 708 451 743 451 788 C451 832 415 868 371 868 C326 868 291 832 291 788 C291 743 326 708 371 708 L371 708 Z M178 708 C223 708 258 743 258 788 C258 832 223 868 178 868 C134 868 98 832 98 788 C98 743 134 708 178 708 L178 708 Z M274 25 C233 25 200 156 200 319 C200 482 233 613 274 613 C316 613 349 482 349 319 C349 156 316 25 274 25 L274 25 Z M50 319 C50 139 150 -5 274 -5 C399 -5 499 139 499 319 C499 499 399 643 274 643 C150 643 50 499 50 319 L50 319 Z " />
<glyph glyph-name="oslash" unicode="&#xf8;" horiz-adv-x="548" d="M68 -18 C68 -18 130 71 130 71 C169 23 219 -5 274 -5 C399 -5 499 139 499 319 C499 399 479 472 446 528 C446 528 517 630 517 630 C517 630 480 656 480 656 C480 656 419 568 419 568 C380 615 329 643 274 643 C150 643 50 499 50 319 C50 239 70 166 102 110 C102 110 32 8 32 8 C32 8 68 -18 68 -18 L68 -18 Z M274 25 C245 25 220 89 208 184 C208 184 347 385 347 385 C348 364 349 342 349 319 C349 156 316 25 274 25 C274 25 274 25 274 25 L274 25 Z M202 254 C201 275 200 297 200 319 C200 482 233 613 274 613 C303 613 328 549 341 455 C341 455 202 254 202 254 L202 254 Z " />
<glyph glyph-name="ugrave" unicode="&#xf9;" horiz-adv-x="507" d="M222 626 C222 626 231 626 231 626 C258 626 280 598 280 561 C280 561 280 105 280 105 C269 92 266 84 274 84 C233 84 206 121 206 168 C206 168 207 638 207 638 C207 638 139 638 139 638 C139 638 72 638 72 638 C72 638 14 638 14 638 C14 638 14 626 14 626 C14 626 23 626 23 626 C50 626 72 598 72 561 C72 561 72 153 72 153 C72 65 110 -5 168 -5 C182 -5 228 33 280 84 C280 84 280 35 280 35 C280 35 280 0 280 0 C280 0 307 0 307 0 C307 0 472 52 472 52 C472 52 472 58 472 58 C472 58 464 60 464 60 C428 67 416 82 415 124 C415 124 415 135 415 135 C415 135 415 638 415 638 C415 638 347 638 347 638 C347 638 280 638 280 638 C280 638 222 638 222 638 C222 638 222 626 222 626 L222 626 Z M262 843 C252 870 241 891 235 891 C214 891 158 850 158 835 C158 828 174 809 193 789 C193 789 315 667 315 667 C315 667 330 679 330 679 C330 679 262 843 262 843 L262 843 Z " />
<glyph glyph-name="uacute" unicode="&#xfa;" horiz-adv-x="507" d="M214 667 C214 667 332 789 332 789 C351 809 366 828 366 835 C366 850 310 891 289 891 C285 891 274 870 263 843 C263 843 198 679 198 679 C198 679 214 667 214 667 L214 667 Z M222 626 C222 626 231 626 231 626 C258 626 280 598 280 561 C280 561 280 105 280 105 C269 92 266 84 274 84 C233 84 206 121 206 168 C206 168 207 638 207 638 C207 638 139 638 139 638 C139 638 72 638 72 638 C72 638 14 638 14 638 C14 638 14 626 14 626 C14 626 23 626 23 626 C50 626 72 598 72 561 C72 561 72 153 72 153 C72 65 110 -5 168 -5 C182 -5 228 33 280 84 C280 84 280 35 280 35 C280 35 280 0 280 0 C280 0 307 0 307 0 C307 0 472 52 472 52 C472 52 472 58 472 58 C472 58 464 60 464 60 C428 67 416 82 415 124 C415 124 415 135 415 135 C415 135 415 638 415 638 C415 638 347 638 347 638 C347 638 280 638 280 638 C280 638 222 638 222 638 C222 638 222 626 222 626 L222 626 Z " />
<glyph glyph-name="ucircumflex" unicode="&#xfb;" horiz-adv-x="507" d="M222 626 C222 626 231 626 231 626 C258 626 280 598 280 561 C280 561 280 105 280 105 C269 92 266 84 274 84 C233 84 206 121 206 168 C206 168 207 638 207 638 C207 638 139 638 139 638 C139 638 72 638 72 638 C72 638 14 638 14 638 C14 638 14 626 14 626 C14 626 23 626 23 626 C50 626 72 598 72 561 C72 561 72 153 72 153 C72 65 110 -5 168 -5 C182 -5 228 33 280 84 C280 84 280 35 280 35 C280 35 280 0 280 0 C280 0 307 0 307 0 C307 0 472 52 472 52 C472 52 472 58 472 58 C472 58 464 60 464 60 C428 67 416 82 415 124 C415 124 415 135 415 135 C415 135 415 638 415 638 C415 638 347 638 347 638 C347 638 280 638 280 638 C280 638 222 638 222 638 C222 638 222 626 222 626 L222 626 Z M243 760 C243 760 340 668 340 668 C340 668 354 680 354 680 C354 680 286 844 286 844 C282 854 266 882 243 882 C221 882 205 855 200 845 C200 845 133 680 133 680 C133 680 146 668 146 668 C146 668 243 760 243 760 L243 760 Z " />
<glyph glyph-name="udieresis" unicode="&#xfc;" horiz-adv-x="507" d="M339 708 C384 708 419 743 419 788 C419 832 384 868 339 868 C295 868 259 832 259 788 C259 743 295 708 339 708 L339 708 Z M147 708 C191 708 227 743 227 788 C227 832 191 868 147 868 C103 868 67 832 67 788 C67 743 103 708 147 708 L147 708 Z M222 626 C222 626 231 626 231 626 C258 626 280 598 280 561 C280 561 280 105 280 105 C269 92 266 84 274 84 C233 84 206 121 206 168 C206 168 207 638 207 638 C207 638 139 638 139 638 C139 638 72 638 72 638 C72 638 14 638 14 638 C14 638 14 626 14 626 C14 626 23 626 23 626 C50 626 72 598 72 561 C72 561 72 153 72 153 C72 65 110 -5 168 -5 C182 -5 228 33 280 84 C280 84 280 35 280 35 C280 35 280 0 280 0 C280 0 307 0 307 0 C307 0 472 52 472 52 C472 52 472 58 472 58 C472 58 464 60 464 60 C428 67 416 82 415 124 C415 124 415 135 415 135 C415 135 415 638 415 638 C415 638 347 638 347 638 C347 638 280 638 280 638 C280 638 222 638 222 638 C222 638 222 626 222 626 L222 626 Z " />
<glyph glyph-name="ydieresis" unicode="&#xff;" horiz-adv-x="456" d="M342 708 C386 708 422 743 422 788 C422 832 386 868 342 868 C297 868 262 832 262 788 C262 743 297 708 342 708 L342 708 Z M149 708 C193 708 229 743 229 788 C229 832 193 868 149 868 C105 868 69 832 69 788 C69 743 105 708 149 708 L149 708 Z M515 638 C515 638 461 638 461 638 C461 638 438 638 438 638 C438 638 416 638 416 638 C416 638 358 638 358 638 C359 638 359 635 358 632 C359 629 359 626 358 626 C358 626 367 626 367 626 C392 626 405 598 395 561 C395 561 395 561 395 561 C395 561 304 225 304 225 C304 225 206 561 206 561 C206 561 207 561 207 561 C196 598 208 626 234 626 C234 626 242 626 242 626 C242 626 242 638 242 638 C242 638 184 638 184 638 C184 638 107 638 107 638 C107 638 30 638 30 638 C30 638 -24 638 -24 638 C-24 638 -24 626 -24 626 C-24 626 -15 626 -15 626 C11 626 41 599 54 564 C54 564 234 10 234 10 C234 10 208 -60 208 -60 C192 -114 169 -141 138 -141 C112 -141 77 -116 51 -116 C13 -116 -17 -141 -17 -172 C-17 -204 15 -230 55 -230 C149 -230 212 -177 244 -72 C244 -72 263 -10 263 -10 C263 -10 440 569 440 569 C453 602 481 626 506 626 C506 626 515 626 515 626 C515 626 515 638 515 638 L515 638 Z " />
<glyph glyph-name="Amacron" unicode="&#x100;" horiz-adv-x="641" d="M173 896 C173 896 409 896 409 896 C409 896 409 971 409 971 C409 971 173 971 173 971 C173 971 173 896 173 896 L173 896 Z M634 11 C634 11 627 11 627 11 C604 11 575 39 563 73 C563 73 309 816 309 816 C309 816 272 816 272 816 C272 816 71 76 71 76 C71 76 70 76 70 76 C61 40 31 11 4 11 C4 11 -5 11 -5 11 C-5 11 -5 0 -5 0 C-5 0 50 0 50 0 C50 0 74 0 74 0 C74 0 99 0 99 0 C99 0 183 0 183 0 C183 0 183 11 183 11 C183 11 171 11 171 11 C133 11 111 47 123 91 C123 91 122 91 122 91 C122 91 168 270 168 270 C168 270 344 270 344 270 C344 270 402 76 402 76 C402 76 401 76 401 76 C412 40 392 11 356 11 C356 11 344 11 344 11 C344 11 344 0 344 0 C344 0 425 0 425 0 C425 0 506 0 506 0 C506 0 588 0 588 0 C588 0 634 0 634 0 C634 0 634 11 634 11 L634 11 Z M332 308 C332 308 178 309 178 309 C178 309 249 583 249 583 C249 583 332 308 332 308 L332 308 Z " />
<glyph glyph-name="amacron" unicode="&#x101;" horiz-adv-x="530" d="M69 736 C69 736 305 736 305 736 C305 736 305 811 305 811 C305 811 69 811 69 811 C69 811 69 736 69 736 L69 736 Z M393 25 C393 25 478 52 478 52 C478 52 478 58 478 58 C435 68 420 79 420 135 C420 135 420 638 420 638 C420 638 383 638 383 638 C383 638 314 569 314 569 C296 608 264 643 240 643 C137 643 54 482 54 281 C54 122 113 -5 187 -5 C209 -5 249 33 285 86 C285 86 285 0 285 0 C285 0 285 -5 285 -5 C285 -5 308 -5 308 -5 C308 -5 393 25 393 25 L393 25 Z M285 113 C273 92 263 77 262 77 C225 77 195 190 195 332 C195 484 212 606 234 606 C249 606 274 573 285 541 C285 541 285 113 285 113 L285 113 Z " />
<glyph glyph-name="Abreve" unicode="&#x102;" horiz-adv-x="641" d="M186 1007 C227 927 273 863 291 863 C308 863 355 927 396 1007 C396 1007 374 1018 374 1018 C356 982 319 953 291 953 C263 953 225 982 207 1018 C207 1018 186 1007 186 1007 L186 1007 Z M634 11 C634 11 627 11 627 11 C604 11 575 39 563 73 C563 73 309 816 309 816 C309 816 272 816 272 816 C272 816 71 76 71 76 C71 76 70 76 70 76 C61 40 31 11 4 11 C4 11 -5 11 -5 11 C-5 11 -5 0 -5 0 C-5 0 50 0 50 0 C50 0 74 0 74 0 C74 0 99 0 99 0 C99 0 183 0 183 0 C183 0 183 11 183 11 C183 11 171 11 171 11 C133 11 111 47 123 91 C123 91 122 91 122 91 C122 91 168 270 168 270 C168 270 344 270 344 270 C344 270 402 76 402 76 C402 76 401 76 401 76 C412 40 392 11 356 11 C356 11 344 11 344 11 C344 11 344 0 344 0 C344 0 425 0 425 0 C425 0 506 0 506 0 C506 0 588 0 588 0 C588 0 634 0 634 0 C634 0 634 11 634 11 L634 11 Z M332 308 C332 308 178 309 178 309 C178 309 249 583 249 583 C249 583 332 308 332 308 L332 308 Z " />
<glyph glyph-name="abreve" unicode="&#x103;" horiz-adv-x="530" d="M83 817 C123 737 170 673 187 673 C205 673 252 737 292 817 C292 817 271 828 271 828 C253 792 215 763 187 763 C159 763 122 792 104 828 C104 828 83 817 83 817 L83 817 Z M393 25 C393 25 478 52 478 52 C478 52 478 58 478 58 C435 68 420 79 420 135 C420 135 420 638 420 638 C420 638 383 638 383 638 C383 638 314 569 314 569 C296 608 264 643 240 643 C137 643 54 482 54 281 C54 122 113 -5 187 -5 C209 -5 249 33 285 86 C285 86 285 0 285 0 C285 0 285 -5 285 -5 C285 -5 308 -5 308 -5 C308 -5 393 25 393 25 L393 25 Z M285 113 C273 92 263 77 262 77 C225 77 195 190 195 332 C195 484 212 606 234 606 C249 606 274 573 285 541 C285 541 285 113 285 113 L285 113 Z " />
<glyph glyph-name="Aogonek" unicode="&#x104;" horiz-adv-x="641" d="M634 11 C634 11 627 11 627 11 C604 11 575 39 563 73 C563 73 309 816 309 816 C309 816 272 816 272 816 C272 816 71 76 71 76 C71 76 70 76 70 76 C61 40 31 11 4 11 C4 11 -5 11 -5 11 C-5 11 -5 0 -5 0 C-5 0 50 0 50 0 C50 0 74 0 74 0 C74 0 99 0 99 0 C99 0 183 0 183 0 C183 0 183 11 183 11 C183 11 171 11 171 11 C133 11 111 47 123 91 C123 91 122 91 122 91 C122 91 168 270 168 270 C168 270 344 270 344 270 C344 270 402 76 402 76 C402 76 401 76 401 76 C412 40 392 11 356 11 C356 11 344 11 344 11 C344 11 344 0 344 0 C344 0 370 0 370 0 C313 -39 242 -105 242 -153 C242 -200 309 -238 392 -238 C423 -238 462 -221 480 -200 C480 -200 470 -188 470 -188 C464 -195 443 -200 421 -200 C368 -200 325 -173 325 -139 C325 -82 397 -10 425 0 C425 0 506 0 506 0 C506 0 588 0 588 0 C588 0 634 0 634 0 C634 0 634 11 634 11 L634 11 Z M332 308 C332 308 178 309 178 309 C178 309 249 583 249 583 C249 583 332 308 332 308 L332 308 Z " />
<glyph glyph-name="aogonek" unicode="&#x105;" horiz-adv-x="457" d="M435 75 C428 64 414 55 392 55 C363 55 352 86 352 124 C352 124 352 488 352 488 C352 574 297 643 229 643 C140 643 58 588 45 520 C45 520 180 520 180 520 C189 567 198 605 200 605 C205 605 209 566 209 518 C209 518 209 331 209 331 C209 331 190 328 190 328 C104 317 36 232 36 138 C36 59 75 -5 123 -5 C159 -5 196 10 225 33 C239 7 263 -10 300 -10 C303 -10 306 -10 309 -10 C255 -50 199 -108 199 -151 C199 -199 265 -238 348 -238 C379 -238 418 -221 436 -200 C436 -200 426 -188 426 -188 C420 -195 399 -200 377 -200 C324 -200 281 -172 281 -136 C281 -82 346 -14 377 1 C413 13 437 34 451 57 C451 57 435 75 435 75 L435 75 Z M209 292 C209 292 209 110 209 110 C209 103 209 96 210 89 C202 88 195 87 187 87 C178 87 170 127 170 177 C170 235 180 283 192 287 C192 287 209 292 209 292 L209 292 Z " />
<glyph glyph-name="Cacute" unicode="&#x106;" horiz-adv-x="686" d="M359 827 C359 827 478 949 478 949 C496 969 511 988 511 995 C511 1010 456 1051 434 1051 C430 1051 420 1030 409 1003 C409 1003 344 839 344 839 C344 839 359 827 359 827 L359 827 Z M627 617 C627 617 627 746 627 746 C627 746 617 729 617 729 C617 729 617 729 617 729 C617 729 627 746 627 746 C572 778 473 803 404 803 C200 803 36 623 36 399 C36 175 200 -5 404 -5 C473 -5 572 20 627 52 C627 52 627 181 627 181 C627 181 617 181 617 181 C614 173 610 161 607 153 C587 97 515 47 440 35 C427 34 415 33 404 33 C291 33 201 196 201 399 C201 602 291 765 404 765 C421 765 440 763 459 760 C459 760 459 760 459 760 C522 751 588 699 607 644 C610 637 614 625 617 617 C617 617 627 617 627 617 L627 617 Z " />
<glyph glyph-name="cacute" unicode="&#x107;" horiz-adv-x="472" d="M189 667 C189 667 307 789 307 789 C326 809 341 828 341 835 C341 850 285 891 264 891 C260 891 249 870 238 843 C238 843 174 679 174 679 C174 679 189 667 189 667 L189 667 Z M422 90 C422 90 410 105 410 105 C391 90 364 77 349 77 C262 77 193 196 193 345 C193 489 218 605 249 605 C270 605 290 567 295 520 C298 484 328 454 362 454 C395 454 422 481 422 514 C416 586 346 643 264 643 C145 643 50 488 50 293 C50 128 133 -5 236 -5 C277 -5 359 37 422 90 L422 90 Z " />
<glyph glyph-name="Ccircumflex" unicode="&#x108;" horiz-adv-x="686" d="M627 617 C627 617 627 746 627 746 C627 746 617 729 617 729 C617 729 617 729 617 729 C617 729 627 746 627 746 C572 778 473 803 404 803 C200 803 36 623 36 399 C36 175 200 -5 404 -5 C473 -5 572 20 627 52 C627 52 627 181 627 181 C627 181 617 181 617 181 C614 173 610 161 607 153 C587 97 515 47 440 35 C427 34 415 33 404 33 C291 33 201 196 201 399 C201 602 291 765 404 765 C421 765 440 763 459 760 C459 760 459 760 459 760 C522 751 588 699 607 644 C610 637 614 625 617 617 C617 617 627 617 627 617 L627 617 Z M404 920 C404 920 501 828 501 828 C501 828 515 840 515 840 C515 840 447 1004 447 1004 C443 1014 427 1042 404 1042 C382 1042 366 1015 361 1005 C361 1005 294 840 294 840 C294 840 307 828 307 828 C307 828 404 920 404 920 L404 920 Z " />
<glyph glyph-name="Cdotaccent" unicode="&#x10a;" horiz-adv-x="686" d="M404 868 C448 868 484 903 484 948 C484 992 448 1028 404 1028 C360 1028 324 992 324 948 C324 903 360 868 404 868 L404 868 Z M627 617 C627 617 627 746 627 746 C627 746 617 729 617 729 C617 729 617 729 617 729 C617 729 627 746 627 746 C572 778 473 803 404 803 C200 803 36 623 36 399 C36 175 200 -5 404 -5 C473 -5 572 20 627 52 C627 52 627 181 627 181 C627 181 617 181 617 181 C614 173 610 161 607 153 C587 97 515 47 440 35 C427 34 415 33 404 33 C291 33 201 196 201 399 C201 602 291 765 404 765 C421 765 440 763 459 760 C459 760 459 760 459 760 C522 751 588 699 607 644 C610 637 614 625 617 617 C617 617 627 617 627 617 L627 617 Z " />
<glyph glyph-name="cdotaccent" unicode="&#x10b;" horiz-adv-x="472" d="M264 708 C309 708 344 743 344 788 C344 832 309 868 264 868 C220 868 184 832 184 788 C184 743 220 708 264 708 L264 708 Z M422 90 C422 90 410 105 410 105 C391 90 364 77 349 77 C262 77 193 196 193 345 C193 489 218 605 249 605 C270 605 290 567 295 520 C298 484 328 454 362 454 C395 454 422 481 422 514 C416 586 346 643 264 643 C145 643 50 488 50 293 C50 128 133 -5 236 -5 C277 -5 359 37 422 90 L422 90 Z " />
<glyph glyph-name="Ccaron" unicode="&#x10c;" horiz-adv-x="686" d="M627 617 C627 617 627 746 627 746 C627 746 617 729 617 729 C617 729 617 729 617 729 C617 729 627 746 627 746 C572 778 473 803 404 803 C200 803 36 623 36 399 C36 175 200 -5 404 -5 C473 -5 572 20 627 52 C627 52 627 181 627 181 C627 181 617 181 617 181 C614 173 610 161 607 153 C587 97 515 47 440 35 C427 34 415 33 404 33 C291 33 201 196 201 399 C201 602 291 765 404 765 C421 765 440 763 459 760 C459 760 459 760 459 760 C522 751 588 699 607 644 C610 637 614 625 617 617 C617 617 627 617 627 617 L627 617 Z M404 975 C404 975 501 1067 501 1067 C501 1067 515 1056 515 1056 C515 1056 447 892 447 892 C443 881 427 854 404 854 C382 854 366 881 361 891 C361 891 294 1056 294 1056 C294 1056 307 1067 307 1067 C307 1067 404 975 404 975 L404 975 Z " />
<glyph glyph-name="ccaron" unicode="&#x10d;" horiz-adv-x="472" d="M422 90 C422 90 410 105 410 105 C391 90 364 77 349 77 C262 77 193 196 193 345 C193 489 218 605 249 605 C270 605 290 567 295 520 C298 484 328 454 362 454 C395 454 422 481 422 514 C416 586 346 643 264 643 C145 643 50 488 50 293 C50 128 133 -5 236 -5 C277 -5 359 37 422 90 L422 90 Z M264 815 C264 815 361 907 361 907 C361 907 375 896 375 896 C375 896 307 732 307 732 C303 721 287 694 264 694 C242 694 226 721 221 731 C221 731 154 896 154 896 C154 896 167 907 167 907 C167 907 264 815 264 815 L264 815 Z " />
<glyph glyph-name="Dcaron" unicode="&#x10e;" horiz-adv-x="718" d="M28 786 C28 786 36 786 36 786 C63 786 85 758 85 721 C85 721 85 76 85 76 C85 40 63 11 36 11 C36 11 28 11 28 11 C28 11 28 0 28 0 C28 0 85 0 85 0 C85 0 160 0 160 0 C160 0 235 0 235 0 C235 0 329 0 329 0 C518 0 669 177 669 399 C669 621 507 798 305 798 C305 798 235 798 235 798 C235 798 160 798 160 798 C160 798 85 798 85 798 C85 798 28 798 28 798 C28 798 28 786 28 786 L28 786 Z M302 975 C302 975 399 1067 399 1067 C399 1067 412 1056 412 1056 C412 1056 345 892 345 892 C341 881 324 854 302 854 C279 854 263 881 259 891 C259 891 191 1056 191 1056 C191 1056 205 1067 205 1067 C205 1067 302 975 302 975 L302 975 Z M235 38 C235 38 235 760 235 760 C235 760 305 760 305 760 C424 760 519 599 519 399 C519 198 434 38 329 38 C329 38 235 38 235 38 L235 38 Z " />
<glyph glyph-name="dcaron" unicode="&#x10f;" horiz-adv-x="552" d="M585 748 C609 789 628 848 628 858 C628 878 567 889 543 889 C518 889 503 822 501 779 C501 779 488 613 488 613 C488 613 505 607 505 607 C505 607 585 748 585 748 L585 748 Z M442 759 C442 759 442 823 442 823 C442 823 442 858 442 858 C442 858 415 858 415 858 C415 858 250 806 250 806 C250 806 250 799 250 799 C294 794 307 776 307 722 C307 722 307 622 307 622 C292 635 275 643 261 643 C146 643 54 482 54 281 C54 122 122 -5 208 -5 C220 -5 262 27 307 69 C307 69 307 35 307 35 C307 35 307 0 307 0 C307 0 334 0 334 0 C334 0 500 52 500 52 C500 52 500 58 500 58 C457 68 442 79 442 135 C442 135 442 759 442 759 L442 759 Z M307 99 C307 99 307 90 307 90 C298 82 287 77 282 77 C234 77 195 190 195 332 C195 484 221 606 254 606 C271 606 291 589 307 567 C307 567 307 99 307 99 L307 99 Z " />
<glyph glyph-name="Emacron" unicode="&#x112;" horiz-adv-x="592" d="M173 896 C173 896 409 896 409 896 C409 896 409 971 409 971 C409 971 173 971 173 971 C173 971 173 896 173 896 L173 896 Z M430 326 C430 326 430 391 430 391 C430 391 430 410 430 410 C430 410 430 429 430 429 C430 429 430 486 430 486 C430 486 420 486 420 486 C420 486 418 478 418 478 C410 451 365 429 318 429 C318 429 247 429 247 429 C247 429 247 760 247 760 C247 760 361 760 361 760 C417 760 474 721 489 672 C489 672 494 657 494 657 C494 657 503 657 503 657 C503 657 503 779 503 779 C503 779 503 798 503 798 C503 798 485 798 485 798 C485 798 426 798 426 798 C426 798 247 798 247 798 C247 798 172 798 172 798 C172 798 97 798 97 798 C97 798 40 798 40 798 C40 798 40 786 40 786 C40 786 49 786 49 786 C75 786 97 758 97 721 C97 721 97 76 97 76 C97 40 75 11 49 11 C49 11 40 11 40 11 C40 11 40 0 40 0 C40 0 97 0 97 0 C97 0 172 0 172 0 C172 0 247 0 247 0 C247 0 424 0 424 0 C424 0 495 0 495 0 C495 0 500 0 500 0 C501 5 502 13 503 19 C509 53 519 107 525 141 C525 141 516 141 516 141 C516 141 509 125 509 125 C485 77 423 39 369 38 C369 38 365 38 365 38 C365 38 247 38 247 38 C247 38 247 391 247 391 C247 391 318 391 318 391 C365 391 410 367 418 336 C418 336 420 326 420 326 C420 326 430 326 430 326 L430 326 Z " />
<glyph glyph-name="emacron" unicode="&#x113;" horiz-adv-x="478" d="M137 736 C137 736 373 736 373 736 C373 736 373 811 373 811 C373 811 137 811 137 811 C137 811 137 736 137 736 L137 736 Z M428 90 C428 90 416 105 416 105 C397 90 369 77 352 77 C264 77 193 196 193 345 C193 361 193 377 194 392 C194 392 428 392 428 392 C428 532 351 643 255 643 C141 643 50 488 50 293 C50 128 134 -5 239 -5 C281 -5 365 37 428 90 L428 90 Z M195 418 C202 526 222 605 248 605 C278 605 302 561 302 506 C302 505 302 505 302 504 C301 469 272 436 238 428 C238 428 195 418 195 418 L195 418 Z " />
<glyph glyph-name="Ebreve" unicode="&#x114;" horiz-adv-x="592" d="M186 1007 C227 927 274 863 291 863 C309 863 355 927 396 1007 C396 1007 374 1018 374 1018 C356 982 319 953 291 953 C263 953 226 982 208 1018 C208 1018 186 1007 186 1007 L186 1007 Z M430 326 C430 326 430 391 430 391 C430 391 430 410 430 410 C430 410 430 429 430 429 C430 429 430 486 430 486 C430 486 420 486 420 486 C420 486 418 478 418 478 C410 451 365 429 318 429 C318 429 247 429 247 429 C247 429 247 760 247 760 C247 760 361 760 361 760 C417 760 474 721 489 672 C489 672 494 657 494 657 C494 657 503 657 503 657 C503 657 503 779 503 779 C503 779 503 798 503 798 C503 798 485 798 485 798 C485 798 426 798 426 798 C426 798 247 798 247 798 C247 798 172 798 172 798 C172 798 97 798 97 798 C97 798 40 798 40 798 C40 798 40 786 40 786 C40 786 49 786 49 786 C75 786 97 758 97 721 C97 721 97 76 97 76 C97 40 75 11 49 11 C49 11 40 11 40 11 C40 11 40 0 40 0 C40 0 97 0 97 0 C97 0 172 0 172 0 C172 0 247 0 247 0 C247 0 424 0 424 0 C424 0 495 0 495 0 C495 0 500 0 500 0 C501 5 502 13 503 19 C509 53 519 107 525 141 C525 141 516 141 516 141 C516 141 509 125 509 125 C485 77 423 39 369 38 C369 38 365 38 365 38 C365 38 247 38 247 38 C247 38 247 391 247 391 C247 391 318 391 318 391 C365 391 410 367 418 336 C418 336 420 326 420 326 C420 326 430 326 430 326 L430 326 Z " />
<glyph glyph-name="ebreve" unicode="&#x115;" horiz-adv-x="478" d="M150 847 C191 767 238 703 255 703 C273 703 319 767 360 847 C360 847 339 858 339 858 C320 822 283 793 255 793 C227 793 190 822 172 858 C172 858 150 847 150 847 L150 847 Z M428 90 C428 90 416 105 416 105 C397 90 369 77 352 77 C264 77 193 196 193 345 C193 361 193 377 194 392 C194 392 428 392 428 392 C428 532 351 643 255 643 C141 643 50 488 50 293 C50 128 134 -5 239 -5 C281 -5 365 37 428 90 L428 90 Z M195 418 C202 526 222 605 248 605 C278 605 302 561 302 506 C302 505 302 505 302 504 C301 469 272 436 238 428 C238 428 195 418 195 418 L195 418 Z " />
<glyph glyph-name="Edotaccent" unicode="&#x116;" horiz-adv-x="592" d="M291 868 C335 868 371 903 371 948 C371 992 335 1028 291 1028 C247 1028 211 992 211 948 C211 903 247 868 291 868 L291 868 Z M430 326 C430 326 430 391 430 391 C430 391 430 410 430 410 C430 410 430 429 430 429 C430 429 430 486 430 486 C430 486 420 486 420 486 C420 486 418 478 418 478 C410 451 365 429 318 429 C318 429 247 429 247 429 C247 429 247 760 247 760 C247 760 361 760 361 760 C417 760 474 721 489 672 C489 672 494 657 494 657 C494 657 503 657 503 657 C503 657 503 779 503 779 C503 779 503 798 503 798 C503 798 485 798 485 798 C485 798 426 798 426 798 C426 798 247 798 247 798 C247 798 172 798 172 798 C172 798 97 798 97 798 C97 798 40 798 40 798 C40 798 40 786 40 786 C40 786 49 786 49 786 C75 786 97 758 97 721 C97 721 97 76 97 76 C97 40 75 11 49 11 C49 11 40 11 40 11 C40 11 40 0 40 0 C40 0 97 0 97 0 C97 0 172 0 172 0 C172 0 247 0 247 0 C247 0 424 0 424 0 C424 0 495 0 495 0 C495 0 500 0 500 0 C501 5 502 13 503 19 C509 53 519 107 525 141 C525 141 516 141 516 141 C516 141 509 125 509 125 C485 77 423 39 369 38 C369 38 365 38 365 38 C365 38 247 38 247 38 C247 38 247 391 247 391 C247 391 318 391 318 391 C365 391 410 367 418 336 C418 336 420 326 420 326 C420 326 430 326 430 326 L430 326 Z " />
<glyph glyph-name="edotaccent" unicode="&#x117;" horiz-adv-x="478" d="M255 708 C299 708 335 743 335 788 C335 832 299 868 255 868 C211 868 175 832 175 788 C175 743 211 708 255 708 L255 708 Z M428 90 C428 90 416 105 416 105 C397 90 369 77 352 77 C264 77 193 196 193 345 C193 361 193 377 194 392 C194 392 428 392 428 392 C428 532 351 643 255 643 C141 643 50 488 50 293 C50 128 134 -5 239 -5 C281 -5 365 37 428 90 L428 90 Z M195 418 C202 526 222 605 248 605 C278 605 302 561 302 506 C302 505 302 505 302 504 C301 469 272 436 238 428 C238 428 195 418 195 418 L195 418 Z " />
<glyph glyph-name="Eogonek" unicode="&#x118;" horiz-adv-x="592" d="M430 326 C430 326 430 391 430 391 C430 391 430 410 430 410 C430 410 430 429 430 429 C430 429 430 486 430 486 C430 486 420 486 420 486 C420 486 418 478 418 478 C410 451 365 429 318 429 C318 429 247 429 247 429 C247 429 247 760 247 760 C247 760 361 760 361 760 C417 760 474 721 489 672 C489 672 494 657 494 657 C494 657 503 657 503 657 C503 657 503 779 503 779 C503 779 503 798 503 798 C503 798 485 798 485 798 C485 798 426 798 426 798 C426 798 247 798 247 798 C247 798 172 798 172 798 C172 798 97 798 97 798 C97 798 40 798 40 798 C40 798 40 786 40 786 C40 786 49 786 49 786 C75 786 97 758 97 721 C97 721 97 76 97 76 C97 40 75 11 49 11 C49 11 40 11 40 11 C40 11 40 0 40 0 C40 0 97 0 97 0 C97 0 172 0 172 0 C172 0 247 0 247 0 C247 0 424 0 424 0 C424 0 441 0 441 0 C383 -39 313 -105 313 -153 C313 -200 379 -238 462 -238 C493 -238 532 -221 550 -200 C550 -200 540 -188 540 -188 C534 -195 513 -200 491 -200 C438 -200 395 -173 395 -139 C395 -82 467 -10 495 0 C495 0 500 0 500 0 C501 5 502 13 503 19 C509 53 519 107 525 141 C525 141 516 141 516 141 C516 141 509 125 509 125 C485 77 423 39 369 38 C369 38 365 38 365 38 C365 38 247 38 247 38 C247 38 247 391 247 391 C247 391 318 391 318 391 C365 391 410 367 418 336 C418 336 420 326 420 326 C420 326 430 326 430 326 L430 326 Z " />
<glyph glyph-name="eogonek" unicode="&#x119;" horiz-adv-x="478" d="M352 36 C352 36 352 37 352 37 C378 52 404 70 428 90 C428 90 416 105 416 105 C397 90 369 77 352 77 C264 77 193 196 193 345 C193 361 193 377 194 392 C194 392 428 392 428 392 C428 532 351 643 255 643 C141 643 50 488 50 293 C50 128 134 -5 239 -5 C242 -5 246 -5 249 -4 C207 -43 170 -90 170 -128 C170 -189 236 -238 319 -238 C350 -238 389 -221 407 -200 C407 -200 397 -188 397 -188 C391 -195 370 -200 348 -200 C295 -200 252 -162 252 -114 C252 -51 324 26 352 36 L352 36 Z M195 418 C202 526 222 605 248 605 C278 605 302 561 302 506 C302 505 302 505 302 504 C301 469 272 436 238 428 C238 428 195 418 195 418 L195 418 Z " />
<glyph glyph-name="Ecaron" unicode="&#x11a;" horiz-adv-x="592" d="M430 326 C430 326 430 391 430 391 C430 391 430 410 430 410 C430 410 430 429 430 429 C430 429 430 486 430 486 C430 486 420 486 420 486 C420 486 418 478 418 478 C410 451 365 429 318 429 C318 429 247 429 247 429 C247 429 247 760 247 760 C247 760 361 760 361 760 C417 760 474 721 489 672 C489 672 494 657 494 657 C494 657 503 657 503 657 C503 657 503 779 503 779 C503 779 503 798 503 798 C503 798 485 798 485 798 C485 798 426 798 426 798 C426 798 247 798 247 798 C247 798 172 798 172 798 C172 798 97 798 97 798 C97 798 40 798 40 798 C40 798 40 786 40 786 C40 786 49 786 49 786 C75 786 97 758 97 721 C97 721 97 76 97 76 C97 40 75 11 49 11 C49 11 40 11 40 11 C40 11 40 0 40 0 C40 0 97 0 97 0 C97 0 172 0 172 0 C172 0 247 0 247 0 C247 0 424 0 424 0 C424 0 495 0 495 0 C495 0 500 0 500 0 C501 5 502 13 503 19 C509 53 519 107 525 141 C525 141 516 141 516 141 C516 141 509 125 509 125 C485 77 423 39 369 38 C369 38 365 38 365 38 C365 38 247 38 247 38 C247 38 247 391 247 391 C247 391 318 391 318 391 C365 391 410 367 418 336 C418 336 420 326 420 326 C420 326 430 326 430 326 L430 326 Z M291 975 C291 975 388 1067 388 1067 C388 1067 402 1056 402 1056 C402 1056 334 892 334 892 C330 881 314 854 291 854 C269 854 253 881 248 891 C248 891 181 1056 181 1056 C181 1056 194 1067 194 1067 C194 1067 291 975 291 975 L291 975 Z " />
<glyph glyph-name="ecaron" unicode="&#x11b;" horiz-adv-x="478" d="M428 90 C428 90 416 105 416 105 C397 90 369 77 352 77 C264 77 193 196 193 345 C193 361 193 377 194 392 C194 392 428 392 428 392 C428 532 351 643 255 643 C141 643 50 488 50 293 C50 128 134 -5 239 -5 C281 -5 365 37 428 90 L428 90 Z M255 815 C255 815 352 907 352 907 C352 907 366 896 366 896 C366 896 298 732 298 732 C294 721 278 694 255 694 C233 694 217 721 212 731 C212 731 145 896 145 896 C145 896 158 907 158 907 C158 907 255 815 255 815 L255 815 Z M195 418 C202 526 222 605 248 605 C278 605 302 561 302 506 C302 505 302 505 302 504 C301 469 272 436 238 428 C238 428 195 418 195 418 L195 418 Z " />
<glyph glyph-name="Gcircumflex" unicode="&#x11c;" horiz-adv-x="763" d="M670 375 C670 375 613 375 613 375 C613 375 545 375 545 375 C545 375 478 375 478 375 C478 375 420 375 420 375 C420 375 420 363 420 363 C420 363 429 363 429 363 C456 363 478 334 478 298 C478 298 478 44 478 44 C448 37 419 33 394 33 C287 33 201 196 201 399 C201 602 287 765 394 765 C411 765 431 763 452 759 C510 745 568 696 587 644 C590 637 594 625 597 617 C597 617 607 617 607 617 C607 617 607 746 607 746 C607 746 597 729 597 729 C597 729 597 729 597 729 C597 729 607 746 607 746 C552 778 458 803 394 803 C195 803 36 623 36 399 C36 175 195 -5 394 -5 C461 -5 558 20 613 52 C613 52 613 298 613 298 C613 298 613 303 613 303 C614 336 635 363 661 363 C661 363 670 363 670 363 C670 363 670 375 670 375 L670 375 Z M394 920 C394 920 491 828 491 828 C491 828 505 840 505 840 C505 840 437 1004 437 1004 C433 1014 417 1042 394 1042 C372 1042 356 1015 351 1005 C351 1005 284 840 284 840 C284 840 297 828 297 828 C297 828 394 920 394 920 L394 920 Z " />
<glyph glyph-name="Gbreve" unicode="&#x11e;" horiz-adv-x="763" d="M289 1007 C330 927 377 863 394 863 C412 863 458 927 499 1007 C499 1007 478 1018 478 1018 C459 982 422 953 394 953 C366 953 329 982 311 1018 C311 1018 289 1007 289 1007 L289 1007 Z M670 375 C670 375 613 375 613 375 C613 375 545 375 545 375 C545 375 478 375 478 375 C478 375 420 375 420 375 C420 375 420 363 420 363 C420 363 429 363 429 363 C456 363 478 334 478 298 C478 298 478 44 478 44 C448 37 419 33 394 33 C287 33 201 196 201 399 C201 602 287 765 394 765 C411 765 431 763 452 759 C510 745 568 696 587 644 C590 637 594 625 597 617 C597 617 607 617 607 617 C607 617 607 746 607 746 C607 746 597 729 597 729 C597 729 597 729 597 729 C597 729 607 746 607 746 C552 778 458 803 394 803 C195 803 36 623 36 399 C36 175 195 -5 394 -5 C461 -5 558 20 613 52 C613 52 613 298 613 298 C613 298 613 303 613 303 C614 336 635 363 661 363 C661 363 670 363 670 363 C670 363 670 375 670 375 L670 375 Z " />
<glyph glyph-name="gbreve" unicode="&#x11f;" horiz-adv-x="418" d="M86 847 C127 767 174 703 191 703 C209 703 255 767 296 847 C296 847 275 858 275 858 C257 822 219 793 191 793 C163 793 126 822 108 858 C108 858 86 847 86 847 L86 847 Z M418 638 C418 638 276 604 276 604 C276 604 276 604 276 604 C252 628 223 643 191 643 C112 643 49 554 49 442 C49 361 82 292 130 260 C77 248 37 195 37 130 C37 82 64 42 104 22 C51 -7 12 -65 12 -123 C12 -190 73 -244 150 -244 C288 -244 398 -136 398 0 C398 77 326 138 236 138 C236 138 167 135 167 135 C145 134 128 155 128 182 C128 215 139 241 154 241 C154 241 191 241 191 241 C270 241 333 330 333 442 C333 484 324 522 309 554 C309 554 418 563 418 563 C418 563 418 638 418 638 L418 638 Z M177 442 C177 537 183 613 191 613 C199 613 206 537 206 442 C206 347 199 271 191 271 C183 271 177 347 177 442 L177 442 Z M135 10 C147 7 160 6 173 7 C173 7 199 10 199 10 C256 10 301 -25 301 -68 C301 -145 241 -207 165 -207 C131 -207 103 -162 103 -107 C103 -57 116 -11 135 10 C135 10 135 10 135 10 L135 10 Z " />
<glyph glyph-name="Gdotaccent" unicode="&#x120;" horiz-adv-x="763" d="M394 868 C438 868 474 903 474 948 C474 992 438 1028 394 1028 C350 1028 314 992 314 948 C314 903 350 868 394 868 L394 868 Z M670 375 C670 375 613 375 613 375 C613 375 545 375 545 375 C545 375 478 375 478 375 C478 375 420 375 420 375 C420 375 420 363 420 363 C420 363 429 363 429 363 C456 363 478 334 478 298 C478 298 478 44 478 44 C448 37 419 33 394 33 C287 33 201 196 201 399 C201 602 287 765 394 765 C411 765 431 763 452 759 C510 745 568 696 587 644 C590 637 594 625 597 617 C597 617 607 617 607 617 C607 617 607 746 607 746 C607 746 597 729 597 729 C597 729 597 729 597 729 C597 729 607 746 607 746 C552 778 458 803 394 803 C195 803 36 623 36 399 C36 175 195 -5 394 -5 C461 -5 558 20 613 52 C613 52 613 298 613 298 C613 298 613 303 613 303 C614 336 635 363 661 363 C661 363 670 363 670 363 C670 363 670 375 670 375 L670 375 Z " />
<glyph glyph-name="gdotaccent" unicode="&#x121;" horiz-adv-x="418" d="M191 708 C236 708 271 743 271 788 C271 832 236 868 191 868 C147 868 111 832 111 788 C111 743 147 708 191 708 L191 708 Z M418 638 C418 638 276 604 276 604 C276 604 276 604 276 604 C252 628 223 643 191 643 C112 643 49 554 49 442 C49 361 82 292 130 260 C77 248 37 195 37 130 C37 82 64 42 104 22 C51 -7 12 -65 12 -123 C12 -190 73 -244 150 -244 C288 -244 398 -136 398 0 C398 77 326 138 236 138 C236 138 167 135 167 135 C145 134 128 155 128 182 C128 215 139 241 154 241 C154 241 191 241 191 241 C270 241 333 330 333 442 C333 484 324 522 309 554 C309 554 418 563 418 563 C418 563 418 638 418 638 L418 638 Z M177 442 C177 537 183 613 191 613 C199 613 206 537 206 442 C206 347 199 271 191 271 C183 271 177 347 177 442 L177 442 Z M135 10 C147 7 160 6 173 7 C173 7 199 10 199 10 C256 10 301 -25 301 -68 C301 -145 241 -207 165 -207 C131 -207 103 -162 103 -107 C103 -57 116 -11 135 10 C135 10 135 10 135 10 L135 10 Z " />
<glyph glyph-name="Hcircumflex" unicode="&#x124;" horiz-adv-x="693" d="M654 798 C654 798 596 798 596 798 C596 798 521 798 521 798 C521 798 446 798 446 798 C446 798 389 798 389 798 C389 798 389 786 389 786 C389 786 397 786 397 786 C424 786 446 758 446 721 C446 721 446 421 446 421 C446 421 247 421 247 421 C247 421 247 721 247 721 C248 758 269 786 296 786 C296 786 305 786 305 786 C305 786 305 798 305 798 C305 798 247 798 247 798 C247 798 172 798 172 798 C172 798 97 798 97 798 C97 798 40 798 40 798 C40 798 40 786 40 786 C40 786 49 786 49 786 C75 786 97 758 97 721 C97 721 97 76 97 76 C97 40 75 11 49 11 C49 11 40 11 40 11 C40 11 40 0 40 0 C40 0 97 0 97 0 C97 0 172 0 172 0 C172 0 247 0 247 0 C247 0 305 0 305 0 C305 0 305 11 305 11 C305 11 296 11 296 11 C269 11 248 40 247 76 C247 76 247 384 247 384 C247 384 446 384 446 384 C446 384 446 76 446 76 C446 40 424 11 397 11 C397 11 389 11 389 11 C389 11 389 0 389 0 C389 0 446 0 446 0 C446 0 521 0 521 0 C521 0 596 0 596 0 C596 0 654 0 654 0 C654 0 654 11 654 11 C654 11 645 11 645 11 C618 11 596 40 596 76 C596 76 596 721 596 721 C596 758 618 786 645 786 C645 786 654 786 654 786 C654 786 654 798 654 798 L654 798 Z M347 920 C347 920 444 828 444 828 C444 828 457 840 457 840 C457 840 390 1004 390 1004 C386 1014 369 1042 347 1042 C324 1042 308 1015 304 1005 C304 1005 236 840 236 840 C236 840 250 828 250 828 C250 828 347 920 347 920 L347 920 Z " />
<glyph glyph-name="Itilde" unicode="&#x128;" horiz-adv-x="344" d="M79 893 C79 922 88 945 100 945 C140 945 168 883 209 883 C253 883 289 950 289 1033 C289 1033 266 1033 266 1033 C266 1000 253 973 238 973 C197 973 169 1035 129 1035 C88 1035 56 972 56 893 C56 893 79 893 79 893 L79 893 Z M305 798 C305 798 247 798 247 798 C247 798 172 798 172 798 C172 798 97 798 97 798 C97 798 40 798 40 798 C40 798 40 786 40 786 C40 786 49 786 49 786 C75 786 97 758 97 721 C97 721 97 76 97 76 C97 40 75 11 49 11 C49 11 40 11 40 11 C40 11 40 0 40 0 C40 0 97 0 97 0 C97 0 172 0 172 0 C172 0 247 0 247 0 C247 0 305 0 305 0 C305 0 305 11 305 11 C305 11 296 11 296 11 C269 11 248 40 247 76 C247 76 247 721 247 721 C248 758 269 786 296 786 C296 786 305 786 305 786 C305 786 305 798 305 798 L305 798 Z " />
<glyph glyph-name="itilde" unicode="&#x129;" horiz-adv-x="339" d="M76 733 C76 762 86 785 97 785 C138 785 166 723 206 723 C250 723 286 790 286 873 C286 873 264 873 264 873 C264 840 251 813 235 813 C195 813 167 875 127 875 C86 875 54 812 54 733 C54 733 76 733 76 733 L76 733 Z M237 0 C237 0 295 0 295 0 C295 0 295 11 295 11 C295 11 283 11 283 11 C258 11 237 9 237 0 C237 0 237 561 237 561 C237 561 237 643 237 643 C237 643 230 643 230 643 C230 643 54 589 54 589 C54 589 54 580 54 580 C54 580 88 567 88 567 C96 564 102 552 102 522 C102 522 102 0 102 0 C102 0 45 0 45 0 C45 0 45 11 45 11 C45 11 56 11 56 11 C82 11 102 9 102 0 C102 0 237 0 237 0 L237 0 Z " />
<glyph glyph-name="Imacron" unicode="&#x12a;" horiz-adv-x="344" d="M54 896 C54 896 291 896 291 896 C291 896 291 971 291 971 C291 971 54 971 54 971 C54 971 54 896 54 896 L54 896 Z M305 798 C305 798 247 798 247 798 C247 798 172 798 172 798 C172 798 97 798 97 798 C97 798 40 798 40 798 C40 798 40 786 40 786 C40 786 49 786 49 786 C75 786 97 758 97 721 C97 721 97 76 97 76 C97 40 75 11 49 11 C49 11 40 11 40 11 C40 11 40 0 40 0 C40 0 97 0 97 0 C97 0 172 0 172 0 C172 0 247 0 247 0 C247 0 305 0 305 0 C305 0 305 11 305 11 C305 11 296 11 296 11 C269 11 248 40 247 76 C247 76 247 721 247 721 C248 758 269 786 296 786 C296 786 305 786 305 786 C305 786 305 798 305 798 L305 798 Z " />
<glyph glyph-name="imacron" unicode="&#x12b;" horiz-adv-x="339" d="M52 736 C52 736 288 736 288 736 C288 736 288 811 288 811 C288 811 52 811 52 811 C52 811 52 736 52 736 L52 736 Z M237 0 C237 0 295 0 295 0 C295 0 295 11 295 11 C295 11 283 11 283 11 C258 11 237 9 237 0 C237 0 237 561 237 561 C237 561 237 643 237 643 C237 643 230 643 230 643 C230 643 54 589 54 589 C54 589 54 580 54 580 C54 580 88 567 88 567 C96 564 102 552 102 522 C102 522 102 0 102 0 C102 0 45 0 45 0 C45 0 45 11 45 11 C45 11 56 11 56 11 C82 11 102 9 102 0 C102 0 237 0 237 0 L237 0 Z " />
<glyph glyph-name="Ibreve" unicode="&#x12c;" horiz-adv-x="344" d="M68 1007 C108 927 155 863 172 863 C190 863 237 927 277 1007 C277 1007 256 1018 256 1018 C238 982 201 953 172 953 C144 953 107 982 89 1018 C89 1018 68 1007 68 1007 L68 1007 Z M305 798 C305 798 247 798 247 798 C247 798 172 798 172 798 C172 798 97 798 97 798 C97 798 40 798 40 798 C40 798 40 786 40 786 C40 786 49 786 49 786 C75 786 97 758 97 721 C97 721 97 76 97 76 C97 40 75 11 49 11 C49 11 40 11 40 11 C40 11 40 0 40 0 C40 0 97 0 97 0 C97 0 172 0 172 0 C172 0 247 0 247 0 C247 0 305 0 305 0 C305 0 305 11 305 11 C305 11 296 11 296 11 C269 11 248 40 247 76 C247 76 247 721 247 721 C248 758 269 786 296 786 C296 786 305 786 305 786 C305 786 305 798 305 798 L305 798 Z " />
<glyph glyph-name="ibreve" unicode="&#x12d;" horiz-adv-x="339" d="M65 847 C106 767 152 703 170 703 C188 703 234 767 275 847 C275 847 253 858 253 858 C235 822 198 793 170 793 C142 793 105 822 87 858 C87 858 65 847 65 847 L65 847 Z M237 0 C237 0 295 0 295 0 C295 0 295 11 295 11 C295 11 283 11 283 11 C258 11 237 9 237 0 C237 0 237 561 237 561 C237 561 237 643 237 643 C237 643 230 643 230 643 C230 643 54 589 54 589 C54 589 54 580 54 580 C54 580 88 567 88 567 C96 564 102 552 102 522 C102 522 102 0 102 0 C102 0 45 0 45 0 C45 0 45 11 45 11 C45 11 56 11 56 11 C82 11 102 9 102 0 C102 0 237 0 237 0 L237 0 Z " />
<glyph glyph-name="Idotaccent" unicode="&#x130;" horiz-adv-x="344" d="M172 868 C217 868 252 903 252 948 C252 992 217 1028 172 1028 C128 1028 92 992 92 948 C92 903 128 868 172 868 L172 868 Z M305 798 C305 798 247 798 247 798 C247 798 172 798 172 798 C172 798 97 798 97 798 C97 798 40 798 40 798 C40 798 40 786 40 786 C40 786 49 786 49 786 C75 786 97 758 97 721 C97 721 97 76 97 76 C97 40 75 11 49 11 C49 11 40 11 40 11 C40 11 40 0 40 0 C40 0 97 0 97 0 C97 0 172 0 172 0 C172 0 247 0 247 0 C247 0 305 0 305 0 C305 0 305 11 305 11 C305 11 296 11 296 11 C269 11 248 40 247 76 C247 76 247 721 247 721 C248 758 269 786 296 786 C296 786 305 786 305 786 C305 786 305 798 305 798 L305 798 Z " />
<glyph glyph-name="dotlessi" unicode="&#x131;" horiz-adv-x="339" d="M237 0 C237 0 295 0 295 0 C295 0 295 11 295 11 C295 11 283 11 283 11 C258 11 237 9 237 0 C237 0 237 561 237 561 C237 561 237 643 237 643 C237 643 230 643 230 643 C230 643 54 589 54 589 C54 589 54 580 54 580 C54 580 88 567 88 567 C96 564 102 552 102 522 C102 522 102 0 102 0 C102 0 45 0 45 0 C45 0 45 11 45 11 C45 11 56 11 56 11 C82 11 102 9 102 0 C102 0 237 0 237 0 L237 0 Z " />
<glyph glyph-name="Jcircumflex" unicode="&#x134;" horiz-adv-x="430" d="M390 798 C390 798 333 798 333 798 C333 798 258 798 258 798 C258 798 183 798 183 798 C183 798 125 798 125 798 C125 798 125 786 125 786 C125 786 134 786 134 786 C161 786 183 758 183 721 C183 721 183 242 183 242 C183 94 177 20 166 20 C145 20 128 44 127 75 C127 108 96 135 60 135 C25 135 -1 108 0 75 C1 28 58 -10 129 -10 C265 -10 333 116 333 368 C333 368 333 721 333 721 C333 758 354 786 382 786 C382 786 390 786 390 786 C390 786 390 798 390 798 L390 798 Z M258 920 C258 920 354 828 354 828 C354 828 368 840 368 840 C368 840 301 1004 301 1004 C296 1014 280 1042 258 1042 C235 1042 219 1015 215 1005 C215 1005 147 840 147 840 C147 840 161 828 161 828 C161 828 258 920 258 920 L258 920 Z " />
<glyph glyph-name="Lacute" unicode="&#x139;" horiz-adv-x="592" d="M150 827 C150 827 269 949 269 949 C288 969 303 988 303 995 C303 1010 247 1051 226 1051 C221 1051 211 1030 200 1003 C200 1003 135 839 135 839 C135 839 150 827 150 827 L150 827 Z M512 152 C512 152 502 128 502 128 C482 78 428 39 379 38 C379 38 375 38 375 38 C375 38 247 38 247 38 C247 38 247 721 247 721 C248 758 269 786 296 786 C296 786 305 786 305 786 C305 786 305 798 305 798 C305 798 247 798 247 798 C247 798 172 798 172 798 C172 798 97 798 97 798 C97 798 40 798 40 798 C40 798 40 786 40 786 C40 786 49 786 49 786 C75 786 97 758 97 721 C97 721 97 76 97 76 C97 40 75 11 49 11 C49 11 40 11 40 11 C40 11 40 0 40 0 C40 0 97 0 97 0 C97 0 172 0 172 0 C172 0 247 0 247 0 C247 0 424 0 424 0 C424 0 495 0 495 0 C495 0 500 0 500 0 C501 5 502 13 503 19 C510 54 520 111 526 147 C522 148 512 152 512 152 L512 152 Z " />
<glyph glyph-name="Lcaron" unicode="&#x13d;" horiz-adv-x="592" d="M512 152 C512 152 502 128 502 128 C482 78 428 39 379 38 C379 38 375 38 375 38 C375 38 247 38 247 38 C247 38 247 721 247 721 C248 758 269 786 296 786 C296 786 305 786 305 786 C305 786 305 798 305 798 C305 798 247 798 247 798 C247 798 172 798 172 798 C172 798 97 798 97 798 C97 798 40 798 40 798 C40 798 40 786 40 786 C40 786 49 786 49 786 C75 786 97 758 97 721 C97 721 97 76 97 76 C97 40 75 11 49 11 C49 11 40 11 40 11 C40 11 40 0 40 0 C40 0 97 0 97 0 C97 0 172 0 172 0 C172 0 247 0 247 0 C247 0 424 0 424 0 C424 0 495 0 495 0 C495 0 500 0 500 0 C501 5 502 13 503 19 C510 54 520 111 526 147 C522 148 512 152 512 152 L512 152 Z M448 688 C471 729 490 788 490 798 C490 818 429 829 406 829 C381 829 366 762 363 719 C363 719 351 553 351 553 C351 553 368 547 368 547 C368 547 448 688 448 688 L448 688 Z " />
<glyph glyph-name="lcaron" unicode="&#x13e;" horiz-adv-x="339" d="M295 11 C295 11 286 11 286 11 C259 11 238 40 237 76 C237 76 237 759 237 759 C237 759 237 823 237 823 C237 823 237 858 237 858 C237 858 210 858 210 858 C210 858 45 806 45 806 C45 806 45 799 45 799 C89 794 102 776 102 722 C102 722 102 76 102 76 C102 40 80 11 54 11 C54 11 45 11 45 11 C45 11 45 0 45 0 C45 0 102 0 102 0 C102 0 170 0 170 0 C170 0 237 0 237 0 C237 0 295 0 295 0 C295 0 295 11 295 11 L295 11 Z M380 718 C404 759 423 818 423 828 C423 848 362 859 338 859 C313 859 299 792 296 749 C296 749 283 583 283 583 C283 583 300 577 300 577 C300 577 380 718 380 718 L380 718 Z " />
<glyph glyph-name="Lslash" unicode="&#x141;" horiz-adv-x="592" d="M47 326 C47 326 97 341 97 341 C97 341 97 76 97 76 C97 40 75 11 49 11 C49 11 40 11 40 11 C40 11 40 0 40 0 C40 0 97 0 97 0 C97 0 172 0 172 0 C172 0 247 0 247 0 C247 0 424 0 424 0 C424 0 495 0 495 0 C495 0 500 0 500 0 C501 5 502 13 503 19 C510 54 520 111 526 147 C522 148 512 152 512 152 C512 152 502 128 502 128 C482 78 428 39 379 38 C379 38 375 38 375 38 C375 38 247 38 247 38 C247 38 247 388 247 388 C247 388 371 426 371 426 C371 426 371 471 371 471 C371 471 247 433 247 433 C247 433 247 721 247 721 C248 758 269 786 296 786 C296 786 305 786 305 786 C305 786 305 798 305 798 C305 798 247 798 247 798 C247 798 172 798 172 798 C172 798 97 798 97 798 C97 798 40 798 40 798 C40 798 40 786 40 786 C40 786 49 786 49 786 C75 786 97 758 97 721 C97 721 97 386 97 386 C97 386 47 371 47 371 C47 371 47 326 47 326 L47 326 Z " />
<glyph glyph-name="lslash" unicode="&#x142;" horiz-adv-x="339" d="M2 356 C2 356 102 386 102 386 C102 386 102 76 102 76 C102 40 80 11 54 11 C54 11 45 11 45 11 C45 11 45 0 45 0 C45 0 102 0 102 0 C102 0 170 0 170 0 C170 0 237 0 237 0 C237 0 295 0 295 0 C295 0 295 11 295 11 C295 11 286 11 286 11 C259 11 238 40 237 76 C237 76 237 426 237 426 C237 426 337 456 337 456 C337 456 337 501 337 501 C337 501 237 471 237 471 C237 471 237 759 237 759 C237 759 237 823 237 823 C237 823 237 858 237 858 C237 858 210 858 210 858 C210 858 45 806 45 806 C45 806 45 799 45 799 C89 794 102 776 102 722 C102 722 102 431 102 431 C102 431 2 401 2 401 C2 401 2 356 2 356 L2 356 Z " />
<glyph glyph-name="Nacute" unicode="&#x143;" horiz-adv-x="628" d="M284 827 C284 827 402 949 402 949 C421 969 436 988 436 995 C436 1010 381 1051 359 1051 C355 1051 344 1030 333 1003 C333 1003 269 839 269 839 C269 839 284 827 284 827 L284 827 Z M591 798 C591 798 534 798 534 798 C534 798 511 798 511 798 C511 798 489 798 489 798 C489 798 431 798 431 798 C431 798 431 786 431 786 C431 786 440 786 440 786 C467 786 489 758 489 721 C489 721 489 240 489 240 C489 240 228 798 228 798 C228 798 138 736 138 736 C138 736 138 736 138 736 C138 736 228 798 228 798 C228 798 138 798 138 798 C138 798 116 798 116 798 C116 798 93 798 93 798 C93 798 36 798 36 798 C36 798 36 786 36 786 C36 786 44 786 44 786 C71 786 93 758 93 721 C93 721 93 76 93 76 C93 40 71 11 44 11 C44 11 36 11 36 11 C36 11 36 0 36 0 C36 0 93 0 93 0 C93 0 116 0 116 0 C116 0 138 0 138 0 C138 0 196 0 196 0 C196 0 196 11 196 11 C196 11 187 11 187 11 C160 11 138 40 138 76 C138 76 138 642 138 642 C138 642 420 60 420 60 C420 60 459 -20 459 -20 C459 -20 534 -20 534 -20 C534 -20 534 115 534 115 C534 115 534 721 534 721 C534 758 555 786 583 786 C583 786 591 786 591 786 C591 786 591 798 591 798 L591 798 Z " />
<glyph glyph-name="nacute" unicode="&#x144;" horiz-adv-x="542" d="M198 667 C198 667 316 789 316 789 C335 809 350 828 350 835 C350 850 294 891 273 891 C269 891 258 870 247 843 C247 843 183 679 183 679 C183 679 198 667 198 667 L198 667 Z M502 11 C502 11 494 11 494 11 C466 11 445 40 445 76 C445 76 445 476 445 476 C445 569 417 643 362 643 C312 643 263 615 237 576 C237 576 237 638 237 638 C237 638 210 638 210 638 C210 638 44 586 44 586 C44 586 44 579 44 579 C89 574 102 555 102 502 C102 502 102 76 102 76 C102 40 80 11 53 11 C53 11 44 11 44 11 C44 11 44 0 44 0 C44 0 102 0 102 0 C102 0 169 0 169 0 C169 0 237 0 237 0 C237 0 252 0 252 0 C252 0 294 0 294 0 C294 0 310 0 310 0 C310 0 377 0 377 0 C377 0 445 0 445 0 C445 0 502 0 502 0 C502 0 502 11 502 11 L502 11 Z M273 13 C252 20 237 46 237 76 C237 76 237 526 237 526 C237 526 190 526 190 526 C190 526 222 535 222 535 C222 535 222 527 222 527 C223 530 224 533 226 536 C226 536 237 539 237 539 C237 539 237 546 237 546 C243 550 250 552 258 552 C293 552 310 512 310 462 C310 462 310 76 310 76 C310 46 294 20 273 13 C273 13 273 13 273 13 L273 13 Z " />
<glyph glyph-name="Ncaron" unicode="&#x147;" horiz-adv-x="628" d="M591 798 C591 798 534 798 534 798 C534 798 511 798 511 798 C511 798 489 798 489 798 C489 798 431 798 431 798 C431 798 431 786 431 786 C431 786 440 786 440 786 C467 786 489 758 489 721 C489 721 489 240 489 240 C489 240 228 798 228 798 C228 798 138 736 138 736 C138 736 138 736 138 736 C138 736 228 798 228 798 C228 798 138 798 138 798 C138 798 116 798 116 798 C116 798 93 798 93 798 C93 798 36 798 36 798 C36 798 36 786 36 786 C36 786 44 786 44 786 C71 786 93 758 93 721 C93 721 93 76 93 76 C93 40 71 11 44 11 C44 11 36 11 36 11 C36 11 36 0 36 0 C36 0 93 0 93 0 C93 0 116 0 116 0 C116 0 138 0 138 0 C138 0 196 0 196 0 C196 0 196 11 196 11 C196 11 187 11 187 11 C160 11 138 40 138 76 C138 76 138 642 138 642 C138 642 420 60 420 60 C420 60 459 -20 459 -20 C459 -20 534 -20 534 -20 C534 -20 534 115 534 115 C534 115 534 721 534 721 C534 758 555 786 583 786 C583 786 591 786 591 786 C591 786 591 798 591 798 L591 798 Z M314 975 C314 975 410 1067 410 1067 C410 1067 424 1056 424 1056 C424 1056 357 892 357 892 C352 881 336 854 313 854 C291 854 275 881 271 891 C271 891 203 1056 203 1056 C203 1056 217 1067 217 1067 C217 1067 314 975 314 975 L314 975 Z " />
<glyph glyph-name="ncaron" unicode="&#x148;" horiz-adv-x="542" d="M502 11 C502 11 494 11 494 11 C466 11 445 40 445 76 C445 76 445 476 445 476 C445 569 417 643 362 643 C312 643 263 615 237 576 C237 576 237 638 237 638 C237 638 210 638 210 638 C210 638 44 586 44 586 C44 586 44 579 44 579 C89 574 102 555 102 502 C102 502 102 76 102 76 C102 40 80 11 53 11 C53 11 44 11 44 11 C44 11 44 0 44 0 C44 0 102 0 102 0 C102 0 169 0 169 0 C169 0 237 0 237 0 C237 0 252 0 252 0 C252 0 294 0 294 0 C294 0 310 0 310 0 C310 0 377 0 377 0 C377 0 445 0 445 0 C445 0 502 0 502 0 C502 0 502 11 502 11 L502 11 Z M273 815 C273 815 370 907 370 907 C370 907 384 896 384 896 C384 896 316 732 316 732 C312 721 296 694 273 694 C251 694 235 721 230 731 C230 731 163 896 163 896 C163 896 176 907 176 907 C176 907 273 815 273 815 L273 815 Z M273 13 C252 20 237 46 237 76 C237 76 237 526 237 526 C237 526 190 526 190 526 C190 526 222 535 222 535 C222 535 222 527 222 527 C223 530 224 533 226 536 C226 536 237 539 237 539 C237 539 237 546 237 546 C243 550 250 552 258 552 C293 552 310 512 310 462 C310 462 310 76 310 76 C310 46 294 20 273 13 C273 13 273 13 273 13 L273 13 Z " />
<glyph glyph-name="Omacron" unicode="&#x14c;" horiz-adv-x="695" d="M222 896 C222 896 459 896 459 896 C459 896 459 971 459 971 C459 971 222 971 222 971 C222 971 222 896 222 896 L222 896 Z M340 33 C255 33 201 216 201 399 C201 582 255 765 340 765 C426 765 480 582 480 399 C480 216 426 33 340 33 L340 33 Z M36 399 C36 197 154 -5 340 -5 C527 -5 645 197 645 399 C645 601 527 803 340 803 C154 803 36 601 36 399 L36 399 Z " />
<glyph glyph-name="omacron" unicode="&#x14d;" horiz-adv-x="548" d="M156 736 C156 736 392 736 392 736 C392 736 392 811 392 811 C392 811 156 811 156 811 C156 811 156 736 156 736 L156 736 Z M274 25 C233 25 200 156 200 319 C200 482 233 613 274 613 C316 613 349 482 349 319 C349 156 316 25 274 25 L274 25 Z M50 319 C50 139 150 -5 274 -5 C399 -5 499 139 499 319 C499 499 399 643 274 643 C150 643 50 499 50 319 L50 319 Z " />
<glyph glyph-name="Obreve" unicode="&#x14e;" horiz-adv-x="695" d="M236 1007 C276 927 323 863 340 863 C358 863 405 927 445 1007 C445 1007 424 1018 424 1018 C406 982 369 953 340 953 C312 953 275 982 257 1018 C257 1018 236 1007 236 1007 L236 1007 Z M340 33 C255 33 201 216 201 399 C201 582 255 765 340 765 C426 765 480 582 480 399 C480 216 426 33 340 33 L340 33 Z M36 399 C36 197 154 -5 340 -5 C527 -5 645 197 645 399 C645 601 527 803 340 803 C154 803 36 601 36 399 L36 399 Z " />
<glyph glyph-name="obreve" unicode="&#x14f;" horiz-adv-x="548" d="M170 847 C210 767 257 703 274 703 C292 703 339 767 379 847 C379 847 358 858 358 858 C340 822 302 793 274 793 C246 793 209 822 191 858 C191 858 170 847 170 847 L170 847 Z M274 25 C233 25 200 156 200 319 C200 482 233 613 274 613 C316 613 349 482 349 319 C349 156 316 25 274 25 L274 25 Z M50 319 C50 139 150 -5 274 -5 C399 -5 499 139 499 319 C499 499 399 643 274 643 C150 643 50 499 50 319 L50 319 Z " />
<glyph glyph-name="Racute" unicode="&#x154;" horiz-adv-x="655" d="M245 827 C245 827 363 949 363 949 C382 969 397 988 397 995 C397 1010 341 1051 320 1051 C316 1051 305 1030 294 1003 C294 1003 230 839 230 839 C230 839 245 827 245 827 L245 827 Z M28 786 C28 786 36 786 36 786 C63 786 85 758 85 721 C85 721 85 76 85 76 C85 40 63 11 36 11 C36 11 28 11 28 11 C28 11 28 0 28 0 C28 0 85 0 85 0 C85 0 160 0 160 0 C160 0 235 0 235 0 C235 0 292 0 292 0 C292 0 292 11 292 11 C292 11 284 11 284 11 C257 11 235 40 235 76 C235 76 235 364 235 364 C235 364 252 364 252 364 C252 364 375 106 375 106 C420 12 446 0 605 0 C605 0 655 0 655 0 C655 0 655 29 655 29 C655 29 650 29 650 29 C610 29 602 34 580 77 C580 77 419 391 419 391 C500 429 555 500 555 583 C555 702 443 798 302 798 C302 798 235 798 235 798 C235 798 160 798 160 798 C160 798 85 798 85 798 C85 798 28 798 28 798 C28 798 28 786 28 786 L28 786 Z M289 401 C289 401 235 401 235 401 C235 401 235 760 235 760 C235 760 302 760 302 760 C355 760 398 681 398 583 C398 482 349 401 289 401 L289 401 Z " />
<glyph glyph-name="Rcaron" unicode="&#x158;" horiz-adv-x="589" d="M28 786 C28 786 36 786 36 786 C63 786 85 758 85 721 C85 721 85 76 85 76 C85 40 63 11 36 11 C36 11 28 11 28 11 C28 11 28 0 28 0 C28 0 85 0 85 0 C85 0 160 0 160 0 C160 0 235 0 235 0 C235 0 292 0 292 0 C292 0 292 11 292 11 C292 11 284 11 284 11 C257 11 235 40 235 76 C235 76 235 364 235 364 C235 364 289 364 289 364 C346 208 479 26 590 -46 C590 -46 604 -25 604 -25 C586 -13 507 173 426 395 C504 433 555 502 555 583 C555 702 443 798 302 798 C302 798 235 798 235 798 C235 798 160 798 160 798 C160 798 85 798 85 798 C85 798 28 798 28 798 C28 798 28 786 28 786 L28 786 Z M320 975 C320 975 417 1067 417 1067 C417 1067 431 1056 431 1056 C431 1056 363 892 363 892 C359 881 343 854 320 854 C298 854 282 881 277 891 C277 891 210 1056 210 1056 C210 1056 223 1067 223 1067 C223 1067 320 975 320 975 L320 975 Z M235 401 C235 401 235 760 235 760 C235 760 302 760 302 760 C355 760 398 681 398 583 C398 482 349 401 289 401 C289 401 235 401 235 401 L235 401 Z " />
<glyph glyph-name="rcaron" unicode="&#x159;" horiz-adv-x="445" d="M294 11 C294 11 286 11 286 11 C258 11 237 40 237 76 C237 76 237 526 237 526 C237 526 222 526 222 526 C223 530 226 535 232 538 C232 538 237 539 237 539 C237 539 237 540 237 540 C242 542 248 543 254 543 C292 543 332 493 371 493 C406 493 435 522 435 557 C435 605 411 643 362 643 C303 643 251 614 231 573 C231 573 218 638 218 638 C218 638 191 638 191 638 C191 638 44 586 44 586 C44 586 44 579 44 579 C89 574 102 555 102 502 C102 502 102 76 102 76 C102 40 80 11 53 11 C53 11 44 11 44 11 C44 11 44 0 44 0 C44 0 102 0 102 0 C102 0 169 0 169 0 C169 0 237 0 237 0 C237 0 294 0 294 0 C294 0 294 11 294 11 L294 11 Z M232 815 C232 815 328 907 328 907 C328 907 342 896 342 896 C342 896 275 732 275 732 C270 721 254 694 232 694 C209 694 193 721 189 731 C189 731 121 896 121 896 C121 896 135 907 135 907 C135 907 232 815 232 815 L232 815 Z M222 535 C222 535 222 526 222 526 C222 526 190 526 190 526 C190 526 222 535 222 535 L222 535 Z " />
<glyph glyph-name="Sacute" unicode="&#x15a;" horiz-adv-x="453" d="M186 827 C186 827 305 949 305 949 C323 969 338 988 338 995 C338 1010 283 1051 261 1051 C257 1051 247 1030 236 1003 C236 1003 171 839 171 839 C171 839 186 827 186 827 L186 827 Z M38 180 C38 180 38 39 38 39 C80 14 152 -5 199 -5 C315 -5 408 98 408 226 C408 308 347 409 270 454 C197 496 139 569 139 618 C139 700 180 766 231 766 C233 766 237 765 242 763 C242 763 242 762 242 762 C279 747 320 704 334 666 C339 653 347 631 351 618 C351 618 361 618 361 618 C361 618 361 759 361 759 C361 759 348 736 348 736 C348 736 348 736 348 736 C348 736 361 759 361 759 C319 784 265 803 238 803 C125 803 35 694 35 558 C35 480 91 385 160 344 C239 298 302 219 302 165 C302 91 256 33 199 33 C190 33 177 36 162 41 C119 58 77 102 58 153 C55 160 51 172 48 180 C48 180 38 180 38 180 L38 180 Z " />
<glyph glyph-name="sacute" unicode="&#x15b;" horiz-adv-x="356" d="M133 667 C133 667 251 789 251 789 C270 809 285 828 285 835 C285 850 229 891 208 891 C204 891 193 870 182 843 C182 843 118 679 118 679 C118 679 133 667 133 667 L133 667 Z M44 134 C44 134 44 28 44 28 C75 9 116 -5 136 -5 C231 -5 306 83 306 193 C306 253 275 330 235 367 C187 411 149 475 149 510 C149 565 173 609 204 613 C212 618 222 612 233 597 C227 597 221 596 218 593 C218 593 203 612 203 612 C197 608 216 591 250 570 C257 556 265 540 271 521 C272 517 274 511 276 506 C276 506 285 506 285 506 C285 506 285 605 285 605 C285 605 273 584 273 584 C273 584 273 584 273 584 C273 584 285 605 285 605 C249 626 215 643 208 643 C117 643 45 563 45 464 C45 405 87 319 140 271 C170 243 194 186 194 143 C194 78 172 26 144 26 C142 0 130 1 112 24 C117 24 120 25 120 27 C120 27 144 26 144 26 C144 26 122 38 91 56 C82 72 71 92 61 115 C59 121 55 129 52 134 C52 134 44 134 44 134 L44 134 Z M204 613 C205 613 207 613 208 613 C206 613 204 613 203 612 C203 612 203 612 203 612 C203 612 204 613 204 613 C204 613 204 613 204 613 L204 613 Z " />
<glyph glyph-name="Scircumflex" unicode="&#x15c;" horiz-adv-x="453" d="M38 180 C38 180 38 39 38 39 C80 14 152 -5 199 -5 C315 -5 408 98 408 226 C408 308 347 409 270 454 C197 496 139 569 139 618 C139 700 180 766 231 766 C233 766 237 765 242 763 C242 763 242 762 242 762 C279 747 320 704 334 666 C339 653 347 631 351 618 C351 618 361 618 361 618 C361 618 361 759 361 759 C361 759 348 736 348 736 C348 736 348 736 348 736 C348 736 361 759 361 759 C319 784 265 803 238 803 C125 803 35 694 35 558 C35 480 91 385 160 344 C239 298 302 219 302 165 C302 91 256 33 199 33 C190 33 177 36 162 41 C119 58 77 102 58 153 C55 160 51 172 48 180 C48 180 38 180 38 180 L38 180 Z M231 920 C231 920 328 828 328 828 C328 828 342 840 342 840 C342 840 274 1004 274 1004 C270 1014 254 1042 231 1042 C209 1042 193 1015 188 1005 C188 1005 121 840 121 840 C121 840 134 828 134 828 C134 828 231 920 231 920 L231 920 Z " />
<glyph glyph-name="Scedilla" unicode="&#x15e;" horiz-adv-x="453" d="M38 180 C38 180 38 39 38 39 C80 14 152 -5 199 -5 C315 -5 408 98 408 226 C408 308 347 409 270 454 C197 496 139 569 139 618 C139 700 180 766 231 766 C233 766 237 765 242 763 C242 763 242 762 242 762 C279 747 320 704 334 666 C339 653 347 631 351 618 C351 618 361 618 361 618 C361 618 361 759 361 759 C361 759 348 736 348 736 C348 736 348 736 348 736 C348 736 361 759 361 759 C319 784 265 803 238 803 C125 803 35 694 35 558 C35 480 91 385 160 344 C239 298 302 219 302 165 C302 91 256 33 199 33 C190 33 177 36 162 41 C119 58 77 102 58 153 C55 160 51 172 48 180 C48 180 38 180 38 180 L38 180 Z " />
<glyph glyph-name="scedilla" unicode="&#x15f;" horiz-adv-x="356" d="M44 134 C44 134 44 28 44 28 C75 9 116 -5 136 -5 C231 -5 306 83 306 193 C306 253 275 330 235 367 C187 411 149 475 149 510 C149 565 173 609 204 613 C212 618 222 612 233 597 C227 597 221 596 218 593 C218 593 203 612 203 612 C197 608 216 591 250 570 C257 556 265 540 271 521 C272 517 274 511 276 506 C276 506 285 506 285 506 C285 506 285 605 285 605 C285 605 273 584 273 584 C273 584 273 584 273 584 C273 584 285 605 285 605 C249 626 215 643 208 643 C117 643 45 563 45 464 C45 405 87 319 140 271 C170 243 194 186 194 143 C194 78 172 26 144 26 C142 0 130 1 112 24 C117 24 120 25 120 27 C120 27 144 26 144 26 C144 26 122 38 91 56 C82 72 71 92 61 115 C59 121 55 129 52 134 C52 134 44 134 44 134 L44 134 Z M204 613 C205 613 207 613 208 613 C206 613 204 613 203 612 C203 612 203 612 203 612 C203 612 204 613 204 613 C204 613 204 613 204 613 L204 613 Z " />
<glyph glyph-name="Scaron" unicode="&#x160;" horiz-adv-x="453" d="M38 180 C38 180 38 39 38 39 C80 14 152 -5 199 -5 C315 -5 408 98 408 226 C408 308 347 409 270 454 C197 496 139 569 139 618 C139 700 180 766 231 766 C233 766 237 765 242 763 C242 763 242 762 242 762 C279 747 320 704 334 666 C339 653 347 631 351 618 C351 618 361 618 361 618 C361 618 361 759 361 759 C361 759 348 736 348 736 C348 736 348 736 348 736 C348 736 361 759 361 759 C319 784 265 803 238 803 C125 803 35 694 35 558 C35 480 91 385 160 344 C239 298 302 219 302 165 C302 91 256 33 199 33 C190 33 177 36 162 41 C119 58 77 102 58 153 C55 160 51 172 48 180 C48 180 38 180 38 180 L38 180 Z M231 975 C231 975 328 1067 328 1067 C328 1067 342 1056 342 1056 C342 1056 274 892 274 892 C270 881 254 854 231 854 C209 854 193 881 188 891 C188 891 121 1056 121 1056 C121 1056 134 1067 134 1067 C134 1067 231 975 231 975 L231 975 Z " />
<glyph glyph-name="scaron" unicode="&#x161;" horiz-adv-x="356" d="M44 134 C44 134 44 28 44 28 C75 9 116 -5 136 -5 C231 -5 306 83 306 193 C306 253 275 330 235 367 C187 411 149 475 149 510 C149 565 173 609 204 613 C212 618 222 612 233 597 C227 597 221 596 218 593 C218 593 203 612 203 612 C197 608 216 591 250 570 C257 556 265 540 271 521 C272 517 274 511 276 506 C276 506 285 506 285 506 C285 506 285 605 285 605 C285 605 273 584 273 584 C273 584 273 584 273 584 C273 584 285 605 285 605 C249 626 215 643 208 643 C117 643 45 563 45 464 C45 405 87 319 140 271 C170 243 194 186 194 143 C194 78 172 26 144 26 C142 0 130 1 112 24 C117 24 120 25 120 27 C120 27 144 26 144 26 C144 26 122 38 91 56 C82 72 71 92 61 115 C59 121 55 129 52 134 C52 134 44 134 44 134 L44 134 Z M208 815 C208 815 305 907 305 907 C305 907 319 896 319 896 C319 896 251 732 251 732 C247 721 230 694 208 694 C185 694 170 721 165 731 C165 731 97 896 97 896 C97 896 111 907 111 907 C111 907 208 815 208 815 L208 815 Z M204 613 C205 613 207 613 208 613 C206 613 204 613 203 612 C203 612 203 612 203 612 C203 612 204 613 204 613 C204 613 204 613 204 613 L204 613 Z " />
<glyph glyph-name="Tcaron" unicode="&#x164;" horiz-adv-x="556" d="M566 645 C562 682 557 742 554 779 C553 784 553 793 552 798 C552 798 516 798 516 798 C516 798 476 798 476 798 C476 798 80 798 80 798 C80 798 40 798 40 798 C40 798 4 798 4 798 C3 793 3 784 2 779 C-1 742 -6 682 -10 645 C-10 645 0 645 0 645 C0 645 14 680 14 680 C32 725 82 760 126 760 C126 760 203 760 203 760 C203 760 203 76 203 76 C203 40 181 11 154 11 C154 11 146 11 146 11 C146 11 146 0 146 0 C146 0 203 0 203 0 C203 0 278 0 278 0 C278 0 353 0 353 0 C353 0 411 0 411 0 C410 0 410 3 411 6 C410 9 410 11 411 11 C411 11 402 11 402 11 C375 11 353 40 353 76 C353 76 353 760 353 760 C353 760 430 760 430 760 C475 760 525 725 542 680 C542 680 557 645 557 645 C557 645 566 645 566 645 L566 645 Z M278 975 C278 975 375 1067 375 1067 C375 1067 389 1056 389 1056 C389 1056 321 892 321 892 C317 881 301 854 278 854 C256 854 240 881 235 891 C235 891 168 1056 168 1056 C168 1056 181 1067 181 1067 C181 1067 278 975 278 975 L278 975 Z " />
<glyph glyph-name="tcaron" unicode="&#x165;" horiz-adv-x="369" d="M337 638 C337 638 202 638 202 638 C202 638 202 805 202 805 C202 805 180 805 180 805 C125 698 56 607 25 600 C25 600 25 585 25 585 C25 585 67 585 67 585 C67 585 67 147 67 147 C67 37 100 -5 186 -5 C245 -5 304 25 350 63 C350 63 340 75 340 75 C327 64 299 55 252 55 C216 55 202 74 202 123 C202 123 202 585 202 585 C202 585 337 585 337 585 C337 585 337 638 337 638 L337 638 Z M480 718 C504 759 523 818 523 828 C523 848 462 859 438 859 C413 859 399 792 396 749 C396 749 383 583 383 583 C383 583 400 577 400 577 C400 577 480 718 480 718 L480 718 Z " />
<glyph glyph-name="Utilde" unicode="&#x168;" horiz-adv-x="619" d="M211 893 C211 922 220 945 232 945 C272 945 300 883 341 883 C385 883 421 950 421 1033 C421 1033 398 1033 398 1033 C398 1000 386 973 370 973 C330 973 302 1035 261 1035 C221 1035 188 972 188 893 C188 893 211 893 211 893 L211 893 Z M600 798 C600 798 534 798 534 798 C534 798 512 798 512 798 C512 798 489 798 489 798 C489 798 420 798 420 798 C420 798 420 786 420 786 C420 786 431 786 431 786 C463 786 489 753 489 711 C489 711 489 239 489 239 C489 132 437 47 332 47 C261 47 225 129 225 231 C225 231 225 721 225 721 C225 758 247 786 274 786 C274 786 282 786 282 786 C282 786 282 798 282 798 C282 798 225 798 225 798 C225 798 150 798 150 798 C150 798 75 798 75 798 C75 798 18 798 18 798 C18 798 18 786 18 786 C18 786 26 786 26 786 C53 786 75 758 75 721 C75 721 75 260 75 260 C75 113 153 -5 309 -5 C459 -5 534 97 534 224 C534 224 534 711 534 711 C535 753 559 786 590 786 C590 786 600 786 600 786 C600 786 600 798 600 798 L600 798 Z " />
<glyph glyph-name="utilde" unicode="&#x169;" horiz-adv-x="507" d="M149 733 C149 762 159 785 171 785 C211 785 239 723 279 723 C324 723 359 790 359 873 C359 873 337 873 337 873 C337 840 324 813 309 813 C268 813 240 875 200 875 C159 875 127 812 127 733 C127 733 149 733 149 733 L149 733 Z M222 626 C222 626 231 626 231 626 C258 626 280 598 280 561 C280 561 280 105 280 105 C269 92 266 84 274 84 C233 84 206 121 206 168 C206 168 207 638 207 638 C207 638 139 638 139 638 C139 638 72 638 72 638 C72 638 14 638 14 638 C14 638 14 626 14 626 C14 626 23 626 23 626 C50 626 72 598 72 561 C72 561 72 153 72 153 C72 65 110 -5 168 -5 C182 -5 228 33 280 84 C280 84 280 35 280 35 C280 35 280 0 280 0 C280 0 307 0 307 0 C307 0 472 52 472 52 C472 52 472 58 472 58 C472 58 464 60 464 60 C428 67 416 82 415 124 C415 124 415 135 415 135 C415 135 415 638 415 638 C415 638 347 638 347 638 C347 638 280 638 280 638 C280 638 222 638 222 638 C222 638 222 626 222 626 L222 626 Z " />
<glyph glyph-name="Umacron" unicode="&#x16a;" horiz-adv-x="619" d="M187 896 C187 896 423 896 423 896 C423 896 423 971 423 971 C423 971 187 971 187 971 C187 971 187 896 187 896 L187 896 Z M600 798 C600 798 534 798 534 798 C534 798 512 798 512 798 C512 798 489 798 489 798 C489 798 420 798 420 798 C420 798 420 786 420 786 C420 786 431 786 431 786 C463 786 489 753 489 711 C489 711 489 239 489 239 C489 132 437 47 332 47 C261 47 225 129 225 231 C225 231 225 721 225 721 C225 758 247 786 274 786 C274 786 282 786 282 786 C282 786 282 798 282 798 C282 798 225 798 225 798 C225 798 150 798 150 798 C150 798 75 798 75 798 C75 798 18 798 18 798 C18 798 18 786 18 786 C18 786 26 786 26 786 C53 786 75 758 75 721 C75 721 75 260 75 260 C75 113 153 -5 309 -5 C459 -5 534 97 534 224 C534 224 534 711 534 711 C535 753 559 786 590 786 C590 786 600 786 600 786 C600 786 600 798 600 798 L600 798 Z " />
<glyph glyph-name="umacron" unicode="&#x16b;" horiz-adv-x="507" d="M125 736 C125 736 361 736 361 736 C361 736 361 811 361 811 C361 811 125 811 125 811 C125 811 125 736 125 736 L125 736 Z M222 626 C222 626 231 626 231 626 C258 626 280 598 280 561 C280 561 280 105 280 105 C269 92 266 84 274 84 C233 84 206 121 206 168 C206 168 207 638 207 638 C207 638 139 638 139 638 C139 638 72 638 72 638 C72 638 14 638 14 638 C14 638 14 626 14 626 C14 626 23 626 23 626 C50 626 72 598 72 561 C72 561 72 153 72 153 C72 65 110 -5 168 -5 C182 -5 228 33 280 84 C280 84 280 35 280 35 C280 35 280 0 280 0 C280 0 307 0 307 0 C307 0 472 52 472 52 C472 52 472 58 472 58 C472 58 464 60 464 60 C428 67 416 82 415 124 C415 124 415 135 415 135 C415 135 415 638 415 638 C415 638 347 638 347 638 C347 638 280 638 280 638 C280 638 222 638 222 638 C222 638 222 626 222 626 L222 626 Z " />
<glyph glyph-name="Ubreve" unicode="&#x16c;" horiz-adv-x="619" d="M200 1007 C241 927 287 863 305 863 C322 863 369 927 410 1007 C410 1007 388 1018 388 1018 C370 982 333 953 305 953 C277 953 239 982 221 1018 C221 1018 200 1007 200 1007 L200 1007 Z M600 798 C600 798 534 798 534 798 C534 798 512 798 512 798 C512 798 489 798 489 798 C489 798 420 798 420 798 C420 798 420 786 420 786 C420 786 431 786 431 786 C463 786 489 753 489 711 C489 711 489 239 489 239 C489 132 437 47 332 47 C261 47 225 129 225 231 C225 231 225 721 225 721 C225 758 247 786 274 786 C274 786 282 786 282 786 C282 786 282 798 282 798 C282 798 225 798 225 798 C225 798 150 798 150 798 C150 798 75 798 75 798 C75 798 18 798 18 798 C18 798 18 786 18 786 C18 786 26 786 26 786 C53 786 75 758 75 721 C75 721 75 260 75 260 C75 113 153 -5 309 -5 C459 -5 534 97 534 224 C534 224 534 711 534 711 C535 753 559 786 590 786 C590 786 600 786 600 786 C600 786 600 798 600 798 L600 798 Z " />
<glyph glyph-name="ubreve" unicode="&#x16d;" horiz-adv-x="507" d="M138 847 C179 767 226 703 243 703 C261 703 307 767 348 847 C348 847 327 858 327 858 C309 822 271 793 243 793 C215 793 178 822 160 858 C160 858 138 847 138 847 L138 847 Z M222 626 C222 626 231 626 231 626 C258 626 280 598 280 561 C280 561 280 105 280 105 C269 92 266 84 274 84 C233 84 206 121 206 168 C206 168 207 638 207 638 C207 638 139 638 139 638 C139 638 72 638 72 638 C72 638 14 638 14 638 C14 638 14 626 14 626 C14 626 23 626 23 626 C50 626 72 598 72 561 C72 561 72 153 72 153 C72 65 110 -5 168 -5 C182 -5 228 33 280 84 C280 84 280 35 280 35 C280 35 280 0 280 0 C280 0 307 0 307 0 C307 0 472 52 472 52 C472 52 472 58 472 58 C472 58 464 60 464 60 C428 67 416 82 415 124 C415 124 415 135 415 135 C415 135 415 638 415 638 C415 638 347 638 347 638 C347 638 280 638 280 638 C280 638 222 638 222 638 C222 638 222 626 222 626 L222 626 Z " />
<glyph glyph-name="Uring" unicode="&#x16e;" horiz-adv-x="619" d="M305 863 C275 863 246 894 246 925 C246 960 272 988 305 988 C338 988 364 960 364 925 C364 894 334 863 305 863 L305 863 Z M208 925 C208 879 256 833 305 833 C353 833 401 879 401 925 C401 977 358 1018 305 1018 C251 1018 208 977 208 925 L208 925 Z M600 798 C600 798 534 798 534 798 C534 798 512 798 512 798 C512 798 489 798 489 798 C489 798 420 798 420 798 C420 798 420 786 420 786 C420 786 431 786 431 786 C463 786 489 753 489 711 C489 711 489 239 489 239 C489 132 437 47 332 47 C261 47 225 129 225 231 C225 231 225 721 225 721 C225 758 247 786 274 786 C274 786 282 786 282 786 C282 786 282 798 282 798 C282 798 225 798 225 798 C225 798 150 798 150 798 C150 798 75 798 75 798 C75 798 18 798 18 798 C18 798 18 786 18 786 C18 786 26 786 26 786 C53 786 75 758 75 721 C75 721 75 260 75 260 C75 113 153 -5 309 -5 C459 -5 534 97 534 224 C534 224 534 711 534 711 C535 753 559 786 590 786 C590 786 600 786 600 786 C600 786 600 798 600 798 L600 798 Z " />
<glyph glyph-name="uring" unicode="&#x16f;" horiz-adv-x="507" d="M243 703 C214 703 184 734 184 765 C184 800 210 828 243 828 C276 828 302 800 302 765 C302 734 273 703 243 703 L243 703 Z M147 765 C147 719 195 673 243 673 C292 673 340 719 340 765 C340 817 297 858 243 858 C190 858 147 817 147 765 L147 765 Z M222 626 C222 626 231 626 231 626 C258 626 280 598 280 561 C280 561 280 105 280 105 C269 92 266 84 274 84 C233 84 206 121 206 168 C206 168 207 638 207 638 C207 638 139 638 139 638 C139 638 72 638 72 638 C72 638 14 638 14 638 C14 638 14 626 14 626 C14 626 23 626 23 626 C50 626 72 598 72 561 C72 561 72 153 72 153 C72 65 110 -5 168 -5 C182 -5 228 33 280 84 C280 84 280 35 280 35 C280 35 280 0 280 0 C280 0 307 0 307 0 C307 0 472 52 472 52 C472 52 472 58 472 58 C472 58 464 60 464 60 C428 67 416 82 415 124 C415 124 415 135 415 135 C415 135 415 638 415 638 C415 638 347 638 347 638 C347 638 280 638 280 638 C280 638 222 638 222 638 C222 638 222 626 222 626 L222 626 Z " />
<glyph glyph-name="Wcircumflex" unicode="&#x174;" horiz-adv-x="885" d="M701 786 C701 786 714 786 714 786 C750 786 773 758 765 721 C765 721 766 721 766 721 C766 721 609 -15 609 -15 C609 -15 646 -15 646 -15 C646 -15 810 721 810 721 C810 721 810 721 810 721 C818 758 846 786 873 786 C873 786 882 786 882 786 C881 786 881 789 882 792 C881 795 881 798 882 798 C882 798 827 798 827 798 C827 798 804 798 804 798 C804 798 782 798 782 798 C782 798 701 798 701 798 C701 798 701 786 701 786 L701 786 Z M0 786 C0 786 7 786 7 786 C29 786 54 758 65 721 C65 721 65 721 65 721 C65 721 279 -15 279 -15 C279 -15 317 -15 317 -15 C317 -15 445 529 445 529 C445 529 609 -15 609 -15 C609 -15 665 250 665 250 C665 250 511 808 511 808 C511 808 474 808 474 808 C474 808 279 -15 279 -15 C279 -15 337 231 337 231 C337 231 224 729 224 729 C220 762 237 786 267 786 C267 786 277 786 277 786 C276 786 276 789 277 792 C276 795 276 798 277 798 C277 798 208 798 208 798 C208 798 125 798 125 798 C125 798 43 798 43 798 C43 798 0 798 0 798 C0 798 0 786 0 786 L0 786 Z M493 920 C493 920 589 828 589 828 C589 828 603 840 603 840 C603 840 536 1004 536 1004 C531 1014 515 1042 492 1042 C470 1042 454 1015 450 1005 C450 1005 382 840 382 840 C382 840 396 828 396 828 C396 828 493 920 493 920 L493 920 Z " />
<glyph glyph-name="Ycircumflex" unicode="&#x176;" horiz-adv-x="607" d="M429 11 C429 11 421 11 421 11 C393 11 372 40 372 76 C372 76 372 428 372 428 C372 428 372 428 372 428 C372 428 525 723 525 723 C544 759 577 786 600 786 C600 786 608 786 608 786 C608 786 608 798 608 798 C608 798 564 798 564 798 C564 798 541 798 541 798 C541 798 519 798 519 798 C519 798 435 798 435 798 C435 798 435 786 435 786 C435 786 446 786 446 786 C482 786 493 751 472 704 C472 704 351 465 351 465 C351 465 242 721 242 721 C242 721 242 721 242 721 C226 758 238 786 269 786 C269 786 278 786 278 786 C278 786 278 798 278 798 C278 798 209 798 209 798 C209 798 119 798 119 798 C119 798 29 798 29 798 C29 798 -8 798 -8 798 C-8 798 -8 786 -8 786 C-8 786 -1 786 -1 786 C17 786 41 764 58 734 C58 734 222 367 222 367 C222 367 222 76 222 76 C222 40 200 11 173 11 C173 11 164 11 164 11 C164 11 164 0 164 0 C164 0 222 0 222 0 C222 0 297 0 297 0 C297 0 372 0 372 0 C372 0 429 0 429 0 C429 0 429 11 429 11 L429 11 Z M297 921 C297 921 393 828 393 828 C393 828 407 840 407 840 C407 840 340 1004 340 1004 C335 1014 319 1042 297 1042 C274 1042 258 1015 254 1005 C254 1005 186 840 186 840 C186 840 200 828 200 828 C200 828 297 921 297 921 L297 921 Z " />
<glyph glyph-name="Ydieresis" unicode="&#x178;" horiz-adv-x="607" d="M393 868 C437 868 473 903 473 948 C473 992 437 1028 393 1028 C349 1028 313 992 313 948 C313 903 349 868 393 868 L393 868 Z M200 868 C245 868 280 903 280 948 C280 992 245 1028 200 1028 C156 1028 120 992 120 948 C120 903 156 868 200 868 L200 868 Z M429 11 C429 11 421 11 421 11 C393 11 372 40 372 76 C372 76 372 428 372 428 C372 428 372 428 372 428 C372 428 525 723 525 723 C544 759 577 786 600 786 C600 786 608 786 608 786 C608 786 608 798 608 798 C608 798 564 798 564 798 C564 798 541 798 541 798 C541 798 519 798 519 798 C519 798 435 798 435 798 C435 798 435 786 435 786 C435 786 446 786 446 786 C482 786 493 751 472 704 C472 704 351 465 351 465 C351 465 242 721 242 721 C242 721 242 721 242 721 C226 758 238 786 269 786 C269 786 278 786 278 786 C278 786 278 798 278 798 C278 798 209 798 209 798 C209 798 119 798 119 798 C119 798 29 798 29 798 C29 798 -8 798 -8 798 C-8 798 -8 786 -8 786 C-8 786 -1 786 -1 786 C17 786 41 764 58 734 C58 734 222 367 222 367 C222 367 222 76 222 76 C222 40 200 11 173 11 C173 11 164 11 164 11 C164 11 164 0 164 0 C164 0 222 0 222 0 C222 0 297 0 297 0 C297 0 372 0 372 0 C372 0 429 0 429 0 C429 0 429 11 429 11 L429 11 Z " />
<glyph glyph-name="Zacute" unicode="&#x179;" horiz-adv-x="523" d="M287 827 C287 827 405 949 405 949 C424 969 439 988 439 995 C439 1010 383 1051 362 1051 C358 1051 347 1030 336 1003 C336 1003 272 839 272 839 C272 839 287 827 287 827 L287 827 Z M65 779 C57 748 43 699 35 668 C35 668 44 668 44 668 C44 668 53 682 53 682 C82 725 141 760 185 760 C185 760 282 760 282 760 C282 760 26 0 26 0 C26 0 110 0 110 0 C110 0 194 0 194 0 C194 0 352 0 352 0 C352 0 423 0 423 0 C423 0 428 0 428 0 C429 6 431 14 432 19 C432 19 423 19 423 19 C423 19 423 20 423 20 C423 20 432 20 432 20 C438 55 448 113 454 148 C454 148 453 149 452 149 C446 152 441 154 441 154 C441 154 430 129 430 129 C410 79 353 39 303 39 C303 39 207 39 207 39 C207 39 466 798 466 798 C466 798 380 798 380 798 C380 798 295 798 295 798 C295 798 146 798 146 798 C146 798 106 798 106 798 C106 798 70 798 70 798 C68 793 66 784 65 779 L65 779 Z " />
<glyph glyph-name="zacute" unicode="&#x17a;" horiz-adv-x="419" d="M162 667 C162 667 281 789 281 789 C300 809 315 828 315 835 C315 850 259 891 238 891 C234 891 223 870 212 843 C212 843 147 679 147 679 C147 679 162 667 162 667 L162 667 Z M348 145 C348 145 338 120 338 120 C317 71 261 31 211 30 C211 30 198 30 198 30 C198 30 369 638 369 638 C369 638 291 638 291 638 C291 638 213 638 213 638 C213 638 146 638 146 638 C146 638 106 638 106 638 C106 638 70 638 70 638 C69 633 67 626 66 622 C60 599 50 561 43 537 C43 537 52 537 52 537 C52 537 61 548 61 548 C86 580 143 606 187 606 C187 606 187 607 187 607 C187 607 204 607 204 607 C204 607 31 0 31 0 C31 0 111 0 111 0 C111 0 190 0 190 0 C190 0 261 0 261 0 C261 0 330 0 330 0 C330 0 337 0 337 0 C338 4 339 11 340 15 C346 50 355 105 362 140 C357 140 348 145 348 145 L348 145 Z " />
<glyph glyph-name="Zdotaccent" unicode="&#x17b;" horiz-adv-x="523" d="M286 868 C330 868 366 903 366 948 C366 992 330 1028 286 1028 C242 1028 206 992 206 948 C206 903 242 868 286 868 L286 868 Z M65 779 C57 748 43 699 35 668 C35 668 44 668 44 668 C44 668 53 682 53 682 C82 725 141 760 185 760 C185 760 282 760 282 760 C282 760 26 0 26 0 C26 0 110 0 110 0 C110 0 194 0 194 0 C194 0 352 0 352 0 C352 0 423 0 423 0 C423 0 428 0 428 0 C429 6 431 14 432 19 C432 19 423 19 423 19 C423 19 423 20 423 20 C423 20 432 20 432 20 C438 55 448 113 454 148 C454 148 453 149 452 149 C446 152 441 154 441 154 C441 154 430 129 430 129 C410 79 353 39 303 39 C303 39 207 39 207 39 C207 39 466 798 466 798 C466 798 380 798 380 798 C380 798 295 798 295 798 C295 798 146 798 146 798 C146 798 106 798 106 798 C106 798 70 798 70 798 C68 793 66 784 65 779 L65 779 Z " />
<glyph glyph-name="zdotaccent" unicode="&#x17c;" horiz-adv-x="419" d="M238 708 C282 708 318 743 318 788 C318 832 282 868 238 868 C193 868 158 832 158 788 C158 743 193 708 238 708 L238 708 Z M348 145 C348 145 338 120 338 120 C317 71 261 31 211 30 C211 30 198 30 198 30 C198 30 369 638 369 638 C369 638 291 638 291 638 C291 638 213 638 213 638 C213 638 146 638 146 638 C146 638 106 638 106 638 C106 638 70 638 70 638 C69 633 67 626 66 622 C60 599 50 561 43 537 C43 537 52 537 52 537 C52 537 61 548 61 548 C86 580 143 606 187 606 C187 606 187 607 187 607 C187 607 204 607 204 607 C204 607 31 0 31 0 C31 0 111 0 111 0 C111 0 190 0 190 0 C190 0 261 0 261 0 C261 0 330 0 330 0 C330 0 337 0 337 0 C338 4 339 11 340 15 C346 50 355 105 362 140 C357 140 348 145 348 145 L348 145 Z " />
<glyph glyph-name="Zcaron" unicode="&#x17d;" horiz-adv-x="523" d="M286 975 C286 975 383 1067 383 1067 C383 1067 397 1056 397 1056 C397 1056 329 892 329 892 C325 881 308 854 286 854 C263 854 248 881 243 891 C243 891 175 1056 175 1056 C175 1056 189 1067 189 1067 C189 1067 286 975 286 975 L286 975 Z M65 779 C57 748 43 699 35 668 C35 668 44 668 44 668 C44 668 53 682 53 682 C82 725 141 760 185 760 C185 760 282 760 282 760 C282 760 26 0 26 0 C26 0 110 0 110 0 C110 0 194 0 194 0 C194 0 352 0 352 0 C352 0 423 0 423 0 C423 0 428 0 428 0 C429 6 431 14 432 19 C432 19 423 19 423 19 C423 19 423 20 423 20 C423 20 432 20 432 20 C438 55 448 113 454 148 C454 148 453 149 452 149 C446 152 441 154 441 154 C441 154 430 129 430 129 C410 79 353 39 303 39 C303 39 207 39 207 39 C207 39 466 798 466 798 C466 798 380 798 380 798 C380 798 295 798 295 798 C295 798 146 798 146 798 C146 798 106 798 106 798 C106 798 70 798 70 798 C68 793 66 784 65 779 L65 779 Z " />
<glyph glyph-name="zcaron" unicode="&#x17e;" horiz-adv-x="419" d="M348 145 C348 145 338 120 338 120 C317 71 261 31 211 30 C211 30 198 30 198 30 C198 30 369 638 369 638 C369 638 291 638 291 638 C291 638 213 638 213 638 C213 638 146 638 146 638 C146 638 106 638 106 638 C106 638 70 638 70 638 C69 633 67 626 66 622 C60 599 50 561 43 537 C43 537 52 537 52 537 C52 537 61 548 61 548 C86 580 143 606 187 606 C187 606 187 607 187 607 C187 607 204 607 204 607 C204 607 31 0 31 0 C31 0 111 0 111 0 C111 0 190 0 190 0 C190 0 261 0 261 0 C261 0 330 0 330 0 C330 0 337 0 337 0 C338 4 339 11 340 15 C346 50 355 105 362 140 C357 140 348 145 348 145 L348 145 Z M238 815 C238 815 335 907 335 907 C335 907 348 896 348 896 C348 896 281 732 281 732 C277 721 260 694 238 694 C215 694 200 721 195 731 C195 731 127 896 127 896 C127 896 141 907 141 907 C141 907 238 815 238 815 L238 815 Z " />
<glyph glyph-name="SmallLetterOwithogon" unicode="&#x1eb;" horiz-adv-x="654" d="M651 -22 C651 -22 637 -14 637 -14 C625 -36 572 -53 517 -53 C442 -53 378 -32 339 -4 C501 6 604 176 604 346 C604 521 494 696 322 696 C150 696 40 521 40 346 C40 182 135 20 287 -2 C368 -81 454 -141 503 -141 C548 -141 613 -88 651 -22 L651 -22 Z M322 29 C240 29 188 187 188 346 C188 504 240 662 322 662 C404 662 456 504 456 346 C456 187 404 29 322 29 L322 29 Z " />
<glyph glyph-name="CapitalLetterAwithdo" unicode="&#x226;" horiz-adv-x="641" d="M291 868 C335 868 371 903 371 948 C371 992 335 1028 291 1028 C246 1028 211 992 211 948 C211 903 246 868 291 868 L291 868 Z M634 11 C634 11 627 11 627 11 C604 11 575 39 563 73 C563 73 309 816 309 816 C309 816 272 816 272 816 C272 816 71 76 71 76 C71 76 70 76 70 76 C61 40 31 11 4 11 C4 11 -5 11 -5 11 C-5 11 -5 0 -5 0 C-5 0 50 0 50 0 C50 0 74 0 74 0 C74 0 99 0 99 0 C99 0 183 0 183 0 C183 0 183 11 183 11 C183 11 171 11 171 11 C133 11 111 47 123 91 C123 91 122 91 122 91 C122 91 168 270 168 270 C168 270 344 270 344 270 C344 270 402 76 402 76 C402 76 401 76 401 76 C412 40 392 11 356 11 C356 11 344 11 344 11 C344 11 344 0 344 0 C344 0 425 0 425 0 C425 0 506 0 506 0 C506 0 588 0 588 0 C588 0 634 0 634 0 C634 0 634 11 634 11 L634 11 Z M332 308 C332 308 178 309 178 309 C178 309 249 583 249 583 C249 583 332 308 332 308 L332 308 Z " />
<glyph glyph-name="LETTERSMALLCAPITALG" unicode="&#x262;" horiz-adv-x="710" d="M616 325 C600 325 580 324 559 324 C559 324 559 325 559 325 C559 325 498 325 498 325 C498 325 437 325 437 325 C437 325 437 324 437 324 C416 324 396 325 380 325 C380 325 380 313 380 313 C380 313 388 313 388 313 C415 313 437 284 437 248 C437 248 437 41 437 41 C409 33 383 29 362 29 C265 29 188 170 188 346 C188 521 265 662 362 662 C373 662 387 660 402 658 C458 643 515 594 533 541 C536 533 540 521 543 513 C543 513 553 513 553 513 C553 513 553 639 553 639 C498 671 413 696 362 696 C183 696 40 540 40 346 C40 151 183 -5 362 -5 C416 -5 503 21 559 53 C559 53 559 248 559 248 C559 284 580 313 608 313 C608 313 616 313 616 313 C616 313 616 325 616 325 L616 325 Z " />
<glyph glyph-name="LETTERSMALLCAPITALI" unicode="&#x26a;" horiz-adv-x="337" d="M297 691 C297 691 240 691 240 691 C240 691 172 691 172 691 C172 691 105 691 105 691 C105 691 48 691 48 691 C48 691 48 680 48 680 C48 680 56 680 56 680 C83 679 105 651 105 615 C105 615 105 76 105 76 C105 40 83 11 56 11 C56 11 48 11 48 11 C48 11 48 0 48 0 C48 0 105 0 105 0 C105 0 172 0 172 0 C172 0 240 0 240 0 C240 0 297 0 297 0 C297 0 297 11 297 11 C297 11 289 11 289 11 C262 11 240 40 240 76 C240 76 240 615 240 615 C240 651 262 679 289 680 C289 680 297 680 297 680 C297 680 297 691 297 691 L297 691 Z " />
<glyph glyph-name="LETTERSMALLCAPITALN" unicode="&#x274;" horiz-adv-x="583" d="M546 691 C546 691 488 691 488 691 C488 691 468 691 468 691 C468 691 448 691 448 691 C448 691 390 691 390 691 C390 691 390 680 390 680 C390 680 399 680 399 680 C426 679 448 651 448 615 C448 615 448 214 448 214 C448 214 215 691 215 691 C215 691 135 691 135 691 C135 691 115 691 115 691 C115 691 94 691 94 691 C94 691 37 691 37 691 C37 691 37 680 37 680 C37 680 45 680 45 680 C72 679 94 651 94 615 C94 615 94 76 94 76 C94 40 72 11 45 11 C45 11 37 11 37 11 C37 11 37 0 37 0 C37 0 94 0 94 0 C94 0 115 0 115 0 C115 0 135 0 135 0 C135 0 192 0 192 0 C192 0 192 11 192 11 C192 11 184 11 184 11 C157 11 135 40 135 76 C135 76 135 552 135 552 C135 552 386 54 386 54 C386 54 423 -20 423 -20 C423 -20 488 -20 488 -20 C488 -20 488 103 488 103 C488 103 488 615 488 615 C489 651 510 679 537 680 C537 680 546 680 546 680 C546 680 546 691 546 691 L546 691 Z " />
<glyph glyph-name="LETTERSMALLCAPITALR" unicode="&#x280;" horiz-adv-x="589" d="M31 680 C31 680 40 680 40 680 C67 679 89 651 89 615 C89 615 89 76 89 76 C89 40 67 11 40 11 C40 11 31 11 31 11 C31 11 31 0 31 0 C31 0 89 0 89 0 C89 0 156 0 156 0 C156 0 224 0 224 0 C224 0 281 0 281 0 C281 0 281 11 281 11 C281 11 273 11 273 11 C245 11 224 40 224 76 C224 76 224 315 224 315 C224 315 225 315 225 315 C225 315 329 106 329 106 C376 12 400 0 543 0 C543 0 589 0 589 0 C589 0 589 26 589 26 C589 26 584 26 584 26 C548 26 540 32 514 80 C514 80 374 340 374 340 C444 373 491 435 491 506 C491 609 392 691 267 691 C267 691 224 691 224 691 C224 691 156 691 156 691 C156 691 89 691 89 691 C89 691 31 691 31 691 C31 691 31 680 31 680 L31 680 Z M259 348 C259 348 224 348 224 348 C224 348 224 657 224 657 C224 657 267 657 267 657 C313 657 350 590 350 506 C350 418 309 348 259 348 L259 348 Z " />
<glyph glyph-name="LETTERSMALLCAPITALY" unicode="&#x28f;" horiz-adv-x="551" d="M396 11 C396 11 388 11 388 11 C360 11 339 40 339 76 C339 76 339 373 339 373 C339 373 339 373 339 373 C339 373 468 615 468 615 C468 615 468 615 468 615 C487 651 521 679 545 680 C545 680 552 680 552 680 C552 680 552 691 552 691 C552 691 508 691 508 691 C508 691 488 691 488 691 C488 691 468 691 468 691 C468 691 384 691 384 691 C384 691 384 680 384 680 C384 680 395 680 395 680 C432 679 442 642 418 595 C418 595 418 595 418 595 C418 595 314 394 314 394 C314 394 226 615 226 615 C226 615 227 615 227 615 C212 651 225 679 255 680 C255 680 265 680 265 680 C265 680 265 691 265 691 C265 691 196 691 196 691 C196 691 115 691 115 691 C115 691 34 691 34 691 C34 691 -3 691 -3 691 C-3 691 -3 680 -3 680 C-3 680 3 680 3 680 C22 679 48 655 65 622 C65 622 204 318 204 318 C204 318 204 76 204 76 C204 40 182 11 155 11 C155 11 146 11 146 11 C146 11 146 0 146 0 C146 0 204 0 204 0 C204 0 271 0 271 0 C271 0 339 0 339 0 C339 0 396 0 396 0 C396 0 396 11 396 11 L396 11 Z " />
<glyph glyph-name="LETTERSMALLCAPITALB" unicode="&#x299;" horiz-adv-x="561" d="M31 680 C31 680 40 680 40 680 C67 679 89 651 89 615 C89 615 89 76 89 76 C89 40 67 11 40 11 C40 11 31 11 31 11 C31 11 31 0 31 0 C31 0 89 0 89 0 C89 0 156 0 156 0 C156 0 224 0 224 0 C224 0 284 0 284 0 C427 0 541 83 541 186 C541 273 458 345 348 362 C429 388 485 448 485 520 C485 615 388 691 267 691 C267 691 224 691 224 691 C224 691 156 691 156 691 C156 691 89 691 89 691 C89 691 31 691 31 691 C31 691 31 680 31 680 L31 680 Z M224 369 C224 369 224 657 224 657 C224 657 267 657 267 657 C313 657 350 596 350 520 C350 436 309 369 259 369 C259 369 224 369 224 369 L224 369 Z M224 338 C224 338 260 338 260 338 C338 338 400 270 400 186 C400 102 343 34 271 34 C271 34 224 34 224 34 C224 34 224 338 224 338 L224 338 Z " />
<glyph glyph-name="LETTERSMALLCAPITALH" unicode="&#x29c;" horiz-adv-x="652" d="M613 691 C613 691 555 691 555 691 C555 691 488 691 488 691 C488 691 420 691 420 691 C420 691 363 691 363 691 C363 691 363 680 363 680 C363 680 371 680 371 680 C398 679 420 651 420 615 C420 615 420 367 420 367 C420 367 236 367 236 367 C236 367 236 615 236 615 C236 651 258 679 285 680 C285 680 294 680 294 680 C294 680 294 691 294 691 C294 691 236 691 236 691 C236 691 169 691 169 691 C169 691 101 691 101 691 C101 691 44 691 44 691 C44 691 44 680 44 680 C44 680 52 680 52 680 C79 679 101 651 101 615 C101 615 101 76 101 76 C101 40 79 11 52 11 C52 11 44 11 44 11 C44 11 44 0 44 0 C44 0 101 0 101 0 C101 0 169 0 169 0 C169 0 236 0 236 0 C236 0 294 0 294 0 C294 0 294 11 294 11 C294 11 285 11 285 11 C258 11 236 40 236 76 C236 76 236 333 236 333 C236 333 420 333 420 333 C420 333 420 76 420 76 C420 40 398 11 371 11 C371 11 363 11 363 11 C363 11 363 0 363 0 C363 0 420 0 420 0 C420 0 488 0 488 0 C488 0 555 0 555 0 C555 0 613 0 613 0 C613 0 613 11 613 11 C613 11 604 11 604 11 C577 11 556 40 555 76 C555 76 555 615 555 615 C556 651 577 679 604 680 C604 680 613 680 613 680 C613 680 613 691 613 691 L613 691 Z " />
<glyph glyph-name="LETTERSMALLCAPITALL" unicode="&#x29f;" horiz-adv-x="550" d="M469 149 C469 149 459 124 459 124 C438 74 382 34 332 34 C332 34 236 34 236 34 C236 34 236 615 236 615 C236 651 258 679 285 680 C285 680 294 680 294 680 C294 680 294 691 294 691 C294 691 236 691 236 691 C236 691 169 691 169 691 C169 691 101 691 101 691 C101 691 44 691 44 691 C44 691 44 680 44 680 C44 680 52 680 52 680 C79 679 101 651 101 615 C101 615 101 76 101 76 C101 40 79 11 52 11 C52 11 44 11 44 11 C44 11 44 0 44 0 C44 0 101 0 101 0 C101 0 169 0 169 0 C169 0 236 0 236 0 C236 0 381 0 381 0 C381 0 453 0 453 0 C453 0 458 0 458 0 C458 4 460 12 460 17 C467 52 477 108 483 143 C478 145 469 149 469 149 L469 149 Z " />
<glyph glyph-name="LETTERSMALLCAPITALA" unicode="&#x1d00;" horiz-adv-x="584" d="M577 11 C577 11 570 11 570 11 C548 11 521 36 507 69 C507 69 283 707 283 707 C283 707 249 707 249 707 C249 707 72 76 72 76 C72 76 72 76 72 76 C62 40 32 11 5 11 C5 11 -3 11 -3 11 C-3 11 -3 0 -3 0 C-3 0 51 0 51 0 C51 0 73 0 73 0 C73 0 95 0 95 0 C95 0 180 0 180 0 C180 0 180 11 180 11 C180 11 168 11 168 11 C129 11 108 47 120 91 C120 91 119 91 119 91 C119 91 157 234 157 234 C157 234 311 234 311 234 C311 234 360 76 360 76 C360 76 360 76 360 76 C371 40 351 11 315 11 C315 11 303 11 303 11 C303 11 303 0 303 0 C303 0 384 0 384 0 C384 0 458 0 458 0 C458 0 531 0 531 0 C531 0 577 0 577 0 C577 0 577 11 577 11 L577 11 Z M300 268 C300 268 167 269 167 269 C167 269 228 500 228 500 C228 500 300 268 300 268 L300 268 Z " />
<glyph glyph-name="LETTERSMALLCAPITALC" unicode="&#x1d04;" horiz-adv-x="633" d="M573 513 C573 513 573 639 573 639 C518 671 429 696 372 696 C188 696 40 540 40 346 C40 151 188 -5 372 -5 C429 -5 518 21 573 52 C573 52 573 179 573 179 C573 179 563 179 563 179 C560 171 556 159 553 151 C529 83 449 29 372 29 C270 29 188 170 188 346 C188 521 270 662 372 662 C385 662 401 660 417 657 C476 643 534 593 553 541 C556 533 560 521 563 513 C563 513 573 513 573 513 L573 513 Z " />
<glyph glyph-name="LETTERSMALLCAPITALD" unicode="&#x1d05;" horiz-adv-x="655" d="M31 680 C31 680 40 680 40 680 C67 679 89 651 89 615 C89 615 89 76 89 76 C89 40 67 11 40 11 C40 11 31 11 31 11 C31 11 31 0 31 0 C31 0 89 0 89 0 C89 0 156 0 156 0 C156 0 224 0 224 0 C224 0 292 0 292 0 C466 0 605 154 605 346 C605 537 458 691 275 691 C275 691 224 691 224 691 C224 691 156 691 156 691 C156 691 89 691 89 691 C89 691 31 691 31 691 C31 691 31 680 31 680 L31 680 Z M224 34 C224 34 224 657 224 657 C224 657 275 657 275 657 C383 657 470 519 470 346 C470 172 391 34 292 34 C292 34 224 34 224 34 L224 34 Z " />
<glyph glyph-name="LETTERSMALLCAPITALE" unicode="&#x1d07;" horiz-adv-x="550" d="M388 273 C388 273 388 339 388 339 C388 339 388 355 388 355 C388 355 388 372 388 372 C388 372 388 430 388 430 C388 430 378 430 378 430 C378 430 376 421 376 421 C368 394 323 372 276 372 C276 372 236 372 236 372 C236 372 236 657 236 657 C236 657 317 657 317 657 C373 657 430 618 446 569 C446 569 451 554 451 554 C451 554 459 554 459 554 C459 554 459 674 459 674 C459 674 459 691 459 691 C459 691 443 691 443 691 C443 691 383 691 383 691 C383 691 236 691 236 691 C236 691 169 691 169 691 C169 691 101 691 101 691 C101 691 44 691 44 691 C44 691 44 680 44 680 C44 680 52 680 52 680 C79 679 101 651 101 615 C101 615 101 76 101 76 C101 40 79 11 52 11 C52 11 44 11 44 11 C44 11 44 0 44 0 C44 0 101 0 101 0 C101 0 169 0 169 0 C169 0 236 0 236 0 C236 0 381 0 381 0 C381 0 453 0 453 0 C453 0 458 0 458 0 C458 4 460 12 460 17 C467 51 476 104 482 137 C482 137 473 137 473 137 C473 137 466 122 466 122 C441 73 377 34 322 34 C322 34 236 34 236 34 C236 34 236 339 236 339 C236 339 276 339 276 339 C323 339 368 314 376 283 C376 283 378 273 378 273 C378 273 388 273 388 273 L388 273 Z " />
<glyph glyph-name="LETTERSMALLCAPITALJ" unicode="&#x1d0a;" horiz-adv-x="385" d="M346 691 C346 691 288 691 288 691 C288 691 221 691 221 691 C221 691 153 691 153 691 C153 691 96 691 96 691 C96 691 96 680 96 680 C96 680 104 680 104 680 C131 679 153 651 153 615 C153 615 153 209 153 209 C153 81 150 17 145 17 C127 17 113 39 114 67 C116 98 89 122 54 122 C25 122 1 98 0 68 C-2 24 48 -10 111 -10 C230 -10 289 101 289 323 C289 323 288 619 288 619 C291 653 311 679 337 680 C337 680 346 680 346 680 C346 680 346 691 346 691 L346 691 Z " />
<glyph glyph-name="LETTERSMALLCAPITALK" unicode="&#x1d0b;" horiz-adv-x="556" d="M330 680 C330 680 338 680 338 680 C362 679 367 651 348 615 C348 615 348 615 348 615 C348 615 285 492 285 492 C285 492 285 492 285 492 C285 492 224 372 224 372 C224 372 224 615 224 615 C224 651 245 679 273 680 C273 680 281 680 281 680 C281 680 281 691 281 691 C281 691 224 691 224 691 C224 691 156 691 156 691 C156 691 89 691 89 691 C89 691 31 691 31 691 C31 691 31 680 31 680 C31 680 40 680 40 680 C67 679 89 651 89 615 C89 615 89 76 89 76 C89 40 67 11 40 11 C40 11 31 11 31 11 C31 11 31 0 31 0 C31 0 89 0 89 0 C89 0 156 0 156 0 C156 0 224 0 224 0 C224 0 281 0 281 0 C281 0 281 11 281 11 C281 11 273 11 273 11 C245 11 224 40 224 76 C224 76 224 372 224 372 C224 372 340 90 340 90 C367 27 420 -5 501 -5 C501 -5 547 -5 547 -5 C547 -5 547 21 547 21 C547 21 542 21 542 21 C500 21 453 84 401 210 C401 210 301 454 301 454 C301 454 387 624 387 624 C406 656 439 679 464 680 C464 680 473 680 473 680 C473 680 473 691 473 691 C473 691 421 691 421 691 C421 691 404 691 404 691 C404 691 387 691 387 691 C387 691 330 691 330 691 C330 691 330 680 330 680 L330 680 Z " />
<glyph glyph-name="LETTERSMALLCAPITALM" unicode="&#x1d0d;" horiz-adv-x="760" d="M722 691 C722 691 665 691 665 691 C665 691 605 691 605 691 C605 691 591 691 591 691 C591 691 544 691 544 691 C544 691 384 187 384 187 C384 187 218 691 218 691 C218 691 154 691 154 691 C154 691 133 691 133 691 C133 691 113 691 113 691 C113 691 56 691 56 691 C56 691 56 680 56 680 C56 680 64 680 64 680 C91 679 112 651 110 615 C110 615 110 615 110 615 C110 615 90 69 90 69 C87 36 65 11 40 11 C40 11 31 11 31 11 C31 11 31 0 31 0 C31 0 88 0 88 0 C88 0 108 0 108 0 C108 0 129 0 129 0 C129 0 213 0 213 0 C213 0 213 11 213 11 C213 11 200 11 200 11 C163 11 134 43 132 83 C132 83 147 506 147 506 C147 506 303 54 303 54 C303 54 323 -5 323 -5 C323 -5 357 -5 357 -5 C357 -5 547 560 547 560 C547 560 558 76 558 76 C558 76 558 76 558 76 C559 40 538 11 511 11 C511 11 503 11 503 11 C503 11 503 0 503 0 C503 0 560 0 560 0 C560 0 628 0 628 0 C628 0 695 0 695 0 C695 0 752 0 752 0 C752 0 752 11 752 11 C752 11 744 11 744 11 C717 11 694 40 692 76 C692 76 692 76 692 76 C692 76 668 615 668 615 C668 615 669 615 669 615 C667 651 687 679 714 680 C714 680 722 680 722 680 C722 680 722 691 722 691 L722 691 Z " />
<glyph glyph-name="LETTERSMALLCAPITALO" unicode="&#x1d0f;" horiz-adv-x="654" d="M322 29 C240 29 188 187 188 346 C188 504 240 662 322 662 C404 662 456 504 456 346 C456 187 404 29 322 29 L322 29 Z M40 346 C40 170 150 -5 322 -5 C494 -5 604 170 604 346 C604 521 494 696 322 696 C150 696 40 521 40 346 L40 346 Z " />
<glyph glyph-name="LETTERSMALLCAPITALP" unicode="&#x1d18;" horiz-adv-x="490" d="M31 680 C31 680 40 680 40 680 C67 679 89 651 89 615 C89 615 89 76 89 76 C89 40 67 11 40 11 C40 11 31 11 31 11 C31 11 31 0 31 0 C31 0 89 0 89 0 C89 0 156 0 156 0 C156 0 224 0 224 0 C224 0 281 0 281 0 C281 0 281 11 281 11 C281 11 273 11 273 11 C245 11 224 40 224 76 C224 76 224 295 224 295 C224 295 253 295 253 295 C373 295 470 384 470 494 C470 604 377 691 260 691 C260 691 224 691 224 691 C224 691 156 691 156 691 C156 691 89 691 89 691 C89 691 31 691 31 691 C31 691 31 680 31 680 L31 680 Z M224 329 C224 329 224 657 224 657 C224 657 260 657 260 657 C298 657 329 585 329 494 C329 403 295 329 253 329 C253 329 224 329 224 329 L224 329 Z " />
<glyph glyph-name="LETTERSMALLCAPITALT" unicode="&#x1d1b;" horiz-adv-x="515" d="M521 542 C518 579 512 637 509 674 C509 679 508 686 508 691 C508 691 475 691 475 691 C475 691 431 691 431 691 C431 691 84 691 84 691 C84 691 40 691 40 691 C40 691 7 691 7 691 C7 686 6 679 6 674 C3 637 -2 579 -6 542 C-6 542 4 542 4 542 C4 542 18 577 18 577 C36 622 86 657 130 657 C130 657 190 657 190 657 C190 657 190 76 190 76 C190 40 168 11 141 11 C141 11 133 11 133 11 C133 11 133 0 133 0 C133 0 190 0 190 0 C190 0 258 0 258 0 C258 0 325 0 325 0 C325 0 383 0 383 0 C382 0 382 3 383 6 C382 9 382 11 383 11 C383 11 374 11 374 11 C347 11 325 40 325 76 C325 76 325 657 325 657 C325 657 385 657 385 657 C430 657 480 622 498 577 C498 577 512 542 512 542 C512 542 521 542 521 542 L521 542 Z " />
<glyph glyph-name="LETTERSMALLCAPITALU" unicode="&#x1d1c;" horiz-adv-x="566" d="M546 691 C546 691 481 691 481 691 C481 691 461 691 461 691 C461 691 441 691 441 691 C441 691 372 691 372 691 C372 691 372 680 372 680 C372 680 382 680 382 680 C413 679 439 649 441 611 C441 611 440 201 440 201 C440 113 395 42 304 42 C244 42 214 109 214 193 C214 193 214 615 214 615 C214 651 235 679 263 680 C263 680 271 680 271 680 C271 680 271 691 271 691 C271 691 214 691 214 691 C214 691 146 691 146 691 C146 691 79 691 79 691 C79 691 21 691 21 691 C21 691 21 680 21 680 C21 680 30 680 30 680 C57 679 79 651 79 615 C79 615 79 220 79 220 C79 95 147 -5 284 -5 C415 -5 481 81 481 188 C481 188 481 605 481 605 C481 646 506 679 537 680 C537 680 546 680 546 680 C546 680 546 691 546 691 L546 691 Z " />
<glyph glyph-name="LETTERSMALLCAPITALV" unicode="&#x1d20;" horiz-adv-x="570" d="M384 680 C384 680 397 680 397 680 C439 679 461 637 447 585 C447 585 448 585 448 585 C448 585 340 180 340 180 C340 180 203 623 203 623 C197 655 216 679 247 680 C247 680 258 680 258 680 C258 680 258 691 258 691 C258 691 182 691 182 691 C182 691 107 691 107 691 C107 691 33 691 33 691 C33 691 -9 691 -9 691 C-9 691 -9 680 -9 680 C-9 680 -2 680 -2 680 C18 679 42 656 57 626 C57 626 288 -15 288 -15 C288 -15 322 -15 322 -15 C322 -15 496 619 496 619 C507 653 536 679 562 680 C562 680 570 680 570 680 C570 681 570 683 571 685 C570 689 570 691 571 691 C571 691 516 691 516 691 C516 691 496 691 496 691 C496 691 476 691 476 691 C476 691 384 691 384 691 C384 691 384 680 384 680 L384 680 Z M570 680 C570 680 571 680 571 680 C571 680 571 680 570 680 L570 680 Z " />
<glyph glyph-name="LETTERSMALLCAPITALW" unicode="&#x1d21;" horiz-adv-x="785" d="M260 691 C260 691 191 691 191 691 C191 691 117 691 117 691 C117 691 43 691 43 691 C43 691 0 691 0 691 C0 691 0 680 0 680 C0 680 7 680 7 680 C29 679 55 651 65 615 C65 615 65 615 65 615 C65 615 251 -15 251 -15 C251 -15 285 -15 285 -15 C285 -15 398 467 398 467 C398 467 536 -15 536 -15 C536 -15 569 -15 569 -15 C569 -15 710 619 710 619 C719 653 747 679 773 680 C773 680 781 680 781 680 C782 679 782 682 781 685 C782 689 782 691 781 691 C781 691 726 691 726 691 C726 691 706 691 706 691 C706 691 686 691 686 691 C686 691 605 691 605 691 C606 691 606 689 605 685 C606 683 606 681 606 680 C606 680 618 680 618 680 C653 679 676 654 671 620 C671 620 536 -15 536 -15 C536 -15 583 207 583 207 C583 207 453 701 453 701 C453 701 419 701 419 701 C419 701 300 193 300 193 C300 193 208 615 208 615 C208 615 208 615 208 615 C200 651 219 679 250 680 C250 680 260 680 260 680 C260 680 260 691 260 691 L260 691 Z M606 680 C605 680 605 680 605 680 C605 680 606 680 606 680 L606 680 Z " />
<glyph glyph-name="LETTERSMALLCAPITALZ" unicode="&#x1d22;" horiz-adv-x="482" d="M394 18 C401 53 411 109 417 144 C417 144 416 145 414 145 C408 148 403 150 403 150 C403 150 393 125 393 125 C372 75 316 35 265 35 C265 35 193 35 193 35 C193 35 425 691 425 691 C425 691 348 691 348 691 C348 691 271 691 271 691 C271 691 154 691 154 691 C154 691 110 691 110 691 C110 691 78 691 78 691 C76 686 74 679 73 674 C65 644 52 596 44 565 C44 565 53 565 53 565 C53 565 62 579 62 579 C91 622 150 657 194 657 C194 657 259 657 259 657 C259 657 30 0 30 0 C30 0 106 0 106 0 C106 0 181 0 181 0 C181 0 315 0 315 0 C315 0 387 0 387 0 C387 0 391 0 391 0 C392 5 394 13 394 18 L394 18 Z " />
<glyph glyph-name="Wgrave" unicode="&#x1e80;" horiz-adv-x="885" d="M701 786 C701 786 714 786 714 786 C750 786 773 758 765 721 C765 721 766 721 766 721 C766 721 609 -15 609 -15 C609 -15 646 -15 646 -15 C646 -15 810 721 810 721 C810 721 810 721 810 721 C818 758 846 786 873 786 C873 786 882 786 882 786 C881 786 881 789 882 792 C881 795 881 798 882 798 C882 798 827 798 827 798 C827 798 804 798 804 798 C804 798 782 798 782 798 C782 798 701 798 701 798 C701 798 701 786 701 786 L701 786 Z M0 786 C0 786 7 786 7 786 C29 786 54 758 65 721 C65 721 65 721 65 721 C65 721 279 -15 279 -15 C279 -15 317 -15 317 -15 C317 -15 445 529 445 529 C445 529 609 -15 609 -15 C609 -15 665 250 665 250 C665 250 511 808 511 808 C511 808 474 808 474 808 C474 808 279 -15 279 -15 C279 -15 337 231 337 231 C337 231 224 729 224 729 C220 762 237 786 267 786 C267 786 277 786 277 786 C276 786 276 789 277 792 C276 795 276 798 277 798 C277 798 208 798 208 798 C208 798 125 798 125 798 C125 798 43 798 43 798 C43 798 0 798 0 798 C0 798 0 786 0 786 L0 786 Z M511 1003 C501 1030 490 1051 485 1051 C463 1051 407 1010 408 995 C407 988 423 969 442 949 C442 949 564 827 564 827 C564 827 579 839 579 839 C579 839 511 1003 511 1003 L511 1003 Z " />
<glyph glyph-name="Wacute" unicode="&#x1e82;" horiz-adv-x="885" d="M432 827 C432 827 551 949 551 949 C569 969 584 988 585 995 C584 1010 529 1051 507 1051 C503 1051 493 1030 482 1003 C482 1003 417 839 417 839 C417 839 432 827 432 827 L432 827 Z M701 786 C701 786 714 786 714 786 C750 786 773 758 765 721 C765 721 766 721 766 721 C766 721 609 -15 609 -15 C609 -15 646 -15 646 -15 C646 -15 810 721 810 721 C810 721 810 721 810 721 C818 758 846 786 873 786 C873 786 882 786 882 786 C881 786 881 789 882 792 C881 795 881 798 882 798 C882 798 827 798 827 798 C827 798 804 798 804 798 C804 798 782 798 782 798 C782 798 701 798 701 798 C701 798 701 786 701 786 L701 786 Z M0 786 C0 786 7 786 7 786 C29 786 54 758 65 721 C65 721 65 721 65 721 C65 721 279 -15 279 -15 C279 -15 317 -15 317 -15 C317 -15 445 529 445 529 C445 529 609 -15 609 -15 C609 -15 665 250 665 250 C665 250 511 808 511 808 C511 808 474 808 474 808 C474 808 279 -15 279 -15 C279 -15 337 231 337 231 C337 231 224 729 224 729 C220 762 237 786 267 786 C267 786 277 786 277 786 C276 786 276 789 277 792 C276 795 276 798 277 798 C277 798 208 798 208 798 C208 798 125 798 125 798 C125 798 43 798 43 798 C43 798 0 798 0 798 C0 798 0 786 0 786 L0 786 Z " />
<glyph glyph-name="Wdieresis" unicode="&#x1e84;" horiz-adv-x="885" d="M589 868 C633 868 669 903 669 948 C669 992 633 1028 589 1028 C544 1028 509 992 509 948 C509 903 544 868 589 868 L589 868 Z M396 868 C441 868 476 903 476 948 C476 992 441 1028 396 1028 C352 1028 316 992 316 948 C316 903 352 868 396 868 L396 868 Z M701 786 C701 786 714 786 714 786 C750 786 773 758 765 721 C765 721 766 721 766 721 C766 721 609 -15 609 -15 C609 -15 646 -15 646 -15 C646 -15 810 721 810 721 C810 721 810 721 810 721 C818 758 846 786 873 786 C873 786 882 786 882 786 C881 786 881 789 882 792 C881 795 881 798 882 798 C882 798 827 798 827 798 C827 798 804 798 804 798 C804 798 782 798 782 798 C782 798 701 798 701 798 C701 798 701 786 701 786 L701 786 Z M0 786 C0 786 7 786 7 786 C29 786 54 758 65 721 C65 721 65 721 65 721 C65 721 279 -15 279 -15 C279 -15 317 -15 317 -15 C317 -15 445 529 445 529 C445 529 609 -15 609 -15 C609 -15 665 250 665 250 C665 250 511 808 511 808 C511 808 474 808 474 808 C474 808 279 -15 279 -15 C279 -15 337 231 337 231 C337 231 224 729 224 729 C220 762 237 786 267 786 C267 786 277 786 277 786 C276 786 276 789 277 792 C276 795 276 798 277 798 C277 798 208 798 208 798 C208 798 125 798 125 798 C125 798 43 798 43 798 C43 798 0 798 0 798 C0 798 0 786 0 786 L0 786 Z " />
<glyph glyph-name="CapitalLetterEWITHTI" unicode="&#x1ebc;" horiz-adv-x="592" d="M197 893 C197 922 207 945 218 945 C259 945 287 883 327 883 C372 883 407 950 407 1033 C407 1033 385 1033 385 1033 C385 1000 372 973 356 973 C316 973 288 1035 248 1035 C207 1035 175 972 175 893 C175 893 197 893 197 893 L197 893 Z M430 326 C430 326 430 391 430 391 C430 391 430 410 430 410 C430 410 430 429 430 429 C430 429 430 486 430 486 C430 486 420 486 420 486 C420 486 418 478 418 478 C410 451 365 429 318 429 C318 429 247 429 247 429 C247 429 247 760 247 760 C247 760 361 760 361 760 C417 760 474 721 489 672 C489 672 494 657 494 657 C494 657 503 657 503 657 C503 657 503 779 503 779 C503 779 503 798 503 798 C503 798 485 798 485 798 C485 798 426 798 426 798 C426 798 247 798 247 798 C247 798 172 798 172 798 C172 798 97 798 97 798 C97 798 40 798 40 798 C40 798 40 786 40 786 C40 786 49 786 49 786 C75 786 97 758 97 721 C97 721 97 76 97 76 C97 40 75 11 49 11 C49 11 40 11 40 11 C40 11 40 0 40 0 C40 0 97 0 97 0 C97 0 172 0 172 0 C172 0 247 0 247 0 C247 0 424 0 424 0 C424 0 495 0 495 0 C495 0 500 0 500 0 C501 5 502 13 503 19 C509 53 519 107 525 141 C525 141 516 141 516 141 C516 141 509 125 509 125 C485 77 423 39 369 38 C369 38 365 38 365 38 C365 38 247 38 247 38 C247 38 247 391 247 391 C247 391 318 391 318 391 C365 391 410 367 418 336 C418 336 420 326 420 326 C420 326 430 326 430 326 L430 326 Z " />
</font>
</svg>
