<?xml version="1.0" encoding="UTF-8"?>
<svg xmlns="http://www.w3.org/2000/svg" xmlns:xlink="http://www.w3.org/1999/xlink" version="1.2" >
<font id="Veera Regular">
<font-face  font-family="Veera" units-per-em="1024" ascent="1115" descent="-280" font-style="normal" font-weight="400" font-stretch="normal" cap-height="798" x-height="638" underline-position="0" underline-thickness="0" />
<missing-glyph  horiz-adv-x="472" d="M0 700 C0 700 432 700 432 700 C432 700 432 0 432 0 C432 0 0 0 0 0 C0 0 0 700 0 700 L0 700 Z M50 50 C50 50 382 50 382 50 C382 50 382 650 382 650 C382 650 50 650 50 650 C50 650 50 50 50 50 L50 50 Z " />
<glyph glyph-name="NULL" d="" />
<glyph glyph-name="CR" unicode="&#xd;" horiz-adv-x="256" d="" />
<glyph glyph-name="space" unicode="&#x20;" horiz-adv-x="234" d="" />
<glyph glyph-name="exclam" unicode="&#x21;" horiz-adv-x="199" d="M105 -5 C131 -5 151 15 151 40 C151 66 131 86 105 86 C80 86 60 66 60 40 C60 15 80 -5 105 -5 L105 -5 Z M140 756 C141 782 124 803 101 803 C78 803 61 782 63 756 C63 756 101 161 101 161 C101 161 110 161 110 161 C110 161 140 756 140 756 L140 756 Z " />
<glyph glyph-name="quotedbl" unicode="&#x22;" horiz-adv-x="270" d="M150 798 C150 798 185 586 185 586 C185 586 195 586 195 586 C195 586 230 798 230 798 C230 798 150 798 150 798 L150 798 Z M40 798 C40 798 75 586 75 586 C75 586 85 586 85 586 C85 586 120 798 120 798 C120 798 40 798 40 798 L40 798 Z " />
<glyph glyph-name="numbersign" unicode="&#x23;" horiz-adv-x="474" d="M352 814 C352 814 324 622 324 622 C324 622 219 622 219 622 C219 622 247 814 247 814 C247 814 223 814 223 814 C223 814 195 622 195 622 C195 622 85 622 85 622 C85 622 78 574 78 574 C78 574 189 574 189 574 C189 574 138 224 138 224 C138 224 25 224 25 224 C25 224 19 176 19 176 C19 176 131 176 131 176 C131 176 106 0 106 0 C106 0 130 0 130 0 C130 0 155 176 155 176 C155 176 260 176 260 176 C260 176 235 0 235 0 C235 0 260 0 260 0 C260 0 285 176 285 176 C285 176 383 176 383 176 C383 176 390 224 390 224 C390 224 292 224 292 224 C292 224 343 574 343 574 C343 574 448 574 448 574 C448 574 455 622 455 622 C455 622 349 622 349 622 C349 622 377 814 377 814 C377 814 352 814 352 814 L352 814 Z M213 574 C213 574 318 574 318 574 C318 574 267 224 267 224 C267 224 162 224 162 224 C162 224 213 574 213 574 L213 574 Z " />
<glyph glyph-name="dollar" unicode="&#x24;" horiz-adv-x="442" d="M242 873 C242 873 242 800 242 800 C232 802 223 803 215 803 C204 803 193 802 183 799 C183 799 183 873 183 873 C183 873 162 873 162 873 C162 873 162 792 162 792 C96 762 49 679 49 581 C49 517 97 439 162 392 C162 392 162 27 162 27 C117 47 77 88 62 133 C59 141 55 154 52 162 C52 162 42 162 42 162 C42 162 42 45 42 45 C73 27 119 11 162 2 C162 2 162 -75 162 -75 C162 -75 183 -75 183 -75 C183 -75 183 -1 183 -1 C199 -4 214 -5 227 -5 C232 -5 237 -5 242 -4 C242 -4 242 -75 242 -75 C242 -75 263 -75 263 -75 C263 -75 263 0 263 0 C340 20 398 103 398 204 C398 275 339 364 263 413 C263 413 263 771 263 771 C293 754 322 722 333 690 C333 690 351 636 351 636 C351 636 361 636 361 636 C361 636 361 753 361 753 C361 753 355 742 355 742 C355 742 355 742 355 742 C355 742 361 753 361 753 C331 771 294 786 263 795 C263 795 263 873 263 873 C263 873 242 873 242 873 L242 873 Z M183 19 C183 19 183 378 183 378 C186 376 189 375 192 373 C209 364 226 353 242 341 C242 341 242 13 242 13 C237 12 232 12 227 12 C222 12 216 12 210 13 C210 13 210 13 210 13 C201 14 192 16 183 19 L183 19 Z M242 780 C242 780 242 426 242 426 C221 437 201 451 183 466 C183 466 183 780 183 780 C192 784 202 786 212 786 C219 786 230 784 242 780 C242 780 242 780 242 780 L242 780 Z M162 486 C123 526 97 572 97 609 C97 679 123 740 162 769 C162 769 162 486 162 486 L162 486 Z M263 323 C313 278 348 221 348 175 C348 102 312 40 263 19 C263 19 263 323 263 323 L263 323 Z " />
<glyph glyph-name="ampersand" unicode="&#x26;" horiz-adv-x="705" d="M598 443 C598 443 439 443 439 443 C439 443 439 431 439 431 C439 431 450 431 450 431 C482 431 508 408 508 326 C508 326 508 290 508 290 C508 247 499 206 484 169 C466 189 447 210 428 233 C388 280 323 379 275 470 C359 498 423 580 423 668 C423 743 366 803 294 803 C222 803 165 716 165 607 C165 575 187 519 217 458 C122 415 50 306 50 201 C50 86 136 -5 244 -5 C334 -5 414 39 464 109 C557 25 646 -11 706 0 C706 0 706 10 706 10 C669 3 592 53 493 159 C512 198 522 243 522 290 C522 290 522 326 522 326 C522 408 551 431 587 431 C587 431 598 431 598 431 C598 431 598 443 598 443 L598 443 Z M269 481 C237 544 213 602 213 635 C213 721 247 789 290 789 C337 789 375 734 375 664 C375 583 330 508 269 481 C269 481 269 481 269 481 L269 481 Z M454 118 C413 60 350 23 279 23 C185 23 109 113 109 225 C109 318 157 410 223 446 C272 351 341 245 382 195 C406 166 430 140 454 118 C454 118 454 118 454 118 L454 118 Z " />
<glyph glyph-name="quotesingle" unicode="&#x27;" horiz-adv-x="160" d="M40 798 C40 798 75 586 75 586 C75 586 85 586 85 586 C85 586 120 798 120 798 C120 798 40 798 40 798 L40 798 Z " />
<glyph glyph-name="parenleft" unicode="&#x28;" horiz-adv-x="195" d="M177 828 C112 750 60 591 60 339 C60 87 112 -72 177 -150 C177 -150 185 -143 185 -143 C143 -93 109 57 109 339 C109 621 143 770 185 821 C185 821 177 828 177 828 L177 828 Z " />
<glyph glyph-name="parenright" unicode="&#x29;" horiz-adv-x="195" d="M10 -150 C75 -72 127 87 128 339 C127 591 75 750 10 828 C10 828 2 821 2 821 C44 770 78 621 79 339 C78 56 44 -93 2 -143 C2 -143 10 -150 10 -150 L10 -150 Z " />
<glyph glyph-name="asterisk" unicode="&#x2a;" horiz-adv-x="278" d="M145 678 C145 678 36 634 36 634 C24 630 19 617 25 606 C31 595 45 593 56 601 C56 601 147 673 147 673 C147 673 131 558 131 558 C129 544 137 533 150 533 C163 533 171 544 169 558 C169 558 153 673 153 673 C153 673 244 601 244 601 C255 592 269 594 275 606 C282 617 277 629 264 634 C264 634 155 678 155 678 C155 678 264 721 264 721 C294 732 270 775 244 754 C244 754 153 682 153 682 C153 682 169 798 169 798 C171 811 163 822 150 822 C137 822 129 811 131 798 C131 798 147 682 147 682 C147 682 56 754 56 754 C30 775 8 733 36 721 C36 721 145 678 145 678 L145 678 Z " />
<glyph glyph-name="plus" unicode="&#x2b;" horiz-adv-x="491" d="M228 481 C228 481 228 327 228 327 C228 327 75 327 75 327 C75 327 75 299 75 299 C75 299 228 299 228 299 C228 299 228 145 228 145 C228 145 258 145 258 145 C258 145 258 299 258 299 C258 299 411 299 411 299 C411 299 411 327 411 327 C411 327 258 327 258 327 C258 327 258 481 258 481 C258 481 228 481 228 481 L228 481 Z " />
<glyph glyph-name="comma" unicode="&#x2c;" horiz-adv-x="208" d="M105 -5 C110 -5 115 -4 120 -3 C121 -7 121 -12 121 -16 C121 -52 99 -92 72 -105 C72 -105 77 -114 77 -114 C123 -92 159 -34 159 15 C159 30 154 49 146 62 C138 76 123 86 105 86 C80 86 60 66 60 40 C60 15 80 -5 105 -5 L105 -5 Z " />
<glyph glyph-name="hyphen" unicode="&#x2d;" horiz-adv-x="197" d="M20 265 C20 265 177 265 177 265 C177 265 177 313 177 313 C177 313 20 313 20 313 C20 313 20 265 20 265 L20 265 Z " />
<glyph glyph-name="period" unicode="&#x2e;" horiz-adv-x="230" d="M125 -5 C150 -5 170 15 170 40 C170 66 150 86 125 86 C100 86 80 66 80 40 C80 15 100 -5 125 -5 L125 -5 Z " />
<glyph glyph-name="slash" unicode="&#x2f;" horiz-adv-x="337" d="M0 -145 C0 -145 28 -145 28 -145 C28 -145 338 848 338 848 C338 848 310 848 310 848 C310 848 0 -145 0 -145 L0 -145 Z " />
<glyph glyph-name="zero" unicode="0" horiz-adv-x="676" d="M338 9 C217 9 120 147 120 319 C120 491 217 629 338 629 C460 629 557 491 557 319 C557 147 460 9 338 9 L338 9 Z M50 319 C50 139 178 -5 338 -5 C498 -5 626 139 626 319 C626 499 498 643 338 643 C178 643 50 499 50 319 L50 319 Z " />
<glyph glyph-name="one" unicode="1" horiz-adv-x="287" d="M233 638 C233 638 175 638 175 638 C175 638 144 638 144 638 C144 638 112 638 112 638 C112 638 55 638 55 638 C55 638 55 626 55 626 C55 626 64 626 64 626 C90 626 112 598 112 561 C112 561 112 76 112 76 C112 40 90 11 64 11 C64 11 55 11 55 11 C55 11 55 0 55 0 C55 0 112 0 112 0 C112 0 144 0 144 0 C144 0 175 0 175 0 C175 0 233 0 233 0 C233 0 233 11 233 11 C233 11 224 11 224 11 C197 11 176 40 175 76 C175 76 175 561 175 561 C176 598 197 626 224 626 C224 626 233 626 233 626 C233 626 233 638 233 638 L233 638 Z " />
<glyph glyph-name="two" unicode="2" horiz-adv-x="418" d="M384 34 C384 34 387 63 387 63 C387 63 387 63 387 63 C389 83 391 105 392 120 C392 121 389 121 386 120 C383 119 380 121 380 120 C380 120 380 112 380 112 C377 85 346 63 310 63 C310 63 102 63 102 63 C252 185 364 276 364 445 C364 555 305 643 232 643 C175 643 104 578 71 496 C71 496 79 491 79 491 C102 549 156 596 201 596 C253 596 294 520 294 424 C294 229 205 159 85 63 C85 63 84 63 84 63 C84 63 80 59 80 59 C62 45 44 30 25 14 C25 14 25 0 25 0 C25 0 381 0 381 0 C381 0 384 31 384 31 C384 31 384 31 384 31 C384 32 384 33 384 34 C384 34 384 34 384 34 L384 34 Z " />
<glyph glyph-name="three" unicode="3" horiz-adv-x="395" d="M25 -215 C203 -203 345 -67 345 90 C345 197 257 284 145 291 C238 344 303 421 303 489 C303 575 252 643 188 643 C124 643 45 586 10 514 C10 514 18 510 18 510 C41 558 102 596 156 596 C202 596 240 539 240 469 C240 394 170 311 78 270 C66 266 54 261 41 256 C41 256 41 246 41 246 C45 247 49 248 53 250 C72 255 97 258 116 258 C207 258 279 182 279 86 C279 -67 166 -197 24 -206 C24 -206 25 -215 25 -215 L25 -215 Z " />
<glyph glyph-name="four" unicode="4" horiz-adv-x="394" d="M44 28 C44 28 246 482 246 482 C246 482 246 482 246 482 C246 482 246 28 246 28 C246 28 44 28 44 28 L44 28 Z M246 0 C246 0 246 -150 246 -150 C246 -150 309 -150 309 -150 C309 -150 309 0 309 0 C309 0 384 0 384 0 C384 0 384 28 384 28 C384 28 309 28 309 28 C309 28 309 624 309 624 C309 624 309 643 309 643 C309 643 299 643 299 643 C299 643 19 9 19 9 C19 9 19 0 19 0 C19 0 28 0 28 0 C28 0 32 0 32 0 C32 0 246 0 246 0 L246 0 Z " />
<glyph glyph-name="five" unicode="5" horiz-adv-x="380" d="M323 638 C323 638 323 638 323 638 C329 658 336 679 342 695 C342 695 330 695 330 695 C330 695 327 687 327 687 C319 659 283 638 247 638 C247 638 99 638 99 638 C99 638 81 638 81 638 C81 638 67 288 67 288 C67 288 83 288 83 288 C83 288 102 288 102 288 C194 288 267 202 267 96 C267 -46 162 -165 30 -172 C30 -172 31 -182 31 -182 C197 -174 330 -41 330 116 C330 247 243 351 133 351 C133 351 86 351 86 351 C86 351 83 288 83 288 C83 288 99 638 99 638 C99 638 96 571 96 571 C96 571 301 571 301 571 C301 571 323 638 323 638 L323 638 Z " />
<glyph glyph-name="six" unicode="6" horiz-adv-x="506" d="M440 852 C233 845 68 635 68 379 C68 166 154 -5 262 -5 C378 -5 465 120 456 275 C456 426 382 547 289 547 C241 547 184 489 141 402 C142 640 275 836 440 841 C440 841 440 852 440 852 L440 852 Z M140 371 C180 464 234 529 278 529 C340 529 390 415 390 272 C398 127 344 12 269 12 C196 12 138 149 138 320 C138 334 139 353 140 371 C140 371 140 371 140 371 L140 371 Z " />
<glyph glyph-name="seven" unicode="7" horiz-adv-x="375" d="M27 602 C27 602 24 573 24 573 C24 573 24 573 24 573 C23 553 21 532 19 516 C19 516 31 516 31 516 C31 516 32 525 32 525 C34 552 65 573 101 573 C101 573 341 573 341 573 C341 573 99 -140 99 -140 C99 -140 169 -140 169 -140 C235 117 300 375 366 632 C366 632 361 638 361 638 C361 638 30 638 30 638 C30 638 27 606 27 606 C27 606 27 606 27 606 C27 605 27 604 27 602 L27 602 Z " />
<glyph glyph-name="eight" unicode="8" horiz-adv-x="476" d="M279 426 C269 430 258 433 248 436 C188 451 140 534 140 623 C140 715 184 789 238 789 C296 789 342 712 342 615 C342 523 315 445 279 426 C279 426 279 426 279 426 L279 426 Z M285 423 C347 443 394 528 394 625 C394 724 326 803 241 803 C156 803 88 712 88 598 C88 511 132 428 192 390 C118 383 61 300 61 197 C61 85 142 -5 244 -5 C345 -5 426 91 426 211 C426 298 366 386 285 423 C285 423 285 423 285 423 L285 423 Z M196 388 C208 381 220 376 232 373 C307 354 367 272 367 189 C367 89 314 9 247 9 C176 9 120 97 120 207 C120 301 153 378 196 388 C196 388 196 388 196 388 L196 388 Z " />
<glyph glyph-name="nine" unicode="9" horiz-adv-x="506" d="M67 -214 C273 -207 439 3 439 259 C439 472 352 643 245 643 C129 643 42 518 50 363 C50 212 125 91 218 91 C265 91 322 150 366 236 C365 -3 232 -198 66 -204 C66 -204 67 -214 67 -214 L67 -214 Z M367 267 C327 174 272 109 228 108 C166 109 116 223 116 366 C109 510 163 626 238 625 C310 626 368 489 368 318 C368 304 367 285 367 267 C367 267 367 267 367 267 L367 267 Z " />
<glyph glyph-name="colon" unicode="&#x3a;" horiz-adv-x="230" d="M125 465 C150 465 170 485 170 510 C170 536 150 556 125 556 C100 556 80 536 80 510 C80 485 100 465 125 465 L125 465 Z M125 -5 C150 -5 170 15 170 40 C170 66 150 86 125 86 C100 86 80 66 80 40 C80 15 100 -5 125 -5 L125 -5 Z " />
<glyph glyph-name="semicolon" unicode="&#x3b;" horiz-adv-x="208" d="M105 465 C131 465 151 485 151 510 C151 536 131 556 105 556 C80 556 60 536 60 510 C60 485 80 465 105 465 L105 465 Z M105 -5 C110 -5 115 -4 120 -3 C121 -7 121 -12 121 -16 C121 -52 99 -92 72 -105 C72 -105 77 -114 77 -114 C123 -92 159 -34 159 15 C159 30 154 49 146 62 C138 76 123 86 105 86 C80 86 60 66 60 40 C60 15 80 -5 105 -5 L105 -5 Z " />
<glyph glyph-name="less" unicode="&#x3c;" horiz-adv-x="473" d="M398 638 C398 638 47 362 47 362 C47 362 40 357 40 357 C40 357 40 331 40 331 C40 331 47 325 47 325 C47 325 398 50 398 50 C398 50 398 81 398 81 C398 81 59 344 59 344 C59 344 398 606 398 606 C398 606 398 638 398 638 L398 638 Z " />
<glyph glyph-name="equal" unicode="&#x3d;" horiz-adv-x="466" d="M80 283 C80 283 80 255 80 255 C80 255 396 255 396 255 C396 255 396 283 396 283 C396 283 80 283 80 283 L80 283 Z M80 383 C80 383 80 355 80 355 C80 355 396 355 396 355 C396 355 396 383 396 383 C396 383 80 383 80 383 L80 383 Z " />
<glyph glyph-name="greater" unicode="&#x3e;" horiz-adv-x="466" d="M404 344 C404 344 75 81 75 81 C75 81 75 50 75 50 C75 50 416 325 416 325 C416 325 426 334 426 334 C426 334 426 354 426 354 C426 354 416 362 416 362 C416 362 75 638 75 638 C75 638 75 606 75 606 C75 606 404 344 404 344 L404 344 Z " />
<glyph glyph-name="question" unicode="&#x3f;" horiz-adv-x="303" d="M120 -5 C146 -5 166 15 166 40 C166 66 146 86 120 86 C95 86 75 66 75 40 C75 15 95 -5 120 -5 L120 -5 Z M102 435 C102 435 116 182 116 182 C116 182 125 182 125 182 C125 182 137 397 137 397 C137 397 172 397 172 397 C247 397 269 490 269 536 C269 684 196 803 104 803 C69 803 40 774 40 738 C40 727 54 718 73 718 C94 718 103 754 124 754 C196 754 254 660 254 543 C254 510 231 445 150 445 C150 445 115 445 115 445 C108 445 102 441 102 435 L102 435 Z " />
<glyph glyph-name="at" unicode="&#x40;" horiz-adv-x="1051" d="M947 0 C886 -132 703 -238 536 -238 C296 -238 104 14 104 328 C104 642 292 893 526 893 C760 893 947 691 947 438 C947 197 868 5 768 5 C672 5 616 116 643 255 C643 255 713 612 713 612 C713 612 654 612 654 612 C654 612 632 501 632 501 C620 573 579 625 529 625 C386 625 271 458 271 249 C271 117 337 11 419 11 C479 11 544 80 578 175 C584 64 654 -16 757 -16 C890 -16 996 186 996 438 C996 701 787 911 526 911 C264 911 55 652 55 328 C55 4 269 -255 536 -255 C710 -255 902 -142 968 0 C968 0 947 0 947 0 L947 0 Z M623 453 C623 453 584 255 584 255 C561 139 502 46 451 46 C389 46 339 142 339 261 C339 454 423 608 528 608 C580 608 622 539 622 453 C622 453 623 453 623 453 L623 453 Z " />
<glyph glyph-name="A" unicode="A" horiz-adv-x="570" d="M563 11 C563 11 555 11 555 11 C534 11 511 35 499 66 C499 66 289 816 289 816 C289 816 272 816 272 816 C272 816 255 747 255 747 C255 747 251 739 251 739 C251 739 252 735 252 735 C252 735 87 70 87 70 C77 37 50 11 24 11 C24 11 16 11 16 11 C16 11 16 0 16 0 C16 0 70 0 70 0 C70 0 82 0 82 0 C82 0 93 0 93 0 C93 0 178 0 178 0 C178 0 178 11 178 11 C178 11 165 11 165 11 C127 11 105 47 115 91 C115 91 115 91 115 91 C115 91 167 308 167 308 C167 308 362 307 362 307 C362 307 421 76 421 76 C421 76 421 76 421 76 C430 40 409 11 373 11 C373 11 359 11 359 11 C359 11 359 0 359 0 C359 0 441 0 441 0 C441 0 479 0 479 0 C479 0 517 0 517 0 C517 0 563 0 563 0 C563 0 563 11 563 11 L563 11 Z M357 325 C357 325 172 327 172 327 C172 327 261 700 261 700 C261 700 357 325 357 325 L357 325 Z " />
<glyph glyph-name="B" unicode="B" horiz-adv-x="494" d="M48 786 C48 786 56 786 56 786 C83 786 105 758 105 721 C105 721 105 76 105 76 C105 40 83 11 56 11 C56 11 48 11 48 11 C48 11 48 0 48 0 C48 0 105 0 105 0 C105 0 140 0 140 0 C140 0 175 0 175 0 C175 0 268 0 268 0 C383 0 475 106 475 238 C475 324 400 395 298 412 C387 436 451 516 451 611 C451 715 366 798 260 798 C260 798 175 798 175 798 C175 798 140 798 140 798 C140 798 105 798 105 798 C105 798 48 798 48 798 C48 798 48 786 48 786 L48 786 Z M175 416 C175 416 175 780 175 780 C175 780 260 780 260 780 C327 780 381 705 381 611 C381 503 320 416 243 416 C243 416 175 416 175 416 L175 416 Z M175 402 C175 402 231 402 231 402 C325 402 401 329 401 238 C401 115 339 17 261 17 C261 17 175 17 175 17 C175 17 175 402 175 402 L175 402 Z " />
<glyph glyph-name="C" unicode="C" horiz-adv-x="651" d="M591 630 C591 630 591 742 591 742 C591 742 587 734 587 734 C587 734 587 734 587 734 C587 734 591 742 591 742 C533 776 429 803 359 803 C192 803 58 623 58 399 C58 175 192 -5 359 -5 C429 -5 533 22 591 56 C591 56 587 64 587 64 C587 64 587 64 587 64 C587 64 591 56 591 56 C591 56 591 168 591 168 C591 168 581 168 581 168 C578 160 574 147 572 139 C550 76 467 20 384 14 C384 14 384 13 384 13 C375 12 367 12 359 12 C234 12 135 184 135 399 C135 613 234 785 359 785 C379 785 403 783 428 778 C489 765 552 713 572 659 C574 651 578 638 581 630 C581 630 591 630 591 630 L591 630 Z " />
<glyph glyph-name="D" unicode="D" horiz-adv-x="621" d="M48 786 C48 786 56 786 56 786 C83 786 105 758 105 721 C105 721 105 76 105 76 C105 40 83 11 56 11 C56 11 48 11 48 11 C48 11 48 0 48 0 C48 0 105 0 105 0 C105 0 140 0 140 0 C140 0 175 0 175 0 C175 0 283 0 283 0 C443 0 571 177 571 399 C571 621 431 798 256 798 C256 798 175 798 175 798 C175 798 140 798 140 798 C140 798 105 798 105 798 C105 798 48 798 48 798 C48 798 48 786 48 786 L48 786 Z M175 17 C175 17 175 780 175 780 C175 780 256 780 256 780 C392 780 501 611 501 399 C501 187 404 17 283 17 C283 17 175 17 175 17 L175 17 Z " />
<glyph glyph-name="E" unicode="E" horiz-adv-x="512" d="M350 336 C350 336 350 402 350 402 C350 402 350 410 350 410 C350 410 350 419 350 419 C350 419 350 476 350 476 C350 476 340 476 340 476 C340 476 338 468 338 468 C329 441 285 419 238 419 C238 419 167 419 167 419 C167 419 167 780 167 780 C167 780 271 780 271 780 C327 780 384 741 400 692 C400 692 405 677 405 677 C405 677 413 677 413 677 C413 677 413 789 413 789 C413 789 413 798 413 798 C413 798 405 798 405 798 C405 798 337 798 337 798 C337 798 167 798 167 798 C167 798 132 798 132 798 C132 798 97 798 97 798 C97 798 40 798 40 798 C40 798 40 786 40 786 C40 786 49 786 49 786 C75 786 97 758 97 721 C97 721 97 76 97 76 C97 40 75 11 49 11 C49 11 40 11 40 11 C40 11 40 0 40 0 C40 0 97 0 97 0 C97 0 132 0 132 0 C132 0 167 0 167 0 C167 0 341 0 341 0 C341 0 415 0 415 0 C415 0 417 0 417 0 C418 2 418 6 419 9 C424 40 433 90 438 121 C438 121 430 121 430 121 C430 121 422 105 422 105 C398 57 334 18 278 17 C278 17 167 17 167 17 C167 17 167 402 167 402 C167 402 238 402 238 402 C285 402 329 377 338 346 C338 346 340 336 340 336 C340 336 350 336 350 336 L350 336 Z " />
<glyph glyph-name="F" unicode="F" horiz-adv-x="444" d="M340 331 C340 331 340 396 340 396 C340 396 340 404 340 404 C340 404 340 413 340 413 C340 413 340 471 340 471 C340 470 339 470 338 471 C334 470 330 470 330 471 C330 471 328 462 328 462 C319 435 275 413 228 413 C228 413 167 413 167 413 C167 413 167 780 167 780 C167 780 301 780 301 780 C357 780 414 741 430 692 C430 692 435 677 435 677 C435 677 443 677 443 677 C443 677 443 789 443 789 C443 789 443 798 443 798 C443 798 435 798 435 798 C435 798 367 798 367 798 C367 798 167 798 167 798 C167 798 132 798 132 798 C132 798 97 798 97 798 C97 798 40 798 40 798 C40 798 40 786 40 786 C40 786 49 786 49 786 C75 786 97 758 97 721 C97 721 97 76 97 76 C97 40 75 11 49 11 C49 11 40 11 40 11 C40 11 40 0 40 0 C40 0 97 0 97 0 C97 0 132 0 132 0 C132 0 167 0 167 0 C167 0 235 0 235 0 C235 0 235 11 235 11 C235 11 225 11 225 11 C193 11 168 40 167 76 C167 76 167 396 167 396 C167 396 228 396 228 396 C275 396 319 371 328 340 C328 340 330 331 330 331 C330 331 340 331 340 331 L340 331 Z " />
<glyph glyph-name="G" unicode="G" horiz-adv-x="677" d="M614 375 C614 375 557 375 557 375 C557 375 525 375 525 375 C525 375 494 375 494 375 C494 375 436 375 436 375 C436 375 436 363 436 363 C436 363 445 363 445 363 C472 363 494 334 494 298 C494 298 494 47 494 47 C440 26 376 12 328 12 C210 12 115 184 115 399 C115 613 210 785 328 785 C344 785 363 783 382 780 C382 780 382 780 382 780 C446 770 512 716 532 659 C534 651 538 638 541 630 C541 630 551 630 551 630 C551 630 551 742 551 742 C551 742 547 734 547 734 C547 734 547 734 547 734 C547 734 551 742 551 742 C493 776 394 803 328 803 C167 803 38 623 38 399 C38 175 167 -5 328 -5 C397 -5 498 22 557 56 C557 56 557 298 557 298 C557 298 557 303 557 303 C558 336 579 363 605 363 C605 363 614 363 614 363 C614 363 614 375 614 375 L614 375 Z " />
<glyph glyph-name="H" unicode="H" horiz-adv-x="673" d="M449 786 C449 786 457 786 457 786 C484 786 506 758 506 721 C506 721 506 411 506 411 C506 411 167 411 167 411 C167 411 167 721 167 721 C168 758 189 786 216 786 C216 786 225 786 225 786 C225 786 225 798 225 798 C225 798 167 798 167 798 C167 798 132 798 132 798 C132 798 97 798 97 798 C97 798 40 798 40 798 C40 798 40 786 40 786 C40 786 49 786 49 786 C75 786 97 758 97 721 C97 721 97 76 97 76 C97 40 75 11 49 11 C49 11 40 11 40 11 C40 11 40 0 40 0 C40 0 97 0 97 0 C97 0 132 0 132 0 C132 0 167 0 167 0 C167 0 225 0 225 0 C225 0 225 11 225 11 C225 11 216 11 216 11 C189 11 168 40 167 76 C167 76 167 394 167 394 C167 394 506 394 506 394 C506 394 506 76 506 76 C506 40 484 11 457 11 C457 11 449 11 449 11 C449 11 449 0 449 0 C449 0 506 0 506 0 C506 0 541 0 541 0 C541 0 576 0 576 0 C576 0 634 0 634 0 C633 0 633 3 634 6 C633 9 633 11 634 11 C634 11 625 11 625 11 C598 11 576 40 576 76 C576 76 576 721 576 721 C576 758 598 786 625 786 C625 786 634 786 634 786 C633 786 633 789 634 792 C633 795 633 798 634 798 C634 798 576 798 576 798 C576 798 541 798 541 798 C541 798 506 798 506 798 C506 798 449 798 449 798 C449 798 449 786 449 786 L449 786 Z " />
<glyph glyph-name="I" unicode="I" horiz-adv-x="264" d="M225 798 C225 798 167 798 167 798 C167 798 132 798 132 798 C132 798 97 798 97 798 C97 798 40 798 40 798 C40 798 40 786 40 786 C40 786 49 786 49 786 C75 786 97 758 97 721 C97 721 97 76 97 76 C97 40 75 11 49 11 C49 11 40 11 40 11 C40 11 40 0 40 0 C40 0 97 0 97 0 C97 0 132 0 132 0 C132 0 167 0 167 0 C167 0 225 0 225 0 C225 0 225 11 225 11 C225 11 216 11 216 11 C189 11 168 40 167 76 C167 76 167 721 167 721 C168 758 189 786 216 786 C216 786 225 786 225 786 C225 786 225 798 225 798 L225 798 Z " />
<glyph glyph-name="J" unicode="J" horiz-adv-x="302" d="M262 798 C262 798 205 798 205 798 C205 798 170 798 170 798 C170 798 135 798 135 798 C135 798 77 798 77 798 C77 798 77 786 77 786 C77 786 86 786 86 786 C113 786 135 758 135 721 C135 721 135 242 135 242 C135 83 122 4 95 4 C82 4 66 24 59 50 C55 66 41 78 28 78 C8 78 -4 66 0 50 C8 17 43 -10 78 -10 C163 -10 205 94 205 301 C205 301 205 721 205 721 C205 758 226 786 254 786 C254 786 262 786 262 786 C262 786 262 798 262 798 L262 798 Z " />
<glyph glyph-name="K" unicode="K" horiz-adv-x="568" d="M374 786 C374 786 381 786 381 786 C405 786 404 758 378 721 C378 721 378 721 378 721 C378 721 215 487 215 487 C215 487 215 487 215 487 C215 487 175 429 175 429 C175 429 175 721 175 721 C175 758 197 786 224 786 C224 786 232 786 232 786 C233 786 233 789 232 792 C233 795 233 798 232 798 C232 798 175 798 175 798 C175 798 140 798 140 798 C140 798 105 798 105 798 C105 798 48 798 48 798 C48 798 48 786 48 786 C48 786 56 786 56 786 C83 786 105 758 105 721 C105 721 105 76 105 76 C105 40 83 11 56 11 C56 11 48 11 48 11 C48 11 48 0 48 0 C48 0 105 0 105 0 C105 0 140 0 140 0 C140 0 175 0 175 0 C175 0 232 0 232 0 C233 0 233 3 232 6 C233 9 233 11 232 11 C232 11 224 11 224 11 C197 11 175 40 175 76 C175 76 175 429 175 429 C175 429 348 153 348 153 C413 48 475 -5 532 -5 C532 -5 558 -5 558 -5 C558 -5 558 9 558 9 C558 9 553 9 553 9 C526 9 471 76 387 210 C387 210 225 471 225 471 C225 471 399 721 399 721 C399 721 399 721 399 721 C424 758 466 786 493 786 C493 786 502 786 502 786 C502 786 502 798 502 798 C502 798 452 798 452 798 C452 798 442 798 442 798 C442 798 432 798 432 798 C432 798 374 798 374 798 C374 798 374 786 374 786 L374 786 Z " />
<glyph glyph-name="L" unicode="L" horiz-adv-x="512" d="M426 132 C426 132 415 107 415 107 C395 58 338 18 288 17 C288 17 167 17 167 17 C167 17 167 721 167 721 C168 758 189 786 216 786 C216 786 225 786 225 786 C225 786 225 798 225 798 C225 798 167 798 167 798 C167 798 132 798 132 798 C132 798 97 798 97 798 C97 798 40 798 40 798 C40 798 40 786 40 786 C40 786 49 786 49 786 C75 786 97 758 97 721 C97 721 97 76 97 76 C97 40 75 11 49 11 C49 11 40 11 40 11 C40 11 40 0 40 0 C40 0 97 0 97 0 C97 0 132 0 132 0 C132 0 167 0 167 0 C167 0 341 0 341 0 C341 0 415 0 415 0 C415 0 417 0 417 0 C418 2 418 6 419 9 C425 42 434 94 439 127 C434 129 426 132 426 132 L426 132 Z " />
<glyph glyph-name="M" unicode="M" horiz-adv-x="737" d="M700 798 C700 798 643 798 643 798 C643 798 611 798 611 798 C611 798 604 798 604 798 C604 798 580 798 580 798 C580 798 378 102 378 102 C378 102 172 798 172 798 C172 798 139 798 139 798 C139 798 129 798 129 798 C129 798 118 798 118 798 C118 798 61 798 61 798 C60 798 60 795 61 792 C60 789 60 786 61 786 C61 786 69 786 69 786 C94 786 114 762 116 729 C116 729 95 76 95 76 C95 76 95 76 95 76 C94 40 71 11 45 11 C45 11 36 11 36 11 C36 11 36 0 36 0 C36 0 93 0 93 0 C93 0 104 0 104 0 C104 0 114 0 114 0 C114 0 198 0 198 0 C198 0 198 11 198 11 C198 11 186 11 186 11 C146 11 115 47 117 91 C117 91 117 91 117 91 C117 91 136 696 136 696 C136 696 337 28 337 28 C337 28 347 -5 347 -5 C347 -5 365 58 365 58 C365 58 378 102 378 102 C378 102 378 102 378 102 C378 102 365 58 365 58 C365 58 347 -5 347 -5 C347 -5 364 -5 364 -5 C364 -5 582 725 582 725 C582 725 601 72 601 72 C600 38 580 11 554 11 C554 11 545 11 545 11 C545 11 545 0 545 0 C545 0 603 0 603 0 C603 0 638 0 638 0 C638 0 673 0 673 0 C673 0 730 0 730 0 C730 0 730 11 730 11 C730 11 721 11 721 11 C695 11 674 37 670 70 C670 70 646 721 646 721 C646 721 646 721 646 721 C644 758 665 786 691 786 C691 786 700 786 700 786 C700 786 700 798 700 798 L700 798 Z " />
<glyph glyph-name="N" unicode="N" horiz-adv-x="604" d="M567 798 C567 798 510 798 510 798 C510 798 499 798 499 798 C499 798 489 798 489 798 C489 798 431 798 431 798 C431 798 431 786 431 786 C431 786 440 786 440 786 C467 786 489 758 489 721 C489 721 489 111 489 111 C489 111 162 798 162 798 C162 798 120 798 120 798 C120 798 110 798 110 798 C110 798 99 798 99 798 C99 798 42 798 42 798 C42 798 42 786 42 786 C42 786 50 786 50 786 C77 786 99 758 99 721 C99 721 99 76 99 76 C99 40 77 11 50 11 C50 11 42 11 42 11 C42 11 42 0 42 0 C42 0 99 0 99 0 C99 0 110 0 110 0 C110 0 120 0 120 0 C120 0 178 0 178 0 C178 0 178 11 178 11 C178 11 169 11 169 11 C142 11 120 40 120 76 C120 76 120 725 120 725 C120 725 457 28 457 28 C457 28 477 -14 477 -14 C477 -14 510 -14 510 -14 C510 -14 510 53 510 53 C510 53 510 721 510 721 C510 721 510 726 510 726 C511 760 532 786 559 786 C559 786 567 786 567 786 C567 786 567 798 567 798 L567 798 Z " />
<glyph glyph-name="O" unicode="O" horiz-adv-x="695" d="M352 12 C219 12 135 205 135 399 C135 592 219 785 352 785 C484 785 568 592 568 399 C568 205 484 12 352 12 L352 12 Z M58 399 C58 197 172 -5 352 -5 C531 -5 645 197 645 399 C645 601 531 803 352 803 C172 803 58 601 58 399 L58 399 Z " />
<glyph glyph-name="P" unicode="P" horiz-adv-x="496" d="M48 786 C48 786 56 786 56 786 C83 786 105 758 105 721 C105 721 105 76 105 76 C105 40 83 11 56 11 C56 11 48 11 48 11 C48 11 48 0 48 0 C48 0 105 0 105 0 C105 0 140 0 140 0 C140 0 175 0 175 0 C175 0 232 0 232 0 C233 0 233 3 232 6 C233 9 233 11 232 11 C232 11 224 11 224 11 C197 11 175 40 175 76 C175 76 175 345 175 345 C175 345 250 345 250 345 C376 345 476 445 476 571 C476 697 384 798 269 798 C269 798 175 798 175 798 C175 798 140 798 140 798 C140 798 105 798 105 798 C105 798 48 798 48 798 C48 798 48 786 48 786 L48 786 Z M175 363 C175 363 175 780 175 780 C175 780 269 780 269 780 C343 780 403 687 403 571 C403 455 335 363 250 363 C250 363 175 363 175 363 L175 363 Z " />
<glyph glyph-name="Q" unicode="Q" horiz-adv-x="695" d="M708 -51 C708 -51 702 -46 702 -46 C684 -68 624 -85 568 -85 C487 -85 410 -51 359 -5 C534 1 645 200 645 399 C645 601 531 803 352 803 C172 803 58 601 58 399 C58 204 165 8 334 -4 C407 -75 497 -130 561 -130 C606 -130 672 -95 708 -51 L708 -51 Z M352 12 C219 12 135 205 135 399 C135 592 219 785 352 785 C484 785 568 592 568 399 C568 205 484 12 352 12 L352 12 Z " />
<glyph glyph-name="R" unicode="R" horiz-adv-x="560" d="M48 786 C48 786 56 786 56 786 C83 786 105 758 105 721 C105 721 105 76 105 76 C105 40 83 11 56 11 C56 11 48 11 48 11 C48 11 48 0 48 0 C48 0 105 0 105 0 C105 0 140 0 140 0 C140 0 175 0 175 0 C175 0 232 0 232 0 C233 0 233 3 232 6 C233 9 233 11 232 11 C232 11 224 11 224 11 C197 11 175 40 175 76 C175 76 175 369 175 369 C175 369 222 369 222 369 C222 369 371 106 371 106 C424 12 440 0 513 0 C513 0 539 0 539 0 C539 0 539 14 539 14 C539 14 534 14 534 14 C514 14 507 23 466 93 C466 93 301 377 301 377 C390 402 455 484 455 583 C455 702 368 798 260 798 C260 798 175 798 175 798 C175 798 140 798 140 798 C140 798 105 798 105 798 C105 798 48 798 48 798 C48 798 48 786 48 786 L48 786 Z M243 386 C243 386 212 386 212 386 C212 386 175 386 175 386 C175 386 175 780 175 780 C175 780 260 780 260 780 C327 780 381 692 381 583 C381 473 320 386 243 386 L243 386 Z " />
<glyph glyph-name="S" unicode="S" horiz-adv-x="442" d="M42 162 C42 162 42 45 42 45 C90 17 172 -5 227 -5 C322 -5 398 88 398 204 C398 281 329 379 243 425 C162 468 97 550 97 609 C97 707 148 786 212 786 C219 786 230 784 242 780 C242 780 242 780 242 780 C279 769 320 729 333 690 C333 690 351 636 351 636 C351 636 361 636 361 636 C361 636 361 753 361 753 C361 753 355 742 355 742 C355 742 355 742 355 742 C355 742 361 753 361 753 C313 781 249 803 215 803 C123 803 49 704 49 581 C49 508 112 415 192 373 C278 328 348 240 348 175 C348 85 294 12 227 12 C222 12 216 12 210 13 C210 13 210 13 210 13 C149 19 82 72 62 133 C59 141 55 154 52 162 C52 162 42 162 42 162 L42 162 Z " />
<glyph glyph-name="T" unicode="T" horiz-adv-x="581" d="M553 665 C550 700 545 755 542 789 C541 792 541 795 541 798 C541 798 524 798 524 798 C524 798 465 798 465 798 C465 798 108 798 108 798 C108 798 48 798 48 798 C48 798 31 798 31 798 C31 795 31 792 30 789 C27 755 23 700 20 665 C20 665 29 665 29 665 C29 665 43 700 43 700 C61 745 111 780 155 780 C155 780 251 780 251 780 C251 780 251 76 251 76 C251 40 229 11 202 11 C202 11 194 11 194 11 C194 11 194 0 194 0 C194 0 251 0 251 0 C251 0 286 0 286 0 C286 0 321 0 321 0 C321 0 379 0 379 0 C378 0 378 3 379 6 C378 9 378 11 379 11 C379 11 370 11 370 11 C343 11 321 40 321 76 C321 76 321 780 321 780 C321 780 417 780 417 780 C462 780 512 745 529 700 C529 700 544 665 544 665 C544 665 553 665 553 665 L553 665 Z " />
<glyph glyph-name="U" unicode="U" horiz-adv-x="581" d="M554 798 C554 798 488 798 488 798 C488 798 478 798 478 798 C478 798 468 798 468 798 C468 798 399 798 399 798 C399 798 399 786 399 786 C399 786 409 786 409 786 C441 786 466 756 468 716 C468 716 467 221 467 221 C467 109 412 19 301 19 C204 19 155 116 155 237 C155 237 155 721 155 721 C155 758 177 786 204 786 C204 786 212 786 212 786 C213 786 213 789 212 792 C213 795 213 798 212 798 C212 798 155 798 155 798 C155 798 120 798 120 798 C120 798 85 798 85 798 C85 798 28 798 28 798 C28 798 28 786 28 786 C28 786 36 786 36 786 C63 786 85 758 85 721 C85 721 85 250 85 250 C85 109 154 -5 291 -5 C422 -5 488 92 488 214 C488 214 488 711 488 711 C489 753 513 786 544 786 C544 786 554 786 554 786 C554 786 554 798 554 798 L554 798 Z " />
<glyph glyph-name="V" unicode="V" horiz-adv-x="630" d="M595 798 C595 798 540 798 540 798 C540 798 530 798 530 798 C530 798 519 798 519 798 C519 798 428 798 428 798 C428 798 428 786 428 786 C428 786 441 786 441 786 C480 786 504 750 497 702 C497 702 359 98 359 98 C359 98 191 721 191 721 C191 721 191 721 191 721 C181 758 201 786 236 786 C236 786 247 786 247 786 C247 786 247 798 247 798 C247 798 170 798 170 798 C170 798 132 798 132 798 C132 798 93 798 93 798 C93 798 50 798 50 798 C50 798 50 786 50 786 C50 786 57 786 57 786 C77 786 101 762 113 729 C113 729 333 -15 333 -15 C333 -15 351 -15 351 -15 C351 -15 522 721 522 721 C522 721 523 721 523 721 C531 758 560 786 587 786 C587 786 595 786 595 786 C595 786 595 798 595 798 L595 798 Z " />
<glyph glyph-name="W" unicode="W" horiz-adv-x="862" d="M825 798 C825 798 770 798 770 798 C770 798 759 798 759 798 C759 798 749 798 749 798 C749 798 668 798 668 798 C669 798 669 795 668 792 C669 789 669 786 668 786 C668 786 682 786 682 786 C716 786 738 761 735 727 C735 727 613 114 613 114 C613 114 460 635 460 635 C460 635 443 635 443 635 C443 635 309 103 309 103 C309 103 177 726 177 726 C173 761 191 786 221 786 C221 786 231 786 231 786 C231 786 231 798 231 798 C231 798 162 798 162 798 C162 798 123 798 123 798 C123 798 85 798 85 798 C85 798 42 798 42 798 C42 798 42 786 42 786 C42 786 49 786 49 786 C70 786 95 758 103 721 C103 721 103 721 103 721 C103 721 279 -15 279 -15 C279 -15 297 -15 297 -15 C297 -15 460 635 460 635 C460 635 427 502 427 502 C427 502 587 -15 587 -15 C587 -15 605 -15 605 -15 C605 -15 756 728 756 728 C766 762 791 786 816 786 C816 786 825 786 825 786 C825 786 825 798 825 798 L825 798 Z " />
<glyph glyph-name="X" unicode="X" horiz-adv-x="588" d="M526 798 C526 798 474 798 474 798 C474 798 462 798 462 798 C462 798 451 798 451 798 C451 798 367 798 367 798 C367 798 367 786 367 786 C367 786 381 786 381 786 C417 786 434 758 418 721 C418 721 418 721 418 721 C418 721 307 459 307 459 C307 459 188 722 188 722 C172 758 186 786 219 786 C219 786 230 786 230 786 C230 786 230 798 230 798 C230 798 153 798 153 798 C153 798 114 798 114 798 C114 798 74 798 74 798 C74 798 37 798 37 798 C37 798 37 786 37 786 C37 786 43 786 43 786 C63 786 92 758 108 721 C108 721 109 721 109 721 C109 721 260 388 260 388 C260 388 124 65 124 65 C106 34 76 11 52 11 C52 11 44 11 44 11 C44 11 44 0 44 0 C44 0 96 0 96 0 C96 0 107 0 107 0 C107 0 118 0 118 0 C118 0 202 0 202 0 C202 0 202 11 202 11 C202 11 190 11 190 11 C154 11 139 43 152 84 C152 84 269 368 269 368 C269 368 405 68 405 68 C416 36 402 11 370 11 C370 11 360 11 360 11 C360 11 360 0 360 0 C360 0 436 0 436 0 C436 0 476 0 476 0 C476 0 516 0 516 0 C516 0 553 0 553 0 C553 0 553 11 553 11 C553 11 547 11 547 11 C529 11 503 36 485 68 C485 68 316 440 316 440 C316 440 316 440 316 440 C316 440 443 728 443 728 C459 761 492 786 517 786 C517 786 526 786 526 786 C526 786 526 798 526 798 L526 798 Z " />
<glyph glyph-name="Y" unicode="Y" horiz-adv-x="554" d="M379 11 C379 11 370 11 370 11 C344 11 323 38 322 71 C322 71 322 76 322 76 C322 76 322 367 322 367 C322 367 322 367 322 367 C322 367 471 721 471 721 C471 721 471 721 471 721 C486 758 517 786 540 786 C540 786 548 786 548 786 C548 786 548 798 548 798 C548 798 503 798 503 798 C503 798 492 798 492 798 C492 798 482 798 482 798 C482 798 398 798 398 798 C398 798 398 786 398 786 C398 786 410 786 410 786 C446 786 460 752 444 706 C444 706 307 375 307 375 C307 375 182 721 182 721 C182 721 182 721 182 721 C169 758 183 786 214 786 C214 786 223 786 223 786 C224 786 224 789 223 792 C224 795 224 798 223 798 C223 798 154 798 154 798 C154 798 112 798 112 798 C112 798 71 798 71 798 C71 798 33 798 33 798 C33 798 33 786 33 786 C33 786 39 786 39 786 C59 786 86 758 100 721 C100 721 101 721 101 721 C101 721 252 328 252 328 C252 328 252 76 252 76 C252 40 230 11 203 11 C203 11 194 11 194 11 C194 11 194 0 194 0 C194 0 252 0 252 0 C252 0 287 0 287 0 C287 0 322 0 322 0 C322 0 379 0 379 0 C379 0 379 11 379 11 L379 11 Z " />
<glyph glyph-name="Z" unicode="Z" horiz-adv-x="523" d="M450 9 C456 42 465 95 470 127 C470 127 470 128 468 128 C462 131 457 133 457 133 C457 133 447 108 447 108 C426 58 369 18 319 18 C319 18 135 18 135 18 C135 18 466 798 466 798 C466 798 426 798 426 798 C426 798 386 798 386 798 C386 798 188 798 188 798 C188 798 128 798 128 798 C128 798 112 798 112 798 C112 798 109 789 109 789 C102 761 90 716 82 688 C82 688 91 688 91 688 C91 688 101 702 101 702 C129 745 188 780 233 780 C233 780 378 780 378 780 C378 780 48 0 48 0 C48 0 88 0 88 0 C88 0 127 0 127 0 C127 0 372 0 372 0 C372 0 446 0 446 0 C446 0 448 0 448 0 C449 3 449 7 450 9 L450 9 Z " />
<glyph glyph-name="bracketleft" unicode="&#x5b;" horiz-adv-x="238" d="M124 784 C124 784 229 784 229 784 C229 784 229 798 229 798 C229 798 124 798 124 798 C124 798 75 798 75 798 C75 798 75 -120 75 -120 C75 -120 124 -120 124 -120 C124 -120 229 -120 229 -120 C229 -120 229 -106 229 -106 C229 -106 124 -106 124 -106 C124 -106 124 784 124 784 L124 784 Z " />
<glyph glyph-name="backslash" unicode="&#x5c;" horiz-adv-x="233" d="M212 -145 C212 -145 234 -145 234 -145 C234 -145 -38 848 -38 848 C-38 848 -60 848 -60 848 C-60 848 212 -145 212 -145 L212 -145 Z " />
<glyph glyph-name="bracketright" unicode="&#x5d;" horiz-adv-x="228" d="M110 784 C110 784 110 -106 110 -106 C110 -106 5 -106 5 -106 C5 -106 5 -120 5 -120 C5 -120 110 -120 110 -120 C110 -120 159 -120 159 -120 C159 -120 159 798 159 798 C159 798 110 798 110 798 C110 798 5 798 5 798 C5 798 5 784 5 784 C5 784 110 784 110 784 L110 784 Z " />
<glyph glyph-name="underscore" unicode="&#x5f;" horiz-adv-x="311" d="M5 -50 C5 -50 5 -85 5 -85 C5 -85 306 -85 306 -85 C306 -85 306 -50 306 -50 C306 -50 5 -50 5 -50 L5 -50 Z " />
<glyph glyph-name="a" unicode="a" horiz-adv-x="424" d="M403 38 C392 28 375 20 352 20 C324 20 313 47 313 80 C313 80 313 496 313 496 C313 578 268 643 213 643 C140 643 73 597 62 540 C62 540 125 540 125 540 C134 587 167 625 199 625 C226 625 247 574 247 510 C247 510 247 313 247 313 C247 313 172 303 172 303 C97 293 36 217 36 132 C36 56 75 -5 124 -5 C157 -5 207 21 248 59 C251 20 269 -10 309 -10 C353 -10 388 8 410 30 C410 30 403 38 403 38 L403 38 Z M247 297 C247 297 247 74 247 74 C218 53 183 38 154 38 C123 38 98 88 98 150 C98 217 132 276 173 283 C173 283 247 297 247 297 L247 297 Z " />
<glyph glyph-name="b" unicode="b" horiz-adv-x="518" d="M26 819 C69 809 84 798 84 742 C84 742 84 0 84 0 C84 0 91 0 91 0 C91 1 92 2 92 3 C98 19 113 33 126 33 C166 33 205 -5 259 -5 C373 -5 464 141 464 323 C464 501 386 643 289 643 C256 643 193 623 147 598 C147 598 147 759 147 759 C147 759 147 842 147 842 C147 842 147 858 147 858 C147 858 134 858 134 858 C134 858 26 826 26 826 C26 826 26 819 26 819 L26 819 Z M147 588 C175 603 217 615 241 615 C328 615 397 473 397 295 C397 138 336 12 259 12 C197 12 147 87 147 181 C147 181 147 588 147 588 L147 588 Z " />
<glyph glyph-name="c" unicode="c" horiz-adv-x="427" d="M369 48 C369 48 364 55 364 55 C349 43 304 33 262 33 C182 33 117 162 117 324 C117 491 174 625 246 625 C277 625 306 578 312 520 C313 503 327 489 343 489 C359 489 371 501 371 516 C365 587 312 643 253 643 C140 643 50 491 50 300 C50 131 121 -5 210 -5 C263 -5 334 19 369 48 L369 48 Z " />
<glyph glyph-name="d" unicode="d" horiz-adv-x="521" d="M469 39 C429 48 413 58 412 105 C412 105 412 116 412 116 C412 116 412 759 412 759 C412 759 412 842 412 842 C412 842 412 858 412 858 C412 858 399 858 399 858 C399 858 291 826 291 826 C291 826 291 819 291 819 C334 809 349 798 349 742 C349 742 349 583 349 583 C320 617 274 643 232 643 C127 643 42 485 42 287 C42 125 116 -5 208 -5 C252 -5 313 19 349 50 C349 50 349 16 349 16 C349 16 349 0 349 0 C349 0 361 0 361 0 C361 0 469 32 469 32 C469 32 469 39 469 39 L469 39 Z M349 99 C349 99 349 59 349 59 C331 45 285 33 242 33 C167 33 107 157 107 311 C107 486 161 626 229 626 C275 626 326 592 349 554 C349 554 349 99 349 99 L349 99 Z " />
<glyph glyph-name="e" unicode="e" horiz-adv-x="427" d="M376 48 C376 48 370 55 370 55 C356 43 309 33 266 33 C183 33 117 162 117 324 C117 360 119 395 124 427 C124 427 377 427 377 427 C377 547 312 643 232 643 C131 643 50 491 50 300 C50 131 122 -5 213 -5 C268 -5 340 19 376 48 L376 48 Z M125 439 C142 549 182 625 228 625 C279 625 319 560 319 479 C319 478 319 478 319 477 C318 463 308 452 294 449 C294 449 125 439 125 439 L125 439 Z M290 448 C289 448 289 448 289 448 C289 448 290 448 290 448 L290 448 Z " />
<glyph glyph-name="f" unicode="f" horiz-adv-x="307" d="M205 11 C205 11 197 11 197 11 C169 11 148 40 148 76 C148 76 148 613 148 613 C148 613 240 613 240 613 C240 613 240 638 240 638 C240 638 148 638 148 638 C148 638 148 677 148 677 C148 770 181 844 222 844 C241 844 258 819 261 787 C262 772 276 759 293 759 C308 759 320 772 320 787 C317 827 281 858 239 858 C161 858 94 784 88 691 C88 691 85 638 85 638 C85 638 27 638 27 638 C27 638 27 613 27 613 C27 613 85 613 85 613 C85 613 85 76 85 76 C85 40 63 11 36 11 C36 11 27 11 27 11 C27 11 27 0 27 0 C27 0 85 0 85 0 C85 0 116 0 116 0 C116 0 148 0 148 0 C148 0 205 0 205 0 C205 0 205 11 205 11 L205 11 Z " />
<glyph glyph-name="g" unicode="g" horiz-adv-x="405" d="M406 638 C406 638 268 627 268 627 C251 637 231 643 211 643 C130 643 66 556 66 446 C66 359 107 285 165 260 C100 256 49 211 49 155 C49 103 86 61 139 51 C74 18 25 -46 25 -97 C25 -176 81 -239 152 -239 C282 -239 386 -143 386 -23 C386 51 315 111 226 111 C226 111 168 108 168 108 C126 106 92 137 92 179 C92 219 128 250 173 250 C173 250 211 250 211 250 C291 250 355 337 355 446 C355 510 333 566 299 602 C299 602 406 603 406 603 C406 603 406 638 406 638 L406 638 Z M126 446 C126 548 164 629 211 629 C258 629 296 548 296 446 C296 345 258 264 211 264 C164 264 126 345 126 446 L126 446 Z M154 49 C160 49 166 49 172 49 C172 49 209 52 209 52 C282 52 340 5 340 -55 C340 -148 260 -222 159 -222 C107 -222 66 -163 66 -90 C66 -35 105 25 154 49 C154 49 154 49 154 49 L154 49 Z " />
<glyph glyph-name="h" unicode="h" horiz-adv-x="524" d="M307 0 C307 0 364 0 364 0 C364 0 396 0 396 0 C396 0 427 0 427 0 C427 0 485 0 485 0 C484 0 484 3 485 6 C484 9 484 11 485 11 C485 11 476 11 476 11 C449 11 427 40 427 76 C427 76 427 474 427 474 C427 568 394 643 328 643 C305 643 234 615 165 579 C165 579 165 759 165 759 C165 759 165 842 165 842 C165 842 165 858 165 858 C165 858 152 858 152 858 C152 858 45 826 45 826 C45 826 45 819 45 819 C87 808 102 798 102 742 C102 742 102 76 102 76 C102 40 80 11 53 11 C53 11 45 11 45 11 C45 11 45 0 45 0 C45 0 102 0 102 0 C102 0 134 0 134 0 C134 0 165 0 165 0 C165 0 223 0 223 0 C222 0 222 3 223 6 C222 9 222 11 223 11 C223 11 214 11 214 11 C187 11 165 40 165 76 C165 76 165 572 165 572 C199 588 248 601 279 601 C336 601 364 542 364 468 C364 468 364 76 364 76 C364 40 342 11 315 11 C315 11 307 11 307 11 C307 11 307 0 307 0 L307 0 Z " />
<glyph glyph-name="i" unicode="i" horiz-adv-x="267" d="M45 599 C87 590 102 578 102 522 C102 522 102 76 102 76 C102 40 80 11 54 11 C54 11 45 11 45 11 C45 11 45 0 45 0 C45 0 102 0 102 0 C102 0 134 0 134 0 C134 0 165 0 165 0 C165 0 223 0 223 0 C223 0 223 11 223 11 C223 11 214 11 214 11 C187 11 166 40 165 76 C165 76 165 539 165 539 C165 539 165 622 165 622 C165 622 165 638 165 638 C165 638 153 638 153 638 C153 638 45 606 45 606 C45 606 45 599 45 599 L45 599 Z M130 708 C154 708 172 727 172 750 C172 773 154 792 130 792 C107 792 89 773 89 750 C89 727 107 708 130 708 L130 708 Z " />
<glyph glyph-name="j" unicode="j" horiz-adv-x="255" d="M32 599 C73 590 88 579 90 531 C90 531 89 6 89 6 C89 -138 66 -193 15 -225 C15 -225 21 -233 21 -233 C113 -176 153 -112 153 24 C153 24 153 539 153 539 C153 539 153 622 153 622 C153 622 153 638 153 638 C153 638 140 638 140 638 C140 638 32 606 32 606 C32 606 32 599 32 599 L32 599 Z M118 708 C141 708 160 727 160 750 C160 773 141 792 118 792 C95 792 76 773 76 750 C76 727 95 708 118 708 L118 708 Z " />
<glyph glyph-name="k" unicode="k" horiz-adv-x="452" d="M486 11 C486 11 477 11 477 11 C450 11 412 40 392 76 C392 76 392 76 392 76 C392 76 212 393 212 393 C212 393 330 561 330 561 C330 561 330 561 330 561 C355 598 397 626 425 626 C425 626 433 626 433 626 C433 626 433 638 433 638 C433 638 384 638 384 638 C384 638 370 638 370 638 C370 638 356 638 356 638 C356 638 298 638 298 638 C298 638 298 626 298 626 C298 626 306 626 306 626 C329 626 330 598 306 561 C306 561 306 561 306 561 C306 561 171 351 171 351 C171 351 171 759 171 759 C171 759 171 842 171 842 C171 842 171 858 171 858 C171 858 158 858 158 858 C158 858 50 826 50 826 C50 826 50 819 50 819 C93 809 108 798 108 742 C108 742 108 76 108 76 C108 40 86 11 59 11 C59 11 50 11 50 11 C50 11 50 0 50 0 C50 0 108 0 108 0 C108 0 139 0 139 0 C139 0 171 0 171 0 C171 0 228 0 228 0 C228 0 228 11 228 11 C228 11 220 11 220 11 C193 11 172 38 171 71 C171 71 171 76 171 76 C171 76 171 351 171 351 C171 351 317 76 317 76 C317 76 316 76 316 76 C335 40 331 11 307 11 C307 11 299 11 299 11 C299 11 299 0 299 0 C299 0 357 0 357 0 C357 0 396 0 396 0 C396 0 435 0 435 0 C435 0 486 0 486 0 C486 0 486 11 486 11 L486 11 Z " />
<glyph glyph-name="l" unicode="l" horiz-adv-x="267" d="M45 819 C87 810 102 798 102 742 C102 742 102 76 102 76 C102 40 80 11 54 11 C54 11 45 11 45 11 C45 11 45 0 45 0 C45 0 102 0 102 0 C102 0 134 0 134 0 C134 0 165 0 165 0 C165 0 223 0 223 0 C223 0 223 11 223 11 C223 11 214 11 214 11 C187 11 166 40 165 76 C165 76 165 759 165 759 C165 759 165 842 165 842 C165 842 165 858 165 858 C165 858 153 858 153 858 C153 858 45 826 45 826 C45 826 45 819 45 819 L45 819 Z " />
<glyph glyph-name="m" unicode="m" horiz-adv-x="806" d="M589 0 C589 0 646 0 646 0 C646 0 678 0 678 0 C678 0 709 0 709 0 C709 0 767 0 767 0 C766 0 766 3 767 6 C766 9 766 11 767 11 C767 11 758 11 758 11 C731 11 709 40 709 76 C709 76 709 474 709 474 C709 568 658 643 601 643 C585 643 507 607 421 562 C403 611 369 643 334 643 C306 643 234 615 165 579 C165 579 165 638 165 638 C165 638 152 638 152 638 C152 638 45 606 45 606 C45 606 45 599 45 599 C87 588 102 578 102 522 C102 522 102 76 102 76 C102 40 80 11 53 11 C53 11 45 11 45 11 C45 11 45 0 45 0 C45 0 102 0 102 0 C102 0 134 0 134 0 C134 0 165 0 165 0 C165 0 223 0 223 0 C222 0 222 3 223 6 C222 9 222 11 223 11 C223 11 214 11 214 11 C187 11 165 40 165 76 C165 76 165 539 165 539 C165 539 165 545 165 545 C165 545 165 571 165 571 C203 590 252 605 285 605 C332 605 374 544 374 468 C374 468 374 76 374 76 C374 40 352 11 325 11 C325 11 317 11 317 11 C317 11 317 0 317 0 C317 0 374 0 374 0 C374 0 406 0 406 0 C406 0 437 0 437 0 C437 0 495 0 495 0 C494 0 494 3 495 6 C494 9 494 11 495 11 C495 11 486 11 486 11 C459 11 437 40 437 76 C437 76 437 474 437 474 C437 503 432 529 425 553 C476 580 531 601 553 601 C602 601 646 542 646 468 C646 468 646 76 646 76 C646 40 624 11 597 11 C597 11 589 11 589 11 C589 11 589 0 589 0 L589 0 Z " />
<glyph glyph-name="n" unicode="n" horiz-adv-x="504" d="M307 0 C307 0 364 0 364 0 C364 0 396 0 396 0 C396 0 427 0 427 0 C427 0 485 0 485 0 C484 0 484 3 485 6 C484 9 484 11 485 11 C485 11 476 11 476 11 C449 11 427 40 427 76 C427 76 427 474 427 474 C427 568 394 643 328 643 C305 643 234 615 165 579 C165 579 165 638 165 638 C165 638 152 638 152 638 C152 638 45 606 45 606 C45 606 45 599 45 599 C87 588 102 578 102 522 C102 522 102 76 102 76 C102 40 80 11 53 11 C53 11 45 11 45 11 C45 11 45 0 45 0 C45 0 102 0 102 0 C102 0 134 0 134 0 C134 0 165 0 165 0 C165 0 223 0 223 0 C222 0 222 3 223 6 C222 9 222 11 223 11 C223 11 214 11 214 11 C187 11 165 40 165 76 C165 76 165 539 165 539 C165 539 165 545 165 545 C165 545 165 572 165 572 C199 588 248 601 279 601 C336 601 364 542 364 468 C364 468 364 76 364 76 C364 40 342 11 315 11 C315 11 307 11 307 11 C307 11 307 0 307 0 L307 0 Z " />
<glyph glyph-name="o" unicode="o" horiz-adv-x="514" d="M264 9 C184 9 120 147 120 319 C120 491 184 629 264 629 C345 629 409 491 409 319 C409 147 345 9 264 9 L264 9 Z M50 319 C50 139 145 -5 264 -5 C384 -5 479 139 479 319 C479 499 384 643 264 643 C145 643 50 499 50 319 L50 319 Z " />
<glyph glyph-name="p" unicode="p" horiz-adv-x="534" d="M45 599 C87 588 102 578 102 522 C102 522 102 -154 102 -154 C102 -190 80 -219 53 -219 C53 -219 45 -219 45 -219 C45 -219 45 -230 45 -230 C45 -230 102 -230 102 -230 C102 -230 134 -230 134 -230 C134 -230 165 -230 165 -230 C165 -230 223 -230 223 -230 C222 -230 222 -227 223 -224 C222 -221 222 -219 223 -219 C223 -219 214 -219 214 -219 C187 -219 165 -190 165 -154 C165 -154 165 39 165 39 C196 12 238 -5 284 -5 C404 -5 500 145 500 333 C500 505 424 643 329 643 C277 643 205 607 163 562 C163 562 156 638 156 638 C156 638 144 638 144 638 C144 638 45 606 45 606 C45 606 45 599 45 599 L45 599 Z M164 551 C192 579 242 601 280 601 C368 601 438 460 438 284 C438 133 370 12 284 12 C224 12 171 67 165 135 C165 135 165 539 165 539 C165 539 165 545 165 545 C165 545 164 545 164 545 C164 545 164 551 164 551 L164 551 Z " />
<glyph glyph-name="q" unicode="q" horiz-adv-x="513" d="M468 -219 C468 -219 459 -219 459 -219 C433 -219 412 -192 411 -159 C411 -159 411 -154 411 -154 C411 -154 411 638 411 638 C411 638 404 638 404 638 C398 620 378 605 359 605 C321 605 286 643 235 643 C128 643 42 485 42 287 C42 125 112 -5 200 -5 C246 -5 309 21 348 56 C348 56 348 -154 348 -154 C348 -190 326 -219 299 -219 C299 -219 290 -219 290 -219 C290 -219 290 -230 290 -230 C290 -230 348 -230 348 -230 C348 -230 379 -230 379 -230 C379 -230 411 -230 411 -230 C411 -230 468 -230 468 -230 C468 -230 468 -219 468 -219 L468 -219 Z M348 67 C327 48 278 33 234 33 C164 33 107 157 107 311 C107 486 164 625 235 625 C298 625 348 550 348 457 C348 457 348 67 348 67 L348 67 Z " />
<glyph glyph-name="r" unicode="r" horiz-adv-x="347" d="M45 599 C87 588 102 578 102 522 C102 522 102 76 102 76 C102 40 80 11 53 11 C53 11 45 11 45 11 C45 11 45 0 45 0 C45 0 102 0 102 0 C102 0 134 0 134 0 C134 0 165 0 165 0 C165 0 223 0 223 0 C222 0 222 3 223 6 C222 9 222 11 223 11 C223 11 214 11 214 11 C187 11 165 40 165 76 C165 76 165 539 165 539 C165 539 165 545 165 545 C165 545 164 545 164 545 C164 545 164 555 164 555 C184 578 209 596 224 596 C249 596 282 570 307 570 C324 570 338 583 338 600 C338 624 317 643 274 643 C248 643 199 608 163 563 C163 563 156 638 156 638 C156 638 144 638 144 638 C144 638 45 606 45 606 C45 606 45 599 45 599 L45 599 Z " />
<glyph glyph-name="s" unicode="s" horiz-adv-x="358" d="M47 118 C47 118 47 33 47 33 C84 12 140 -5 174 -5 C248 -5 308 75 308 174 C308 226 265 301 212 341 C156 384 111 456 111 503 C111 573 145 629 188 629 C188 629 189 629 190 628 C190 628 190 628 190 628 C190 628 191 628 191 628 C193 626 196 625 200 623 C232 603 262 568 271 540 C272 535 274 527 276 523 C276 523 285 523 285 523 C285 523 285 600 285 600 C285 600 280 590 280 590 C280 590 280 590 280 590 C280 590 285 600 285 600 C243 624 200 643 188 643 C118 643 62 571 62 482 C62 423 109 341 167 297 C217 259 256 194 256 151 C256 72 221 9 177 9 C171 9 163 10 154 12 C117 23 80 57 64 97 C62 103 58 112 56 118 C56 118 47 118 47 118 L47 118 Z " />
<glyph glyph-name="t" unicode="t" horiz-adv-x="314" d="M283 638 C283 638 148 638 148 638 C148 638 148 805 148 805 C148 805 138 805 138 805 C138 805 90 629 90 629 C90 629 90 629 89 629 C89 629 116 728 116 728 C101 673 61 626 25 620 C25 620 25 613 25 613 C25 613 85 613 85 613 C85 613 85 143 85 143 C85 36 108 -5 167 -5 C217 -5 262 17 294 44 C294 44 290 49 290 49 C273 35 242 23 198 23 C162 23 148 53 148 132 C148 132 148 613 148 613 C148 613 283 613 283 613 C283 613 283 638 283 638 L283 638 Z M116 728 C116 728 117 730 117 730 C117 729 117 729 116 728 L116 728 Z " />
<glyph glyph-name="u" unicode="u" horiz-adv-x="476" d="M277 626 C277 626 285 626 285 626 C312 626 334 598 334 561 C334 561 334 99 334 99 C334 99 334 66 334 66 C315 49 282 36 241 36 C176 36 135 92 135 162 C135 162 135 638 135 638 C135 638 104 638 104 638 C104 638 72 638 72 638 C72 638 15 638 15 638 C15 638 15 626 15 626 C15 626 23 626 23 626 C50 626 72 598 72 561 C72 561 72 155 72 155 C72 66 118 -5 192 -5 C243 -5 296 22 334 56 C334 56 334 16 334 16 C334 16 334 0 334 0 C334 0 347 0 347 0 C347 0 455 32 455 32 C454 32 454 32 455 33 C454 36 454 39 455 39 C412 49 397 60 397 116 C397 116 397 638 397 638 C397 638 366 638 366 638 C366 638 334 638 334 638 C334 638 277 638 277 638 C277 638 277 626 277 626 L277 626 Z " />
<glyph glyph-name="v" unicode="v" horiz-adv-x="475" d="M180 638 C180 638 122 638 122 638 C122 638 86 638 86 638 C86 638 50 638 50 638 C50 638 -4 638 -4 638 C-4 638 -4 626 -4 626 C-4 626 5 626 5 626 C29 626 57 601 68 568 C68 568 217 -10 217 -10 C217 -10 227 -10 227 -10 C227 -10 375 567 375 567 C386 601 413 626 439 626 C439 626 447 626 447 626 C448 626 448 629 447 632 C448 635 448 638 447 638 C447 638 393 638 393 638 C393 638 382 638 382 638 C382 638 372 638 372 638 C372 638 314 638 314 638 C315 638 315 635 314 632 C315 629 315 626 314 626 C314 626 323 626 323 626 C346 626 360 602 355 568 C355 568 243 97 243 97 C243 97 138 566 138 566 C132 600 147 626 172 626 C172 626 180 626 180 626 C180 626 180 638 180 638 L180 638 Z " />
<glyph glyph-name="w" unicode="w" horiz-adv-x="687" d="M661 638 C661 638 618 638 618 638 C618 638 597 638 597 638 C597 638 517 638 517 638 C517 638 517 626 517 626 C517 626 533 626 533 626 C565 626 588 608 575 548 C575 548 468 99 468 99 C468 99 364 568 364 568 C356 613 377 626 405 626 C405 626 421 626 421 626 C421 626 421 638 421 638 C421 638 348 638 348 638 C348 638 276 638 276 638 C276 638 237 638 237 638 C237 638 237 626 237 626 C237 626 251 626 251 626 C265 626 281 611 296 558 C296 558 328 435 328 435 C328 435 259 97 259 97 C259 97 161 552 161 552 C161 552 161 552 161 552 C146 610 165 626 194 626 C194 626 209 626 209 626 C209 626 209 638 209 638 C209 638 142 638 142 638 C142 638 70 638 70 638 C70 638 27 638 27 638 C27 638 27 626 27 626 C27 626 42 626 42 626 C59 626 76 610 92 553 C92 553 237 -10 237 -10 C237 -10 247 -10 247 -10 C247 -10 336 406 336 406 C336 406 442 -10 442 -10 C442 -10 453 -10 453 -10 C453 -10 595 546 595 546 C595 546 595 546 595 546 C610 608 629 626 647 626 C647 626 661 626 661 626 C661 626 661 638 661 638 L661 638 Z " />
<glyph glyph-name="x" unicode="x" horiz-adv-x="486" d="M434 638 C434 638 381 638 381 638 C381 638 373 638 373 638 C373 638 364 638 364 638 C364 638 287 638 287 638 C287 638 287 626 287 626 C287 626 298 626 298 626 C329 626 344 602 333 570 C333 570 256 397 256 397 C256 397 181 561 181 561 C164 598 175 626 206 626 C206 626 215 626 215 626 C215 626 215 638 215 638 C215 638 146 638 146 638 C146 638 108 638 108 638 C108 638 69 638 69 638 C69 638 28 638 28 638 C29 638 29 635 28 632 C29 629 29 626 28 626 C28 626 35 626 35 626 C57 626 88 598 104 561 C104 561 104 561 104 561 C104 561 215 318 215 318 C215 318 112 76 112 76 C112 76 112 76 112 76 C97 40 60 11 29 11 C29 11 20 11 20 11 C20 11 20 0 20 0 C20 0 80 0 80 0 C80 0 89 0 89 0 C89 0 97 0 97 0 C97 0 189 0 189 0 C189 0 189 11 189 11 C189 11 167 11 167 11 C131 11 114 40 129 76 C129 76 129 76 129 76 C129 76 222 301 222 301 C222 301 325 76 325 76 C325 76 325 76 325 76 C341 40 334 11 310 11 C310 11 302 11 302 11 C302 11 302 0 302 0 C302 0 360 0 360 0 C360 0 398 0 398 0 C398 0 436 0 436 0 C436 0 470 0 470 0 C470 0 470 11 470 11 C470 11 464 11 464 11 C446 11 418 40 402 76 C402 76 401 76 401 76 C401 76 261 384 261 384 C261 384 345 561 345 561 C345 561 345 561 345 561 C362 598 398 626 425 626 C425 626 434 626 434 626 C434 626 434 638 434 638 L434 638 Z " />
<glyph glyph-name="y" unicode="y" horiz-adv-x="483" d="M200 638 C200 638 142 638 142 638 C142 638 106 638 106 638 C106 638 70 638 70 638 C70 638 16 638 16 638 C16 638 16 626 16 626 C16 626 25 626 25 626 C49 626 77 601 88 568 C88 568 235 -1 235 -1 C235 -1 215 -66 215 -66 C194 -148 168 -189 136 -189 C116 -189 93 -164 73 -164 C56 -164 42 -176 42 -191 C42 -213 67 -230 97 -230 C160 -230 204 -177 231 -72 C231 -72 247 -10 247 -10 C247 -10 395 567 395 567 C406 601 433 626 459 626 C459 626 467 626 467 626 C468 626 468 629 467 632 C468 635 468 638 467 638 C467 638 413 638 413 638 C413 638 402 638 402 638 C402 638 392 638 392 638 C392 638 334 638 334 638 C335 638 335 635 334 632 C335 629 335 626 334 626 C334 626 343 626 343 626 C366 626 380 602 375 568 C375 568 263 97 263 97 C263 97 158 566 158 566 C152 600 167 626 192 626 C192 626 200 626 200 626 C200 626 200 638 200 638 L200 638 Z " />
<glyph glyph-name="z" unicode="z" horiz-adv-x="419" d="M192 623 C192 623 192 623 192 623 C192 623 292 624 292 624 C292 624 52 0 52 0 C52 0 90 0 90 0 C90 0 127 0 127 0 C127 0 278 0 278 0 C278 0 352 0 352 0 C352 0 355 0 355 0 C355 2 356 5 356 7 C362 39 371 91 377 123 C377 123 376 124 374 124 C368 127 363 129 363 129 C363 129 353 104 353 104 C332 54 275 14 225 14 C225 14 132 14 132 14 C132 14 370 638 370 638 C370 638 334 638 334 638 C334 638 297 638 297 638 C297 638 147 638 147 638 C147 638 87 638 87 638 C87 638 71 638 71 638 C70 636 69 633 69 630 C63 609 54 575 48 554 C48 554 57 554 57 554 C57 554 66 564 66 564 C91 597 148 623 192 623 L192 623 Z " />
<glyph glyph-name="braceleft" unicode="&#x7b;" horiz-adv-x="201" d="M186 -120 C186 -120 186 -110 186 -110 C186 -110 160 -110 160 -110 C122 -109 91 -69 91 -18 C91 -18 91 236 91 236 C91 288 67 332 33 339 C67 350 91 403 91 469 C91 469 91 696 91 696 C91 747 122 788 160 787 C160 787 186 787 186 787 C186 787 186 798 186 798 C186 798 146 798 146 798 C88 798 42 752 42 696 C42 696 42 434 42 434 C42 384 27 344 8 344 C8 344 5 344 5 344 C5 344 5 334 5 334 C5 334 8 334 8 334 C27 334 42 306 42 270 C42 270 42 -18 42 -18 C42 -75 88 -120 146 -120 C146 -120 186 -120 186 -120 L186 -120 Z " />
<glyph glyph-name="bar" unicode="&#x7c;" horiz-adv-x="168" d="M60 908 C60 908 60 -234 60 -234 C60 -234 109 -234 109 -234 C109 -234 109 908 109 908 C109 908 60 908 60 908 L60 908 Z " />
<glyph glyph-name="braceright" unicode="&#x7d;" horiz-adv-x="201" d="M5 798 C5 798 5 787 5 787 C5 787 31 787 31 787 C69 787 100 746 100 696 C100 696 100 442 100 442 C100 390 125 346 158 338 C125 328 100 275 100 209 C100 209 100 -18 100 -18 C100 -69 69 -110 31 -110 C31 -110 5 -110 5 -110 C5 -110 5 -120 5 -120 C5 -120 45 -120 45 -120 C103 -120 149 -75 149 -18 C149 -18 149 244 149 244 C149 294 164 334 183 334 C183 334 186 334 186 334 C186 334 186 344 186 344 C186 344 183 344 183 344 C164 344 149 372 149 407 C149 407 149 696 149 696 C149 753 103 798 45 798 C45 798 5 798 5 798 L5 798 Z " />
<glyph glyph-name="[namenotfound]" unicode="&#xa0;" horiz-adv-x="149" d="" />
<glyph glyph-name="exclamdown" unicode="&#xa1;" horiz-adv-x="199" d="M94 643 C69 643 49 623 49 597 C49 572 69 552 94 552 C119 552 140 572 140 597 C140 623 119 643 94 643 L94 643 Z M60 -118 C59 -144 76 -165 98 -165 C121 -165 138 -144 137 -118 C137 -118 98 477 98 477 C98 477 90 477 90 477 C90 477 60 -118 60 -118 L60 -118 Z " />
<glyph glyph-name="cent" unicode="&#xa2;" horiz-adv-x="420" d="M228 713 C228 713 228 640 228 640 C127 620 50 477 50 300 C50 131 121 -5 210 -5 C216 -5 222 -5 228 -4 C228 -4 228 -75 228 -75 C228 -75 249 -75 249 -75 C249 -75 249 -1 249 -1 C294 6 342 26 369 48 C369 48 364 55 364 55 C349 43 304 33 262 33 C258 33 253 33 249 34 C249 34 249 625 249 625 C279 622 306 576 312 520 C313 503 327 489 343 489 C359 489 371 501 371 516 C365 587 312 643 253 643 C252 643 250 643 249 643 C249 643 249 713 249 713 C249 713 228 713 228 713 L228 713 Z M228 41 C164 71 117 186 117 324 C117 477 165 602 228 622 C228 622 228 41 228 41 L228 41 Z " />
<glyph glyph-name="guillemotleft" unicode="&#xab;" horiz-adv-x="345" d="M196 319 C196 319 299 596 299 596 C299 596 292 603 292 603 C292 603 137 322 137 322 C137 322 137 315 137 315 C137 315 293 35 293 35 C293 35 300 42 300 42 C300 42 196 319 196 319 L196 319 Z M79 319 C79 319 182 596 182 596 C182 596 175 603 175 603 C175 603 20 322 20 322 C20 322 20 315 20 315 C20 315 176 35 176 35 C176 35 183 42 183 42 C183 42 79 319 79 319 L79 319 Z " />
<glyph glyph-name="guillemotright" unicode="&#xbb;" horiz-adv-x="345" d="M150 319 C150 319 47 596 47 596 C47 596 54 603 54 603 C54 603 208 322 208 322 C208 322 208 315 208 315 C208 315 52 35 52 35 C52 35 45 42 45 42 C45 42 150 319 150 319 L150 319 Z M267 319 C267 319 164 596 164 596 C164 596 171 603 171 603 C171 603 325 322 325 322 C325 322 325 315 325 315 C325 315 169 35 169 35 C169 35 162 42 162 42 C162 42 267 319 267 319 L267 319 Z " />
<glyph glyph-name="questiondown" unicode="&#xbf;" horiz-adv-x="303" d="M183 643 C158 643 138 623 138 597 C138 572 158 552 183 552 C209 552 229 572 229 597 C229 623 209 643 183 643 L183 643 Z M202 203 C202 203 188 456 188 456 C188 456 179 456 179 456 C179 456 167 241 167 241 C167 241 132 241 132 241 C57 241 35 148 35 102 C35 -47 108 -165 200 -165 C235 -165 264 -136 264 -100 C264 -89 249 -80 231 -80 C210 -80 201 -116 180 -116 C108 -116 50 -22 49 95 C50 127 73 193 154 193 C154 193 189 193 189 193 C196 193 202 197 202 203 L202 203 Z " />
<glyph glyph-name="Agrave" unicode="&#xc0;" horiz-adv-x="556" d="M549 11 C549 11 541 11 541 11 C520 11 497 35 485 66 C485 66 275 816 275 816 C275 816 258 816 258 816 C258 816 241 747 241 747 C241 747 237 739 237 739 C237 739 238 735 238 735 C238 735 73 70 73 70 C63 37 36 11 10 11 C10 11 2 11 2 11 C2 11 2 0 2 0 C2 0 56 0 56 0 C56 0 68 0 68 0 C68 0 79 0 79 0 C79 0 164 0 164 0 C164 0 164 11 164 11 C164 11 151 11 151 11 C113 11 91 47 101 91 C101 91 101 91 101 91 C101 91 145 275 145 275 C145 275 356 275 356 275 C356 275 407 76 407 76 C407 76 407 76 407 76 C416 40 395 11 359 11 C359 11 345 11 345 11 C345 11 345 0 345 0 C345 0 427 0 427 0 C427 0 465 0 465 0 C465 0 503 0 503 0 C503 0 549 0 549 0 C549 0 549 11 549 11 L549 11 Z M257 982 C239 1012 223 1036 220 1036 C210 1036 184 1017 184 1010 C184 1005 202 982 225 957 C225 957 340 828 340 828 C340 828 347 834 347 834 C347 834 257 982 257 982 L257 982 Z M352 293 C352 293 149 293 149 293 C149 293 247 700 247 700 C247 700 352 293 352 293 L352 293 Z " />
<glyph glyph-name="Aacute" unicode="&#xc1;" horiz-adv-x="556" d="M204 828 C204 828 316 957 316 957 C338 983 356 1006 356 1010 C356 1017 330 1036 320 1036 C318 1036 302 1012 284 982 C284 982 197 834 197 834 C197 834 204 828 204 828 L204 828 Z M549 11 C549 11 541 11 541 11 C520 11 497 35 485 66 C485 66 275 816 275 816 C275 816 258 816 258 816 C258 816 241 747 241 747 C241 747 237 739 237 739 C237 739 238 735 238 735 C238 735 73 70 73 70 C63 37 36 11 10 11 C10 11 2 11 2 11 C2 11 2 0 2 0 C2 0 56 0 56 0 C56 0 68 0 68 0 C68 0 79 0 79 0 C79 0 164 0 164 0 C164 0 164 11 164 11 C164 11 151 11 151 11 C113 11 91 47 101 91 C101 91 101 91 101 91 C101 91 145 275 145 275 C145 275 356 275 356 275 C356 275 407 76 407 76 C407 76 407 76 407 76 C416 40 395 11 359 11 C359 11 345 11 345 11 C345 11 345 0 345 0 C345 0 427 0 427 0 C427 0 465 0 465 0 C465 0 503 0 503 0 C503 0 549 0 549 0 C549 0 549 11 549 11 L549 11 Z M352 293 C352 293 149 293 149 293 C149 293 247 700 247 700 C247 700 352 293 352 293 L352 293 Z " />
<glyph glyph-name="Acircumflex" unicode="&#xc2;" horiz-adv-x="556" d="M549 11 C549 11 541 11 541 11 C520 11 497 35 485 66 C485 66 275 816 275 816 C275 816 258 816 258 816 C258 816 241 747 241 747 C241 747 237 739 237 739 C237 739 238 735 238 735 C238 735 73 70 73 70 C63 37 36 11 10 11 C10 11 2 11 2 11 C2 11 2 0 2 0 C2 0 56 0 56 0 C56 0 68 0 68 0 C68 0 79 0 79 0 C79 0 164 0 164 0 C164 0 164 11 164 11 C164 11 151 11 151 11 C113 11 91 47 101 91 C101 91 101 91 101 91 C101 91 145 275 145 275 C145 275 356 275 356 275 C356 275 407 76 407 76 C407 76 407 76 407 76 C416 40 395 11 359 11 C359 11 345 11 345 11 C345 11 345 0 345 0 C345 0 427 0 427 0 C427 0 465 0 465 0 C465 0 503 0 503 0 C503 0 549 0 549 0 C549 0 549 11 549 11 L549 11 Z M266 976 C266 976 366 831 366 831 C366 831 372 836 372 836 C372 836 286 1025 286 1025 C284 1029 276 1042 266 1042 C256 1042 249 1030 246 1025 C246 1025 160 836 160 836 C160 836 167 831 167 831 C167 831 266 976 266 976 L266 976 Z M352 293 C352 293 149 293 149 293 C149 293 247 700 247 700 C247 700 352 293 352 293 L352 293 Z " />
<glyph glyph-name="Atilde" unicode="&#xc3;" horiz-adv-x="556" d="M170 893 C170 928 182 957 198 957 C240 957 276 895 318 895 C349 895 374 940 374 997 C374 997 363 997 363 997 C363 964 349 937 332 937 C289 937 254 999 211 999 C182 999 159 952 159 893 C159 893 170 893 170 893 L170 893 Z M549 11 C549 11 541 11 541 11 C520 11 497 35 485 66 C485 66 275 816 275 816 C275 816 258 816 258 816 C258 816 241 747 241 747 C241 747 237 739 237 739 C237 739 238 735 238 735 C238 735 73 70 73 70 C63 37 36 11 10 11 C10 11 2 11 2 11 C2 11 2 0 2 0 C2 0 56 0 56 0 C56 0 68 0 68 0 C68 0 79 0 79 0 C79 0 164 0 164 0 C164 0 164 11 164 11 C164 11 151 11 151 11 C113 11 91 47 101 91 C101 91 101 91 101 91 C101 91 145 275 145 275 C145 275 356 275 356 275 C356 275 407 76 407 76 C407 76 407 76 407 76 C416 40 395 11 359 11 C359 11 345 11 345 11 C345 11 345 0 345 0 C345 0 427 0 427 0 C427 0 465 0 465 0 C465 0 503 0 503 0 C503 0 549 0 549 0 C549 0 549 11 549 11 L549 11 Z M352 293 C352 293 149 293 149 293 C149 293 247 700 247 700 C247 700 352 293 352 293 L352 293 Z " />
<glyph glyph-name="Adieresis" unicode="&#xc4;" horiz-adv-x="556" d="M354 868 C375 868 392 885 392 906 C392 928 375 945 354 945 C333 945 316 928 316 906 C316 885 333 868 354 868 L354 868 Z M179 868 C200 868 217 885 217 906 C217 928 200 945 179 945 C157 945 140 928 140 906 C140 885 157 868 179 868 L179 868 Z M549 11 C549 11 541 11 541 11 C520 11 497 35 485 66 C485 66 275 816 275 816 C275 816 258 816 258 816 C258 816 241 747 241 747 C241 747 237 739 237 739 C237 739 238 735 238 735 C238 735 73 70 73 70 C63 37 36 11 10 11 C10 11 2 11 2 11 C2 11 2 0 2 0 C2 0 56 0 56 0 C56 0 68 0 68 0 C68 0 79 0 79 0 C79 0 164 0 164 0 C164 0 164 11 164 11 C164 11 151 11 151 11 C113 11 91 47 101 91 C101 91 101 91 101 91 C101 91 145 275 145 275 C145 275 356 275 356 275 C356 275 407 76 407 76 C407 76 407 76 407 76 C416 40 395 11 359 11 C359 11 345 11 345 11 C345 11 345 0 345 0 C345 0 427 0 427 0 C427 0 465 0 465 0 C465 0 503 0 503 0 C503 0 549 0 549 0 C549 0 549 11 549 11 L549 11 Z M352 293 C352 293 149 293 149 293 C149 293 247 700 247 700 C247 700 352 293 352 293 L352 293 Z " />
<glyph glyph-name="Aring" unicode="&#xc5;" horiz-adv-x="556" d="M266 847 C228 847 189 886 189 925 C189 969 223 1004 266 1004 C309 1004 343 969 343 925 C343 886 305 847 266 847 L266 847 Z M172 925 C172 879 219 833 266 833 C314 833 361 879 361 925 C361 977 319 1018 266 1018 C214 1018 172 977 172 925 L172 925 Z M549 11 C549 11 541 11 541 11 C520 11 497 35 485 66 C485 66 275 816 275 816 C275 816 258 816 258 816 C258 816 241 747 241 747 C241 747 237 739 237 739 C237 739 238 735 238 735 C238 735 73 70 73 70 C63 37 36 11 10 11 C10 11 2 11 2 11 C2 11 2 0 2 0 C2 0 56 0 56 0 C56 0 68 0 68 0 C68 0 79 0 79 0 C79 0 164 0 164 0 C164 0 164 11 164 11 C164 11 151 11 151 11 C113 11 91 47 101 91 C101 91 101 91 101 91 C101 91 145 275 145 275 C145 275 356 275 356 275 C356 275 407 76 407 76 C407 76 407 76 407 76 C416 40 395 11 359 11 C359 11 345 11 345 11 C345 11 345 0 345 0 C345 0 427 0 427 0 C427 0 465 0 465 0 C465 0 503 0 503 0 C503 0 549 0 549 0 C549 0 549 11 549 11 L549 11 Z M352 293 C352 293 149 293 149 293 C149 293 247 700 247 700 C247 700 352 293 352 293 L352 293 Z " />
<glyph glyph-name="Ccedilla" unicode="&#xc7;" horiz-adv-x="651" d="M591 630 C591 630 591 742 591 742 C591 742 587 734 587 734 C587 734 587 734 587 734 C587 734 591 742 591 742 C533 776 429 803 359 803 C192 803 58 623 58 399 C58 175 192 -5 359 -5 C429 -5 533 22 591 56 C591 56 587 64 587 64 C587 64 587 64 587 64 C587 64 591 56 591 56 C591 56 591 168 591 168 C591 168 581 168 581 168 C578 160 574 147 572 139 C550 76 467 20 384 14 C384 14 384 13 384 13 C375 12 367 12 359 12 C234 12 135 184 135 399 C135 613 234 785 359 785 C379 785 403 783 428 778 C489 765 552 713 572 659 C574 651 578 638 581 630 C581 630 591 630 591 630 L591 630 Z " />
<glyph glyph-name="Egrave" unicode="&#xc8;" horiz-adv-x="512" d="M350 336 C350 336 350 402 350 402 C350 402 350 410 350 410 C350 410 350 419 350 419 C350 419 350 476 350 476 C350 476 340 476 340 476 C340 476 338 468 338 468 C329 441 285 419 238 419 C238 419 167 419 167 419 C167 419 167 780 167 780 C167 780 271 780 271 780 C327 780 384 741 400 692 C400 692 405 677 405 677 C405 677 413 677 413 677 C413 677 413 789 413 789 C413 789 413 798 413 798 C413 798 405 798 405 798 C405 798 337 798 337 798 C337 798 167 798 167 798 C167 798 132 798 132 798 C132 798 97 798 97 798 C97 798 40 798 40 798 C40 798 40 786 40 786 C40 786 49 786 49 786 C75 786 97 758 97 721 C97 721 97 76 97 76 C97 40 75 11 49 11 C49 11 40 11 40 11 C40 11 40 0 40 0 C40 0 97 0 97 0 C97 0 132 0 132 0 C132 0 167 0 167 0 C167 0 341 0 341 0 C341 0 415 0 415 0 C415 0 417 0 417 0 C418 2 418 6 419 9 C424 40 433 90 438 121 C438 121 430 121 430 121 C430 121 422 105 422 105 C398 57 334 18 278 17 C278 17 167 17 167 17 C167 17 167 402 167 402 C167 402 238 402 238 402 C285 402 329 377 338 346 C338 346 340 336 340 336 C340 336 350 336 350 336 L350 336 Z M226 982 C209 1012 192 1036 189 1036 C179 1036 153 1017 153 1010 C152 1005 171 982 194 957 C194 957 309 828 309 828 C309 828 316 834 316 834 C316 834 226 982 226 982 L226 982 Z " />
<glyph glyph-name="Eacute" unicode="&#xc9;" horiz-adv-x="512" d="M219 828 C219 828 331 957 331 957 C353 983 371 1006 371 1010 C371 1017 345 1036 335 1036 C332 1036 316 1012 299 982 C299 982 212 834 212 834 C212 834 219 828 219 828 L219 828 Z M350 336 C350 336 350 402 350 402 C350 402 350 410 350 410 C350 410 350 419 350 419 C350 419 350 476 350 476 C350 476 340 476 340 476 C340 476 338 468 338 468 C329 441 285 419 238 419 C238 419 167 419 167 419 C167 419 167 780 167 780 C167 780 271 780 271 780 C327 780 384 741 400 692 C400 692 405 677 405 677 C405 677 413 677 413 677 C413 677 413 789 413 789 C413 789 413 798 413 798 C413 798 405 798 405 798 C405 798 337 798 337 798 C337 798 167 798 167 798 C167 798 132 798 132 798 C132 798 97 798 97 798 C97 798 40 798 40 798 C40 798 40 786 40 786 C40 786 49 786 49 786 C75 786 97 758 97 721 C97 721 97 76 97 76 C97 40 75 11 49 11 C49 11 40 11 40 11 C40 11 40 0 40 0 C40 0 97 0 97 0 C97 0 132 0 132 0 C132 0 167 0 167 0 C167 0 341 0 341 0 C341 0 415 0 415 0 C415 0 417 0 417 0 C418 2 418 6 419 9 C424 40 433 90 438 121 C438 121 430 121 430 121 C430 121 422 105 422 105 C398 57 334 18 278 17 C278 17 167 17 167 17 C167 17 167 402 167 402 C167 402 238 402 238 402 C285 402 329 377 338 346 C338 346 340 336 340 336 C340 336 350 336 350 336 L350 336 Z " />
<glyph glyph-name="Ecircumflex" unicode="&#xca;" horiz-adv-x="512" d="M350 336 C350 336 350 402 350 402 C350 402 350 410 350 410 C350 410 350 419 350 419 C350 419 350 476 350 476 C350 476 340 476 340 476 C340 476 338 468 338 468 C329 441 285 419 238 419 C238 419 167 419 167 419 C167 419 167 780 167 780 C167 780 271 780 271 780 C327 780 384 741 400 692 C400 692 405 677 405 677 C405 677 413 677 413 677 C413 677 413 789 413 789 C413 789 413 798 413 798 C413 798 405 798 405 798 C405 798 337 798 337 798 C337 798 167 798 167 798 C167 798 132 798 132 798 C132 798 97 798 97 798 C97 798 40 798 40 798 C40 798 40 786 40 786 C40 786 49 786 49 786 C75 786 97 758 97 721 C97 721 97 76 97 76 C97 40 75 11 49 11 C49 11 40 11 40 11 C40 11 40 0 40 0 C40 0 97 0 97 0 C97 0 132 0 132 0 C132 0 167 0 167 0 C167 0 341 0 341 0 C341 0 415 0 415 0 C415 0 417 0 417 0 C418 2 418 6 419 9 C424 40 433 90 438 121 C438 121 430 121 430 121 C430 121 422 105 422 105 C398 57 334 18 278 17 C278 17 167 17 167 17 C167 17 167 402 167 402 C167 402 238 402 238 402 C285 402 329 377 338 346 C338 346 340 336 340 336 C340 336 350 336 350 336 L350 336 Z M251 976 C251 976 351 831 351 831 C351 831 357 836 357 836 C357 836 271 1025 271 1025 C269 1029 261 1042 251 1042 C241 1042 233 1030 231 1025 C231 1025 145 836 145 836 C145 836 151 831 151 831 C151 831 251 976 251 976 L251 976 Z " />
<glyph glyph-name="Edieresis" unicode="&#xcb;" horiz-adv-x="512" d="M339 868 C360 868 377 885 377 906 C377 928 360 945 339 945 C317 945 300 928 300 906 C300 885 317 868 339 868 L339 868 Z M163 868 C185 868 202 885 202 906 C202 928 185 945 163 945 C142 945 125 928 125 906 C125 885 142 868 163 868 L163 868 Z M350 336 C350 336 350 402 350 402 C350 402 350 410 350 410 C350 410 350 419 350 419 C350 419 350 476 350 476 C350 476 340 476 340 476 C340 476 338 468 338 468 C329 441 285 419 238 419 C238 419 167 419 167 419 C167 419 167 780 167 780 C167 780 271 780 271 780 C327 780 384 741 400 692 C400 692 405 677 405 677 C405 677 413 677 413 677 C413 677 413 789 413 789 C413 789 413 798 413 798 C413 798 405 798 405 798 C405 798 337 798 337 798 C337 798 167 798 167 798 C167 798 132 798 132 798 C132 798 97 798 97 798 C97 798 40 798 40 798 C40 798 40 786 40 786 C40 786 49 786 49 786 C75 786 97 758 97 721 C97 721 97 76 97 76 C97 40 75 11 49 11 C49 11 40 11 40 11 C40 11 40 0 40 0 C40 0 97 0 97 0 C97 0 132 0 132 0 C132 0 167 0 167 0 C167 0 341 0 341 0 C341 0 415 0 415 0 C415 0 417 0 417 0 C418 2 418 6 419 9 C424 40 433 90 438 121 C438 121 430 121 430 121 C430 121 422 105 422 105 C398 57 334 18 278 17 C278 17 167 17 167 17 C167 17 167 402 167 402 C167 402 238 402 238 402 C285 402 329 377 338 346 C338 346 340 336 340 336 C340 336 350 336 350 336 L350 336 Z " />
<glyph glyph-name="Igrave" unicode="&#xcc;" horiz-adv-x="264" d="M225 798 C225 798 167 798 167 798 C167 798 132 798 132 798 C132 798 97 798 97 798 C97 798 40 798 40 798 C40 798 40 786 40 786 C40 786 49 786 49 786 C75 786 97 758 97 721 C97 721 97 76 97 76 C97 40 75 11 49 11 C49 11 40 11 40 11 C40 11 40 0 40 0 C40 0 97 0 97 0 C97 0 132 0 132 0 C132 0 167 0 167 0 C167 0 225 0 225 0 C225 0 225 11 225 11 C225 11 216 11 216 11 C189 11 168 40 167 76 C167 76 167 721 167 721 C168 758 189 786 216 786 C216 786 225 786 225 786 C225 786 225 798 225 798 L225 798 Z M123 982 C105 1012 89 1036 86 1036 C76 1036 50 1017 50 1010 C50 1005 68 982 91 957 C91 957 206 828 206 828 C206 828 213 834 213 834 C213 834 123 982 123 982 L123 982 Z " />
<glyph glyph-name="Iacute" unicode="&#xcd;" horiz-adv-x="264" d="M71 828 C71 828 182 957 182 957 C204 983 222 1006 222 1010 C222 1017 196 1036 186 1036 C184 1036 168 1012 150 982 C150 982 64 834 64 834 C64 834 71 828 71 828 L71 828 Z M225 798 C225 798 167 798 167 798 C167 798 132 798 132 798 C132 798 97 798 97 798 C97 798 40 798 40 798 C40 798 40 786 40 786 C40 786 49 786 49 786 C75 786 97 758 97 721 C97 721 97 76 97 76 C97 40 75 11 49 11 C49 11 40 11 40 11 C40 11 40 0 40 0 C40 0 97 0 97 0 C97 0 132 0 132 0 C132 0 167 0 167 0 C167 0 225 0 225 0 C225 0 225 11 225 11 C225 11 216 11 216 11 C189 11 168 40 167 76 C167 76 167 721 167 721 C168 758 189 786 216 786 C216 786 225 786 225 786 C225 786 225 798 225 798 L225 798 Z " />
<glyph glyph-name="Icircumflex" unicode="&#xce;" horiz-adv-x="264" d="M225 798 C225 798 167 798 167 798 C167 798 132 798 132 798 C132 798 97 798 97 798 C97 798 40 798 40 798 C40 798 40 786 40 786 C40 786 49 786 49 786 C75 786 97 758 97 721 C97 721 97 76 97 76 C97 40 75 11 49 11 C49 11 40 11 40 11 C40 11 40 0 40 0 C40 0 97 0 97 0 C97 0 132 0 132 0 C132 0 167 0 167 0 C167 0 225 0 225 0 C225 0 225 11 225 11 C225 11 216 11 216 11 C189 11 168 40 167 76 C167 76 167 721 167 721 C168 758 189 786 216 786 C216 786 225 786 225 786 C225 786 225 798 225 798 L225 798 Z M132 976 C132 976 232 831 232 831 C232 831 239 836 239 836 C239 836 153 1025 153 1025 C150 1029 142 1042 132 1042 C122 1042 115 1030 112 1025 C112 1025 26 836 26 836 C26 836 33 831 33 831 C33 831 132 976 132 976 L132 976 Z " />
<glyph glyph-name="Idieresis" unicode="&#xcf;" horiz-adv-x="264" d="M220 868 C241 868 258 885 258 906 C258 928 241 945 220 945 C199 945 182 928 182 906 C182 885 199 868 220 868 L220 868 Z M45 868 C66 868 83 885 83 906 C83 928 66 945 45 945 C23 945 6 928 6 906 C6 885 23 868 45 868 L45 868 Z M225 798 C225 798 167 798 167 798 C167 798 132 798 132 798 C132 798 97 798 97 798 C97 798 40 798 40 798 C40 798 40 786 40 786 C40 786 49 786 49 786 C75 786 97 758 97 721 C97 721 97 76 97 76 C97 40 75 11 49 11 C49 11 40 11 40 11 C40 11 40 0 40 0 C40 0 97 0 97 0 C97 0 132 0 132 0 C132 0 167 0 167 0 C167 0 225 0 225 0 C225 0 225 11 225 11 C225 11 216 11 216 11 C189 11 168 40 167 76 C167 76 167 721 167 721 C168 758 189 786 216 786 C216 786 225 786 225 786 C225 786 225 798 225 798 L225 798 Z " />
<glyph glyph-name="Ntilde" unicode="&#xd1;" horiz-adv-x="604" d="M208 893 C208 928 220 957 236 957 C278 957 314 895 356 895 C387 895 412 940 412 997 C412 997 401 997 401 997 C401 964 387 937 370 937 C327 937 292 999 249 999 C220 999 197 952 197 893 C197 893 208 893 208 893 L208 893 Z M567 798 C567 798 510 798 510 798 C510 798 499 798 499 798 C499 798 489 798 489 798 C489 798 431 798 431 798 C431 798 431 786 431 786 C431 786 440 786 440 786 C467 786 489 758 489 721 C489 721 489 111 489 111 C489 111 162 798 162 798 C162 798 120 798 120 798 C120 798 110 798 110 798 C110 798 99 798 99 798 C99 798 42 798 42 798 C42 798 42 786 42 786 C42 786 50 786 50 786 C77 786 99 758 99 721 C99 721 99 76 99 76 C99 40 77 11 50 11 C50 11 42 11 42 11 C42 11 42 0 42 0 C42 0 99 0 99 0 C99 0 110 0 110 0 C110 0 120 0 120 0 C120 0 178 0 178 0 C178 0 178 11 178 11 C178 11 169 11 169 11 C142 11 120 40 120 76 C120 76 120 725 120 725 C120 725 457 28 457 28 C457 28 477 -14 477 -14 C477 -14 510 -14 510 -14 C510 -14 510 53 510 53 C510 53 510 721 510 721 C510 721 510 726 510 726 C511 760 532 786 559 786 C559 786 567 786 567 786 C567 786 567 798 567 798 L567 798 Z " />
<glyph glyph-name="Ograve" unicode="&#xd2;" horiz-adv-x="695" d="M352 12 C219 12 135 205 135 399 C135 592 219 785 352 785 C484 785 568 592 568 399 C568 205 484 12 352 12 L352 12 Z M58 399 C58 197 172 -5 352 -5 C531 -5 645 197 645 399 C645 601 531 803 352 803 C172 803 58 601 58 399 L58 399 Z M342 982 C325 1012 309 1036 305 1036 C295 1036 269 1017 269 1010 C269 1005 287 982 310 957 C310 957 425 828 425 828 C425 828 432 834 432 834 C432 834 342 982 342 982 L342 982 Z " />
<glyph glyph-name="Oacute" unicode="&#xd3;" horiz-adv-x="695" d="M328 828 C328 828 439 957 439 957 C461 983 479 1006 479 1010 C479 1017 453 1036 443 1036 C441 1036 425 1012 407 982 C407 982 321 834 321 834 C321 834 328 828 328 828 L328 828 Z M352 12 C219 12 135 205 135 399 C135 592 219 785 352 785 C484 785 568 592 568 399 C568 205 484 12 352 12 L352 12 Z M58 399 C58 197 172 -5 352 -5 C531 -5 645 197 645 399 C645 601 531 803 352 803 C172 803 58 601 58 399 L58 399 Z " />
<glyph glyph-name="Ocircumflex" unicode="&#xd4;" horiz-adv-x="695" d="M352 12 C219 12 135 205 135 399 C135 592 219 785 352 785 C484 785 568 592 568 399 C568 205 484 12 352 12 L352 12 Z M58 399 C58 197 172 -5 352 -5 C531 -5 645 197 645 399 C645 601 531 803 352 803 C172 803 58 601 58 399 L58 399 Z M351 976 C351 976 451 831 451 831 C451 831 458 836 458 836 C458 836 372 1025 372 1025 C369 1029 361 1042 352 1042 C342 1042 334 1030 332 1025 C332 1025 245 836 245 836 C245 836 252 831 252 831 C252 831 351 976 351 976 L351 976 Z " />
<glyph glyph-name="Otilde" unicode="&#xd5;" horiz-adv-x="695" d="M255 893 C255 928 267 957 283 957 C325 957 361 895 403 895 C434 895 459 940 459 997 C459 997 448 997 448 997 C448 964 434 937 417 937 C374 937 339 999 296 999 C267 999 244 952 244 893 C244 893 255 893 255 893 L255 893 Z M352 12 C219 12 135 205 135 399 C135 592 219 785 352 785 C484 785 568 592 568 399 C568 205 484 12 352 12 L352 12 Z M58 399 C58 197 172 -5 352 -5 C531 -5 645 197 645 399 C645 601 531 803 352 803 C172 803 58 601 58 399 L58 399 Z " />
<glyph glyph-name="Odieresis" unicode="&#xd6;" horiz-adv-x="695" d="M439 868 C460 868 477 885 477 906 C477 928 460 945 439 945 C418 945 401 928 401 906 C401 885 418 868 439 868 L439 868 Z M264 868 C285 868 302 885 302 906 C302 928 285 945 264 945 C243 945 226 928 226 906 C226 885 243 868 264 868 L264 868 Z M352 12 C219 12 135 205 135 399 C135 592 219 785 352 785 C484 785 568 592 568 399 C568 205 484 12 352 12 L352 12 Z M58 399 C58 197 172 -5 352 -5 C531 -5 645 197 645 399 C645 601 531 803 352 803 C172 803 58 601 58 399 L58 399 Z " />
<glyph glyph-name="Oslash" unicode="&#xd8;" horiz-adv-x="695" d="M70 -14 C70 -14 153 100 153 100 C203 36 271 -5 352 -5 C531 -5 645 197 645 399 C645 498 618 597 569 672 C569 672 658 794 658 794 C658 794 633 812 633 812 C633 812 550 698 550 698 C500 762 433 803 352 803 C172 803 58 601 58 399 C58 300 85 202 134 126 C134 126 45 4 45 4 C45 4 70 -14 70 -14 L70 -14 Z M352 12 C281 12 225 66 187 147 C187 147 530 618 530 618 C555 553 568 476 568 399 C568 205 484 12 352 12 C352 12 352 12 352 12 L352 12 Z M173 180 C148 244 135 322 135 399 C135 592 219 785 352 785 C422 785 478 731 516 651 C516 651 173 180 173 180 L173 180 Z " />
<glyph glyph-name="Ugrave" unicode="&#xd9;" horiz-adv-x="583" d="M564 798 C564 798 498 798 498 798 C498 798 488 798 488 798 C488 798 478 798 478 798 C478 798 409 798 409 798 C409 798 409 786 409 786 C409 786 419 786 419 786 C451 786 476 756 478 716 C478 716 477 221 477 221 C477 109 422 19 311 19 C214 19 165 116 165 237 C165 237 165 721 165 721 C165 758 187 786 214 786 C214 786 222 786 222 786 C223 786 223 789 222 792 C223 795 223 798 222 798 C222 798 165 798 165 798 C165 798 130 798 130 798 C130 798 95 798 95 798 C95 798 38 798 38 798 C38 798 38 786 38 786 C38 786 46 786 46 786 C73 786 95 758 95 721 C95 721 95 250 95 250 C95 109 164 -5 301 -5 C432 -5 498 92 498 214 C498 214 498 711 498 711 C499 753 523 786 554 786 C554 786 564 786 564 786 C564 786 564 798 564 798 L564 798 Z M288 982 C270 1012 254 1036 250 1036 C240 1036 214 1017 214 1010 C214 1005 232 982 256 957 C256 957 370 828 370 828 C370 828 377 834 377 834 C377 834 288 982 288 982 L288 982 Z " />
<glyph glyph-name="Uacute" unicode="&#xda;" horiz-adv-x="583" d="M295 828 C295 828 407 957 407 957 C429 983 447 1006 447 1010 C447 1017 421 1036 411 1036 C408 1036 393 1012 375 982 C375 982 288 834 288 834 C288 834 295 828 295 828 L295 828 Z M564 798 C564 798 498 798 498 798 C498 798 488 798 488 798 C488 798 478 798 478 798 C478 798 409 798 409 798 C409 798 409 786 409 786 C409 786 419 786 419 786 C451 786 476 756 478 716 C478 716 477 221 477 221 C477 109 422 19 311 19 C214 19 165 116 165 237 C165 237 165 721 165 721 C165 758 187 786 214 786 C214 786 222 786 222 786 C223 786 223 789 222 792 C223 795 223 798 222 798 C222 798 165 798 165 798 C165 798 130 798 130 798 C130 798 95 798 95 798 C95 798 38 798 38 798 C38 798 38 786 38 786 C38 786 46 786 46 786 C73 786 95 758 95 721 C95 721 95 250 95 250 C95 109 164 -5 301 -5 C432 -5 498 92 498 214 C498 214 498 711 498 711 C499 753 523 786 554 786 C554 786 564 786 564 786 C564 786 564 798 564 798 L564 798 Z " />
<glyph glyph-name="Ucircumflex" unicode="&#xdb;" horiz-adv-x="583" d="M564 798 C564 798 498 798 498 798 C498 798 488 798 488 798 C488 798 478 798 478 798 C478 798 409 798 409 798 C409 798 409 786 409 786 C409 786 419 786 419 786 C451 786 476 756 478 716 C478 716 477 221 477 221 C477 109 422 19 311 19 C214 19 165 116 165 237 C165 237 165 721 165 721 C165 758 187 786 214 786 C214 786 222 786 222 786 C223 786 223 789 222 792 C223 795 223 798 222 798 C222 798 165 798 165 798 C165 798 130 798 130 798 C130 798 95 798 95 798 C95 798 38 798 38 798 C38 798 38 786 38 786 C38 786 46 786 46 786 C73 786 95 758 95 721 C95 721 95 250 95 250 C95 109 164 -5 301 -5 C432 -5 498 92 498 214 C498 214 498 711 498 711 C499 753 523 786 554 786 C554 786 564 786 564 786 C564 786 564 798 564 798 L564 798 Z M297 976 C297 976 396 831 396 831 C396 831 403 836 403 836 C403 836 317 1025 317 1025 C315 1029 307 1042 297 1042 C287 1042 279 1030 277 1025 C277 1025 191 836 191 836 C191 836 197 831 197 831 C197 831 297 976 297 976 L297 976 Z " />
<glyph glyph-name="Udieresis" unicode="&#xdc;" horiz-adv-x="583" d="M384 868 C406 868 423 885 423 906 C423 928 406 945 384 945 C363 945 346 928 346 906 C346 885 363 868 384 868 L384 868 Z M209 868 C231 868 248 885 248 906 C248 928 231 945 209 945 C188 945 171 928 171 906 C171 885 188 868 209 868 L209 868 Z M564 798 C564 798 498 798 498 798 C498 798 488 798 488 798 C488 798 478 798 478 798 C478 798 409 798 409 798 C409 798 409 786 409 786 C409 786 419 786 419 786 C451 786 476 756 478 716 C478 716 477 221 477 221 C477 109 422 19 311 19 C214 19 165 116 165 237 C165 237 165 721 165 721 C165 758 187 786 214 786 C214 786 222 786 222 786 C223 786 223 789 222 792 C223 795 223 798 222 798 C222 798 165 798 165 798 C165 798 130 798 130 798 C130 798 95 798 95 798 C95 798 38 798 38 798 C38 798 38 786 38 786 C38 786 46 786 46 786 C73 786 95 758 95 721 C95 721 95 250 95 250 C95 109 164 -5 301 -5 C432 -5 498 92 498 214 C498 214 498 711 498 711 C499 753 523 786 554 786 C554 786 564 786 564 786 C564 786 564 798 564 798 L564 798 Z " />
<glyph glyph-name="Yacute" unicode="&#xdd;" horiz-adv-x="529" d="M268 828 C268 828 380 957 380 957 C402 983 420 1006 420 1010 C420 1017 394 1036 384 1036 C381 1036 366 1012 348 982 C348 982 261 834 261 834 C261 834 268 828 268 828 L268 828 Z M362 11 C362 11 353 11 353 11 C327 11 306 38 305 71 C305 71 305 76 305 76 C305 76 305 367 305 367 C305 367 305 367 305 367 C305 367 454 721 454 721 C454 721 454 721 454 721 C469 758 500 786 523 786 C523 786 531 786 531 786 C531 786 531 798 531 798 C531 798 486 798 486 798 C486 798 475 798 475 798 C475 798 465 798 465 798 C465 798 381 798 381 798 C381 798 381 786 381 786 C381 786 393 786 393 786 C429 786 443 752 427 706 C427 706 290 375 290 375 C290 375 165 721 165 721 C165 721 165 721 165 721 C152 758 166 786 197 786 C197 786 206 786 206 786 C207 786 207 789 206 792 C207 795 207 798 206 798 C206 798 137 798 137 798 C137 798 95 798 95 798 C95 798 54 798 54 798 C54 798 16 798 16 798 C16 798 16 786 16 786 C16 786 22 786 22 786 C42 786 69 758 83 721 C83 721 84 721 84 721 C84 721 235 328 235 328 C235 328 235 76 235 76 C235 40 213 11 186 11 C186 11 177 11 177 11 C177 11 177 0 177 0 C177 0 235 0 235 0 C235 0 270 0 270 0 C270 0 305 0 305 0 C305 0 362 0 362 0 C362 0 362 11 362 11 L362 11 Z " />
<glyph glyph-name="agrave" unicode="&#xe0;" horiz-adv-x="512" d="M460 39 C420 48 404 58 403 105 C403 105 403 116 403 116 C403 116 403 638 403 638 C403 638 385 638 385 638 C385 638 350 562 350 562 C327 604 276 643 230 643 C133 643 55 485 55 287 C55 125 122 -5 205 -5 C241 -5 299 44 340 108 C340 108 340 99 340 99 C340 99 340 0 340 0 C340 0 340 -5 340 -5 C340 -5 350 -5 350 -5 C350 -5 394 12 394 12 C394 12 460 32 460 32 C460 32 460 39 460 39 L460 39 Z M196 822 C178 852 162 876 159 876 C149 876 123 857 123 850 C123 845 141 822 164 797 C164 797 279 668 279 668 C279 668 286 674 286 674 C286 674 196 822 196 822 L196 822 Z M340 122 C310 72 266 33 240 33 C173 33 120 157 120 311 C120 486 168 626 227 626 C273 626 324 583 340 541 C340 541 340 122 340 122 L340 122 Z " />
<glyph glyph-name="aacute" unicode="&#xe1;" horiz-adv-x="424" d="M156 668 C156 668 267 797 267 797 C290 823 308 846 308 850 C308 857 282 876 272 876 C269 876 253 852 235 822 C235 822 149 674 149 674 C149 674 156 668 156 668 L156 668 Z M403 38 C392 28 375 20 352 20 C324 20 313 47 313 80 C313 80 313 496 313 496 C313 578 268 643 213 643 C140 643 73 597 62 540 C62 540 125 540 125 540 C134 587 167 625 199 625 C226 625 247 574 247 510 C247 510 247 313 247 313 C247 313 172 303 172 303 C97 293 36 217 36 132 C36 56 75 -5 124 -5 C157 -5 207 21 248 59 C251 20 269 -10 309 -10 C353 -10 388 8 410 30 C410 30 403 38 403 38 L403 38 Z M247 297 C247 297 247 74 247 74 C218 53 183 38 154 38 C123 38 98 88 98 150 C98 217 132 276 173 283 C173 283 247 297 247 297 L247 297 Z " />
<glyph glyph-name="acircumflex" unicode="&#xe2;" horiz-adv-x="512" d="M460 39 C420 48 404 58 403 105 C403 105 403 116 403 116 C403 116 403 638 403 638 C403 638 385 638 385 638 C385 638 350 562 350 562 C327 604 276 643 230 643 C133 643 55 485 55 287 C55 125 122 -5 205 -5 C241 -5 299 44 340 108 C340 108 340 99 340 99 C340 99 340 0 340 0 C340 0 340 -5 340 -5 C340 -5 350 -5 350 -5 C350 -5 394 12 394 12 C394 12 460 32 460 32 C460 32 460 39 460 39 L460 39 Z M205 816 C205 816 305 671 305 671 C305 671 311 676 311 676 C311 676 225 865 225 865 C223 869 215 882 205 882 C195 882 188 870 185 865 C185 865 99 676 99 676 C99 676 106 671 106 671 C106 671 205 816 205 816 L205 816 Z M340 122 C310 72 266 33 240 33 C173 33 120 157 120 311 C120 486 168 626 227 626 C273 626 324 583 340 541 C340 541 340 122 340 122 L340 122 Z " />
<glyph glyph-name="atilde" unicode="&#xe3;" horiz-adv-x="512" d="M109 733 C109 768 121 797 137 797 C179 797 215 735 257 735 C288 735 313 780 313 837 C313 837 302 837 302 837 C302 804 288 777 271 777 C228 777 193 839 150 839 C121 839 98 792 98 733 C98 733 109 733 109 733 L109 733 Z M460 39 C420 48 404 58 403 105 C403 105 403 116 403 116 C403 116 403 638 403 638 C403 638 385 638 385 638 C385 638 350 562 350 562 C327 604 276 643 230 643 C133 643 55 485 55 287 C55 125 122 -5 205 -5 C241 -5 299 44 340 108 C340 108 340 99 340 99 C340 99 340 0 340 0 C340 0 340 -5 340 -5 C340 -5 350 -5 350 -5 C350 -5 394 12 394 12 C394 12 460 32 460 32 C460 32 460 39 460 39 L460 39 Z M340 122 C310 72 266 33 240 33 C173 33 120 157 120 311 C120 486 168 626 227 626 C273 626 324 583 340 541 C340 541 340 122 340 122 L340 122 Z " />
<glyph glyph-name="adieresis" unicode="&#xe4;" horiz-adv-x="512" d="M293 708 C314 708 331 725 331 746 C331 768 314 785 293 785 C272 785 255 768 255 746 C255 725 272 708 293 708 L293 708 Z M118 708 C139 708 156 725 156 746 C156 768 139 785 118 785 C96 785 79 768 79 746 C79 725 96 708 118 708 L118 708 Z M460 39 C420 48 404 58 403 105 C403 105 403 116 403 116 C403 116 403 638 403 638 C403 638 385 638 385 638 C385 638 350 562 350 562 C327 604 276 643 230 643 C133 643 55 485 55 287 C55 125 122 -5 205 -5 C241 -5 299 44 340 108 C340 108 340 99 340 99 C340 99 340 0 340 0 C340 0 340 -5 340 -5 C340 -5 350 -5 350 -5 C350 -5 394 12 394 12 C394 12 460 32 460 32 C460 32 460 39 460 39 L460 39 Z M340 122 C310 72 266 33 240 33 C173 33 120 157 120 311 C120 486 168 626 227 626 C273 626 324 583 340 541 C340 541 340 122 340 122 L340 122 Z " />
<glyph glyph-name="aring" unicode="&#xe5;" horiz-adv-x="512" d="M205 687 C167 687 128 726 128 765 C128 809 162 844 205 844 C248 844 282 809 282 765 C282 726 244 687 205 687 L205 687 Z M111 765 C111 719 158 673 205 673 C253 673 300 719 300 765 C300 817 258 858 205 858 C153 858 111 817 111 765 L111 765 Z M460 39 C420 48 404 58 403 105 C403 105 403 116 403 116 C403 116 403 638 403 638 C403 638 385 638 385 638 C385 638 350 562 350 562 C327 604 276 643 230 643 C133 643 55 485 55 287 C55 125 122 -5 205 -5 C241 -5 299 44 340 108 C340 108 340 99 340 99 C340 99 340 0 340 0 C340 0 340 -5 340 -5 C340 -5 350 -5 350 -5 C350 -5 394 12 394 12 C394 12 460 32 460 32 C460 32 460 39 460 39 L460 39 Z M340 122 C310 72 266 33 240 33 C173 33 120 157 120 311 C120 486 168 626 227 626 C273 626 324 583 340 541 C340 541 340 122 340 122 L340 122 Z " />
<glyph glyph-name="ccedilla" unicode="&#xe7;" horiz-adv-x="420" d="M369 48 C369 48 364 55 364 55 C349 43 304 33 262 33 C182 33 117 162 117 324 C117 491 174 625 246 625 C277 625 306 578 312 520 C313 503 327 489 343 489 C359 489 371 501 371 516 C365 587 312 643 253 643 C140 643 50 491 50 300 C50 131 121 -5 210 -5 C263 -5 334 19 369 48 L369 48 Z " />
<glyph glyph-name="egrave" unicode="&#xe8;" horiz-adv-x="427" d="M376 48 C376 48 370 55 370 55 C356 43 309 33 266 33 C183 33 117 162 117 324 C117 360 119 395 124 427 C124 427 377 427 377 427 C377 547 312 643 232 643 C131 643 50 491 50 300 C50 131 122 -5 213 -5 C268 -5 340 19 376 48 L376 48 Z M223 822 C205 852 189 876 185 876 C175 876 149 857 149 850 C149 845 167 822 191 797 C191 797 305 668 305 668 C305 668 312 674 312 674 C312 674 223 822 223 822 L223 822 Z M125 439 C142 549 182 625 228 625 C279 625 319 560 319 479 C319 478 319 478 319 477 C318 463 308 452 294 449 C294 449 125 439 125 439 L125 439 Z M290 448 C289 448 289 448 289 448 C289 448 290 448 290 448 L290 448 Z " />
<glyph glyph-name="eacute" unicode="&#xe9;" horiz-adv-x="427" d="M200 668 C200 668 311 797 311 797 C334 823 352 846 352 850 C352 857 326 876 316 876 C313 876 297 852 279 822 C279 822 193 674 193 674 C193 674 200 668 200 668 L200 668 Z M376 48 C376 48 370 55 370 55 C356 43 309 33 266 33 C183 33 117 162 117 324 C117 360 119 395 124 427 C124 427 377 427 377 427 C377 547 312 643 232 643 C131 643 50 491 50 300 C50 131 122 -5 213 -5 C268 -5 340 19 376 48 L376 48 Z M125 439 C142 549 182 625 228 625 C279 625 319 560 319 479 C319 478 319 478 319 477 C318 463 308 452 294 449 C294 449 125 439 125 439 L125 439 Z M290 448 C289 448 289 448 289 448 C289 448 290 448 290 448 L290 448 Z " />
<glyph glyph-name="ecircumflex" unicode="&#xea;" horiz-adv-x="427" d="M376 48 C376 48 370 55 370 55 C356 43 309 33 266 33 C183 33 117 162 117 324 C117 360 119 395 124 427 C124 427 377 427 377 427 C377 547 312 643 232 643 C131 643 50 491 50 300 C50 131 122 -5 213 -5 C268 -5 340 19 376 48 L376 48 Z M232 816 C232 816 331 671 331 671 C331 671 338 676 338 676 C338 676 252 865 252 865 C250 869 242 882 232 882 C222 882 214 870 212 865 C212 865 126 676 126 676 C126 676 132 671 132 671 C132 671 232 816 232 816 L232 816 Z M125 439 C142 549 182 625 228 625 C279 625 319 560 319 479 C319 478 319 478 319 477 C318 463 308 452 294 449 C294 449 125 439 125 439 L125 439 Z M290 448 C289 448 289 448 289 448 C289 448 290 448 290 448 L290 448 Z " />
<glyph glyph-name="edieresis" unicode="&#xeb;" horiz-adv-x="427" d="M319 708 C341 708 358 725 358 746 C358 768 341 785 319 785 C298 785 281 768 281 746 C281 725 298 708 319 708 L319 708 Z M144 708 C166 708 183 725 183 746 C183 768 166 785 144 785 C123 785 106 768 106 746 C106 725 123 708 144 708 L144 708 Z M376 48 C376 48 370 55 370 55 C356 43 309 33 266 33 C183 33 117 162 117 324 C117 360 119 395 124 427 C124 427 377 427 377 427 C377 547 312 643 232 643 C131 643 50 491 50 300 C50 131 122 -5 213 -5 C268 -5 340 19 376 48 L376 48 Z M125 439 C142 549 182 625 228 625 C279 625 319 560 319 479 C319 478 319 478 319 477 C318 463 308 452 294 449 C294 449 125 439 125 439 L125 439 Z M290 448 C289 448 289 448 289 448 C289 448 290 448 290 448 L290 448 Z " />
<glyph glyph-name="igrave" unicode="&#xec;" horiz-adv-x="267" d="M165 0 C165 0 223 0 223 0 C223 0 223 11 223 11 C223 11 211 11 211 11 C186 11 165 9 165 0 C165 0 165 561 165 561 C165 561 165 643 165 643 C165 643 162 643 162 643 C162 643 54 610 54 610 C54 610 54 601 54 601 C54 601 88 588 88 588 C96 584 102 573 102 543 C102 543 102 0 102 0 C102 0 45 0 45 0 C45 0 45 11 45 11 C45 11 56 11 56 11 C82 11 102 9 102 0 C102 0 165 0 165 0 L165 0 Z M125 822 C107 852 91 876 87 876 C77 876 51 857 51 850 C51 845 70 822 93 797 C93 797 207 668 207 668 C207 668 214 674 214 674 C214 674 125 822 125 822 L125 822 Z " />
<glyph glyph-name="iacute" unicode="&#xed;" horiz-adv-x="267" d="M57 668 C57 668 168 797 168 797 C190 823 208 846 209 850 C208 857 182 876 173 876 C170 876 154 852 136 822 C136 822 50 674 50 674 C50 674 57 668 57 668 L57 668 Z M165 0 C165 0 223 0 223 0 C223 0 223 11 223 11 C223 11 211 11 211 11 C186 11 165 9 165 0 C165 0 165 561 165 561 C165 561 165 643 165 643 C165 643 162 643 162 643 C162 643 54 610 54 610 C54 610 54 601 54 601 C54 601 88 588 88 588 C96 584 102 573 102 543 C102 543 102 0 102 0 C102 0 45 0 45 0 C45 0 45 11 45 11 C45 11 56 11 56 11 C82 11 102 9 102 0 C102 0 165 0 165 0 L165 0 Z " />
<glyph glyph-name="icircumflex" unicode="&#xee;" horiz-adv-x="267" d="M165 0 C165 0 223 0 223 0 C223 0 223 11 223 11 C223 11 211 11 211 11 C186 11 165 9 165 0 C165 0 165 561 165 561 C165 561 165 643 165 643 C165 643 162 643 162 643 C162 643 54 610 54 610 C54 610 54 601 54 601 C54 601 88 588 88 588 C96 584 102 573 102 543 C102 543 102 0 102 0 C102 0 45 0 45 0 C45 0 45 11 45 11 C45 11 56 11 56 11 C82 11 102 9 102 0 C102 0 165 0 165 0 L165 0 Z M134 855 C134 855 114 865 114 865 C114 865 28 676 28 676 C28 676 34 671 34 671 C34 671 134 816 134 816 C134 816 234 671 234 671 C234 671 240 676 240 676 C240 676 154 865 154 865 C154 865 134 855 134 855 L134 855 Z M114 845 C114 845 134 816 134 816 C134 816 114 845 114 845 L114 845 Z M154 865 C152 869 144 882 134 882 C124 882 116 870 114 865 C114 865 154 865 154 865 L154 865 Z " />
<glyph glyph-name="idieresis" unicode="&#xef;" horiz-adv-x="267" d="M221 708 C243 708 260 725 260 746 C260 768 243 785 221 785 C200 785 183 768 183 746 C183 725 200 708 221 708 L221 708 Z M46 708 C68 708 85 725 85 746 C85 768 68 785 46 785 C25 785 8 768 8 746 C8 725 25 708 46 708 L46 708 Z M165 0 C165 0 223 0 223 0 C223 0 223 11 223 11 C223 11 211 11 211 11 C186 11 165 9 165 0 C165 0 165 561 165 561 C165 561 165 643 165 643 C165 643 162 643 162 643 C162 643 54 610 54 610 C54 610 54 601 54 601 C54 601 88 588 88 588 C96 584 102 573 102 543 C102 543 102 0 102 0 C102 0 45 0 45 0 C45 0 45 11 45 11 C45 11 56 11 56 11 C82 11 102 9 102 0 C102 0 165 0 165 0 L165 0 Z " />
<glyph glyph-name="ntilde" unicode="&#xf1;" horiz-adv-x="524" d="M168 733 C168 768 180 797 196 797 C238 797 274 735 316 735 C347 735 372 780 372 837 C372 837 361 837 361 837 C361 804 347 777 330 777 C287 777 252 839 210 839 C180 839 157 792 157 733 C157 733 168 733 168 733 L168 733 Z M307 0 C307 0 364 0 364 0 C364 0 396 0 396 0 C396 0 427 0 427 0 C427 0 485 0 485 0 C484 0 484 3 485 6 C484 9 484 11 485 11 C485 11 476 11 476 11 C449 11 427 40 427 76 C427 76 427 474 427 474 C427 568 394 643 328 643 C305 643 234 615 165 579 C165 579 165 638 165 638 C165 638 152 638 152 638 C152 638 45 606 45 606 C45 606 45 599 45 599 C87 588 102 578 102 522 C102 522 102 76 102 76 C102 40 80 11 53 11 C53 11 45 11 45 11 C45 11 45 0 45 0 C45 0 102 0 102 0 C102 0 134 0 134 0 C134 0 165 0 165 0 C165 0 223 0 223 0 C222 0 222 3 223 6 C222 9 222 11 223 11 C223 11 214 11 214 11 C187 11 165 40 165 76 C165 76 165 539 165 539 C165 539 165 545 165 545 C165 545 165 572 165 572 C199 588 248 601 279 601 C336 601 364 542 364 468 C364 468 364 76 364 76 C364 40 342 11 315 11 C315 11 307 11 307 11 C307 11 307 0 307 0 L307 0 Z " />
<glyph glyph-name="ograve" unicode="&#xf2;" horiz-adv-x="528" d="M264 9 C184 9 120 147 120 319 C120 491 184 629 264 629 C345 629 409 491 409 319 C409 147 345 9 264 9 L264 9 Z M50 319 C50 139 145 -5 264 -5 C384 -5 479 139 479 319 C479 499 384 643 264 643 C145 643 50 499 50 319 L50 319 Z M255 822 C237 852 221 876 218 876 C208 876 182 857 182 850 C182 845 200 822 223 797 C223 797 338 668 338 668 C338 668 345 674 345 674 C345 674 255 822 255 822 L255 822 Z " />
<glyph glyph-name="oacute" unicode="&#xf3;" horiz-adv-x="528" d="M233 668 C233 668 344 797 344 797 C367 823 385 846 384 850 C384 857 359 876 349 876 C346 876 330 852 312 822 C312 822 226 674 226 674 C226 674 233 668 233 668 L233 668 Z M264 9 C184 9 120 147 120 319 C120 491 184 629 264 629 C345 629 409 491 409 319 C409 147 345 9 264 9 L264 9 Z M50 319 C50 139 145 -5 264 -5 C384 -5 479 139 479 319 C479 499 384 643 264 643 C145 643 50 499 50 319 L50 319 Z " />
<glyph glyph-name="ocircumflex" unicode="&#xf4;" horiz-adv-x="528" d="M264 9 C184 9 120 147 120 319 C120 491 184 629 264 629 C345 629 409 491 409 319 C409 147 345 9 264 9 L264 9 Z M50 319 C50 139 145 -5 264 -5 C384 -5 479 139 479 319 C479 499 384 643 264 643 C145 643 50 499 50 319 L50 319 Z M264 816 C264 816 364 671 364 671 C364 671 370 676 370 676 C370 676 284 865 284 865 C282 869 274 882 264 882 C254 882 247 870 244 865 C244 865 158 676 158 676 C158 676 165 671 165 671 C165 671 264 816 264 816 L264 816 Z " />
<glyph glyph-name="otilde" unicode="&#xf5;" horiz-adv-x="528" d="M168 733 C168 768 180 797 196 797 C238 797 274 735 316 735 C347 735 372 780 372 837 C372 837 361 837 361 837 C361 804 347 777 330 777 C287 777 252 839 209 839 C180 839 157 792 157 733 C157 733 168 733 168 733 L168 733 Z M264 9 C184 9 120 147 120 319 C120 491 184 629 264 629 C345 629 409 491 409 319 C409 147 345 9 264 9 L264 9 Z M50 319 C50 139 145 -5 264 -5 C384 -5 479 139 479 319 C479 499 384 643 264 643 C145 643 50 499 50 319 L50 319 Z " />
<glyph glyph-name="odieresis" unicode="&#xf6;" horiz-adv-x="528" d="M352 708 C373 708 390 725 390 746 C390 768 373 785 352 785 C330 785 313 768 313 746 C313 725 330 708 352 708 L352 708 Z M177 708 C198 708 215 725 215 746 C215 768 198 785 177 785 C155 785 138 768 138 746 C138 725 155 708 177 708 L177 708 Z M264 9 C184 9 120 147 120 319 C120 491 184 629 264 629 C345 629 409 491 409 319 C409 147 345 9 264 9 L264 9 Z M50 319 C50 139 145 -5 264 -5 C384 -5 479 139 479 319 C479 499 384 643 264 643 C145 643 50 499 50 319 L50 319 Z " />
<glyph glyph-name="oslash" unicode="&#xf8;" horiz-adv-x="528" d="M59 -11 C59 -11 119 80 119 80 C157 27 208 -5 264 -5 C384 -5 479 139 479 319 C479 404 458 482 422 539 C422 539 487 637 487 637 C487 637 470 649 470 649 C470 649 410 558 410 558 C372 611 321 643 264 643 C145 643 50 499 50 319 C50 234 71 157 106 99 C106 99 41 1 41 1 C41 1 59 -11 59 -11 L59 -11 Z M264 9 C218 9 177 55 150 128 C150 128 387 485 387 485 C401 437 409 380 409 319 C409 147 345 9 264 9 C264 9 264 9 264 9 L264 9 Z M142 154 C128 201 120 258 120 319 C120 491 184 629 264 629 C311 629 352 583 378 511 C378 511 142 154 142 154 L142 154 Z " />
<glyph glyph-name="ugrave" unicode="&#xf9;" horiz-adv-x="489" d="M277 626 C277 626 285 626 285 626 C312 626 334 598 334 561 C334 561 334 99 334 99 C334 99 334 66 334 66 C315 49 282 36 241 36 C176 36 135 92 135 162 C135 162 135 638 135 638 C135 638 104 638 104 638 C104 638 72 638 72 638 C72 638 15 638 15 638 C15 638 15 626 15 626 C15 626 23 626 23 626 C50 626 72 598 72 561 C72 561 72 155 72 155 C72 66 118 -5 192 -5 C243 -5 296 22 334 56 C334 56 334 16 334 16 C334 16 334 0 334 0 C334 0 347 0 347 0 C347 0 455 32 455 32 C454 32 454 32 455 33 C454 36 454 39 455 39 C412 49 397 60 397 116 C397 116 397 638 397 638 C397 638 366 638 366 638 C366 638 334 638 334 638 C334 638 277 638 277 638 C277 638 277 626 277 626 L277 626 Z M226 822 C208 852 192 876 188 876 C178 876 152 857 152 850 C152 845 170 822 194 797 C194 797 308 668 308 668 C308 668 315 674 315 674 C315 674 226 822 226 822 L226 822 Z " />
<glyph glyph-name="uacute" unicode="&#xfa;" horiz-adv-x="489" d="M203 668 C203 668 314 797 314 797 C337 823 355 846 355 850 C355 857 329 876 319 876 C316 876 300 852 282 822 C282 822 196 674 196 674 C196 674 203 668 203 668 L203 668 Z M277 626 C277 626 285 626 285 626 C312 626 334 598 334 561 C334 561 334 99 334 99 C334 99 334 66 334 66 C315 49 282 36 241 36 C176 36 135 92 135 162 C135 162 135 638 135 638 C135 638 104 638 104 638 C104 638 72 638 72 638 C72 638 15 638 15 638 C15 638 15 626 15 626 C15 626 23 626 23 626 C50 626 72 598 72 561 C72 561 72 155 72 155 C72 66 118 -5 192 -5 C243 -5 296 22 334 56 C334 56 334 16 334 16 C334 16 334 0 334 0 C334 0 347 0 347 0 C347 0 455 32 455 32 C454 32 454 32 455 33 C454 36 454 39 455 39 C412 49 397 60 397 116 C397 116 397 638 397 638 C397 638 366 638 366 638 C366 638 334 638 334 638 C334 638 277 638 277 638 C277 638 277 626 277 626 L277 626 Z " />
<glyph glyph-name="ucircumflex" unicode="&#xfb;" horiz-adv-x="489" d="M277 626 C277 626 285 626 285 626 C312 626 334 598 334 561 C334 561 334 99 334 99 C334 99 334 66 334 66 C315 49 282 36 241 36 C176 36 135 92 135 162 C135 162 135 638 135 638 C135 638 104 638 104 638 C104 638 72 638 72 638 C72 638 15 638 15 638 C15 638 15 626 15 626 C15 626 23 626 23 626 C50 626 72 598 72 561 C72 561 72 155 72 155 C72 66 118 -5 192 -5 C243 -5 296 22 334 56 C334 56 334 16 334 16 C334 16 334 0 334 0 C334 0 347 0 347 0 C347 0 455 32 455 32 C454 32 454 32 455 33 C454 36 454 39 455 39 C412 49 397 60 397 116 C397 116 397 638 397 638 C397 638 366 638 366 638 C366 638 334 638 334 638 C334 638 277 638 277 638 C277 638 277 626 277 626 L277 626 Z M235 816 C235 816 334 671 334 671 C334 671 341 676 341 676 C341 676 255 865 255 865 C253 869 245 882 235 882 C225 882 217 870 215 865 C215 865 129 676 129 676 C129 676 135 671 135 671 C135 671 235 816 235 816 L235 816 Z " />
<glyph glyph-name="udieresis" unicode="&#xfc;" horiz-adv-x="489" d="M322 708 C344 708 361 725 361 746 C361 768 344 785 322 785 C301 785 284 768 284 746 C284 725 301 708 322 708 L322 708 Z M147 708 C168 708 185 725 185 746 C185 768 168 785 147 785 C126 785 109 768 109 746 C109 725 126 708 147 708 L147 708 Z M277 626 C277 626 285 626 285 626 C312 626 334 598 334 561 C334 561 334 99 334 99 C334 99 334 66 334 66 C315 49 282 36 241 36 C176 36 135 92 135 162 C135 162 135 638 135 638 C135 638 104 638 104 638 C104 638 72 638 72 638 C72 638 15 638 15 638 C15 638 15 626 15 626 C15 626 23 626 23 626 C50 626 72 598 72 561 C72 561 72 155 72 155 C72 66 118 -5 192 -5 C243 -5 296 22 334 56 C334 56 334 16 334 16 C334 16 334 0 334 0 C334 0 347 0 347 0 C347 0 455 32 455 32 C454 32 454 32 455 33 C454 36 454 39 455 39 C412 49 397 60 397 116 C397 116 397 638 397 638 C397 638 366 638 366 638 C366 638 334 638 334 638 C334 638 277 638 277 638 C277 638 277 626 277 626 L277 626 Z " />
<glyph glyph-name="ydieresis" unicode="&#xff;" horiz-adv-x="388" d="M309 708 C331 708 348 725 348 746 C348 768 331 785 309 785 C288 785 271 768 271 746 C271 725 288 708 309 708 L309 708 Z M134 708 C156 708 173 725 173 746 C173 768 156 785 134 785 C113 785 96 768 96 746 C96 725 113 708 134 708 L134 708 Z M180 638 C180 638 122 638 122 638 C122 638 86 638 86 638 C86 638 50 638 50 638 C50 638 -4 638 -4 638 C-4 638 -4 626 -4 626 C-4 626 5 626 5 626 C29 626 57 601 68 568 C68 568 215 -1 215 -1 C215 -1 195 -66 195 -66 C174 -148 148 -189 116 -189 C96 -189 73 -164 53 -164 C36 -164 22 -176 22 -191 C22 -213 47 -230 77 -230 C140 -230 184 -177 211 -72 C211 -72 227 -10 227 -10 C227 -10 375 567 375 567 C386 601 413 626 439 626 C439 626 447 626 447 626 C448 626 448 629 447 632 C448 635 448 638 447 638 C447 638 393 638 393 638 C393 638 382 638 382 638 C382 638 372 638 372 638 C372 638 314 638 314 638 C315 638 315 635 314 632 C315 629 315 626 314 626 C314 626 323 626 323 626 C346 626 360 602 355 568 C355 568 243 97 243 97 C243 97 138 566 138 566 C132 600 147 626 172 626 C172 626 180 626 180 626 C180 626 180 638 180 638 L180 638 Z " />
<glyph glyph-name="Amacron" unicode="&#x100;" horiz-adv-x="556" d="M148 906 C148 906 384 906 384 906 C384 906 384 941 384 941 C384 941 148 941 148 941 C148 941 148 906 148 906 L148 906 Z M549 11 C549 11 541 11 541 11 C520 11 497 35 485 66 C485 66 275 816 275 816 C275 816 258 816 258 816 C258 816 241 747 241 747 C241 747 237 739 237 739 C237 739 238 735 238 735 C238 735 73 70 73 70 C63 37 36 11 10 11 C10 11 2 11 2 11 C2 11 2 0 2 0 C2 0 56 0 56 0 C56 0 68 0 68 0 C68 0 79 0 79 0 C79 0 164 0 164 0 C164 0 164 11 164 11 C164 11 151 11 151 11 C113 11 91 47 101 91 C101 91 101 91 101 91 C101 91 145 275 145 275 C145 275 356 275 356 275 C356 275 407 76 407 76 C407 76 407 76 407 76 C416 40 395 11 359 11 C359 11 345 11 345 11 C345 11 345 0 345 0 C345 0 427 0 427 0 C427 0 465 0 465 0 C465 0 503 0 503 0 C503 0 549 0 549 0 C549 0 549 11 549 11 L549 11 Z M352 293 C352 293 149 293 149 293 C149 293 247 700 247 700 C247 700 352 293 352 293 L352 293 Z " />
<glyph glyph-name="amacron" unicode="&#x101;" horiz-adv-x="512" d="M87 746 C87 746 323 746 323 746 C323 746 323 781 323 781 C323 781 87 781 87 781 C87 781 87 746 87 746 L87 746 Z M460 39 C420 48 404 58 403 105 C403 105 403 116 403 116 C403 116 403 638 403 638 C403 638 385 638 385 638 C385 638 350 562 350 562 C327 604 276 643 230 643 C133 643 55 485 55 287 C55 125 122 -5 205 -5 C241 -5 299 44 340 108 C340 108 340 99 340 99 C340 99 340 0 340 0 C340 0 340 -5 340 -5 C340 -5 350 -5 350 -5 C350 -5 394 12 394 12 C394 12 460 32 460 32 C460 32 460 39 460 39 L460 39 Z M340 122 C310 72 266 33 240 33 C173 33 120 157 120 311 C120 486 168 626 227 626 C273 626 324 583 340 541 C340 541 340 122 340 122 L340 122 Z " />
<glyph glyph-name="Abreve" unicode="&#x102;" horiz-adv-x="556" d="M180 1009 C194 948 232 899 266 899 C301 899 339 948 353 1009 C353 1009 342 1012 342 1012 C333 972 300 941 266 941 C233 941 200 972 191 1012 C191 1012 180 1009 180 1009 L180 1009 Z M549 11 C549 11 541 11 541 11 C520 11 497 35 485 66 C485 66 275 816 275 816 C275 816 258 816 258 816 C258 816 241 747 241 747 C241 747 237 739 237 739 C237 739 238 735 238 735 C238 735 73 70 73 70 C63 37 36 11 10 11 C10 11 2 11 2 11 C2 11 2 0 2 0 C2 0 56 0 56 0 C56 0 68 0 68 0 C68 0 79 0 79 0 C79 0 164 0 164 0 C164 0 164 11 164 11 C164 11 151 11 151 11 C113 11 91 47 101 91 C101 91 101 91 101 91 C101 91 145 275 145 275 C145 275 356 275 356 275 C356 275 407 76 407 76 C407 76 407 76 407 76 C416 40 395 11 359 11 C359 11 345 11 345 11 C345 11 345 0 345 0 C345 0 427 0 427 0 C427 0 465 0 465 0 C465 0 503 0 503 0 C503 0 549 0 549 0 C549 0 549 11 549 11 L549 11 Z M352 293 C352 293 149 293 149 293 C149 293 247 700 247 700 C247 700 352 293 352 293 L352 293 Z " />
<glyph glyph-name="abreve" unicode="&#x103;" horiz-adv-x="512" d="M119 819 C133 758 171 709 205 709 C240 709 278 758 292 819 C292 819 281 822 281 822 C272 782 239 751 205 751 C172 751 139 782 130 822 C130 822 119 819 119 819 L119 819 Z M460 39 C420 48 404 58 403 105 C403 105 403 116 403 116 C403 116 403 638 403 638 C403 638 385 638 385 638 C385 638 350 562 350 562 C327 604 276 643 230 643 C133 643 55 485 55 287 C55 125 122 -5 205 -5 C241 -5 299 44 340 108 C340 108 340 99 340 99 C340 99 340 0 340 0 C340 0 340 -5 340 -5 C340 -5 350 -5 350 -5 C350 -5 394 12 394 12 C394 12 460 32 460 32 C460 32 460 39 460 39 L460 39 Z M340 122 C310 72 266 33 240 33 C173 33 120 157 120 311 C120 486 168 626 227 626 C273 626 324 583 340 541 C340 541 340 122 340 122 L340 122 Z " />
<glyph glyph-name="Aogonek" unicode="&#x104;" horiz-adv-x="556" d="M549 11 C549 11 541 11 541 11 C520 11 497 35 485 66 C485 66 275 816 275 816 C275 816 258 816 258 816 C258 816 241 747 241 747 C241 747 237 739 237 739 C237 739 238 735 238 735 C238 735 73 70 73 70 C63 37 36 11 10 11 C10 11 2 11 2 11 C2 11 2 0 2 0 C2 0 56 0 56 0 C56 0 68 0 68 0 C68 0 79 0 79 0 C79 0 164 0 164 0 C164 0 164 11 164 11 C164 11 151 11 151 11 C113 11 91 47 101 91 C101 91 101 91 101 91 C101 91 145 275 145 275 C145 275 356 275 356 275 C356 275 407 76 407 76 C407 76 407 76 407 76 C416 40 395 11 359 11 C359 11 345 11 345 11 C345 11 345 0 345 0 C345 0 400 0 400 0 C351 -31 278 -102 278 -156 C278 -199 327 -234 388 -234 C418 -234 454 -219 469 -201 C469 -201 465 -195 465 -195 C455 -207 427 -216 401 -216 C354 -216 316 -186 316 -149 C316 -88 396 -11 427 0 C427 0 465 0 465 0 C465 0 503 0 503 0 C503 0 549 0 549 0 C549 0 549 11 549 11 L549 11 Z M352 293 C352 293 149 293 149 293 C149 293 247 700 247 700 C247 700 352 293 352 293 L352 293 Z " />
<glyph glyph-name="aogonek" unicode="&#x105;" horiz-adv-x="424" d="M376 23 C369 21 361 20 352 20 C324 20 313 47 313 80 C313 80 313 496 313 496 C313 578 268 643 213 643 C140 643 73 597 62 540 C62 540 125 540 125 540 C134 587 167 625 199 625 C226 625 247 574 247 510 C247 510 247 313 247 313 C247 313 172 303 172 303 C97 293 36 217 36 132 C36 56 75 -5 124 -5 C157 -5 207 21 248 59 C251 20 269 -10 309 -10 C319 -10 329 -9 338 -7 C297 -45 255 -97 255 -139 C255 -192 304 -234 365 -234 C395 -234 431 -219 447 -201 C447 -201 442 -195 442 -195 C433 -207 405 -216 379 -216 C332 -216 294 -179 294 -132 C294 -84 340 -26 375 5 C389 12 401 21 410 30 C410 30 404 37 404 37 C404 37 404 39 404 39 C397 36 387 31 376 23 L376 23 Z M247 297 C247 297 247 74 247 74 C218 53 183 38 154 38 C123 38 98 88 98 150 C98 217 132 276 173 283 C173 283 247 297 247 297 L247 297 Z " />
<glyph glyph-name="Cacute" unicode="&#x106;" horiz-adv-x="651" d="M312 828 C312 828 423 957 423 957 C446 983 463 1006 463 1010 C463 1017 438 1036 428 1036 C425 1036 409 1012 391 982 C391 982 305 834 305 834 C305 834 312 828 312 828 L312 828 Z M591 630 C591 630 591 742 591 742 C591 742 587 734 587 734 C587 734 587 734 587 734 C587 734 591 742 591 742 C533 776 429 803 359 803 C192 803 58 623 58 399 C58 175 192 -5 359 -5 C429 -5 533 22 591 56 C591 56 587 64 587 64 C587 64 587 64 587 64 C587 64 591 56 591 56 C591 56 591 168 591 168 C591 168 581 168 581 168 C578 160 574 147 572 139 C550 76 467 20 384 14 C384 14 384 13 384 13 C375 12 367 12 359 12 C234 12 135 184 135 399 C135 613 234 785 359 785 C379 785 403 783 428 778 C489 765 552 713 572 659 C574 651 578 638 581 630 C581 630 591 630 591 630 L591 630 Z " />
<glyph glyph-name="cacute" unicode="&#x107;" horiz-adv-x="420" d="M176 668 C176 668 287 797 287 797 C309 823 327 846 328 850 C328 857 302 876 292 876 C289 876 273 852 255 822 C255 822 169 674 169 674 C169 674 176 668 176 668 L176 668 Z M369 48 C369 48 364 55 364 55 C349 43 304 33 262 33 C182 33 117 162 117 324 C117 491 174 625 246 625 C277 625 306 578 312 520 C313 503 327 489 343 489 C359 489 371 501 371 516 C365 587 312 643 253 643 C140 643 50 491 50 300 C50 131 121 -5 210 -5 C263 -5 334 19 369 48 L369 48 Z " />
<glyph glyph-name="Ccircumflex" unicode="&#x108;" horiz-adv-x="651" d="M591 630 C591 630 591 742 591 742 C591 742 587 734 587 734 C587 734 587 734 587 734 C587 734 591 742 591 742 C533 776 429 803 359 803 C192 803 58 623 58 399 C58 175 192 -5 359 -5 C429 -5 533 22 591 56 C591 56 587 64 587 64 C587 64 587 64 587 64 C587 64 591 56 591 56 C591 56 591 168 591 168 C591 168 581 168 581 168 C578 160 574 147 572 139 C550 76 467 20 384 14 C384 14 384 13 384 13 C375 12 367 12 359 12 C234 12 135 184 135 399 C135 613 234 785 359 785 C379 785 403 783 428 778 C489 765 552 713 572 659 C574 651 578 638 581 630 C581 630 591 630 591 630 L591 630 Z M358 976 C358 976 458 831 458 831 C458 831 465 836 465 836 C465 836 379 1025 379 1025 C377 1029 369 1042 359 1042 C349 1042 341 1030 339 1025 C339 1025 252 836 252 836 C252 836 259 831 259 831 C259 831 358 976 358 976 L358 976 Z " />
<glyph glyph-name="Cdotaccent" unicode="&#x10a;" horiz-adv-x="651" d="M359 868 C380 868 397 885 397 906 C397 928 380 945 359 945 C337 945 320 928 320 906 C320 885 337 868 359 868 L359 868 Z M591 630 C591 630 591 742 591 742 C591 742 587 734 587 734 C587 734 587 734 587 734 C587 734 591 742 591 742 C533 776 429 803 359 803 C192 803 58 623 58 399 C58 175 192 -5 359 -5 C429 -5 533 22 591 56 C591 56 587 64 587 64 C587 64 587 64 587 64 C587 64 591 56 591 56 C591 56 591 168 591 168 C591 168 581 168 581 168 C578 160 574 147 572 139 C550 76 467 20 384 14 C384 14 384 13 384 13 C375 12 367 12 359 12 C234 12 135 184 135 399 C135 613 234 785 359 785 C379 785 403 783 428 778 C489 765 552 713 572 659 C574 651 578 638 581 630 C581 630 591 630 591 630 L591 630 Z " />
<glyph glyph-name="cdotaccent" unicode="&#x10b;" horiz-adv-x="420" d="M253 708 C274 708 291 725 291 746 C291 768 274 785 253 785 C232 785 215 768 215 746 C215 725 232 708 253 708 L253 708 Z M369 48 C369 48 364 55 364 55 C349 43 304 33 262 33 C182 33 117 162 117 324 C117 491 174 625 246 625 C277 625 306 578 312 520 C313 503 327 489 343 489 C359 489 371 501 371 516 C365 587 312 643 253 643 C140 643 50 491 50 300 C50 131 121 -5 210 -5 C263 -5 334 19 369 48 L369 48 Z " />
<glyph glyph-name="Ccaron" unicode="&#x10c;" horiz-adv-x="651" d="M591 630 C591 630 591 742 591 742 C591 742 587 734 587 734 C587 734 587 734 587 734 C587 734 591 742 591 742 C533 776 429 803 359 803 C192 803 58 623 58 399 C58 175 192 -5 359 -5 C429 -5 533 22 591 56 C591 56 587 64 587 64 C587 64 587 64 587 64 C587 64 591 56 591 56 C591 56 591 168 591 168 C591 168 581 168 581 168 C578 160 574 147 572 139 C550 76 467 20 384 14 C384 14 384 13 384 13 C375 12 367 12 359 12 C234 12 135 184 135 399 C135 613 234 785 359 785 C379 785 403 783 428 778 C489 765 552 713 572 659 C574 651 578 638 581 630 C581 630 591 630 591 630 L591 630 Z M358 920 C358 920 458 1065 458 1065 C458 1065 465 1060 465 1060 C465 1060 379 871 379 871 C377 866 369 854 359 853 C349 852 341 866 339 871 C339 871 252 1060 252 1060 C252 1060 259 1065 259 1065 C259 1065 358 920 358 920 L358 920 Z " />
<glyph glyph-name="ccaron" unicode="&#x10d;" horiz-adv-x="420" d="M369 48 C369 48 364 55 364 55 C349 43 304 33 262 33 C182 33 117 162 117 324 C117 491 174 625 246 625 C277 625 306 578 312 520 C313 503 327 489 343 489 C359 489 371 501 371 516 C365 587 312 643 253 643 C140 643 50 491 50 300 C50 131 121 -5 210 -5 C263 -5 334 19 369 48 L369 48 Z M253 760 C253 760 353 905 353 905 C353 905 359 900 359 900 C359 900 273 711 273 711 C271 706 263 694 253 693 C243 692 235 706 233 711 C233 711 147 900 147 900 C147 900 153 905 153 905 C153 905 253 760 253 760 L253 760 Z " />
<glyph glyph-name="Dcaron" unicode="&#x10e;" horiz-adv-x="621" d="M48 786 C48 786 56 786 56 786 C83 786 105 758 105 721 C105 721 105 76 105 76 C105 40 83 11 56 11 C56 11 48 11 48 11 C48 11 48 0 48 0 C48 0 105 0 105 0 C105 0 140 0 140 0 C140 0 175 0 175 0 C175 0 283 0 283 0 C443 0 571 177 571 399 C571 621 431 798 256 798 C256 798 175 798 175 798 C175 798 140 798 140 798 C140 798 105 798 105 798 C105 798 48 798 48 798 C48 798 48 786 48 786 L48 786 Z M303 920 C303 920 403 1065 403 1065 C403 1065 409 1060 409 1060 C409 1060 323 871 323 871 C321 866 313 854 303 853 C293 852 285 866 283 871 C283 871 197 1060 197 1060 C197 1060 203 1065 203 1065 C203 1065 303 920 303 920 L303 920 Z M175 17 C175 17 175 780 175 780 C175 780 256 780 256 780 C392 780 501 611 501 399 C501 187 404 17 283 17 C283 17 175 17 175 17 L175 17 Z " />
<glyph glyph-name="dcaron" unicode="&#x10f;" horiz-adv-x="534" d="M482 39 C442 48 426 58 425 105 C425 105 425 116 425 116 C425 116 425 759 425 759 C425 759 425 842 425 842 C425 842 425 858 425 858 C425 858 412 858 412 858 C412 858 304 826 304 826 C304 826 304 819 304 819 C347 809 362 798 362 742 C362 742 362 583 362 583 C333 617 287 643 245 643 C140 643 55 485 55 287 C55 125 129 -5 221 -5 C265 -5 326 19 362 50 C362 50 362 16 362 16 C362 16 362 0 362 0 C362 0 374 0 374 0 C374 0 482 32 482 32 C482 32 482 39 482 39 L482 39 Z M534 769 C550 815 563 870 563 877 C563 886 535 891 524 891 C512 891 499 826 494 784 C494 784 473 621 473 621 C473 621 481 618 481 618 C481 618 534 769 534 769 L534 769 Z M362 99 C362 99 362 59 362 59 C344 45 298 33 255 33 C180 33 120 157 120 311 C120 486 174 626 242 626 C288 626 339 592 362 554 C362 554 362 99 362 99 L362 99 Z " />
<glyph glyph-name="Emacron" unicode="&#x112;" horiz-adv-x="512" d="M133 906 C133 906 369 906 369 906 C369 906 369 941 369 941 C369 941 133 941 133 941 C133 941 133 906 133 906 L133 906 Z M350 336 C350 336 350 402 350 402 C350 402 350 410 350 410 C350 410 350 419 350 419 C350 419 350 476 350 476 C350 476 340 476 340 476 C340 476 338 468 338 468 C329 441 285 419 238 419 C238 419 167 419 167 419 C167 419 167 780 167 780 C167 780 271 780 271 780 C327 780 384 741 400 692 C400 692 405 677 405 677 C405 677 413 677 413 677 C413 677 413 789 413 789 C413 789 413 798 413 798 C413 798 405 798 405 798 C405 798 337 798 337 798 C337 798 167 798 167 798 C167 798 132 798 132 798 C132 798 97 798 97 798 C97 798 40 798 40 798 C40 798 40 786 40 786 C40 786 49 786 49 786 C75 786 97 758 97 721 C97 721 97 76 97 76 C97 40 75 11 49 11 C49 11 40 11 40 11 C40 11 40 0 40 0 C40 0 97 0 97 0 C97 0 132 0 132 0 C132 0 167 0 167 0 C167 0 341 0 341 0 C341 0 415 0 415 0 C415 0 417 0 417 0 C418 2 418 6 419 9 C424 40 433 90 438 121 C438 121 430 121 430 121 C430 121 422 105 422 105 C398 57 334 18 278 17 C278 17 167 17 167 17 C167 17 167 402 167 402 C167 402 238 402 238 402 C285 402 329 377 338 346 C338 346 340 336 340 336 C340 336 350 336 350 336 L350 336 Z " />
<glyph glyph-name="emacron" unicode="&#x113;" horiz-adv-x="427" d="M114 746 C114 746 350 746 350 746 C350 746 350 781 350 781 C350 781 114 781 114 781 C114 781 114 746 114 746 L114 746 Z M376 48 C376 48 370 55 370 55 C356 43 309 33 266 33 C183 33 117 162 117 324 C117 360 119 395 124 427 C124 427 377 427 377 427 C377 547 312 643 232 643 C131 643 50 491 50 300 C50 131 122 -5 213 -5 C268 -5 340 19 376 48 L376 48 Z M125 439 C142 549 182 625 228 625 C279 625 319 560 319 479 C319 478 319 478 319 477 C318 463 308 452 294 449 C294 449 125 439 125 439 L125 439 Z M290 448 C289 448 289 448 289 448 C289 448 290 448 290 448 L290 448 Z " />
<glyph glyph-name="Ebreve" unicode="&#x114;" horiz-adv-x="512" d="M165 1009 C178 948 217 899 251 899 C285 899 324 948 337 1009 C337 1009 326 1012 326 1012 C318 972 284 941 251 941 C218 941 184 972 176 1012 C176 1012 165 1009 165 1009 L165 1009 Z M350 336 C350 336 350 402 350 402 C350 402 350 410 350 410 C350 410 350 419 350 419 C350 419 350 476 350 476 C350 476 340 476 340 476 C340 476 338 468 338 468 C329 441 285 419 238 419 C238 419 167 419 167 419 C167 419 167 780 167 780 C167 780 271 780 271 780 C327 780 384 741 400 692 C400 692 405 677 405 677 C405 677 413 677 413 677 C413 677 413 789 413 789 C413 789 413 798 413 798 C413 798 405 798 405 798 C405 798 337 798 337 798 C337 798 167 798 167 798 C167 798 132 798 132 798 C132 798 97 798 97 798 C97 798 40 798 40 798 C40 798 40 786 40 786 C40 786 49 786 49 786 C75 786 97 758 97 721 C97 721 97 76 97 76 C97 40 75 11 49 11 C49 11 40 11 40 11 C40 11 40 0 40 0 C40 0 97 0 97 0 C97 0 132 0 132 0 C132 0 167 0 167 0 C167 0 341 0 341 0 C341 0 415 0 415 0 C415 0 417 0 417 0 C418 2 418 6 419 9 C424 40 433 90 438 121 C438 121 430 121 430 121 C430 121 422 105 422 105 C398 57 334 18 278 17 C278 17 167 17 167 17 C167 17 167 402 167 402 C167 402 238 402 238 402 C285 402 329 377 338 346 C338 346 340 336 340 336 C340 336 350 336 350 336 L350 336 Z " />
<glyph glyph-name="ebreve" unicode="&#x115;" horiz-adv-x="427" d="M146 849 C159 788 197 739 232 739 C266 739 304 788 318 849 C318 849 307 852 307 852 C298 812 265 781 232 781 C199 781 165 812 157 852 C157 852 146 849 146 849 L146 849 Z M376 48 C376 48 370 55 370 55 C356 43 309 33 266 33 C183 33 117 162 117 324 C117 360 119 395 124 427 C124 427 377 427 377 427 C377 547 312 643 232 643 C131 643 50 491 50 300 C50 131 122 -5 213 -5 C268 -5 340 19 376 48 L376 48 Z M125 439 C142 549 182 625 228 625 C279 625 319 560 319 479 C319 478 319 478 319 477 C318 463 308 452 294 449 C294 449 125 439 125 439 L125 439 Z M290 448 C289 448 289 448 289 448 C289 448 290 448 290 448 L290 448 Z " />
<glyph glyph-name="Edotaccent" unicode="&#x116;" horiz-adv-x="512" d="M251 868 C272 868 289 885 289 906 C289 928 272 945 251 945 C230 945 213 928 213 906 C213 885 230 868 251 868 L251 868 Z M350 336 C350 336 350 402 350 402 C350 402 350 410 350 410 C350 410 350 419 350 419 C350 419 350 476 350 476 C350 476 340 476 340 476 C340 476 338 468 338 468 C329 441 285 419 238 419 C238 419 167 419 167 419 C167 419 167 780 167 780 C167 780 271 780 271 780 C327 780 384 741 400 692 C400 692 405 677 405 677 C405 677 413 677 413 677 C413 677 413 789 413 789 C413 789 413 798 413 798 C413 798 405 798 405 798 C405 798 337 798 337 798 C337 798 167 798 167 798 C167 798 132 798 132 798 C132 798 97 798 97 798 C97 798 40 798 40 798 C40 798 40 786 40 786 C40 786 49 786 49 786 C75 786 97 758 97 721 C97 721 97 76 97 76 C97 40 75 11 49 11 C49 11 40 11 40 11 C40 11 40 0 40 0 C40 0 97 0 97 0 C97 0 132 0 132 0 C132 0 167 0 167 0 C167 0 341 0 341 0 C341 0 415 0 415 0 C415 0 417 0 417 0 C418 2 418 6 419 9 C424 40 433 90 438 121 C438 121 430 121 430 121 C430 121 422 105 422 105 C398 57 334 18 278 17 C278 17 167 17 167 17 C167 17 167 402 167 402 C167 402 238 402 238 402 C285 402 329 377 338 346 C338 346 340 336 340 336 C340 336 350 336 350 336 L350 336 Z " />
<glyph glyph-name="edotaccent" unicode="&#x117;" horiz-adv-x="427" d="M232 708 C253 708 270 725 270 746 C270 768 253 785 232 785 C210 785 193 768 193 746 C193 725 210 708 232 708 L232 708 Z M376 48 C376 48 370 55 370 55 C356 43 309 33 266 33 C183 33 117 162 117 324 C117 360 119 395 124 427 C124 427 377 427 377 427 C377 547 312 643 232 643 C131 643 50 491 50 300 C50 131 122 -5 213 -5 C268 -5 340 19 376 48 L376 48 Z M125 439 C142 549 182 625 228 625 C279 625 319 560 319 479 C319 478 319 478 319 477 C318 463 308 452 294 449 C294 449 125 439 125 439 L125 439 Z M290 448 C289 448 289 448 289 448 C289 448 290 448 290 448 L290 448 Z " />
<glyph glyph-name="Eogonek" unicode="&#x118;" horiz-adv-x="512" d="M350 336 C350 336 350 402 350 402 C350 402 350 410 350 410 C350 410 350 419 350 419 C350 419 350 476 350 476 C350 476 340 476 340 476 C340 476 338 468 338 468 C329 441 285 419 238 419 C238 419 167 419 167 419 C167 419 167 780 167 780 C167 780 271 780 271 780 C327 780 384 741 400 692 C400 692 405 677 405 677 C405 677 413 677 413 677 C413 677 413 789 413 789 C413 789 413 798 413 798 C413 798 405 798 405 798 C405 798 337 798 337 798 C337 798 167 798 167 798 C167 798 132 798 132 798 C132 798 97 798 97 798 C97 798 40 798 40 798 C40 798 40 786 40 786 C40 786 49 786 49 786 C75 786 97 758 97 721 C97 721 97 76 97 76 C97 40 75 11 49 11 C49 11 40 11 40 11 C40 11 40 0 40 0 C40 0 97 0 97 0 C97 0 132 0 132 0 C132 0 167 0 167 0 C167 0 341 0 341 0 C341 0 388 0 388 0 C339 -31 266 -102 266 -156 C266 -199 315 -234 376 -234 C406 -234 442 -219 457 -201 C457 -201 453 -195 453 -195 C443 -207 415 -216 389 -216 C342 -216 304 -186 304 -149 C304 -88 384 -11 415 0 C415 0 417 0 417 0 C418 2 418 6 419 9 C424 40 433 90 438 121 C438 121 430 121 430 121 C430 121 422 105 422 105 C398 57 334 18 278 17 C278 17 167 17 167 17 C167 17 167 402 167 402 C167 402 238 402 238 402 C285 402 329 377 338 346 C338 346 340 336 340 336 C340 336 350 336 350 336 L350 336 Z " />
<glyph glyph-name="eogonek" unicode="&#x119;" horiz-adv-x="427" d="M125 439 C142 549 182 625 228 625 C279 625 319 560 319 479 C319 478 319 478 319 477 C318 463 308 452 294 449 C294 449 125 439 125 439 L125 439 Z M124 427 C124 427 377 427 377 427 C377 547 312 643 232 643 C131 643 50 491 50 300 C50 131 122 -5 213 -5 C224 -5 236 -4 248 -2 C200 -37 137 -102 137 -152 C137 -197 186 -234 248 -234 C278 -234 314 -219 329 -201 C329 -201 325 -195 325 -195 C315 -207 287 -216 261 -216 C214 -216 176 -184 176 -145 C176 -84 255 -6 285 6 C321 15 355 31 376 48 C376 48 370 55 370 55 C356 43 309 33 266 33 C183 33 117 162 117 324 C117 360 119 395 124 427 L124 427 Z M290 448 C289 448 289 448 289 448 C289 448 290 448 290 448 L290 448 Z " />
<glyph glyph-name="Ecaron" unicode="&#x11a;" horiz-adv-x="512" d="M350 336 C350 336 350 402 350 402 C350 402 350 410 350 410 C350 410 350 419 350 419 C350 419 350 476 350 476 C350 476 340 476 340 476 C340 476 338 468 338 468 C329 441 285 419 238 419 C238 419 167 419 167 419 C167 419 167 780 167 780 C167 780 271 780 271 780 C327 780 384 741 400 692 C400 692 405 677 405 677 C405 677 413 677 413 677 C413 677 413 789 413 789 C413 789 413 798 413 798 C413 798 405 798 405 798 C405 798 337 798 337 798 C337 798 167 798 167 798 C167 798 132 798 132 798 C132 798 97 798 97 798 C97 798 40 798 40 798 C40 798 40 786 40 786 C40 786 49 786 49 786 C75 786 97 758 97 721 C97 721 97 76 97 76 C97 40 75 11 49 11 C49 11 40 11 40 11 C40 11 40 0 40 0 C40 0 97 0 97 0 C97 0 132 0 132 0 C132 0 167 0 167 0 C167 0 341 0 341 0 C341 0 415 0 415 0 C415 0 417 0 417 0 C418 2 418 6 419 9 C424 40 433 90 438 121 C438 121 430 121 430 121 C430 121 422 105 422 105 C398 57 334 18 278 17 C278 17 167 17 167 17 C167 17 167 402 167 402 C167 402 238 402 238 402 C285 402 329 377 338 346 C338 346 340 336 340 336 C340 336 350 336 350 336 L350 336 Z M251 920 C251 920 351 1065 351 1065 C351 1065 357 1060 357 1060 C357 1060 271 871 271 871 C269 866 261 854 251 853 C241 852 233 866 231 871 C231 871 145 1060 145 1060 C145 1060 151 1065 151 1065 C151 1065 251 920 251 920 L251 920 Z " />
<glyph glyph-name="ecaron" unicode="&#x11b;" horiz-adv-x="427" d="M376 48 C376 48 370 55 370 55 C356 43 309 33 266 33 C183 33 117 162 117 324 C117 360 119 395 124 427 C124 427 377 427 377 427 C377 547 312 643 232 643 C131 643 50 491 50 300 C50 131 122 -5 213 -5 C268 -5 340 19 376 48 L376 48 Z M232 760 C232 760 331 905 331 905 C331 905 338 900 338 900 C338 900 252 711 252 711 C250 706 242 694 232 693 C222 692 214 706 212 711 C212 711 126 900 126 900 C126 900 132 905 132 905 C132 905 232 760 232 760 L232 760 Z M125 439 C142 549 182 625 228 625 C279 625 319 560 319 479 C319 478 319 478 319 477 C318 463 308 452 294 449 C294 449 125 439 125 439 L125 439 Z M290 448 C289 448 289 448 289 448 C289 448 290 448 290 448 L290 448 Z " />
<glyph glyph-name="Gcircumflex" unicode="&#x11c;" horiz-adv-x="727" d="M634 375 C634 375 577 375 577 375 C577 375 545 375 545 375 C545 375 514 375 514 375 C514 375 456 375 456 375 C456 375 456 363 456 363 C456 363 465 363 465 363 C492 363 514 334 514 298 C514 298 514 47 514 47 C460 26 396 12 348 12 C230 12 135 184 135 399 C135 613 230 785 348 785 C364 785 383 783 402 780 C402 780 402 780 402 780 C466 770 532 716 552 659 C554 651 558 638 561 630 C561 630 571 630 571 630 C571 630 571 742 571 742 C571 742 567 734 567 734 C567 734 567 734 567 734 C567 734 571 742 571 742 C513 776 414 803 348 803 C187 803 58 623 58 399 C58 175 187 -5 348 -5 C417 -5 518 22 577 56 C577 56 577 298 577 298 C577 298 577 303 577 303 C578 336 599 363 625 363 C625 363 634 363 634 363 C634 363 634 375 634 375 L634 375 Z M348 976 C348 976 448 831 448 831 C448 831 454 836 454 836 C454 836 368 1025 368 1025 C366 1029 358 1042 348 1042 C338 1042 331 1030 328 1025 C328 1025 242 836 242 836 C242 836 249 831 249 831 C249 831 348 976 348 976 L348 976 Z " />
<glyph glyph-name="Gbreve" unicode="&#x11e;" horiz-adv-x="727" d="M262 1009 C276 948 314 899 348 899 C383 899 421 948 435 1009 C435 1009 424 1012 424 1012 C415 972 382 941 348 941 C315 941 282 972 273 1012 C273 1012 262 1009 262 1009 L262 1009 Z M634 375 C634 375 577 375 577 375 C577 375 545 375 545 375 C545 375 514 375 514 375 C514 375 456 375 456 375 C456 375 456 363 456 363 C456 363 465 363 465 363 C492 363 514 334 514 298 C514 298 514 47 514 47 C460 26 396 12 348 12 C230 12 135 184 135 399 C135 613 230 785 348 785 C364 785 383 783 402 780 C402 780 402 780 402 780 C466 770 532 716 552 659 C554 651 558 638 561 630 C561 630 571 630 571 630 C571 630 571 742 571 742 C571 742 567 734 567 734 C567 734 567 734 567 734 C567 734 571 742 571 742 C513 776 414 803 348 803 C187 803 58 623 58 399 C58 175 187 -5 348 -5 C417 -5 518 22 577 56 C577 56 577 298 577 298 C577 298 577 303 577 303 C578 336 599 363 625 363 C625 363 634 363 634 363 C634 363 634 375 634 375 L634 375 Z " />
<glyph glyph-name="gbreve" unicode="&#x11f;" horiz-adv-x="405" d="M124 849 C138 788 176 739 211 739 C245 739 283 788 297 849 C297 849 286 852 286 852 C277 812 244 781 211 781 C178 781 144 812 135 852 C135 852 124 849 124 849 L124 849 Z M406 638 C406 638 268 627 268 627 C251 637 231 643 211 643 C130 643 66 556 66 446 C66 359 107 285 165 260 C100 256 49 211 49 155 C49 103 86 61 139 51 C74 18 25 -46 25 -97 C25 -176 81 -239 152 -239 C282 -239 386 -143 386 -23 C386 51 315 111 226 111 C226 111 168 108 168 108 C126 106 92 137 92 179 C92 219 128 250 173 250 C173 250 211 250 211 250 C291 250 355 337 355 446 C355 510 333 566 299 602 C299 602 406 603 406 603 C406 603 406 638 406 638 L406 638 Z M126 446 C126 548 164 629 211 629 C258 629 296 548 296 446 C296 345 258 264 211 264 C164 264 126 345 126 446 L126 446 Z M154 49 C160 49 166 49 172 49 C172 49 209 52 209 52 C282 52 340 5 340 -55 C340 -148 260 -222 159 -222 C107 -222 66 -163 66 -90 C66 -35 105 25 154 49 C154 49 154 49 154 49 L154 49 Z " />
<glyph glyph-name="Gdotaccent" unicode="&#x120;" horiz-adv-x="727" d="M348 868 C370 868 387 885 387 906 C387 928 370 945 348 945 C327 945 310 928 310 906 C310 885 327 868 348 868 L348 868 Z M634 375 C634 375 577 375 577 375 C577 375 545 375 545 375 C545 375 514 375 514 375 C514 375 456 375 456 375 C456 375 456 363 456 363 C456 363 465 363 465 363 C492 363 514 334 514 298 C514 298 514 47 514 47 C460 26 396 12 348 12 C230 12 135 184 135 399 C135 613 230 785 348 785 C364 785 383 783 402 780 C402 780 402 780 402 780 C466 770 532 716 552 659 C554 651 558 638 561 630 C561 630 571 630 571 630 C571 630 571 742 571 742 C571 742 567 734 567 734 C567 734 567 734 567 734 C567 734 571 742 571 742 C513 776 414 803 348 803 C187 803 58 623 58 399 C58 175 187 -5 348 -5 C417 -5 518 22 577 56 C577 56 577 298 577 298 C577 298 577 303 577 303 C578 336 599 363 625 363 C625 363 634 363 634 363 C634 363 634 375 634 375 L634 375 Z " />
<glyph glyph-name="gdotaccent" unicode="&#x121;" horiz-adv-x="405" d="M211 708 C232 708 249 725 249 746 C249 768 232 785 211 785 C189 785 172 768 172 746 C172 725 189 708 211 708 L211 708 Z M406 638 C406 638 268 627 268 627 C251 637 231 643 211 643 C130 643 66 556 66 446 C66 359 107 285 165 260 C100 256 49 211 49 155 C49 103 86 61 139 51 C74 18 25 -46 25 -97 C25 -176 81 -239 152 -239 C282 -239 386 -143 386 -23 C386 51 315 111 226 111 C226 111 168 108 168 108 C126 106 92 137 92 179 C92 219 128 250 173 250 C173 250 211 250 211 250 C291 250 355 337 355 446 C355 510 333 566 299 602 C299 602 406 603 406 603 C406 603 406 638 406 638 L406 638 Z M126 446 C126 548 164 629 211 629 C258 629 296 548 296 446 C296 345 258 264 211 264 C164 264 126 345 126 446 L126 446 Z M154 49 C160 49 166 49 172 49 C172 49 209 52 209 52 C282 52 340 5 340 -55 C340 -148 260 -222 159 -222 C107 -222 66 -163 66 -90 C66 -35 105 25 154 49 C154 49 154 49 154 49 L154 49 Z " />
<glyph glyph-name="Hcircumflex" unicode="&#x124;" horiz-adv-x="673" d="M449 786 C449 786 457 786 457 786 C484 786 506 758 506 721 C506 721 506 411 506 411 C506 411 167 411 167 411 C167 411 167 721 167 721 C168 758 189 786 216 786 C216 786 225 786 225 786 C225 786 225 798 225 798 C225 798 167 798 167 798 C167 798 132 798 132 798 C132 798 97 798 97 798 C97 798 40 798 40 798 C40 798 40 786 40 786 C40 786 49 786 49 786 C75 786 97 758 97 721 C97 721 97 76 97 76 C97 40 75 11 49 11 C49 11 40 11 40 11 C40 11 40 0 40 0 C40 0 97 0 97 0 C97 0 132 0 132 0 C132 0 167 0 167 0 C167 0 225 0 225 0 C225 0 225 11 225 11 C225 11 216 11 216 11 C189 11 168 40 167 76 C167 76 167 394 167 394 C167 394 506 394 506 394 C506 394 506 76 506 76 C506 40 484 11 457 11 C457 11 449 11 449 11 C449 11 449 0 449 0 C449 0 506 0 506 0 C506 0 541 0 541 0 C541 0 576 0 576 0 C576 0 634 0 634 0 C633 0 633 3 634 6 C633 9 633 11 634 11 C634 11 625 11 625 11 C598 11 576 40 576 76 C576 76 576 721 576 721 C576 758 598 786 625 786 C625 786 634 786 634 786 C633 786 633 789 634 792 C633 795 633 798 634 798 C634 798 576 798 576 798 C576 798 541 798 541 798 C541 798 506 798 506 798 C506 798 449 798 449 798 C449 798 449 786 449 786 L449 786 Z M337 976 C337 976 437 831 437 831 C437 831 443 836 443 836 C443 836 357 1025 357 1025 C355 1029 347 1042 337 1042 C327 1042 319 1030 317 1025 C317 1025 231 836 231 836 C231 836 237 831 237 831 C237 831 337 976 337 976 L337 976 Z " />
<glyph glyph-name="Itilde" unicode="&#x128;" horiz-adv-x="264" d="M36 893 C36 928 48 957 64 957 C106 957 142 895 184 895 C215 895 240 940 240 997 C240 997 229 997 229 997 C229 964 215 937 198 937 C155 937 120 999 77 999 C48 999 25 952 25 893 C25 893 36 893 36 893 L36 893 Z M225 798 C225 798 167 798 167 798 C167 798 132 798 132 798 C132 798 97 798 97 798 C97 798 40 798 40 798 C40 798 40 786 40 786 C40 786 49 786 49 786 C75 786 97 758 97 721 C97 721 97 76 97 76 C97 40 75 11 49 11 C49 11 40 11 40 11 C40 11 40 0 40 0 C40 0 97 0 97 0 C97 0 132 0 132 0 C132 0 167 0 167 0 C167 0 225 0 225 0 C225 0 225 11 225 11 C225 11 216 11 216 11 C189 11 168 40 167 76 C167 76 167 721 167 721 C168 758 189 786 216 786 C216 786 225 786 225 786 C225 786 225 798 225 798 L225 798 Z " />
<glyph glyph-name="itilde" unicode="&#x129;" horiz-adv-x="267" d="M37 733 C37 768 50 797 65 797 C108 797 143 735 186 735 C216 735 241 780 241 837 C241 837 231 837 231 837 C231 804 217 777 199 777 C157 777 121 839 79 839 C50 839 27 792 27 733 C27 733 37 733 37 733 L37 733 Z M165 0 C165 0 223 0 223 0 C223 0 223 11 223 11 C223 11 211 11 211 11 C186 11 165 9 165 0 C165 0 165 561 165 561 C165 561 165 643 165 643 C165 643 162 643 162 643 C162 643 54 610 54 610 C54 610 54 601 54 601 C54 601 88 588 88 588 C96 584 102 573 102 543 C102 543 102 0 102 0 C102 0 45 0 45 0 C45 0 45 11 45 11 C45 11 56 11 56 11 C82 11 102 9 102 0 C102 0 165 0 165 0 L165 0 Z " />
<glyph glyph-name="Imacron" unicode="&#x12a;" horiz-adv-x="264" d="M14 906 C14 906 251 906 251 906 C251 906 251 941 251 941 C251 941 14 941 14 941 C14 941 14 906 14 906 L14 906 Z M225 798 C225 798 167 798 167 798 C167 798 132 798 132 798 C132 798 97 798 97 798 C97 798 40 798 40 798 C40 798 40 786 40 786 C40 786 49 786 49 786 C75 786 97 758 97 721 C97 721 97 76 97 76 C97 40 75 11 49 11 C49 11 40 11 40 11 C40 11 40 0 40 0 C40 0 97 0 97 0 C97 0 132 0 132 0 C132 0 167 0 167 0 C167 0 225 0 225 0 C225 0 225 11 225 11 C225 11 216 11 216 11 C189 11 168 40 167 76 C167 76 167 721 167 721 C168 758 189 786 216 786 C216 786 225 786 225 786 C225 786 225 798 225 798 L225 798 Z " />
<glyph glyph-name="imacron" unicode="&#x12b;" horiz-adv-x="267" d="M16 746 C16 746 252 746 252 746 C252 746 252 781 252 781 C252 781 16 781 16 781 C16 781 16 746 16 746 L16 746 Z M165 0 C165 0 223 0 223 0 C223 0 223 11 223 11 C223 11 211 11 211 11 C186 11 165 9 165 0 C165 0 165 561 165 561 C165 561 165 643 165 643 C165 643 162 643 162 643 C162 643 54 610 54 610 C54 610 54 601 54 601 C54 601 88 588 88 588 C96 584 102 573 102 543 C102 543 102 0 102 0 C102 0 45 0 45 0 C45 0 45 11 45 11 C45 11 56 11 56 11 C82 11 102 9 102 0 C102 0 165 0 165 0 L165 0 Z " />
<glyph glyph-name="Ibreve" unicode="&#x12c;" horiz-adv-x="264" d="M46 1009 C60 948 98 899 132 899 C167 899 205 948 219 1009 C219 1009 208 1012 208 1012 C199 972 166 941 132 941 C99 941 66 972 57 1012 C57 1012 46 1009 46 1009 L46 1009 Z M225 798 C225 798 167 798 167 798 C167 798 132 798 132 798 C132 798 97 798 97 798 C97 798 40 798 40 798 C40 798 40 786 40 786 C40 786 49 786 49 786 C75 786 97 758 97 721 C97 721 97 76 97 76 C97 40 75 11 49 11 C49 11 40 11 40 11 C40 11 40 0 40 0 C40 0 97 0 97 0 C97 0 132 0 132 0 C132 0 167 0 167 0 C167 0 225 0 225 0 C225 0 225 11 225 11 C225 11 216 11 216 11 C189 11 168 40 167 76 C167 76 167 721 167 721 C168 758 189 786 216 786 C216 786 225 786 225 786 C225 786 225 798 225 798 L225 798 Z " />
<glyph glyph-name="ibreve" unicode="&#x12d;" horiz-adv-x="267" d="M48 849 C61 788 100 739 134 739 C168 739 207 788 220 849 C220 849 209 852 209 852 C200 812 167 781 134 781 C101 781 67 812 59 852 C59 852 48 849 48 849 L48 849 Z M165 0 C165 0 223 0 223 0 C223 0 223 11 223 11 C223 11 211 11 211 11 C186 11 165 9 165 0 C165 0 165 561 165 561 C165 561 165 643 165 643 C165 643 162 643 162 643 C162 643 54 610 54 610 C54 610 54 601 54 601 C54 601 88 588 88 588 C96 584 102 573 102 543 C102 543 102 0 102 0 C102 0 45 0 45 0 C45 0 45 11 45 11 C45 11 56 11 56 11 C82 11 102 9 102 0 C102 0 165 0 165 0 L165 0 Z " />
<glyph glyph-name="Idotaccent" unicode="&#x130;" horiz-adv-x="264" d="M132 868 C154 868 171 885 171 906 C171 928 154 945 132 945 C111 945 94 928 94 906 C94 885 111 868 132 868 L132 868 Z M225 798 C225 798 167 798 167 798 C167 798 132 798 132 798 C132 798 97 798 97 798 C97 798 40 798 40 798 C40 798 40 786 40 786 C40 786 49 786 49 786 C75 786 97 758 97 721 C97 721 97 76 97 76 C97 40 75 11 49 11 C49 11 40 11 40 11 C40 11 40 0 40 0 C40 0 97 0 97 0 C97 0 132 0 132 0 C132 0 167 0 167 0 C167 0 225 0 225 0 C225 0 225 11 225 11 C225 11 216 11 216 11 C189 11 168 40 167 76 C167 76 167 721 167 721 C168 758 189 786 216 786 C216 786 225 786 225 786 C225 786 225 798 225 798 L225 798 Z " />
<glyph glyph-name="dotlessi" unicode="&#x131;" horiz-adv-x="267" d="M165 0 C165 0 223 0 223 0 C223 0 223 11 223 11 C223 11 211 11 211 11 C186 11 165 9 165 0 C165 0 165 561 165 561 C165 561 165 643 165 643 C165 643 162 643 162 643 C162 643 54 610 54 610 C54 610 54 601 54 601 C54 601 88 588 88 588 C96 584 102 573 102 543 C102 543 102 0 102 0 C102 0 45 0 45 0 C45 0 45 11 45 11 C45 11 56 11 56 11 C82 11 102 9 102 0 C102 0 165 0 165 0 L165 0 Z " />
<glyph glyph-name="Jcircumflex" unicode="&#x134;" horiz-adv-x="302" d="M262 798 C262 798 205 798 205 798 C205 798 170 798 170 798 C170 798 135 798 135 798 C135 798 77 798 77 798 C77 798 77 786 77 786 C77 786 86 786 86 786 C113 786 135 758 135 721 C135 721 135 242 135 242 C135 83 122 4 95 4 C82 4 66 24 59 50 C55 66 41 78 28 78 C8 78 -4 66 0 50 C8 17 43 -10 78 -10 C163 -10 205 94 205 301 C205 301 205 721 205 721 C205 758 226 786 254 786 C254 786 262 786 262 786 C262 786 262 798 262 798 L262 798 Z M170 976 C170 976 269 831 269 831 C269 831 276 836 276 836 C276 836 190 1025 190 1025 C188 1029 180 1042 170 1042 C160 1042 152 1030 150 1025 C150 1025 64 836 64 836 C64 836 70 831 70 831 C70 831 170 976 170 976 L170 976 Z " />
<glyph glyph-name="Lacute" unicode="&#x139;" horiz-adv-x="512" d="M108 828 C108 828 220 957 220 957 C242 983 260 1006 260 1010 C260 1017 234 1036 224 1036 C222 1036 206 1012 188 982 C188 982 101 834 101 834 C101 834 108 828 108 828 L108 828 Z M426 132 C426 132 415 107 415 107 C395 58 338 18 288 17 C288 17 167 17 167 17 C167 17 167 721 167 721 C168 758 189 786 216 786 C216 786 225 786 225 786 C225 786 225 798 225 798 C225 798 167 798 167 798 C167 798 132 798 132 798 C132 798 97 798 97 798 C97 798 40 798 40 798 C40 798 40 786 40 786 C40 786 49 786 49 786 C75 786 97 758 97 721 C97 721 97 76 97 76 C97 40 75 11 49 11 C49 11 40 11 40 11 C40 11 40 0 40 0 C40 0 97 0 97 0 C97 0 132 0 132 0 C132 0 167 0 167 0 C167 0 341 0 341 0 C341 0 415 0 415 0 C415 0 417 0 417 0 C418 2 418 6 419 9 C425 42 434 94 439 127 C434 129 426 132 426 132 L426 132 Z " />
<glyph glyph-name="Lcaron" unicode="&#x13d;" horiz-adv-x="512" d="M426 132 C426 132 415 107 415 107 C395 58 338 18 288 17 C288 17 167 17 167 17 C167 17 167 721 167 721 C168 758 189 786 216 786 C216 786 225 786 225 786 C225 786 225 798 225 798 C225 798 167 798 167 798 C167 798 132 798 132 798 C132 798 97 798 97 798 C97 798 40 798 40 798 C40 798 40 786 40 786 C40 786 49 786 49 786 C75 786 97 758 97 721 C97 721 97 76 97 76 C97 40 75 11 49 11 C49 11 40 11 40 11 C40 11 40 0 40 0 C40 0 97 0 97 0 C97 0 132 0 132 0 C132 0 167 0 167 0 C167 0 341 0 341 0 C341 0 415 0 415 0 C415 0 417 0 417 0 C418 2 418 6 419 9 C425 42 434 94 439 127 C434 129 426 132 426 132 L426 132 Z M334 709 C351 755 364 810 364 817 C364 826 335 831 324 831 C313 831 300 766 294 724 C294 724 273 561 273 561 C273 561 281 558 281 558 C281 558 334 709 334 709 L334 709 Z " />
<glyph glyph-name="lcaron" unicode="&#x13e;" horiz-adv-x="267" d="M45 819 C87 810 102 798 102 742 C102 742 102 76 102 76 C102 40 80 11 54 11 C54 11 45 11 45 11 C45 11 45 0 45 0 C45 0 102 0 102 0 C102 0 134 0 134 0 C134 0 165 0 165 0 C165 0 223 0 223 0 C223 0 223 11 223 11 C223 11 214 11 214 11 C187 11 166 40 165 76 C165 76 165 759 165 759 C165 759 165 842 165 842 C165 842 165 858 165 858 C165 858 153 858 153 858 C153 858 45 826 45 826 C45 826 45 819 45 819 L45 819 Z M274 739 C291 785 304 840 304 847 C304 856 276 861 265 861 C253 861 240 796 235 754 C235 754 213 591 213 591 C213 591 221 588 221 588 C221 588 274 739 274 739 L274 739 Z " />
<glyph glyph-name="Lslash" unicode="&#x141;" horiz-adv-x="512" d="M47 338 C47 338 97 358 97 358 C97 358 97 76 97 76 C97 40 75 11 49 11 C49 11 40 11 40 11 C40 11 40 0 40 0 C40 0 97 0 97 0 C97 0 132 0 132 0 C132 0 167 0 167 0 C167 0 341 0 341 0 C341 0 415 0 415 0 C415 0 417 0 417 0 C418 2 418 6 419 9 C425 42 434 94 439 127 C434 129 426 132 426 132 C426 132 415 107 415 107 C395 58 338 18 288 17 C288 17 167 17 167 17 C167 17 167 387 167 387 C167 387 291 438 291 438 C291 438 291 459 291 459 C291 459 167 408 167 408 C167 408 167 721 167 721 C168 758 189 786 216 786 C216 786 225 786 225 786 C225 786 225 798 225 798 C225 798 167 798 167 798 C167 798 132 798 132 798 C132 798 97 798 97 798 C97 798 40 798 40 798 C40 798 40 786 40 786 C40 786 49 786 49 786 C75 786 97 758 97 721 C97 721 97 379 97 379 C97 379 47 359 47 359 C47 359 47 338 47 338 L47 338 Z " />
<glyph glyph-name="lslash" unicode="&#x142;" horiz-adv-x="267" d="M2 368 C2 368 102 406 102 406 C102 406 102 76 102 76 C102 40 80 11 54 11 C54 11 45 11 45 11 C45 11 45 0 45 0 C45 0 102 0 102 0 C102 0 134 0 134 0 C134 0 165 0 165 0 C165 0 223 0 223 0 C223 0 223 11 223 11 C223 11 214 11 214 11 C187 11 166 40 165 76 C165 76 165 430 165 430 C165 430 265 468 265 468 C265 468 265 489 265 489 C265 489 165 451 165 451 C165 451 165 759 165 759 C165 759 165 842 165 842 C165 842 165 858 165 858 C165 858 153 858 153 858 C153 858 45 826 45 826 C45 826 45 819 45 819 C87 810 102 798 102 742 C102 742 102 427 102 427 C102 427 2 389 2 389 C2 389 2 368 2 368 L2 368 Z " />
<glyph glyph-name="Nacute" unicode="&#x143;" horiz-adv-x="604" d="M273 828 C273 828 384 957 384 957 C407 983 425 1006 425 1010 C425 1017 399 1036 389 1036 C386 1036 370 1012 352 982 C352 982 266 834 266 834 C266 834 273 828 273 828 L273 828 Z M567 798 C567 798 510 798 510 798 C510 798 499 798 499 798 C499 798 489 798 489 798 C489 798 431 798 431 798 C431 798 431 786 431 786 C431 786 440 786 440 786 C467 786 489 758 489 721 C489 721 489 111 489 111 C489 111 162 798 162 798 C162 798 120 798 120 798 C120 798 110 798 110 798 C110 798 99 798 99 798 C99 798 42 798 42 798 C42 798 42 786 42 786 C42 786 50 786 50 786 C77 786 99 758 99 721 C99 721 99 76 99 76 C99 40 77 11 50 11 C50 11 42 11 42 11 C42 11 42 0 42 0 C42 0 99 0 99 0 C99 0 110 0 110 0 C110 0 120 0 120 0 C120 0 178 0 178 0 C178 0 178 11 178 11 C178 11 169 11 169 11 C142 11 120 40 120 76 C120 76 120 725 120 725 C120 725 457 28 457 28 C457 28 477 -14 477 -14 C477 -14 510 -14 510 -14 C510 -14 510 53 510 53 C510 53 510 721 510 721 C510 721 510 726 510 726 C511 760 532 786 559 786 C559 786 567 786 567 786 C567 786 567 798 567 798 L567 798 Z " />
<glyph glyph-name="nacute" unicode="&#x144;" horiz-adv-x="524" d="M188 668 C188 668 299 797 299 797 C321 823 339 846 339 850 C339 857 313 876 303 876 C301 876 285 852 267 822 C267 822 181 674 181 674 C181 674 188 668 188 668 L188 668 Z M307 0 C307 0 364 0 364 0 C364 0 396 0 396 0 C396 0 427 0 427 0 C427 0 485 0 485 0 C484 0 484 3 485 6 C484 9 484 11 485 11 C485 11 476 11 476 11 C449 11 427 40 427 76 C427 76 427 474 427 474 C427 568 394 643 328 643 C305 643 234 615 165 579 C165 579 165 638 165 638 C165 638 152 638 152 638 C152 638 45 606 45 606 C45 606 45 599 45 599 C87 588 102 578 102 522 C102 522 102 76 102 76 C102 40 80 11 53 11 C53 11 45 11 45 11 C45 11 45 0 45 0 C45 0 102 0 102 0 C102 0 134 0 134 0 C134 0 165 0 165 0 C165 0 223 0 223 0 C222 0 222 3 223 6 C222 9 222 11 223 11 C223 11 214 11 214 11 C187 11 165 40 165 76 C165 76 165 539 165 539 C165 539 165 545 165 545 C165 545 165 572 165 572 C199 588 248 601 279 601 C336 601 364 542 364 468 C364 468 364 76 364 76 C364 40 342 11 315 11 C315 11 307 11 307 11 C307 11 307 0 307 0 L307 0 Z " />
<glyph glyph-name="Ncaron" unicode="&#x147;" horiz-adv-x="604" d="M567 798 C567 798 510 798 510 798 C510 798 499 798 499 798 C499 798 489 798 489 798 C489 798 431 798 431 798 C431 798 431 786 431 786 C431 786 440 786 440 786 C467 786 489 758 489 721 C489 721 489 111 489 111 C489 111 162 798 162 798 C162 798 120 798 120 798 C120 798 110 798 110 798 C110 798 99 798 99 798 C99 798 42 798 42 798 C42 798 42 786 42 786 C42 786 50 786 50 786 C77 786 99 758 99 721 C99 721 99 76 99 76 C99 40 77 11 50 11 C50 11 42 11 42 11 C42 11 42 0 42 0 C42 0 99 0 99 0 C99 0 110 0 110 0 C110 0 120 0 120 0 C120 0 178 0 178 0 C178 0 178 11 178 11 C178 11 169 11 169 11 C142 11 120 40 120 76 C120 76 120 725 120 725 C120 725 457 28 457 28 C457 28 477 -14 477 -14 C477 -14 510 -14 510 -14 C510 -14 510 53 510 53 C510 53 510 721 510 721 C510 721 510 726 510 726 C511 760 532 786 559 786 C559 786 567 786 567 786 C567 786 567 798 567 798 L567 798 Z M304 920 C304 920 404 1065 404 1065 C404 1065 411 1060 411 1060 C411 1060 325 871 325 871 C322 866 314 854 304 853 C294 852 287 866 285 871 C285 871 198 1060 198 1060 C198 1060 205 1065 205 1065 C205 1065 304 920 304 920 L304 920 Z " />
<glyph glyph-name="ncaron" unicode="&#x148;" horiz-adv-x="524" d="M307 0 C307 0 364 0 364 0 C364 0 396 0 396 0 C396 0 427 0 427 0 C427 0 485 0 485 0 C484 0 484 3 485 6 C484 9 484 11 485 11 C485 11 476 11 476 11 C449 11 427 40 427 76 C427 76 427 474 427 474 C427 568 394 643 328 643 C305 643 234 615 165 579 C165 579 165 638 165 638 C165 638 152 638 152 638 C152 638 45 606 45 606 C45 606 45 599 45 599 C87 588 102 578 102 522 C102 522 102 76 102 76 C102 40 80 11 53 11 C53 11 45 11 45 11 C45 11 45 0 45 0 C45 0 102 0 102 0 C102 0 134 0 134 0 C134 0 165 0 165 0 C165 0 223 0 223 0 C222 0 222 3 223 6 C222 9 222 11 223 11 C223 11 214 11 214 11 C187 11 165 40 165 76 C165 76 165 539 165 539 C165 539 165 545 165 545 C165 545 165 572 165 572 C199 588 248 601 279 601 C336 601 364 542 364 468 C364 468 364 76 364 76 C364 40 342 11 315 11 C315 11 307 11 307 11 C307 11 307 0 307 0 L307 0 Z M265 760 C265 760 364 905 364 905 C364 905 371 900 371 900 C371 900 285 711 285 711 C283 706 275 694 265 693 C255 692 247 706 245 711 C245 711 159 900 159 900 C159 900 165 905 165 905 C165 905 265 760 265 760 L265 760 Z " />
<glyph glyph-name="Omacron" unicode="&#x14c;" horiz-adv-x="695" d="M233 906 C233 906 470 906 470 906 C470 906 470 941 470 941 C470 941 233 941 233 941 C233 941 233 906 233 906 L233 906 Z M352 12 C219 12 135 205 135 399 C135 592 219 785 352 785 C484 785 568 592 568 399 C568 205 484 12 352 12 L352 12 Z M58 399 C58 197 172 -5 352 -5 C531 -5 645 197 645 399 C645 601 531 803 352 803 C172 803 58 601 58 399 L58 399 Z " />
<glyph glyph-name="omacron" unicode="&#x14d;" horiz-adv-x="528" d="M146 746 C146 746 382 746 382 746 C382 746 382 781 382 781 C382 781 146 781 146 781 C146 781 146 746 146 746 L146 746 Z M264 9 C184 9 120 147 120 319 C120 491 184 629 264 629 C345 629 409 491 409 319 C409 147 345 9 264 9 L264 9 Z M50 319 C50 139 145 -5 264 -5 C384 -5 479 139 479 319 C479 499 384 643 264 643 C145 643 50 499 50 319 L50 319 Z " />
<glyph glyph-name="Obreve" unicode="&#x14e;" horiz-adv-x="695" d="M265 1009 C279 948 317 899 352 899 C386 899 424 948 438 1009 C438 1009 427 1012 427 1012 C418 972 385 941 352 941 C318 941 285 972 276 1012 C276 1012 265 1009 265 1009 L265 1009 Z M352 12 C219 12 135 205 135 399 C135 592 219 785 352 785 C484 785 568 592 568 399 C568 205 484 12 352 12 L352 12 Z M58 399 C58 197 172 -5 352 -5 C531 -5 645 197 645 399 C645 601 531 803 352 803 C172 803 58 601 58 399 L58 399 Z " />
<glyph glyph-name="obreve" unicode="&#x14f;" horiz-adv-x="528" d="M178 849 C192 788 230 739 264 739 C299 739 337 788 351 849 C351 849 340 852 340 852 C331 812 297 781 264 781 C231 781 198 812 189 852 C189 852 178 849 178 849 L178 849 Z M264 9 C184 9 120 147 120 319 C120 491 184 629 264 629 C345 629 409 491 409 319 C409 147 345 9 264 9 L264 9 Z M50 319 C50 139 145 -5 264 -5 C384 -5 479 139 479 319 C479 499 384 643 264 643 C145 643 50 499 50 319 L50 319 Z " />
<glyph glyph-name="Racute" unicode="&#x154;" horiz-adv-x="539" d="M203 828 C203 828 314 957 314 957 C336 983 354 1006 354 1010 C354 1017 328 1036 319 1036 C316 1036 300 1012 282 982 C282 982 196 834 196 834 C196 834 203 828 203 828 L203 828 Z M48 786 C48 786 56 786 56 786 C83 786 105 758 105 721 C105 721 105 76 105 76 C105 40 83 11 56 11 C56 11 48 11 48 11 C48 11 48 0 48 0 C48 0 105 0 105 0 C105 0 140 0 140 0 C140 0 175 0 175 0 C175 0 232 0 232 0 C233 0 233 3 232 6 C233 9 233 11 232 11 C232 11 224 11 224 11 C197 11 175 40 175 76 C175 76 175 369 175 369 C175 369 222 369 222 369 C222 369 371 106 371 106 C424 12 440 0 513 0 C513 0 539 0 539 0 C539 0 539 14 539 14 C539 14 534 14 534 14 C514 14 507 23 466 93 C466 93 301 377 301 377 C390 402 455 484 455 583 C455 702 368 798 260 798 C260 798 175 798 175 798 C175 798 140 798 140 798 C140 798 105 798 105 798 C105 798 48 798 48 798 C48 798 48 786 48 786 L48 786 Z M243 386 C243 386 212 386 212 386 C212 386 175 386 175 386 C175 386 175 780 175 780 C175 780 260 780 260 780 C327 780 381 692 381 583 C381 473 320 386 243 386 L243 386 Z " />
<glyph glyph-name="Rcaron" unicode="&#x158;" horiz-adv-x="491" d="M48 786 C48 786 56 786 56 786 C83 786 105 758 105 721 C105 721 105 76 105 76 C105 40 83 11 56 11 C56 11 48 11 48 11 C48 11 48 0 48 0 C48 0 105 0 105 0 C105 0 140 0 140 0 C140 0 175 0 175 0 C175 0 232 0 232 0 C233 0 233 3 232 6 C233 9 233 11 232 11 C232 11 224 11 224 11 C197 11 175 40 175 76 C175 76 175 369 175 369 C175 369 243 369 243 369 C310 186 420 3 491 -43 C491 -43 498 -34 498 -34 C466 -13 380 170 304 378 C392 404 455 485 455 583 C455 702 368 798 260 798 C260 798 175 798 175 798 C175 798 140 798 140 798 C140 798 105 798 105 798 C105 798 48 798 48 798 C48 798 48 786 48 786 L48 786 Z M280 920 C280 920 380 1065 380 1065 C380 1065 386 1060 386 1060 C386 1060 300 871 300 871 C298 866 290 854 280 853 C270 852 262 866 260 871 C260 871 174 1060 174 1060 C174 1060 180 1065 180 1065 C180 1065 280 920 280 920 L280 920 Z M175 386 C175 386 175 780 175 780 C175 780 260 780 260 780 C327 780 381 692 381 583 C381 473 320 386 243 386 C243 386 175 386 175 386 L175 386 Z " />
<glyph glyph-name="rcaron" unicode="&#x159;" horiz-adv-x="347" d="M45 599 C87 588 102 578 102 522 C102 522 102 76 102 76 C102 40 80 11 53 11 C53 11 45 11 45 11 C45 11 45 0 45 0 C45 0 102 0 102 0 C102 0 134 0 134 0 C134 0 165 0 165 0 C165 0 223 0 223 0 C222 0 222 3 223 6 C222 9 222 11 223 11 C223 11 214 11 214 11 C187 11 165 40 165 76 C165 76 165 539 165 539 C165 539 165 545 165 545 C165 545 164 545 164 545 C164 545 164 555 164 555 C184 578 209 596 224 596 C249 596 282 570 307 570 C324 570 338 583 338 600 C338 624 317 643 274 643 C248 643 199 608 163 563 C163 563 156 638 156 638 C156 638 144 638 144 638 C144 638 45 606 45 606 C45 606 45 599 45 599 L45 599 Z M188 760 C188 760 288 905 288 905 C288 905 294 900 294 900 C294 900 208 711 208 711 C206 706 198 694 188 693 C178 692 170 706 168 711 C168 711 82 900 82 900 C82 900 88 905 88 905 C88 905 188 760 188 760 L188 760 Z " />
<glyph glyph-name="Sacute" unicode="&#x15a;" horiz-adv-x="442" d="M166 828 C166 828 277 957 277 957 C299 983 317 1006 317 1010 C317 1017 291 1036 281 1036 C279 1036 263 1012 245 982 C245 982 159 834 159 834 C159 834 166 828 166 828 L166 828 Z M42 162 C42 162 42 45 42 45 C90 17 172 -5 227 -5 C322 -5 398 88 398 204 C398 281 329 379 243 425 C162 468 97 550 97 609 C97 707 148 786 212 786 C219 786 230 784 242 780 C242 780 242 780 242 780 C279 769 320 729 333 690 C333 690 351 636 351 636 C351 636 361 636 361 636 C361 636 361 753 361 753 C361 753 355 742 355 742 C355 742 355 742 355 742 C355 742 361 753 361 753 C313 781 249 803 215 803 C123 803 49 704 49 581 C49 508 112 415 192 373 C278 328 348 240 348 175 C348 85 294 12 227 12 C222 12 216 12 210 13 C210 13 210 13 210 13 C149 19 82 72 62 133 C59 141 55 154 52 162 C52 162 42 162 42 162 L42 162 Z " />
<glyph glyph-name="sacute" unicode="&#x15b;" horiz-adv-x="358" d="M111 668 C111 668 222 797 222 797 C244 823 262 846 263 850 C263 857 237 876 227 876 C224 876 208 852 190 822 C190 822 104 674 104 674 C104 674 111 668 111 668 L111 668 Z M47 118 C47 118 47 33 47 33 C84 12 140 -5 174 -5 C248 -5 308 75 308 174 C308 226 265 301 212 341 C156 384 111 456 111 503 C111 573 145 629 188 629 C188 629 189 629 190 628 C190 628 190 628 190 628 C190 628 191 628 191 628 C193 626 196 625 200 623 C232 603 262 568 271 540 C272 535 274 527 276 523 C276 523 285 523 285 523 C285 523 285 600 285 600 C285 600 280 590 280 590 C280 590 280 590 280 590 C280 590 285 600 285 600 C243 624 200 643 188 643 C118 643 62 571 62 482 C62 423 109 341 167 297 C217 259 256 194 256 151 C256 72 221 9 177 9 C171 9 163 10 154 12 C117 23 80 57 64 97 C62 103 58 112 56 118 C56 118 47 118 47 118 L47 118 Z " />
<glyph glyph-name="Scircumflex" unicode="&#x15c;" horiz-adv-x="442" d="M42 162 C42 162 42 45 42 45 C90 17 172 -5 227 -5 C322 -5 398 88 398 204 C398 281 329 379 243 425 C162 468 97 550 97 609 C97 707 148 786 212 786 C219 786 230 784 242 780 C242 780 242 780 242 780 C279 769 320 729 333 690 C333 690 351 636 351 636 C351 636 361 636 361 636 C361 636 361 753 361 753 C361 753 355 742 355 742 C355 742 355 742 355 742 C355 742 361 753 361 753 C313 781 249 803 215 803 C123 803 49 704 49 581 C49 508 112 415 192 373 C278 328 348 240 348 175 C348 85 294 12 227 12 C222 12 216 12 210 13 C210 13 210 13 210 13 C149 19 82 72 62 133 C59 141 55 154 52 162 C52 162 42 162 42 162 L42 162 Z M212 976 C212 976 312 831 312 831 C312 831 319 836 319 836 C319 836 233 1025 233 1025 C230 1029 222 1042 212 1042 C202 1042 195 1030 192 1025 C192 1025 106 836 106 836 C106 836 113 831 113 831 C113 831 212 976 212 976 L212 976 Z " />
<glyph glyph-name="Scedilla" unicode="&#x15e;" horiz-adv-x="442" d="M42 162 C42 162 42 45 42 45 C90 17 172 -5 227 -5 C322 -5 398 88 398 204 C398 281 329 379 243 425 C162 468 97 550 97 609 C97 707 148 786 212 786 C219 786 230 784 242 780 C242 780 242 780 242 780 C279 769 320 729 333 690 C333 690 351 636 351 636 C351 636 361 636 361 636 C361 636 361 753 361 753 C361 753 355 742 355 742 C355 742 355 742 355 742 C355 742 361 753 361 753 C313 781 249 803 215 803 C123 803 49 704 49 581 C49 508 112 415 192 373 C278 328 348 240 348 175 C348 85 294 12 227 12 C222 12 216 12 210 13 C210 13 210 13 210 13 C149 19 82 72 62 133 C59 141 55 154 52 162 C52 162 42 162 42 162 L42 162 Z " />
<glyph glyph-name="scedilla" unicode="&#x15f;" horiz-adv-x="358" d="M47 118 C47 118 47 33 47 33 C84 12 140 -5 174 -5 C248 -5 308 75 308 174 C308 226 265 301 212 341 C156 384 111 456 111 503 C111 573 145 629 188 629 C188 629 189 629 190 628 C190 628 190 628 190 628 C190 628 191 628 191 628 C193 626 196 625 200 623 C232 603 262 568 271 540 C272 535 274 527 276 523 C276 523 285 523 285 523 C285 523 285 600 285 600 C285 600 280 590 280 590 C280 590 280 590 280 590 C280 590 285 600 285 600 C243 624 200 643 188 643 C118 643 62 571 62 482 C62 423 109 341 167 297 C217 259 256 194 256 151 C256 72 221 9 177 9 C171 9 163 10 154 12 C117 23 80 57 64 97 C62 103 58 112 56 118 C56 118 47 118 47 118 L47 118 Z " />
<glyph glyph-name="Scaron" unicode="&#x160;" horiz-adv-x="442" d="M42 162 C42 162 42 45 42 45 C90 17 172 -5 227 -5 C322 -5 398 88 398 204 C398 281 329 379 243 425 C162 468 97 550 97 609 C97 707 148 786 212 786 C219 786 230 784 242 780 C242 780 242 780 242 780 C279 769 320 729 333 690 C333 690 351 636 351 636 C351 636 361 636 361 636 C361 636 361 753 361 753 C361 753 355 742 355 742 C355 742 355 742 355 742 C355 742 361 753 361 753 C313 781 249 803 215 803 C123 803 49 704 49 581 C49 508 112 415 192 373 C278 328 348 240 348 175 C348 85 294 12 227 12 C222 12 216 12 210 13 C210 13 210 13 210 13 C149 19 82 72 62 133 C59 141 55 154 52 162 C52 162 42 162 42 162 L42 162 Z M212 920 C212 920 312 1065 312 1065 C312 1065 319 1060 319 1060 C319 1060 233 871 233 871 C230 866 222 854 212 853 C202 852 195 866 192 871 C192 871 106 1060 106 1060 C106 1060 113 1065 113 1065 C113 1065 212 920 212 920 L212 920 Z " />
<glyph glyph-name="scaron" unicode="&#x161;" horiz-adv-x="358" d="M47 118 C47 118 47 33 47 33 C84 12 140 -5 174 -5 C248 -5 308 75 308 174 C308 226 265 301 212 341 C156 384 111 456 111 503 C111 573 145 629 188 629 C188 629 189 629 190 628 C190 628 190 628 190 628 C190 628 191 628 191 628 C193 626 196 625 200 623 C232 603 262 568 271 540 C272 535 274 527 276 523 C276 523 285 523 285 523 C285 523 285 600 285 600 C285 600 280 590 280 590 C280 590 280 590 280 590 C280 590 285 600 285 600 C243 624 200 643 188 643 C118 643 62 571 62 482 C62 423 109 341 167 297 C217 259 256 194 256 151 C256 72 221 9 177 9 C171 9 163 10 154 12 C117 23 80 57 64 97 C62 103 58 112 56 118 C56 118 47 118 47 118 L47 118 Z M188 760 C188 760 288 905 288 905 C288 905 294 900 294 900 C294 900 208 711 208 711 C206 706 198 694 188 693 C178 692 170 706 168 711 C168 711 82 900 82 900 C82 900 88 905 88 905 C88 905 188 760 188 760 L188 760 Z " />
<glyph glyph-name="Tcaron" unicode="&#x164;" horiz-adv-x="556" d="M545 665 C542 700 537 755 534 789 C533 792 533 795 533 798 C533 798 516 798 516 798 C516 798 457 798 457 798 C457 798 100 798 100 798 C100 798 40 798 40 798 C40 798 23 798 23 798 C23 795 23 792 22 789 C19 755 15 700 12 665 C12 665 21 665 21 665 C21 665 35 700 35 700 C53 745 103 780 147 780 C147 780 243 780 243 780 C243 780 243 76 243 76 C243 40 221 11 194 11 C194 11 186 11 186 11 C186 11 186 0 186 0 C186 0 243 0 243 0 C243 0 278 0 278 0 C278 0 313 0 313 0 C313 0 371 0 371 0 C370 0 370 3 371 6 C370 9 370 11 371 11 C371 11 362 11 362 11 C335 11 313 40 313 76 C313 76 313 780 313 780 C313 780 409 780 409 780 C454 780 504 745 521 700 C521 700 536 665 536 665 C536 665 545 665 545 665 L545 665 Z M278 920 C278 920 378 1065 378 1065 C378 1065 384 1060 384 1060 C384 1060 298 871 298 871 C296 866 288 854 278 853 C268 852 260 866 258 871 C258 871 172 1060 172 1060 C172 1060 178 1065 178 1065 C178 1065 278 920 278 920 L278 920 Z " />
<glyph glyph-name="tcaron" unicode="&#x165;" horiz-adv-x="314" d="M283 638 C283 638 148 638 148 638 C148 638 148 805 148 805 C148 805 138 805 138 805 C138 805 90 629 90 629 C90 629 90 629 89 629 C89 629 116 728 116 728 C101 673 61 626 25 620 C25 620 25 613 25 613 C25 613 85 613 85 613 C85 613 85 143 85 143 C85 36 108 -5 167 -5 C217 -5 262 17 294 44 C294 44 290 49 290 49 C273 35 242 23 198 23 C162 23 148 53 148 132 C148 132 148 613 148 613 C148 613 283 613 283 613 C283 613 283 638 283 638 L283 638 Z M392 739 C409 785 422 840 422 847 C422 856 394 861 383 861 C371 861 358 796 353 754 C353 754 331 591 331 591 C331 591 339 588 339 588 C339 588 392 739 392 739 L392 739 Z M116 728 C116 728 117 730 117 730 C117 729 117 729 116 728 L116 728 Z " />
<glyph glyph-name="Utilde" unicode="&#x168;" horiz-adv-x="583" d="M200 893 C200 928 212 957 228 957 C270 957 306 895 348 895 C379 895 404 940 404 997 C404 997 393 997 393 997 C393 964 379 937 362 937 C320 937 284 999 242 999 C213 999 190 952 190 893 C190 893 200 893 200 893 L200 893 Z M564 798 C564 798 498 798 498 798 C498 798 488 798 488 798 C488 798 478 798 478 798 C478 798 409 798 409 798 C409 798 409 786 409 786 C409 786 419 786 419 786 C451 786 476 756 478 716 C478 716 477 221 477 221 C477 109 422 19 311 19 C214 19 165 116 165 237 C165 237 165 721 165 721 C165 758 187 786 214 786 C214 786 222 786 222 786 C223 786 223 789 222 792 C223 795 223 798 222 798 C222 798 165 798 165 798 C165 798 130 798 130 798 C130 798 95 798 95 798 C95 798 38 798 38 798 C38 798 38 786 38 786 C38 786 46 786 46 786 C73 786 95 758 95 721 C95 721 95 250 95 250 C95 109 164 -5 301 -5 C432 -5 498 92 498 214 C498 214 498 711 498 711 C499 753 523 786 554 786 C554 786 564 786 564 786 C564 786 564 798 564 798 L564 798 Z " />
<glyph glyph-name="utilde" unicode="&#x169;" horiz-adv-x="489" d="M138 733 C138 768 150 797 166 797 C208 797 244 735 286 735 C317 735 342 780 342 837 C342 837 331 837 331 837 C331 804 317 777 300 777 C257 777 222 839 180 839 C150 839 127 792 127 733 C127 733 138 733 138 733 L138 733 Z M277 626 C277 626 285 626 285 626 C312 626 334 598 334 561 C334 561 334 99 334 99 C334 99 334 66 334 66 C315 49 282 36 241 36 C176 36 135 92 135 162 C135 162 135 638 135 638 C135 638 104 638 104 638 C104 638 72 638 72 638 C72 638 15 638 15 638 C15 638 15 626 15 626 C15 626 23 626 23 626 C50 626 72 598 72 561 C72 561 72 155 72 155 C72 66 118 -5 192 -5 C243 -5 296 22 334 56 C334 56 334 16 334 16 C334 16 334 0 334 0 C334 0 347 0 347 0 C347 0 455 32 455 32 C454 32 454 32 455 33 C454 36 454 39 455 39 C412 49 397 60 397 116 C397 116 397 638 397 638 C397 638 366 638 366 638 C366 638 334 638 334 638 C334 638 277 638 277 638 C277 638 277 626 277 626 L277 626 Z " />
<glyph glyph-name="Umacron" unicode="&#x16a;" horiz-adv-x="583" d="M179 906 C179 906 415 906 415 906 C415 906 415 941 415 941 C415 941 179 941 179 941 C179 941 179 906 179 906 L179 906 Z M564 798 C564 798 498 798 498 798 C498 798 488 798 488 798 C488 798 478 798 478 798 C478 798 409 798 409 798 C409 798 409 786 409 786 C409 786 419 786 419 786 C451 786 476 756 478 716 C478 716 477 221 477 221 C477 109 422 19 311 19 C214 19 165 116 165 237 C165 237 165 721 165 721 C165 758 187 786 214 786 C214 786 222 786 222 786 C223 786 223 789 222 792 C223 795 223 798 222 798 C222 798 165 798 165 798 C165 798 130 798 130 798 C130 798 95 798 95 798 C95 798 38 798 38 798 C38 798 38 786 38 786 C38 786 46 786 46 786 C73 786 95 758 95 721 C95 721 95 250 95 250 C95 109 164 -5 301 -5 C432 -5 498 92 498 214 C498 214 498 711 498 711 C499 753 523 786 554 786 C554 786 564 786 564 786 C564 786 564 798 564 798 L564 798 Z " />
<glyph glyph-name="umacron" unicode="&#x16b;" horiz-adv-x="489" d="M116 746 C116 746 353 746 353 746 C353 746 353 781 353 781 C353 781 116 781 116 781 C116 781 116 746 116 746 L116 746 Z M277 626 C277 626 285 626 285 626 C312 626 334 598 334 561 C334 561 334 99 334 99 C334 99 334 66 334 66 C315 49 282 36 241 36 C176 36 135 92 135 162 C135 162 135 638 135 638 C135 638 104 638 104 638 C104 638 72 638 72 638 C72 638 15 638 15 638 C15 638 15 626 15 626 C15 626 23 626 23 626 C50 626 72 598 72 561 C72 561 72 155 72 155 C72 66 118 -5 192 -5 C243 -5 296 22 334 56 C334 56 334 16 334 16 C334 16 334 0 334 0 C334 0 347 0 347 0 C347 0 455 32 455 32 C454 32 454 32 455 33 C454 36 454 39 455 39 C412 49 397 60 397 116 C397 116 397 638 397 638 C397 638 366 638 366 638 C366 638 334 638 334 638 C334 638 277 638 277 638 C277 638 277 626 277 626 L277 626 Z " />
<glyph glyph-name="Ubreve" unicode="&#x16c;" horiz-adv-x="583" d="M211 1009 C224 948 262 899 297 899 C331 899 369 948 383 1009 C383 1009 372 1012 372 1012 C363 972 330 941 297 941 C264 941 230 972 221 1012 C221 1012 211 1009 211 1009 L211 1009 Z M564 798 C564 798 498 798 498 798 C498 798 488 798 488 798 C488 798 478 798 478 798 C478 798 409 798 409 798 C409 798 409 786 409 786 C409 786 419 786 419 786 C451 786 476 756 478 716 C478 716 477 221 477 221 C477 109 422 19 311 19 C214 19 165 116 165 237 C165 237 165 721 165 721 C165 758 187 786 214 786 C214 786 222 786 222 786 C223 786 223 789 222 792 C223 795 223 798 222 798 C222 798 165 798 165 798 C165 798 130 798 130 798 C130 798 95 798 95 798 C95 798 38 798 38 798 C38 798 38 786 38 786 C38 786 46 786 46 786 C73 786 95 758 95 721 C95 721 95 250 95 250 C95 109 164 -5 301 -5 C432 -5 498 92 498 214 C498 214 498 711 498 711 C499 753 523 786 554 786 C554 786 564 786 564 786 C564 786 564 798 564 798 L564 798 Z " />
<glyph glyph-name="ubreve" unicode="&#x16d;" horiz-adv-x="489" d="M148 849 C162 788 200 739 235 739 C269 739 307 788 321 849 C321 849 310 852 310 852 C301 812 268 781 235 781 C201 781 168 812 159 852 C159 852 148 849 148 849 L148 849 Z M277 626 C277 626 285 626 285 626 C312 626 334 598 334 561 C334 561 334 99 334 99 C334 99 334 66 334 66 C315 49 282 36 241 36 C176 36 135 92 135 162 C135 162 135 638 135 638 C135 638 104 638 104 638 C104 638 72 638 72 638 C72 638 15 638 15 638 C15 638 15 626 15 626 C15 626 23 626 23 626 C50 626 72 598 72 561 C72 561 72 155 72 155 C72 66 118 -5 192 -5 C243 -5 296 22 334 56 C334 56 334 16 334 16 C334 16 334 0 334 0 C334 0 347 0 347 0 C347 0 455 32 455 32 C454 32 454 32 455 33 C454 36 454 39 455 39 C412 49 397 60 397 116 C397 116 397 638 397 638 C397 638 366 638 366 638 C366 638 334 638 334 638 C334 638 277 638 277 638 C277 638 277 626 277 626 L277 626 Z " />
<glyph glyph-name="Uring" unicode="&#x16e;" horiz-adv-x="583" d="M297 847 C258 847 220 886 220 925 C220 969 254 1004 297 1004 C340 1004 374 969 374 925 C374 886 335 847 297 847 L297 847 Z M202 925 C202 879 249 833 297 833 C344 833 391 879 391 925 C391 977 349 1018 297 1018 C244 1018 202 977 202 925 L202 925 Z M564 798 C564 798 498 798 498 798 C498 798 488 798 488 798 C488 798 478 798 478 798 C478 798 409 798 409 798 C409 798 409 786 409 786 C409 786 419 786 419 786 C451 786 476 756 478 716 C478 716 477 221 477 221 C477 109 422 19 311 19 C214 19 165 116 165 237 C165 237 165 721 165 721 C165 758 187 786 214 786 C214 786 222 786 222 786 C223 786 223 789 222 792 C223 795 223 798 222 798 C222 798 165 798 165 798 C165 798 130 798 130 798 C130 798 95 798 95 798 C95 798 38 798 38 798 C38 798 38 786 38 786 C38 786 46 786 46 786 C73 786 95 758 95 721 C95 721 95 250 95 250 C95 109 164 -5 301 -5 C432 -5 498 92 498 214 C498 214 498 711 498 711 C499 753 523 786 554 786 C554 786 564 786 564 786 C564 786 564 798 564 798 L564 798 Z " />
<glyph glyph-name="uring" unicode="&#x16f;" horiz-adv-x="489" d="M235 687 C196 687 158 726 158 765 C158 809 192 844 235 844 C278 844 312 809 312 765 C312 726 273 687 235 687 L235 687 Z M140 765 C140 719 187 673 235 673 C282 673 329 719 329 765 C329 817 287 858 235 858 C182 858 140 817 140 765 L140 765 Z M277 626 C277 626 285 626 285 626 C312 626 334 598 334 561 C334 561 334 99 334 99 C334 99 334 66 334 66 C315 49 282 36 241 36 C176 36 135 92 135 162 C135 162 135 638 135 638 C135 638 104 638 104 638 C104 638 72 638 72 638 C72 638 15 638 15 638 C15 638 15 626 15 626 C15 626 23 626 23 626 C50 626 72 598 72 561 C72 561 72 155 72 155 C72 66 118 -5 192 -5 C243 -5 296 22 334 56 C334 56 334 16 334 16 C334 16 334 0 334 0 C334 0 347 0 347 0 C347 0 455 32 455 32 C454 32 454 32 455 33 C454 36 454 39 455 39 C412 49 397 60 397 116 C397 116 397 638 397 638 C397 638 366 638 366 638 C366 638 334 638 334 638 C334 638 277 638 277 638 C277 638 277 626 277 626 L277 626 Z " />
<glyph glyph-name="Wcircumflex" unicode="&#x174;" horiz-adv-x="786" d="M783 798 C783 798 728 798 728 798 C728 798 717 798 717 798 C717 798 707 798 707 798 C707 798 626 798 626 798 C627 798 627 795 626 792 C627 789 627 786 626 786 C626 786 640 786 640 786 C674 786 696 761 693 727 C693 727 571 114 571 114 C571 114 418 808 418 808 C418 808 401 808 401 808 C401 808 261 105 261 105 C261 105 134 730 134 730 C131 763 150 786 179 786 C179 786 189 786 189 786 C189 786 189 798 189 798 C189 798 120 798 120 798 C120 798 81 798 81 798 C81 798 43 798 43 798 C43 798 0 798 0 798 C0 798 0 786 0 786 C0 786 7 786 7 786 C28 786 53 758 61 721 C61 721 61 721 61 721 C61 721 237 -15 237 -15 C237 -15 255 -15 255 -15 C255 -15 418 808 418 808 C418 808 392 673 392 673 C392 673 545 -15 545 -15 C545 -15 563 -15 563 -15 C563 -15 714 728 714 728 C724 762 749 786 774 786 C774 786 783 786 783 786 C783 786 783 798 783 798 L783 798 Z M410 976 C410 976 509 831 509 831 C509 831 516 836 516 836 C516 836 430 1025 430 1025 C428 1029 420 1042 410 1042 C400 1042 392 1030 390 1025 C390 1025 304 836 304 836 C304 836 310 831 310 831 C310 831 410 976 410 976 L410 976 Z " />
<glyph glyph-name="Ycircumflex" unicode="&#x176;" horiz-adv-x="529" d="M362 11 C362 11 353 11 353 11 C327 11 306 38 305 71 C305 71 305 76 305 76 C305 76 305 367 305 367 C305 367 305 367 305 367 C305 367 454 721 454 721 C454 721 454 721 454 721 C469 758 500 786 523 786 C523 786 531 786 531 786 C531 786 531 798 531 798 C531 798 486 798 486 798 C486 798 475 798 475 798 C475 798 465 798 465 798 C465 798 381 798 381 798 C381 798 381 786 381 786 C381 786 393 786 393 786 C429 786 443 752 427 706 C427 706 290 375 290 375 C290 375 165 721 165 721 C165 721 165 721 165 721 C152 758 166 786 197 786 C197 786 206 786 206 786 C207 786 207 789 206 792 C207 795 207 798 206 798 C206 798 137 798 137 798 C137 798 95 798 95 798 C95 798 54 798 54 798 C54 798 16 798 16 798 C16 798 16 786 16 786 C16 786 22 786 22 786 C42 786 69 758 83 721 C83 721 84 721 84 721 C84 721 235 328 235 328 C235 328 235 76 235 76 C235 40 213 11 186 11 C186 11 177 11 177 11 C177 11 177 0 177 0 C177 0 235 0 235 0 C235 0 270 0 270 0 C270 0 305 0 305 0 C305 0 362 0 362 0 C362 0 362 11 362 11 L362 11 Z M270 976 C270 976 369 831 369 831 C369 831 376 836 376 836 C376 836 290 1025 290 1025 C288 1029 280 1042 270 1042 C260 1042 252 1030 250 1025 C250 1025 164 836 164 836 C164 836 170 831 170 831 C170 831 270 976 270 976 L270 976 Z " />
<glyph glyph-name="Ydieresis" unicode="&#x178;" horiz-adv-x="529" d="M357 868 C379 868 396 885 396 906 C396 928 379 945 357 945 C336 945 319 928 319 906 C319 885 336 868 357 868 L357 868 Z M182 868 C204 868 221 885 221 906 C221 928 204 945 182 945 C161 945 144 928 144 906 C144 885 161 868 182 868 L182 868 Z M362 11 C362 11 353 11 353 11 C327 11 306 38 305 71 C305 71 305 76 305 76 C305 76 305 367 305 367 C305 367 305 367 305 367 C305 367 454 721 454 721 C454 721 454 721 454 721 C469 758 500 786 523 786 C523 786 531 786 531 786 C531 786 531 798 531 798 C531 798 486 798 486 798 C486 798 475 798 475 798 C475 798 465 798 465 798 C465 798 381 798 381 798 C381 798 381 786 381 786 C381 786 393 786 393 786 C429 786 443 752 427 706 C427 706 290 375 290 375 C290 375 165 721 165 721 C165 721 165 721 165 721 C152 758 166 786 197 786 C197 786 206 786 206 786 C207 786 207 789 206 792 C207 795 207 798 206 798 C206 798 137 798 137 798 C137 798 95 798 95 798 C95 798 54 798 54 798 C54 798 16 798 16 798 C16 798 16 786 16 786 C16 786 22 786 22 786 C42 786 69 758 83 721 C83 721 84 721 84 721 C84 721 235 328 235 328 C235 328 235 76 235 76 C235 40 213 11 186 11 C186 11 177 11 177 11 C177 11 177 0 177 0 C177 0 235 0 235 0 C235 0 270 0 270 0 C270 0 305 0 305 0 C305 0 362 0 362 0 C362 0 362 11 362 11 L362 11 Z " />
<glyph glyph-name="Zacute" unicode="&#x179;" horiz-adv-x="523" d="M296 828 C296 828 407 957 407 957 C429 983 447 1006 447 1010 C447 1017 421 1036 411 1036 C408 1036 393 1012 375 982 C375 982 289 834 289 834 C289 834 296 828 296 828 L296 828 Z M450 9 C456 42 465 95 470 127 C470 127 470 128 468 128 C462 131 457 133 457 133 C457 133 447 108 447 108 C426 58 369 18 319 18 C319 18 135 18 135 18 C135 18 466 798 466 798 C466 798 426 798 426 798 C426 798 386 798 386 798 C386 798 188 798 188 798 C188 798 128 798 128 798 C128 798 112 798 112 798 C112 798 109 789 109 789 C102 761 90 716 82 688 C82 688 91 688 91 688 C91 688 101 702 101 702 C129 745 188 780 233 780 C233 780 378 780 378 780 C378 780 48 0 48 0 C48 0 88 0 88 0 C88 0 127 0 127 0 C127 0 372 0 372 0 C372 0 446 0 446 0 C446 0 448 0 448 0 C449 3 449 7 450 9 L450 9 Z " />
<glyph glyph-name="zacute" unicode="&#x17a;" horiz-adv-x="419" d="M152 668 C152 668 263 797 263 797 C285 823 303 846 303 850 C303 857 277 876 267 876 C265 876 249 852 231 822 C231 822 145 674 145 674 C145 674 152 668 152 668 L152 668 Z M192 623 C192 623 192 623 192 623 C192 623 292 624 292 624 C292 624 52 0 52 0 C52 0 90 0 90 0 C90 0 127 0 127 0 C127 0 278 0 278 0 C278 0 352 0 352 0 C352 0 355 0 355 0 C355 2 356 5 356 7 C362 39 371 91 377 123 C377 123 376 124 374 124 C368 127 363 129 363 129 C363 129 353 104 353 104 C332 54 275 14 225 14 C225 14 132 14 132 14 C132 14 370 638 370 638 C370 638 334 638 334 638 C334 638 297 638 297 638 C297 638 147 638 147 638 C147 638 87 638 87 638 C87 638 71 638 71 638 C70 636 69 633 69 630 C63 609 54 575 48 554 C48 554 57 554 57 554 C57 554 66 564 66 564 C91 597 148 623 192 623 L192 623 Z " />
<glyph glyph-name="Zdotaccent" unicode="&#x17b;" horiz-adv-x="523" d="M297 868 C318 868 335 885 335 906 C335 928 318 945 297 945 C276 945 259 928 259 906 C259 885 276 868 297 868 L297 868 Z M450 9 C456 42 465 95 470 127 C470 127 470 128 468 128 C462 131 457 133 457 133 C457 133 447 108 447 108 C426 58 369 18 319 18 C319 18 135 18 135 18 C135 18 466 798 466 798 C466 798 426 798 426 798 C426 798 386 798 386 798 C386 798 188 798 188 798 C188 798 128 798 128 798 C128 798 112 798 112 798 C112 798 109 789 109 789 C102 761 90 716 82 688 C82 688 91 688 91 688 C91 688 101 702 101 702 C129 745 188 780 233 780 C233 780 378 780 378 780 C378 780 48 0 48 0 C48 0 88 0 88 0 C88 0 127 0 127 0 C127 0 372 0 372 0 C372 0 446 0 446 0 C446 0 448 0 448 0 C449 3 449 7 450 9 L450 9 Z " />
<glyph glyph-name="zdotaccent" unicode="&#x17c;" horiz-adv-x="419" d="M229 708 C250 708 267 725 267 746 C267 768 250 785 229 785 C207 785 190 768 190 746 C190 725 207 708 229 708 L229 708 Z M192 623 C192 623 192 623 192 623 C192 623 292 624 292 624 C292 624 52 0 52 0 C52 0 90 0 90 0 C90 0 127 0 127 0 C127 0 278 0 278 0 C278 0 352 0 352 0 C352 0 355 0 355 0 C355 2 356 5 356 7 C362 39 371 91 377 123 C377 123 376 124 374 124 C368 127 363 129 363 129 C363 129 353 104 353 104 C332 54 275 14 225 14 C225 14 132 14 132 14 C132 14 370 638 370 638 C370 638 334 638 334 638 C334 638 297 638 297 638 C297 638 147 638 147 638 C147 638 87 638 87 638 C87 638 71 638 71 638 C70 636 69 633 69 630 C63 609 54 575 48 554 C48 554 57 554 57 554 C57 554 66 564 66 564 C91 597 148 623 192 623 L192 623 Z " />
<glyph glyph-name="Zcaron" unicode="&#x17d;" horiz-adv-x="523" d="M297 920 C297 920 397 1065 397 1065 C397 1065 403 1060 403 1060 C403 1060 317 871 317 871 C315 866 307 854 297 853 C287 852 279 866 277 871 C277 871 191 1060 191 1060 C191 1060 197 1065 197 1065 C197 1065 297 920 297 920 L297 920 Z M450 9 C456 42 465 95 470 127 C470 127 470 128 468 128 C462 131 457 133 457 133 C457 133 447 108 447 108 C426 58 369 18 319 18 C319 18 135 18 135 18 C135 18 466 798 466 798 C466 798 426 798 426 798 C426 798 386 798 386 798 C386 798 188 798 188 798 C188 798 128 798 128 798 C128 798 112 798 112 798 C112 798 109 789 109 789 C102 761 90 716 82 688 C82 688 91 688 91 688 C91 688 101 702 101 702 C129 745 188 780 233 780 C233 780 378 780 378 780 C378 780 48 0 48 0 C48 0 88 0 88 0 C88 0 127 0 127 0 C127 0 372 0 372 0 C372 0 446 0 446 0 C446 0 448 0 448 0 C449 3 449 7 450 9 L450 9 Z " />
<glyph glyph-name="zcaron" unicode="&#x17e;" horiz-adv-x="419" d="M192 623 C192 623 192 623 192 623 C192 623 292 624 292 624 C292 624 52 0 52 0 C52 0 90 0 90 0 C90 0 127 0 127 0 C127 0 278 0 278 0 C278 0 352 0 352 0 C352 0 355 0 355 0 C355 2 356 5 356 7 C362 39 371 91 377 123 C377 123 376 124 374 124 C368 127 363 129 363 129 C363 129 353 104 353 104 C332 54 275 14 225 14 C225 14 132 14 132 14 C132 14 370 638 370 638 C370 638 334 638 334 638 C334 638 297 638 297 638 C297 638 147 638 147 638 C147 638 87 638 87 638 C87 638 71 638 71 638 C70 636 69 633 69 630 C63 609 54 575 48 554 C48 554 57 554 57 554 C57 554 66 564 66 564 C91 597 148 623 192 623 L192 623 Z M229 760 C229 760 328 905 328 905 C328 905 335 900 335 900 C335 900 249 711 249 711 C247 706 239 694 229 693 C219 692 211 706 209 711 C209 711 123 900 123 900 C123 900 129 905 129 905 C129 905 229 760 229 760 L229 760 Z " />
<glyph glyph-name="SmallLetterOwithogon" unicode="&#x1eb;" horiz-adv-x="654" d="M649 -51 C649 -51 643 -46 643 -46 C624 -69 571 -88 524 -88 C460 -88 389 -52 339 -5 C501 0 604 172 604 346 C604 521 498 696 332 696 C166 696 60 521 60 346 C60 176 159 6 317 -4 C388 -74 469 -129 518 -129 C554 -129 612 -94 649 -51 L649 -51 Z M332 11 C208 11 129 178 129 346 C129 513 208 680 332 680 C456 680 535 513 535 346 C535 178 456 11 332 11 L332 11 Z " />
<glyph glyph-name="CapitalLetterAwithdo" unicode="&#x226;" horiz-adv-x="556" d="M266 868 C288 868 305 885 305 906 C305 928 288 945 266 945 C245 945 228 928 228 906 C228 885 245 868 266 868 L266 868 Z M549 11 C549 11 541 11 541 11 C520 11 497 35 485 66 C485 66 275 816 275 816 C275 816 258 816 258 816 C258 816 241 747 241 747 C241 747 237 739 237 739 C237 739 238 735 238 735 C238 735 73 70 73 70 C63 37 36 11 10 11 C10 11 2 11 2 11 C2 11 2 0 2 0 C2 0 56 0 56 0 C56 0 68 0 68 0 C68 0 79 0 79 0 C79 0 164 0 164 0 C164 0 164 11 164 11 C164 11 151 11 151 11 C113 11 91 47 101 91 C101 91 101 91 101 91 C101 91 145 275 145 275 C145 275 356 275 356 275 C356 275 407 76 407 76 C407 76 407 76 407 76 C416 40 395 11 359 11 C359 11 345 11 345 11 C345 11 345 0 345 0 C345 0 427 0 427 0 C427 0 465 0 465 0 C465 0 503 0 503 0 C503 0 549 0 549 0 C549 0 549 11 549 11 L549 11 Z M352 293 C352 293 149 293 149 293 C149 293 247 700 247 700 C247 700 352 293 352 293 L352 293 Z " />
<glyph glyph-name="LETTERSMALLCAPITALG" unicode="&#x262;" horiz-adv-x="688" d="M595 325 C579 324 557 324 537 324 C537 324 537 325 537 325 C537 325 509 325 509 325 C509 325 481 325 481 325 C481 325 481 324 481 324 C461 324 439 324 423 325 C423 325 423 313 423 313 C423 313 432 313 432 313 C459 313 481 284 481 248 C481 248 481 47 481 47 C429 26 367 11 326 11 C217 11 129 160 129 346 C129 531 217 680 326 680 C339 680 355 678 372 675 C432 661 493 609 512 554 C515 546 519 533 522 525 C522 525 532 525 532 525 C532 525 532 635 532 635 C473 669 382 696 326 696 C178 696 60 540 60 346 C60 151 178 -5 326 -5 C384 -5 478 22 537 57 C537 57 537 248 537 248 C538 284 559 313 586 313 C586 313 595 313 595 313 C595 313 595 325 595 325 L595 325 Z " />
<glyph glyph-name="LETTERSMALLCAPITALI" unicode="&#x26a;" horiz-adv-x="261" d="M43 680 C43 680 52 680 52 680 C79 679 101 651 101 615 C101 615 101 76 101 76 C101 40 79 11 52 11 C52 11 43 11 43 11 C43 11 43 0 43 0 C43 0 101 0 101 0 C101 0 132 0 132 0 C132 0 164 0 164 0 C164 0 221 0 221 0 C222 0 222 3 221 6 C222 9 222 11 221 11 C221 11 213 11 213 11 C186 11 164 40 164 76 C164 76 164 615 164 615 C164 651 186 679 213 680 C213 680 221 680 221 680 C222 679 222 682 221 685 C222 689 222 691 221 691 C221 691 164 691 164 691 C164 691 132 691 132 691 C132 691 101 691 101 691 C101 691 43 691 43 691 C43 691 43 680 43 680 L43 680 Z " />
<glyph glyph-name="LETTERSMALLCAPITALN" unicode="&#x274;" horiz-adv-x="561" d="M524 691 C524 691 467 691 467 691 C467 691 457 691 457 691 C457 691 448 691 448 691 C448 691 390 691 390 691 C390 691 390 680 390 680 C390 680 399 680 399 680 C426 679 448 651 448 615 C448 615 448 99 448 99 C448 99 156 691 156 691 C156 691 119 691 119 691 C119 691 109 691 109 691 C109 691 100 691 100 691 C100 691 42 691 42 691 C42 691 42 680 42 680 C42 680 51 680 51 680 C78 679 100 651 100 615 C100 615 100 76 100 76 C100 40 78 11 51 11 C51 11 42 11 42 11 C42 11 42 0 42 0 C42 0 100 0 100 0 C100 0 109 0 109 0 C109 0 119 0 119 0 C119 0 176 0 176 0 C176 0 176 11 176 11 C176 11 167 11 167 11 C141 11 119 40 119 76 C119 76 119 625 119 625 C119 625 419 25 419 25 C419 25 438 -13 438 -13 C438 -13 467 -13 467 -13 C467 -13 467 48 467 48 C467 48 467 615 467 615 C467 651 488 679 516 680 C516 680 524 680 524 680 C524 680 524 691 524 691 L524 691 Z " />
<glyph glyph-name="LETTERSMALLCAPITALR" unicode="&#x280;" horiz-adv-x="496" d="M49 680 C49 680 58 680 58 680 C85 679 107 651 107 615 C107 615 107 76 107 76 C107 40 85 11 58 11 C58 11 49 11 49 11 C49 11 49 0 49 0 C49 0 107 0 107 0 C107 0 138 0 138 0 C138 0 170 0 170 0 C170 0 227 0 227 0 C227 0 227 11 227 11 C227 11 219 11 219 11 C192 11 171 38 170 71 C170 71 170 76 170 76 C170 76 170 319 170 319 C170 319 198 319 198 319 C198 319 333 106 333 106 C393 12 408 0 473 0 C473 0 497 0 497 0 C497 0 497 12 497 12 C497 12 492 12 492 12 C473 12 465 21 419 94 C419 94 270 326 270 326 C350 348 408 420 408 506 C408 609 329 691 229 691 C229 691 170 691 170 691 C170 691 138 691 138 691 C138 691 107 691 107 691 C107 691 49 691 49 691 C49 691 49 680 49 680 L49 680 Z M217 335 C217 335 188 335 188 335 C188 335 170 335 170 335 C170 335 170 675 170 675 C170 675 229 675 229 675 C292 675 342 600 342 506 C342 411 287 335 217 335 L217 335 Z " />
<glyph glyph-name="LETTERSMALLCAPITALY" unicode="&#x28f;" horiz-adv-x="481" d="M336 11 C336 11 327 11 327 11 C300 11 279 40 278 76 C278 76 278 318 278 318 C278 318 409 622 409 622 C425 655 454 679 476 680 C476 680 483 680 483 680 C483 680 483 691 483 691 C483 691 438 691 438 691 C438 691 429 691 429 691 C429 691 419 691 419 691 C419 691 335 691 335 691 C335 691 335 680 335 680 C335 680 347 680 347 680 C382 679 397 648 383 606 C383 606 262 320 262 320 C262 320 158 615 158 615 C158 615 158 615 158 615 C145 651 160 679 190 680 C190 680 200 680 200 680 C200 680 200 691 200 691 C200 691 131 691 131 691 C131 691 93 691 93 691 C93 691 56 691 56 691 C56 691 18 691 18 691 C18 691 18 680 18 680 C18 680 24 680 24 680 C43 679 69 654 84 621 C84 621 215 287 215 287 C215 287 215 76 215 76 C215 40 193 11 167 11 C167 11 158 11 158 11 C158 11 158 0 158 0 C158 0 215 0 215 0 C215 0 247 0 247 0 C247 0 278 0 278 0 C278 0 336 0 336 0 C336 0 336 11 336 11 L336 11 Z " />
<glyph glyph-name="LETTERSMALLCAPITALB" unicode="&#x299;" horiz-adv-x="478" d="M49 680 C49 680 58 680 58 680 C85 679 107 651 107 615 C107 615 107 76 107 76 C107 40 85 11 58 11 C58 11 49 11 49 11 C49 11 49 0 49 0 C49 0 107 0 107 0 C107 0 138 0 138 0 C138 0 170 0 170 0 C170 0 247 0 247 0 C364 0 458 81 458 182 C458 272 378 345 272 359 C350 381 405 448 405 529 C405 619 327 691 229 691 C229 691 170 691 170 691 C170 691 138 691 138 691 C138 691 107 691 107 691 C107 691 49 691 49 691 C49 691 49 680 49 680 L49 680 Z M229 361 C229 361 213 360 213 360 C213 360 170 360 170 360 C170 360 170 675 170 675 C170 675 229 675 229 675 C292 675 342 610 342 529 C342 440 293 369 229 361 C229 361 229 361 229 361 L229 361 Z M170 349 C170 349 216 349 216 349 C314 349 392 275 392 182 C392 90 325 16 240 16 C240 16 170 16 170 16 C170 16 170 349 170 349 L170 349 Z " />
<glyph glyph-name="LETTERSMALLCAPITALH" unicode="&#x29c;" horiz-adv-x="632" d="M593 691 C593 691 535 691 535 691 C535 691 504 691 504 691 C504 691 472 691 472 691 C472 691 415 691 415 691 C415 691 415 680 415 680 C415 680 424 680 424 680 C450 679 472 651 472 615 C472 615 472 358 472 358 C472 358 162 358 162 358 C162 358 162 615 162 615 C162 651 184 679 211 680 C211 680 219 680 219 680 C219 681 219 683 220 685 C219 689 219 691 220 691 C220 691 162 691 162 691 C162 691 131 691 131 691 C131 691 99 691 99 691 C99 691 42 691 42 691 C42 691 42 680 42 680 C42 680 50 680 50 680 C77 679 99 651 99 615 C99 615 99 76 99 76 C99 40 77 11 50 11 C50 11 42 11 42 11 C42 11 42 0 42 0 C42 0 99 0 99 0 C99 0 131 0 131 0 C131 0 162 0 162 0 C162 0 220 0 220 0 C219 0 219 3 220 6 C219 9 219 11 220 11 C220 11 211 11 211 11 C184 11 162 40 162 76 C162 76 162 342 162 342 C162 342 472 342 472 342 C472 342 472 76 472 76 C472 40 450 11 424 11 C424 11 415 11 415 11 C415 11 415 0 415 0 C415 0 472 0 472 0 C472 0 504 0 504 0 C504 0 535 0 535 0 C535 0 593 0 593 0 C593 0 593 11 593 11 C593 11 584 11 584 11 C557 11 535 40 535 76 C535 76 535 615 535 615 C535 651 557 679 584 680 C584 680 593 680 593 680 C593 680 593 691 593 691 L593 691 Z M219 680 C219 680 220 680 220 680 C220 680 220 680 219 680 L219 680 Z " />
<glyph glyph-name="LETTERSMALLCAPITALL" unicode="&#x29f;" horiz-adv-x="476" d="M389 131 C389 131 379 106 379 106 C358 56 302 16 252 16 C252 16 162 16 162 16 C162 16 162 615 162 615 C162 651 184 679 211 680 C211 680 219 680 219 680 C219 681 219 683 220 685 C219 689 219 691 220 691 C220 691 162 691 162 691 C162 691 131 691 131 691 C131 691 99 691 99 691 C99 691 42 691 42 691 C42 691 42 680 42 680 C42 680 50 680 50 680 C77 679 99 651 99 615 C99 615 99 76 99 76 C99 40 77 11 50 11 C50 11 42 11 42 11 C42 11 42 0 42 0 C42 0 99 0 99 0 C99 0 131 0 131 0 C131 0 162 0 162 0 C162 0 304 0 304 0 C304 0 379 0 379 0 C379 0 381 0 381 0 C381 2 382 6 382 8 C388 40 397 92 403 125 C398 127 389 131 389 131 C389 131 389 131 389 131 L389 131 Z M219 680 C219 680 220 680 220 680 C220 680 220 680 219 680 L219 680 Z " />
<glyph glyph-name="LETTERSMALLCAPITALA" unicode="&#x1d00;" horiz-adv-x="507" d="M500 11 C500 11 493 11 493 11 C471 11 446 37 434 70 C434 70 252 707 252 707 C252 707 236 707 236 707 C236 707 219 638 219 638 C219 638 218 637 218 637 C218 637 218 636 218 636 C218 636 76 76 76 76 C76 76 76 76 76 76 C67 40 38 11 11 11 C11 11 2 11 2 11 C2 11 2 0 2 0 C2 0 57 0 57 0 C57 0 67 0 67 0 C67 0 78 0 78 0 C78 0 162 0 162 0 C162 0 162 11 162 11 C162 11 150 11 150 11 C114 11 92 42 98 82 C98 82 137 238 137 238 C137 238 323 238 323 238 C323 238 366 74 366 74 C374 39 353 11 318 11 C318 11 305 11 305 11 C305 11 305 0 305 0 C305 0 386 0 386 0 C386 0 420 0 420 0 C420 0 454 0 454 0 C454 0 500 0 500 0 C500 0 500 11 500 11 L500 11 Z M319 255 C319 255 141 255 141 255 C141 255 227 604 227 604 C227 604 319 255 319 255 L319 255 Z " />
<glyph glyph-name="LETTERSMALLCAPITALC" unicode="&#x1d04;" horiz-adv-x="612" d="M552 525 C552 525 552 635 552 635 C493 669 398 696 337 696 C183 696 60 540 60 346 C60 151 183 -5 337 -5 C398 -5 493 22 552 56 C552 56 548 64 548 64 C548 64 548 64 548 64 C548 64 552 56 552 56 C552 56 552 167 552 167 C552 167 542 167 542 167 C539 158 535 146 532 138 C510 75 437 22 361 12 C353 11 345 11 337 11 C222 11 129 160 129 346 C129 531 222 680 337 680 C353 680 373 678 393 674 C454 660 514 608 532 554 C535 545 539 533 542 525 C542 525 552 525 552 525 L552 525 Z " />
<glyph glyph-name="LETTERSMALLCAPITALD" unicode="&#x1d05;" horiz-adv-x="575" d="M49 680 C49 680 58 680 58 680 C85 679 107 651 107 615 C107 615 107 76 107 76 C107 40 85 11 58 11 C58 11 49 11 49 11 C49 11 49 0 49 0 C49 0 107 0 107 0 C107 0 138 0 138 0 C138 0 170 0 170 0 C170 0 250 0 250 0 C403 0 525 154 525 346 C525 537 394 691 230 691 C230 691 170 691 170 691 C170 691 138 691 138 691 C138 691 107 691 107 691 C107 691 49 691 49 691 C49 691 49 680 49 680 L49 680 Z M170 16 C170 16 170 675 170 675 C170 675 230 675 230 675 C359 675 462 529 462 346 C462 162 368 16 250 16 C250 16 170 16 170 16 L170 16 Z " />
<glyph glyph-name="LETTERSMALLCAPITALE" unicode="&#x1d07;" horiz-adv-x="476" d="M314 282 C314 282 314 348 314 348 C314 348 314 355 314 355 C314 355 314 363 314 363 C314 363 314 421 314 421 C314 421 304 421 304 421 C304 421 302 412 302 412 C294 385 249 363 202 363 C202 363 162 363 162 363 C162 363 162 675 162 675 C162 675 234 675 234 675 C290 675 347 636 363 587 C363 587 368 572 368 572 C368 572 376 572 376 572 C376 572 376 683 376 683 C376 683 376 691 376 691 C376 691 369 691 369 691 C369 691 300 691 300 691 C300 691 162 691 162 691 C162 691 131 691 131 691 C131 691 99 691 99 691 C99 691 42 691 42 691 C42 691 42 680 42 680 C42 680 50 680 50 680 C77 679 99 651 99 615 C99 615 99 76 99 76 C99 40 77 11 50 11 C50 11 42 11 42 11 C42 11 42 0 42 0 C42 0 99 0 99 0 C99 0 131 0 131 0 C131 0 162 0 162 0 C162 0 304 0 304 0 C304 0 379 0 379 0 C379 0 381 0 381 0 C381 2 382 6 382 8 C388 39 397 88 402 119 C402 119 394 119 394 119 C394 119 386 104 386 104 C361 55 297 16 242 16 C242 16 162 16 162 16 C162 16 162 348 162 348 C162 348 202 348 202 348 C249 348 294 323 302 292 C302 292 304 282 304 282 C304 282 314 282 314 282 L314 282 Z " />
<glyph glyph-name="LETTERSMALLCAPITALJ" unicode="&#x1d0a;" horiz-adv-x="270" d="M53 680 C53 680 61 680 61 680 C88 679 110 651 110 615 C110 615 110 209 110 209 C110 72 100 3 81 3 C71 3 59 24 53 50 C50 64 38 75 25 75 C8 75 -3 64 0 50 C7 17 36 -10 65 -10 C137 -10 173 81 173 262 C173 262 173 615 173 615 C173 651 195 679 222 680 C222 680 230 680 230 680 C230 681 230 683 231 685 C230 689 230 691 231 691 C231 691 173 691 173 691 C173 691 142 691 142 691 C142 691 110 691 110 691 C110 691 53 691 53 691 C53 691 53 680 53 680 L53 680 Z M230 680 C230 680 231 680 231 680 C231 680 231 680 230 680 L230 680 Z " />
<glyph glyph-name="LETTERSMALLCAPITALK" unicode="&#x1d0b;" horiz-adv-x="521" d="M339 615 C339 615 339 615 339 615 C339 615 206 423 206 423 C206 423 205 424 205 424 C205 424 170 372 170 372 C170 372 170 615 170 615 C170 615 170 620 170 620 C171 653 192 679 219 680 C219 680 227 680 227 680 C227 680 227 691 227 691 C227 691 170 691 170 691 C170 691 138 691 138 691 C138 691 107 691 107 691 C107 691 49 691 49 691 C49 691 49 680 49 680 C49 680 58 680 58 680 C85 679 107 651 107 615 C107 615 107 76 107 76 C107 40 85 11 58 11 C58 11 49 11 49 11 C49 11 49 0 49 0 C49 0 107 0 107 0 C107 0 138 0 138 0 C138 0 170 0 170 0 C170 0 227 0 227 0 C227 0 227 11 227 11 C227 11 219 11 219 11 C192 11 171 38 170 71 C170 71 170 76 170 76 C170 76 170 372 170 372 C170 372 304 158 304 158 C373 49 434 -5 488 -5 C488 -5 512 -5 512 -5 C512 -5 512 7 512 7 C512 7 507 7 507 7 C481 7 425 75 340 210 C340 210 214 409 214 409 C214 409 363 626 363 626 C389 657 425 679 449 680 C449 680 457 680 457 680 C457 680 457 691 457 691 C457 691 408 691 408 691 C408 691 400 691 400 691 C400 691 392 691 392 691 C392 691 334 691 334 691 C335 691 335 689 334 685 C335 683 335 681 335 680 C335 680 342 680 342 680 C365 679 364 651 339 615 C339 615 339 615 339 615 L339 615 Z M335 680 C334 680 334 680 334 680 C334 680 335 680 335 680 L335 680 Z " />
<glyph glyph-name="LETTERSMALLCAPITALM" unicode="&#x1d0d;" horiz-adv-x="690" d="M652 691 C652 691 595 691 595 691 C595 691 567 691 567 691 C567 691 560 691 560 691 C560 691 538 691 538 691 C538 691 356 88 356 88 C356 88 361 71 361 71 C361 71 356 87 356 87 C356 87 346 55 346 55 C346 55 328 -5 328 -5 C328 -5 343 -5 343 -5 C343 -5 540 628 540 628 C540 628 559 76 559 76 C559 76 559 76 559 76 C561 40 540 11 513 11 C513 11 505 11 505 11 C505 11 505 0 505 0 C505 0 562 0 562 0 C562 0 594 0 594 0 C594 0 625 0 625 0 C625 0 682 0 682 0 C682 0 682 11 682 11 C682 11 673 11 673 11 C646 11 623 40 622 76 C622 76 622 76 622 76 C622 76 598 621 598 621 C599 654 619 679 644 680 C644 680 652 680 652 680 C652 680 652 691 652 691 L652 691 Z M61 680 C61 680 70 680 70 680 C97 679 117 651 116 615 C116 615 116 615 116 615 C116 615 97 76 97 76 C97 76 96 76 96 76 C95 40 72 11 45 11 C45 11 37 11 37 11 C37 11 37 0 37 0 C37 0 94 0 94 0 C94 0 103 0 103 0 C103 0 112 0 112 0 C112 0 197 0 197 0 C197 0 197 11 197 11 C197 11 184 11 184 11 C145 11 114 47 116 91 C116 91 115 91 115 91 C115 91 134 604 134 604 C134 604 318 25 318 25 C318 25 328 -5 328 -5 C328 -5 346 55 346 55 C346 55 356 87 356 87 C356 87 167 691 167 691 C167 691 137 691 137 691 C137 691 128 691 128 691 C128 691 119 691 119 691 C119 691 61 691 61 691 C61 691 61 680 61 680 L61 680 Z M356 87 C356 87 356 87 356 87 C356 87 356 88 356 88 C356 88 356 88 356 88 C356 88 356 87 356 87 L356 87 Z " />
<glyph glyph-name="LETTERSMALLCAPITALO" unicode="&#x1d0f;" horiz-adv-x="654" d="M332 11 C208 11 129 178 129 346 C129 513 208 680 332 680 C456 680 535 513 535 346 C535 178 456 11 332 11 L332 11 Z M60 346 C60 170 166 -5 332 -5 C498 -5 604 170 604 346 C604 521 498 696 332 696 C166 696 60 521 60 346 L60 346 Z " />
<glyph glyph-name="LETTERSMALLCAPITALP" unicode="&#x1d18;" horiz-adv-x="451" d="M49 680 C49 680 58 680 58 680 C85 679 107 651 107 615 C107 615 107 76 107 76 C107 40 85 11 58 11 C58 11 49 11 49 11 C49 11 49 0 49 0 C49 0 107 0 107 0 C107 0 138 0 138 0 C138 0 170 0 170 0 C170 0 227 0 227 0 C227 0 227 11 227 11 C227 11 219 11 219 11 C192 11 171 38 170 71 C170 71 170 76 170 76 C170 76 170 300 170 300 C170 300 224 300 224 300 C339 300 432 386 432 494 C432 604 345 691 237 691 C237 691 170 691 170 691 C170 691 138 691 138 691 C138 691 107 691 107 691 C107 691 49 691 49 691 C49 691 49 680 49 680 L49 680 Z M170 316 C170 316 170 675 170 675 C170 675 237 675 237 675 C309 675 366 595 366 494 C366 395 303 316 224 316 C224 316 170 316 170 316 L170 316 Z " />
<glyph glyph-name="LETTERSMALLCAPITALT" unicode="&#x1d1b;" horiz-adv-x="515" d="M502 560 C499 595 494 649 491 683 C491 683 491 691 491 691 C491 691 475 691 475 691 C475 691 414 691 414 691 C414 691 101 691 101 691 C101 691 40 691 40 691 C40 691 25 691 25 691 C25 689 24 685 24 683 C21 649 16 595 13 560 C13 560 23 560 23 560 C23 560 37 595 37 595 C55 640 105 675 149 675 C149 675 226 675 226 675 C226 675 226 76 226 76 C226 40 204 11 177 11 C177 11 169 11 169 11 C169 11 169 0 169 0 C169 0 226 0 226 0 C226 0 258 0 258 0 C258 0 289 0 289 0 C289 0 347 0 347 0 C346 0 346 3 347 6 C346 9 346 11 347 11 C347 11 338 11 338 11 C311 11 289 40 289 76 C289 76 289 675 289 675 C289 675 366 675 366 675 C411 675 461 640 479 595 C479 595 493 560 493 560 C493 560 502 560 502 560 L502 560 Z " />
<glyph glyph-name="LETTERSMALLCAPITALU" unicode="&#x1d1c;" horiz-adv-x="543" d="M524 691 C524 691 459 691 459 691 C459 691 449 691 449 691 C449 691 440 691 440 691 C440 691 371 691 371 691 C371 691 371 680 371 680 C371 680 381 680 381 680 C414 679 440 646 440 605 C440 605 440 189 440 189 C440 93 390 17 291 17 C204 17 160 99 160 202 C160 202 160 615 160 615 C160 615 160 620 160 620 C161 653 182 679 209 680 C209 680 217 680 217 680 C217 680 217 691 217 691 C217 691 160 691 160 691 C160 691 128 691 128 691 C128 691 97 691 97 691 C97 691 39 691 39 691 C39 691 39 680 39 680 C39 680 48 680 48 680 C75 679 97 651 97 615 C97 615 97 214 97 214 C97 92 158 -5 281 -5 C400 -5 459 78 459 183 C459 183 459 605 459 605 C459 646 483 679 514 680 C514 680 524 680 524 680 C524 680 524 691 524 691 L524 691 Z " />
<glyph glyph-name="LETTERSMALLCAPITALV" unicode="&#x1d20;" horiz-adv-x="506" d="M506 691 C506 691 451 691 451 691 C451 691 442 691 442 691 C442 691 432 691 432 691 C432 691 340 691 340 691 C341 691 341 689 340 685 C341 683 341 681 341 680 C341 680 354 680 354 680 C393 679 417 643 410 596 C410 596 291 79 291 79 C291 79 143 615 143 615 C143 615 143 615 143 615 C133 651 153 679 188 680 C188 680 199 680 199 680 C199 680 199 691 199 691 C199 691 122 691 122 691 C122 691 88 691 88 691 C88 691 53 691 53 691 C53 691 11 691 11 691 C10 691 10 689 11 685 C10 682 10 679 11 680 C11 680 17 680 17 680 C39 679 65 651 76 615 C76 615 76 615 76 615 C76 615 269 -15 269 -15 C269 -15 285 -15 285 -15 C285 -15 434 619 434 619 C444 653 471 679 497 680 C497 680 506 680 506 680 C506 680 506 691 506 691 L506 691 Z M341 680 C340 680 340 680 340 680 C340 680 341 680 341 680 L341 680 Z " />
<glyph glyph-name="LETTERSMALLCAPITALW" unicode="&#x1d21;" horiz-adv-x="696" d="M693 691 C693 691 638 691 638 691 C638 691 628 691 628 691 C628 691 619 691 619 691 C619 691 538 691 538 691 C538 691 538 680 538 680 C538 680 551 680 551 680 C587 679 611 651 603 615 C603 615 604 615 604 615 C604 615 478 -15 478 -15 C478 -15 494 -15 494 -15 C494 -15 625 625 625 625 C634 656 660 679 684 680 C684 680 693 680 693 680 C693 680 693 691 693 691 L693 691 Z M181 691 C181 691 112 691 112 691 C112 691 78 691 78 691 C78 691 43 691 43 691 C43 691 0 691 0 691 C0 691 0 680 0 680 C0 680 7 680 7 680 C29 679 53 651 61 615 C61 615 61 615 61 615 C61 615 213 -15 213 -15 C213 -15 229 -15 229 -15 C229 -15 347 589 347 589 C347 589 478 -15 478 -15 C478 -15 499 91 499 91 C499 91 369 701 369 701 C369 701 354 701 354 701 C354 701 233 86 233 86 C233 86 126 620 126 620 C122 653 141 679 171 680 C171 680 181 680 181 680 C181 680 181 691 181 691 L181 691 Z " />
<glyph glyph-name="LETTERSMALLCAPITALZ" unicode="&#x1d22;" horiz-adv-x="482" d="M410 8 C416 41 425 93 431 126 C426 128 417 132 417 131 C417 131 407 106 407 106 C386 57 330 17 280 16 C280 16 128 16 128 16 C128 16 425 691 425 691 C425 691 389 691 389 691 C389 691 353 691 353 691 C353 691 192 691 192 691 C192 691 130 691 130 691 C130 691 115 691 115 691 C115 689 114 685 113 683 C106 655 94 611 86 583 C86 583 95 583 95 583 C95 583 105 597 105 597 C133 640 192 675 237 675 C237 675 346 675 346 675 C346 675 50 0 50 0 C50 0 86 0 86 0 C86 0 121 0 121 0 C121 0 332 0 332 0 C332 0 407 0 407 0 C407 0 409 0 409 0 C409 2 410 6 410 8 L410 8 Z " />
<glyph glyph-name="Wgrave" unicode="&#x1e80;" horiz-adv-x="786" d="M783 798 C783 798 728 798 728 798 C728 798 717 798 717 798 C717 798 707 798 707 798 C707 798 626 798 626 798 C627 798 627 795 626 792 C627 789 627 786 626 786 C626 786 640 786 640 786 C674 786 696 761 693 727 C693 727 571 114 571 114 C571 114 418 808 418 808 C418 808 401 808 401 808 C401 808 261 105 261 105 C261 105 134 730 134 730 C131 763 150 786 179 786 C179 786 189 786 189 786 C189 786 189 798 189 798 C189 798 120 798 120 798 C120 798 81 798 81 798 C81 798 43 798 43 798 C43 798 0 798 0 798 C0 798 0 786 0 786 C0 786 7 786 7 786 C28 786 53 758 61 721 C61 721 61 721 61 721 C61 721 237 -15 237 -15 C237 -15 255 -15 255 -15 C255 -15 418 808 418 808 C418 808 392 673 392 673 C392 673 545 -15 545 -15 C545 -15 563 -15 563 -15 C563 -15 714 728 714 728 C724 762 749 786 774 786 C774 786 783 786 783 786 C783 786 783 798 783 798 L783 798 Z M401 982 C383 1012 367 1036 363 1036 C353 1036 327 1017 327 1010 C327 1005 345 982 369 957 C369 957 483 828 483 828 C483 828 490 834 490 834 C490 834 401 982 401 982 L401 982 Z " />
<glyph glyph-name="Wacute" unicode="&#x1e82;" horiz-adv-x="786" d="M348 828 C348 828 459 957 459 957 C481 983 499 1006 499 1010 C499 1017 473 1036 464 1036 C461 1036 445 1012 427 982 C427 982 341 834 341 834 C341 834 348 828 348 828 L348 828 Z M783 798 C783 798 728 798 728 798 C728 798 717 798 717 798 C717 798 707 798 707 798 C707 798 626 798 626 798 C627 798 627 795 626 792 C627 789 627 786 626 786 C626 786 640 786 640 786 C674 786 696 761 693 727 C693 727 571 114 571 114 C571 114 418 808 418 808 C418 808 401 808 401 808 C401 808 261 105 261 105 C261 105 134 730 134 730 C131 763 150 786 179 786 C179 786 189 786 189 786 C189 786 189 798 189 798 C189 798 120 798 120 798 C120 798 81 798 81 798 C81 798 43 798 43 798 C43 798 0 798 0 798 C0 798 0 786 0 786 C0 786 7 786 7 786 C28 786 53 758 61 721 C61 721 61 721 61 721 C61 721 237 -15 237 -15 C237 -15 255 -15 255 -15 C255 -15 418 808 418 808 C418 808 392 673 392 673 C392 673 545 -15 545 -15 C545 -15 563 -15 563 -15 C563 -15 714 728 714 728 C724 762 749 786 774 786 C774 786 783 786 783 786 C783 786 783 798 783 798 L783 798 Z " />
<glyph glyph-name="Wdieresis" unicode="&#x1e84;" horiz-adv-x="786" d="M497 868 C519 868 536 885 536 906 C536 928 519 945 497 945 C476 945 459 928 459 906 C459 885 476 868 497 868 L497 868 Z M322 868 C344 868 361 885 361 906 C361 928 344 945 322 945 C301 945 284 928 284 906 C284 885 301 868 322 868 L322 868 Z M783 798 C783 798 728 798 728 798 C728 798 717 798 717 798 C717 798 707 798 707 798 C707 798 626 798 626 798 C627 798 627 795 626 792 C627 789 627 786 626 786 C626 786 640 786 640 786 C674 786 696 761 693 727 C693 727 571 114 571 114 C571 114 418 808 418 808 C418 808 401 808 401 808 C401 808 261 105 261 105 C261 105 134 730 134 730 C131 763 150 786 179 786 C179 786 189 786 189 786 C189 786 189 798 189 798 C189 798 120 798 120 798 C120 798 81 798 81 798 C81 798 43 798 43 798 C43 798 0 798 0 798 C0 798 0 786 0 786 C0 786 7 786 7 786 C28 786 53 758 61 721 C61 721 61 721 61 721 C61 721 237 -15 237 -15 C237 -15 255 -15 255 -15 C255 -15 418 808 418 808 C418 808 392 673 392 673 C392 673 545 -15 545 -15 C545 -15 563 -15 563 -15 C563 -15 714 728 714 728 C724 762 749 786 774 786 C774 786 783 786 783 786 C783 786 783 798 783 798 L783 798 Z " />
</font>
</svg>
