<?xml version="1.0" encoding="UTF-8"?>
<svg xmlns="http://www.w3.org/2000/svg" xmlns:xlink="http://www.w3.org/1999/xlink" version="1.2" >
<font id="Veera Thin">
<font-face  font-family="Veera" units-per-em="1024" ascent="1115" descent="-280" font-style="normal" font-weight="100" font-stretch="normal" cap-height="798" x-height="638" underline-position="0" underline-thickness="0" />
<missing-glyph  horiz-adv-x="472" d="M0 700 C0 700 432 700 432 700 C432 700 432 0 432 0 C432 0 0 0 0 0 C0 0 0 700 0 700 L0 700 Z M50 50 C50 50 382 50 382 50 C382 50 382 650 382 650 C382 650 50 650 50 650 C50 650 50 50 50 50 L50 50 Z " />
<glyph glyph-name="NULL" d="" />
<glyph glyph-name="CR" unicode="&#xd;" horiz-adv-x="256" d="" />
<glyph glyph-name="space" unicode="&#x20;" horiz-adv-x="234" d="" />
<glyph glyph-name="exclam" unicode="&#x21;" horiz-adv-x="153" d="M74 -5 C85 -5 94 4 94 15 C94 26 85 35 74 35 C63 35 54 26 54 15 C54 4 63 -5 74 -5 L74 -5 Z M93 758 C94 783 85 803 73 803 C61 803 52 783 53 758 C53 758 73 110 73 110 C73 110 76 110 76 110 C76 110 93 758 93 758 L93 758 Z " />
<glyph glyph-name="quotedbl" unicode="&#x22;" horiz-adv-x="212" d="M121 798 C121 798 143 627 143 627 C143 627 150 627 150 627 C150 627 172 798 172 798 C172 798 121 798 121 798 L121 798 Z M40 798 C40 798 62 627 62 627 C62 627 69 627 69 627 C69 627 91 798 91 798 C91 798 40 798 40 798 L40 798 Z " />
<glyph glyph-name="numbersign" unicode="&#x23;" horiz-adv-x="461" d="M352 830 C352 830 321 605 321 605 C321 605 205 605 205 605 C205 605 236 830 236 830 C236 830 229 830 229 830 C229 830 198 605 198 605 C198 605 80 605 80 605 C80 605 78 590 78 590 C78 590 196 590 196 590 C196 590 143 208 143 208 C143 208 23 208 23 208 C23 208 21 192 21 192 C21 192 141 192 141 192 C141 192 114 0 114 0 C114 0 122 0 122 0 C122 0 148 192 148 192 C148 192 264 192 264 192 C264 192 238 0 238 0 C238 0 245 0 245 0 C245 0 272 192 272 192 C272 192 377 192 377 192 C377 192 379 208 379 208 C379 208 274 208 274 208 C274 208 327 590 327 590 C327 590 440 590 440 590 C440 590 442 605 442 605 C442 605 329 605 329 605 C329 605 360 830 360 830 C360 830 352 830 352 830 L352 830 Z M203 590 C203 590 319 590 319 590 C319 590 267 208 267 208 C267 208 151 208 151 208 C151 208 203 590 203 590 L203 590 Z " />
<glyph glyph-name="dollar" unicode="&#x24;" horiz-adv-x="436" d="M235 873 C235 873 235 799 235 799 C222 802 211 803 202 803 C190 803 179 801 168 797 C168 797 168 873 168 873 C168 873 155 873 155 873 C155 873 155 792 155 792 C98 764 57 686 57 595 C57 540 97 474 155 427 C155 427 155 21 155 21 C113 43 77 81 64 122 C61 130 57 143 54 151 C54 151 44 151 44 151 C44 151 44 48 44 48 C44 48 46 52 46 52 C46 52 46 52 46 52 C46 52 44 48 44 48 C73 32 114 17 155 7 C155 7 155 -75 155 -75 C155 -75 168 -75 168 -75 C168 -75 168 4 168 4 C192 -1 215 -4 235 -5 C235 -5 235 -75 235 -75 C235 -75 248 -75 248 -75 C248 -75 248 -5 248 -5 C328 -1 391 84 391 191 C391 259 329 346 248 395 C248 395 248 789 248 789 C283 777 320 740 332 704 C338 688 346 663 351 647 C351 647 361 647 361 647 C361 647 361 749 361 749 C327 769 284 786 248 796 C248 796 248 873 248 873 C248 873 235 873 235 873 L235 873 Z M168 15 C168 15 168 417 168 417 C181 407 195 398 210 391 C219 387 227 382 235 377 C235 377 235 1 235 1 C228 1 221 2 213 3 C213 3 213 3 213 3 C198 5 183 9 168 15 C168 15 168 15 168 15 L168 15 Z M235 403 C232 404 230 406 227 407 C206 417 186 431 168 445 C168 445 168 791 168 791 C179 795 190 797 201 797 C210 797 222 795 235 792 C235 792 235 403 235 403 L235 403 Z M155 457 C106 501 73 557 73 603 C73 686 107 757 155 784 C155 784 155 457 155 457 L155 457 Z M248 369 C321 319 375 242 375 182 C375 83 319 5 248 1 C248 1 248 369 248 369 L248 369 Z " />
<glyph glyph-name="ampersand" unicode="&#x26;" horiz-adv-x="689" d="M596 443 C596 443 446 443 446 443 C446 443 446 431 446 431 C446 431 457 431 457 431 C489 431 515 408 515 326 C515 326 515 290 515 290 C515 232 500 179 474 134 C451 157 427 184 402 213 C361 262 294 366 246 461 C341 482 415 571 415 665 C415 742 361 803 294 803 C227 803 173 718 173 612 C173 578 196 520 227 457 C128 421 50 311 50 202 C50 87 138 -5 247 -5 C338 -5 418 43 467 116 C559 30 639 -9 689 0 C689 0 689 3 689 3 C647 -4 570 38 477 131 C504 177 519 231 519 290 C519 290 519 326 519 326 C519 408 548 431 584 431 C584 431 596 431 596 431 C596 431 596 443 596 443 L596 443 Z M245 463 C213 528 189 587 189 621 C189 720 235 799 293 799 C352 799 399 739 399 664 C399 571 331 484 245 463 C245 463 245 463 245 463 L245 463 Z M465 119 C418 49 343 4 259 4 C153 4 69 95 69 210 C69 314 139 421 229 454 C277 358 346 251 388 201 C414 170 440 143 465 119 L465 119 Z " />
<glyph glyph-name="quotesingle" unicode="&#x27;" horiz-adv-x="130" d="M40 798 C40 798 62 627 62 627 C62 627 69 627 69 627 C69 627 91 798 91 798 C91 798 40 798 40 798 L40 798 Z " />
<glyph glyph-name="parenleft" unicode="&#x28;" horiz-adv-x="142" d="M130 828 C91 781 60 631 60 339 C60 46 91 -104 130 -150 C130 -150 132 -148 132 -148 C100 -110 75 36 75 339 C75 642 100 788 132 826 C132 826 130 828 130 828 L130 828 Z " />
<glyph glyph-name="parenright" unicode="&#x29;" horiz-adv-x="142" d="M10 -150 C49 -103 80 46 80 339 C80 632 49 782 10 828 C10 828 7 826 7 826 C39 788 65 641 64 339 C65 36 39 -110 7 -148 C7 -148 10 -150 10 -150 L10 -150 Z " />
<glyph glyph-name="asterisk" unicode="&#x2a;" horiz-adv-x="245" d="M149 679 C149 679 49 743 49 743 C39 748 34 737 43 733 C43 733 149 678 149 678 C149 678 149 677 149 677 C149 677 43 623 43 623 C34 618 40 607 49 613 C49 613 149 676 149 676 C149 676 144 558 144 558 C144 553 147 550 150 550 C153 550 156 553 156 558 C156 558 151 676 151 676 C151 676 251 613 251 613 C260 606 266 619 257 623 C257 623 151 677 151 677 C151 677 151 678 151 678 C151 678 257 733 257 733 C265 737 261 748 251 743 C251 743 151 679 151 679 C151 679 156 798 156 798 C156 802 153 806 150 806 C147 806 144 802 144 798 C144 798 149 679 149 679 L149 679 Z " />
<glyph glyph-name="plus" unicode="&#x2b;" horiz-adv-x="491" d="M238 481 C238 481 238 318 238 318 C238 318 75 318 75 318 C75 318 75 309 75 309 C75 309 238 309 238 309 C238 309 238 145 238 145 C238 145 248 145 248 145 C248 145 248 309 248 309 C248 309 411 309 411 309 C411 309 411 318 411 318 C411 318 248 318 248 318 C248 318 248 481 248 481 C248 481 238 481 238 481 L238 481 Z " />
<glyph glyph-name="comma" unicode="&#x2c;" horiz-adv-x="150" d="M138 72 C138 72 124 58 124 58 C119 63 113 66 109 66 C116 82 126 85 138 72 L138 72 Z M79 -5 C81 -5 83 -5 85 -4 C83 -33 75 -59 65 -64 C65 -64 67 -68 67 -68 C86 -58 101 -21 101 17 C101 38 104 55 109 66 C98 66 90 54 87 31 C84 32 82 33 79 33 C68 33 60 24 60 14 C60 3 68 -5 79 -5 L79 -5 Z " />
<glyph glyph-name="hyphen" unicode="&#x2d;" horiz-adv-x="197" d="M20 281 C20 281 177 281 177 281 C177 281 177 297 177 297 C177 297 20 297 20 297 C20 297 20 281 20 281 L20 281 Z " />
<glyph glyph-name="period" unicode="&#x2e;" horiz-adv-x="205" d="M125 -5 C136 -5 145 4 145 15 C145 26 136 35 125 35 C114 35 105 26 105 15 C105 4 114 -5 125 -5 L125 -5 Z " />
<glyph glyph-name="slash" unicode="&#x2f;" horiz-adv-x="318" d="M0 -145 C0 -145 9 -145 9 -145 C9 -145 319 848 319 848 C319 848 310 848 310 848 C310 848 0 -145 0 -145 L0 -145 Z " />
<glyph glyph-name="zero" unicode="0" horiz-adv-x="664" d="M332 -1 C188 -1 72 141 72 319 C72 496 188 638 332 638 C477 638 592 496 592 319 C592 141 477 -1 332 -1 L332 -1 Z M50 319 C50 139 175 -5 332 -5 C489 -5 615 139 615 319 C615 499 489 643 332 643 C175 643 50 499 50 319 L50 319 Z " />
<glyph glyph-name="one" unicode="1" horiz-adv-x="244" d="M190 638 C190 638 132 638 132 638 C132 638 122 638 122 638 C122 638 112 638 112 638 C112 638 55 638 55 638 C55 638 55 626 55 626 C55 626 64 626 64 626 C90 626 112 598 112 561 C112 561 112 76 112 76 C112 40 90 11 64 11 C64 11 55 11 55 11 C55 11 55 0 55 0 C55 0 112 0 112 0 C112 0 122 0 122 0 C122 0 132 0 132 0 C132 0 190 0 190 0 C190 0 190 11 190 11 C190 11 181 11 181 11 C154 11 133 40 132 76 C132 76 132 561 132 561 C133 598 154 626 181 626 C181 626 190 626 190 626 C190 626 190 638 190 638 L190 638 Z " />
<glyph glyph-name="two" unicode="2" horiz-adv-x="414" d="M383 16 C383 16 383 20 383 20 C383 20 383 20 383 20 C385 38 386 62 388 77 C388 77 377 77 377 77 C377 77 376 69 376 69 C374 42 343 20 307 20 C307 20 49 20 49 20 C220 160 352 246 352 442 C352 554 296 643 226 643 C174 643 106 577 72 495 C72 495 75 494 75 494 C105 568 168 628 216 628 C279 628 329 542 329 435 C329 229 204 152 44 20 C44 20 41 20 41 20 C41 20 35 12 35 12 C31 9 28 7 25 4 C25 4 25 0 25 0 C25 0 381 0 381 0 C381 0 382 10 382 10 C382 12 382 14 383 16 L383 16 Z " />
<glyph glyph-name="three" unicode="3" horiz-adv-x="385" d="M26 -215 C198 -203 336 -68 336 89 C336 201 245 291 132 291 C121 291 105 288 87 284 C199 332 283 420 283 495 C283 577 236 643 177 643 C120 643 47 585 11 513 C11 513 14 512 14 512 C46 576 113 628 166 628 C220 628 263 566 263 488 C263 408 171 315 53 276 C49 274 46 273 42 272 C42 272 42 268 42 268 C45 269 48 270 50 271 C71 276 102 280 128 280 C232 280 315 195 315 88 C315 -68 187 -201 26 -212 C26 -212 26 -215 26 -215 L26 -215 Z " />
<glyph glyph-name="four" unicode="4" horiz-adv-x="392" d="M36 9 C36 9 288 593 288 593 C288 593 287 590 287 590 C287 590 287 9 287 9 C287 9 36 9 36 9 L36 9 Z M287 0 C287 0 287 -150 287 -150 C287 -150 307 -150 307 -150 C307 -150 307 0 307 0 C307 0 382 0 382 0 C382 0 382 9 382 9 C382 9 307 9 307 9 C307 9 307 637 307 637 C307 637 307 643 307 643 C307 643 304 643 304 643 C304 643 28 3 28 3 C28 3 28 0 28 0 C28 0 31 0 31 0 C31 0 32 0 32 0 C32 0 287 0 287 0 L287 0 Z " />
<glyph glyph-name="five" unicode="5" horiz-adv-x="369" d="M70 320 C70 320 75 320 75 320 C75 320 118 320 118 320 C219 320 299 222 299 100 C299 -47 180 -171 31 -179 C31 -179 31 -182 31 -182 C191 -174 319 -45 319 107 C319 236 234 340 128 340 C128 340 76 340 76 340 C76 340 75 320 75 320 C75 320 88 617 88 617 C88 617 310 617 310 617 C310 617 313 627 313 627 C313 627 314 627 314 627 C320 646 330 677 336 695 C336 695 324 695 324 695 C324 695 321 687 321 687 C313 659 277 638 241 638 C241 638 89 638 89 638 C89 638 83 638 83 638 C83 638 70 320 70 320 L70 320 Z " />
<glyph glyph-name="six" unicode="6" horiz-adv-x="507" d="M452 852 C246 845 80 636 80 383 C80 167 163 -5 266 -5 C380 -5 466 119 458 275 C458 424 384 544 292 544 C159 544 89 422 135 269 C135 269 140 269 140 269 C94 419 161 538 289 538 C371 538 437 420 437 273 C445 122 370 1 268 1 C176 1 102 162 102 364 C102 371 103 382 103 389 C103 637 258 842 453 849 C453 849 452 852 452 852 L452 852 Z " />
<glyph glyph-name="seven" unicode="7" horiz-adv-x="372" d="M29 627 C29 627 28 617 28 617 C28 617 28 617 28 617 C27 599 25 576 23 560 C23 560 35 560 35 560 C35 560 35 568 35 568 C38 595 68 617 105 617 C105 617 354 617 354 617 C354 617 361 638 361 638 C361 638 30 638 30 638 C30 638 29 628 29 628 C29 628 29 628 29 628 C29 628 29 627 29 627 L29 627 Z M361 638 C277 379 194 119 111 -140 C111 -140 133 -140 133 -140 C210 119 286 378 363 636 C363 636 361 638 361 638 L361 638 Z " />
<glyph glyph-name="eight" unicode="8" horiz-adv-x="476" d="M198 389 C127 389 71 304 71 199 C71 86 150 -5 249 -5 C347 -5 426 89 426 207 C426 315 346 407 246 415 C173 421 114 507 114 610 C114 715 172 798 245 798 C320 798 379 719 379 620 C379 514 332 428 272 426 C272 426 272 425 272 425 C341 428 396 516 396 623 C396 723 329 803 246 803 C163 803 97 714 97 602 C97 493 162 401 244 395 C335 388 407 301 407 200 C407 89 337 -1 250 -1 C161 -1 90 89 90 202 C90 306 138 389 199 389 C199 389 198 389 198 389 L198 389 Z " />
<glyph glyph-name="nine" unicode="9" horiz-adv-x="507" d="M55 -214 C262 -207 428 2 427 255 C428 470 345 643 242 643 C127 643 42 519 50 363 C50 214 123 94 215 94 C349 94 419 216 372 368 C372 368 368 368 368 368 C413 219 347 100 219 99 C137 100 71 217 71 364 C63 516 138 637 239 637 C332 637 406 475 406 274 C406 266 404 255 404 248 C404 0 249 -204 55 -211 C55 -211 55 -214 55 -214 L55 -214 Z " />
<glyph glyph-name="colon" unicode="&#x3a;" horiz-adv-x="205" d="M125 443 C136 443 145 452 145 463 C145 474 136 483 125 483 C114 483 105 474 105 463 C105 452 114 443 125 443 L125 443 Z M125 -5 C136 -5 145 4 145 15 C145 26 136 35 125 35 C114 35 105 26 105 15 C105 4 114 -5 125 -5 L125 -5 Z " />
<glyph glyph-name="semicolon" unicode="&#x3b;" horiz-adv-x="150" d="M79 436 C90 436 99 445 99 456 C99 467 90 476 79 476 C68 476 59 467 59 456 C59 445 68 436 79 436 L79 436 Z M138 72 C138 72 124 58 124 58 C119 63 113 66 109 66 C116 82 126 85 138 72 L138 72 Z M79 -5 C81 -5 83 -5 85 -4 C83 -33 75 -59 65 -64 C65 -64 67 -68 67 -68 C86 -58 101 -21 101 17 C101 38 104 55 109 66 C98 66 90 54 87 31 C84 32 82 33 79 33 C68 33 60 24 60 14 C60 3 68 -5 79 -5 L79 -5 Z " />
<glyph glyph-name="less" unicode="&#x3c;" horiz-adv-x="468" d="M393 638 C393 638 42 350 42 350 C42 350 40 348 40 348 C40 348 40 340 40 340 C40 340 42 338 42 338 C42 338 393 50 393 50 C393 50 393 60 393 60 C393 60 46 344 46 344 C46 344 393 628 393 628 C393 628 393 638 393 638 L393 638 Z " />
<glyph glyph-name="equal" unicode="&#x3d;" horiz-adv-x="459" d="M73 273 C73 273 73 264 73 264 C73 264 389 264 389 264 C389 264 389 273 389 273 C389 273 73 273 73 273 L73 273 Z M73 373 C73 373 73 364 73 364 C73 364 389 364 389 364 C389 364 389 373 389 373 C389 373 73 373 73 373 L73 373 Z " />
<glyph glyph-name="greater" unicode="&#x3e;" horiz-adv-x="466" d="M412 344 C412 344 75 60 75 60 C75 60 75 50 75 50 C75 50 416 338 416 338 C416 338 426 344 426 344 C426 344 416 350 416 350 C416 350 75 638 75 638 C75 638 75 628 75 628 C75 628 412 344 412 344 L412 344 Z " />
<glyph glyph-name="question" unicode="&#x3f;" horiz-adv-x="301" d="M123 -5 C134 -5 143 4 143 15 C143 26 134 35 123 35 C112 35 103 26 103 15 C103 4 112 -5 123 -5 L123 -5 Z M129 423 C129 423 163 423 163 423 C244 423 267 511 267 555 C267 693 197 803 110 803 C74 803 45 772 45 733 C45 732 50 731 57 731 C88 731 85 787 116 787 C197 787 262 685 262 557 C262 517 239 438 157 438 C157 438 122 438 122 438 C119 438 117 437 117 435 C117 435 121 120 121 120 C121 120 124 120 124 120 C124 120 129 423 129 423 L129 423 Z " />
<glyph glyph-name="at" unicode="&#x40;" horiz-adv-x="1026" d="M951 0 C889 -134 695 -241 514 -241 C268 -241 71 12 71 328 C71 643 268 896 513 896 C759 896 956 692 956 438 C956 196 871 2 764 2 C640 2 562 115 590 255 C590 255 660 612 660 612 C660 612 641 612 641 612 C641 612 613 472 613 472 C609 558 568 625 517 625 C386 625 281 461 281 255 C281 123 344 17 423 17 C476 17 535 100 566 211 C561 88 641 -5 761 -5 C877 -5 971 192 971 438 C971 696 767 902 513 902 C259 902 55 647 55 328 C55 9 259 -246 514 -246 C697 -246 894 -137 957 0 C957 0 951 0 951 0 L951 0 Z M610 454 C610 454 571 255 571 255 C546 129 485 28 434 28 C361 28 303 131 303 259 C303 460 398 620 516 620 C568 620 610 546 610 454 L610 454 Z " />
<glyph glyph-name="A" unicode="A" horiz-adv-x="519" d="M512 11 C512 11 505 11 505 11 C483 11 461 34 450 65 C450 65 391 312 391 312 C391 312 390 316 390 316 C390 316 390 316 390 316 C390 316 269 816 269 816 C269 816 263 816 263 816 C263 816 257 792 257 792 C257 792 257 791 257 791 C257 791 257 791 257 791 C257 791 147 317 147 317 C147 317 146 317 146 317 C146 317 144 312 144 312 C144 312 146 312 146 312 C146 312 90 67 90 67 C79 35 53 11 28 11 C28 11 19 11 19 11 C19 11 19 0 19 0 C19 0 74 0 74 0 C74 0 78 0 78 0 C78 0 82 0 82 0 C82 0 166 0 166 0 C166 0 166 11 166 11 C166 11 154 11 154 11 C115 11 92 47 103 91 C103 91 103 91 103 91 C103 91 153 312 153 312 C153 312 369 310 369 310 C369 310 424 76 424 76 C424 76 424 76 424 76 C432 40 410 11 374 11 C374 11 360 11 360 11 C360 11 360 0 360 0 C360 0 442 0 442 0 C442 0 454 0 454 0 C454 0 466 0 466 0 C466 0 512 0 512 0 C512 0 512 11 512 11 L512 11 Z M368 316 C368 316 155 317 155 317 C155 317 260 777 260 777 C260 777 368 316 368 316 L368 316 Z " />
<glyph glyph-name="B" unicode="B" horiz-adv-x="457" d="M59 786 C59 786 68 786 68 786 C95 786 117 758 117 721 C117 721 117 76 117 76 C117 40 95 11 68 11 C68 11 59 11 59 11 C59 11 59 0 59 0 C59 0 117 0 117 0 C117 0 128 0 128 0 C128 0 139 0 139 0 C139 0 252 0 252 0 C355 0 437 105 437 235 C437 323 361 394 259 411 C348 428 415 513 415 617 C415 717 339 798 244 798 C244 798 139 798 139 798 C139 798 128 798 128 798 C128 798 117 798 117 798 C117 798 59 798 59 798 C59 798 59 786 59 786 L59 786 Z M247 412 C236 413 225 414 214 414 C214 414 139 413 139 413 C139 413 139 792 139 792 C139 792 244 792 244 792 C327 792 393 714 393 617 C393 512 330 426 247 412 L247 412 Z M240 408 C339 395 414 322 414 235 C414 108 341 6 250 6 C250 6 139 6 139 6 C139 6 139 407 139 407 C139 407 223 407 223 407 C229 407 234 407 240 408 L240 408 Z " />
<glyph glyph-name="C" unicode="C" horiz-adv-x="662" d="M603 638 C603 638 603 739 603 739 C542 775 439 803 371 803 C204 803 71 623 71 399 C71 175 204 -5 371 -5 C439 -5 542 23 603 59 C603 59 603 160 603 160 C603 160 593 160 593 160 C590 152 586 138 583 130 C562 68 483 13 403 3 C392 2 381 1 371 1 C218 1 95 178 95 399 C95 620 218 797 371 797 C391 797 415 794 440 790 C503 776 565 723 583 668 C586 659 590 646 593 638 C593 638 603 638 603 638 L603 638 Z " />
<glyph glyph-name="D" unicode="D" horiz-adv-x="585" d="M59 786 C59 786 68 786 68 786 C95 786 117 758 117 721 C117 721 117 76 117 76 C117 40 95 11 68 11 C68 11 59 11 59 11 C59 11 59 0 59 0 C59 0 117 0 117 0 C117 0 128 0 128 0 C128 0 139 0 139 0 C139 0 263 0 263 0 C414 0 535 177 535 399 C535 621 400 798 232 798 C232 798 139 798 139 798 C139 798 128 798 128 798 C128 798 117 798 117 798 C117 798 59 798 59 798 C59 798 59 786 59 786 L59 786 Z M139 6 C139 6 139 792 139 792 C139 792 232 792 232 792 C388 792 513 617 513 399 C513 181 402 6 263 6 C263 6 139 6 139 6 L139 6 Z " />
<glyph glyph-name="E" unicode="E" horiz-adv-x="464" d="M302 342 C302 342 302 407 302 407 C302 407 302 410 302 410 C302 410 302 413 302 413 C302 413 302 471 302 471 C302 470 301 470 300 471 C296 470 293 470 293 471 C293 471 290 462 290 462 C282 435 237 413 190 413 C190 413 120 413 120 413 C120 413 120 792 120 792 C120 792 218 792 218 792 C273 792 330 753 346 704 C346 704 351 689 351 689 C351 689 360 689 360 689 C360 689 360 795 360 795 C360 795 360 798 360 798 C360 798 357 798 357 798 C357 798 283 798 283 798 C283 798 120 798 120 798 C120 798 109 798 109 798 C109 798 97 798 97 798 C97 798 40 798 40 798 C40 798 40 786 40 786 C40 786 49 786 49 786 C75 786 97 758 97 721 C97 721 97 76 97 76 C97 40 75 11 49 11 C49 11 40 11 40 11 C40 11 40 0 40 0 C40 0 97 0 97 0 C97 0 109 0 109 0 C109 0 120 0 120 0 C120 0 291 0 291 0 C291 0 367 0 367 0 C367 0 368 0 368 0 C368 0 368 3 368 3 C373 32 382 80 387 109 C387 109 379 109 379 109 C379 109 371 94 371 94 C347 45 285 7 231 6 C231 6 227 6 227 6 C227 6 120 6 120 6 C120 6 120 407 120 407 C120 407 190 407 190 407 C237 407 282 383 290 352 C290 352 293 342 293 342 C293 342 302 342 302 342 L302 342 Z " />
<glyph glyph-name="F" unicode="F" horiz-adv-x="396" d="M292 336 C292 336 292 402 292 402 C292 402 292 404 292 404 C292 404 292 407 292 407 C292 407 292 465 292 465 C292 465 283 465 283 465 C283 465 280 456 280 456 C272 429 227 407 180 407 C180 407 120 407 120 407 C120 407 120 792 120 792 C120 792 248 792 248 792 C303 792 360 753 376 704 C376 704 381 689 381 689 C381 689 390 689 390 689 C390 689 390 795 390 795 C390 795 390 798 390 798 C390 798 387 798 387 798 C387 798 313 798 313 798 C313 798 120 798 120 798 C120 798 109 798 109 798 C109 798 97 798 97 798 C97 798 40 798 40 798 C40 798 40 786 40 786 C40 786 49 786 49 786 C75 786 97 758 97 721 C97 721 97 76 97 76 C97 40 75 11 49 11 C49 11 40 11 40 11 C40 11 40 0 40 0 C40 0 97 0 97 0 C97 0 109 0 109 0 C109 0 120 0 120 0 C120 0 187 0 187 0 C187 0 187 11 187 11 C187 11 177 11 177 11 C145 11 120 40 120 76 C120 76 120 402 120 402 C120 402 180 402 180 402 C227 402 272 377 280 346 C280 346 283 336 283 336 C283 336 292 336 292 336 L292 336 Z " />
<glyph glyph-name="G" unicode="G" horiz-adv-x="689" d="M490 363 C490 363 499 363 499 363 C526 363 548 334 548 298 C548 298 548 55 548 55 C487 24 398 1 340 1 C193 1 75 178 75 399 C75 620 193 797 340 797 C358 797 379 795 402 790 C463 776 525 723 543 668 C546 660 550 646 553 638 C553 638 563 638 563 638 C563 638 563 739 563 739 C502 775 403 803 340 803 C179 803 51 623 51 399 C51 175 179 -5 340 -5 C405 -5 507 23 568 59 C568 59 568 298 568 298 C568 334 590 363 617 363 C617 363 625 363 625 363 C626 363 626 366 625 369 C626 372 626 375 625 375 C625 375 568 375 568 375 C568 375 558 375 558 375 C558 375 548 375 548 375 C548 375 490 375 490 375 C490 375 490 363 490 363 L490 363 Z " />
<glyph glyph-name="H" unicode="H" horiz-adv-x="661" d="M622 798 C622 798 564 798 564 798 C564 798 553 798 553 798 C553 798 542 798 542 798 C542 798 485 798 485 798 C485 798 485 786 485 786 C485 786 493 786 493 786 C520 786 542 758 542 721 C542 721 542 405 542 405 C542 405 120 405 120 405 C120 405 120 721 120 721 C120 758 141 786 169 786 C169 786 177 786 177 786 C177 786 177 798 177 798 C177 798 120 798 120 798 C120 798 109 798 109 798 C109 798 97 798 97 798 C97 798 40 798 40 798 C40 798 40 786 40 786 C40 786 49 786 49 786 C75 786 97 758 97 721 C97 721 97 76 97 76 C97 40 75 11 49 11 C49 11 40 11 40 11 C40 11 40 0 40 0 C40 0 97 0 97 0 C97 0 109 0 109 0 C109 0 120 0 120 0 C120 0 177 0 177 0 C177 0 177 11 177 11 C177 11 169 11 169 11 C141 11 120 40 120 76 C120 76 120 400 120 400 C120 400 542 400 542 400 C542 400 542 76 542 76 C542 40 520 11 493 11 C493 11 485 11 485 11 C485 11 485 0 485 0 C485 0 542 0 542 0 C542 0 553 0 553 0 C553 0 564 0 564 0 C564 0 622 0 622 0 C622 0 622 11 622 11 C622 11 613 11 613 11 C586 11 564 40 564 76 C564 76 564 721 564 721 C564 758 586 786 613 786 C613 786 622 786 622 786 C622 786 622 798 622 798 L622 798 Z " />
<glyph glyph-name="I" unicode="I" horiz-adv-x="217" d="M177 798 C177 798 120 798 120 798 C120 798 109 798 109 798 C109 798 97 798 97 798 C97 798 40 798 40 798 C40 798 40 786 40 786 C40 786 49 786 49 786 C75 786 97 758 97 721 C97 721 97 76 97 76 C97 40 75 11 49 11 C49 11 40 11 40 11 C40 11 40 0 40 0 C40 0 97 0 97 0 C97 0 109 0 109 0 C109 0 120 0 120 0 C120 0 177 0 177 0 C177 0 177 11 177 11 C177 11 169 11 169 11 C141 11 120 40 120 76 C120 76 120 721 120 721 C120 758 141 786 169 786 C169 786 177 786 177 786 C177 786 177 798 177 798 L177 798 Z " />
<glyph glyph-name="J" unicode="J" horiz-adv-x="265" d="M225 798 C225 798 168 798 168 798 C168 798 157 798 157 798 C157 798 145 798 145 798 C145 798 88 798 88 798 C88 798 88 786 88 786 C88 786 97 786 97 786 C123 786 145 758 145 721 C145 721 145 242 145 242 C145 77 120 -6 69 -6 C49 -6 27 19 19 50 C18 55 13 59 9 59 C3 59 -1 55 0 50 C8 17 36 -10 63 -10 C133 -10 168 80 168 260 C168 260 168 721 168 721 C168 721 168 726 168 726 C169 760 190 786 217 786 C217 786 225 786 225 786 C225 786 225 798 225 798 L225 798 Z " />
<glyph glyph-name="K" unicode="K" horiz-adv-x="543" d="M490 798 C490 798 442 798 442 798 C442 798 438 798 438 798 C438 798 435 798 435 798 C435 798 378 798 378 798 C377 798 377 795 378 792 C377 789 377 786 378 786 C378 786 385 786 385 786 C406 786 404 764 382 732 C382 732 139 429 139 429 C139 429 139 721 139 721 C139 758 161 786 188 786 C188 786 197 786 197 786 C196 786 196 789 197 792 C196 795 196 798 197 798 C197 798 139 798 139 798 C139 798 128 798 128 798 C128 798 117 798 117 798 C117 798 59 798 59 798 C59 798 59 786 59 786 C59 786 68 786 68 786 C95 786 117 758 117 721 C117 721 117 76 117 76 C117 40 95 11 68 11 C68 11 59 11 59 11 C59 11 59 0 59 0 C59 0 117 0 117 0 C117 0 128 0 128 0 C128 0 139 0 139 0 C139 0 197 0 197 0 C196 0 196 3 197 6 C196 9 196 11 197 11 C197 11 188 11 188 11 C161 11 139 40 139 76 C139 76 139 429 139 429 C139 429 326 193 326 193 C431 61 496 -5 522 -5 C522 -5 533 -5 533 -5 C533 -5 533 -1 533 -1 C533 -1 528 -1 528 -1 C514 -1 451 69 340 210 C340 210 156 442 156 442 C156 442 387 730 387 730 C416 762 456 786 481 786 C481 786 490 786 490 786 C490 786 490 798 490 798 L490 798 Z " />
<glyph glyph-name="L" unicode="L" horiz-adv-x="464" d="M374 121 C374 121 364 96 364 96 C344 46 290 7 241 6 C241 6 237 6 237 6 C237 6 120 6 120 6 C120 6 120 721 120 721 C120 758 141 786 169 786 C169 786 177 786 177 786 C177 786 177 798 177 798 C177 798 120 798 120 798 C120 798 109 798 109 798 C109 798 97 798 97 798 C97 798 40 798 40 798 C40 798 40 786 40 786 C40 786 49 786 49 786 C75 786 97 758 97 721 C97 721 97 76 97 76 C97 40 75 11 49 11 C49 11 40 11 40 11 C40 11 40 0 40 0 C40 0 97 0 97 0 C97 0 109 0 109 0 C109 0 120 0 120 0 C120 0 291 0 291 0 C291 0 367 0 367 0 C367 0 368 0 368 0 C368 0 368 3 368 3 C374 34 383 84 388 115 C383 117 374 120 374 121 L374 121 Z " />
<glyph glyph-name="M" unicode="M" horiz-adv-x="691" d="M653 798 C653 798 596 798 596 798 C596 798 586 798 586 798 C586 798 584 798 584 798 C584 798 576 798 576 798 C576 798 361 30 361 30 C361 30 139 798 139 798 C139 798 128 798 128 798 C128 798 125 798 125 798 C125 798 122 798 122 798 C122 798 64 798 64 798 C64 798 64 786 64 786 C64 786 73 786 73 786 C100 786 120 758 119 721 C119 721 120 721 120 721 C120 721 99 76 99 76 C99 76 99 76 99 76 C98 40 75 11 48 11 C48 11 40 11 40 11 C40 11 40 0 40 0 C40 0 97 0 97 0 C97 0 100 0 100 0 C100 0 103 0 103 0 C103 0 188 0 188 0 C188 0 188 11 188 11 C188 11 175 11 175 11 C136 11 105 47 106 91 C106 91 106 91 106 91 C106 91 127 765 127 765 C127 765 347 9 347 9 C347 9 351 -5 351 -5 C351 -5 356 -5 356 -5 C356 -5 577 773 577 773 C577 773 601 76 601 76 C601 76 601 76 601 76 C603 40 582 11 555 11 C555 11 546 11 546 11 C546 11 546 0 546 0 C546 0 604 0 604 0 C604 0 615 0 615 0 C615 0 626 0 626 0 C626 0 683 0 683 0 C683 0 683 11 683 11 C683 11 675 11 675 11 C649 11 627 38 623 72 C623 72 599 721 599 721 C599 721 599 721 599 721 C598 758 618 786 645 786 C645 786 653 786 653 786 C653 786 653 798 653 798 L653 798 Z M361 29 C361 29 361 30 361 30 C361 30 362 25 362 25 C362 25 361 29 361 29 L361 29 Z " />
<glyph glyph-name="N" unicode="N" horiz-adv-x="590" d="M553 798 C553 798 495 798 495 798 C495 798 492 798 492 798 C492 798 489 798 489 798 C489 798 431 798 431 798 C431 798 431 786 431 786 C431 786 440 786 440 786 C467 786 489 758 489 721 C489 721 489 35 489 35 C489 35 123 798 123 798 C123 798 109 788 109 788 C109 788 109 789 109 789 C109 789 123 798 123 798 C123 798 109 798 109 798 C109 798 106 798 106 798 C106 798 103 798 103 798 C103 798 45 798 45 798 C45 798 45 786 45 786 C45 786 54 786 54 786 C81 786 103 758 103 721 C103 721 103 76 103 76 C103 40 81 11 54 11 C54 11 45 11 45 11 C45 11 45 0 45 0 C45 0 103 0 103 0 C103 0 106 0 106 0 C106 0 109 0 109 0 C109 0 167 0 167 0 C167 0 167 11 167 11 C167 11 158 11 158 11 C131 11 109 40 109 76 C109 76 109 775 109 775 C109 775 479 9 479 9 C479 9 485 -4 485 -4 C485 -4 495 -4 495 -4 C495 -4 495 17 495 17 C495 17 495 721 495 721 C496 758 517 786 544 786 C544 786 553 786 553 786 C553 786 553 798 553 798 L553 798 Z " />
<glyph glyph-name="O" unicode="O" horiz-adv-x="695" d="M358 1 C197 1 95 200 95 399 C95 598 197 797 358 797 C519 797 621 598 621 399 C621 200 519 1 358 1 L358 1 Z M71 399 C71 197 183 -5 358 -5 C533 -5 645 197 645 399 C645 601 533 803 358 803 C183 803 71 601 71 399 L71 399 Z " />
<glyph glyph-name="P" unicode="P" horiz-adv-x="470" d="M59 786 C59 786 68 786 68 786 C95 786 117 758 117 721 C117 721 117 76 117 76 C117 40 95 11 68 11 C68 11 59 11 59 11 C59 11 59 0 59 0 C59 0 117 0 117 0 C117 0 128 0 128 0 C128 0 139 0 139 0 C139 0 197 0 197 0 C196 0 196 3 197 6 C196 9 196 11 197 11 C197 11 188 11 188 11 C161 11 139 40 139 76 C139 76 139 348 139 348 C139 348 234 348 234 348 C355 348 451 447 451 571 C451 697 365 798 258 798 C258 798 139 798 139 798 C139 798 128 798 128 798 C128 798 117 798 117 798 C117 798 59 798 59 798 C59 798 59 786 59 786 L59 786 Z M139 354 C139 354 139 792 139 792 C139 792 258 792 258 792 C352 792 427 694 427 571 C427 450 341 354 234 354 C234 354 139 354 139 354 L139 354 Z " />
<glyph glyph-name="Q" unicode="Q" horiz-adv-x="695" d="M707 -50 C707 -50 705 -49 705 -49 C677 -82 619 -108 573 -108 C501 -108 420 -63 361 -5 C534 -3 645 198 645 399 C645 601 533 803 358 803 C183 803 71 601 71 399 C71 199 181 -1 353 -5 C420 -71 505 -123 571 -123 C613 -123 674 -91 707 -50 L707 -50 Z M358 1 C197 1 95 200 95 399 C95 598 197 797 358 797 C519 797 621 598 621 399 C621 200 519 1 358 1 L358 1 Z " />
<glyph glyph-name="R" unicode="R" horiz-adv-x="520" d="M59 786 C59 786 68 786 68 786 C95 786 117 758 117 721 C117 721 117 76 117 76 C117 40 95 11 68 11 C68 11 59 11 59 11 C59 11 59 0 59 0 C59 0 117 0 117 0 C117 0 128 0 128 0 C128 0 139 0 139 0 C139 0 197 0 197 0 C196 0 196 3 197 6 C196 9 196 11 197 11 C197 11 188 11 188 11 C161 11 139 40 139 76 C139 76 139 372 139 372 C139 372 210 372 210 372 C210 372 391 106 391 106 C454 12 465 0 488 0 C488 0 500 0 500 0 C500 0 500 4 500 4 C500 4 495 4 495 4 C488 4 480 15 421 102 C421 102 236 372 236 372 C338 380 417 471 417 583 C417 702 340 798 244 798 C244 798 139 798 139 798 C139 798 128 798 128 798 C128 798 117 798 117 798 C117 798 59 798 59 798 C59 798 59 786 59 786 L59 786 Z M223 377 C223 377 207 377 207 377 C207 377 139 377 139 377 C139 377 139 792 139 792 C139 792 244 792 244 792 C327 792 394 699 394 583 C394 468 318 377 223 377 L223 377 Z " />
<glyph glyph-name="S" unicode="S" horiz-adv-x="436" d="M44 151 C44 151 44 48 44 48 C44 48 46 52 46 52 C46 52 46 52 46 52 C46 52 44 48 44 48 C95 19 184 -5 243 -5 C325 -5 391 82 391 191 C391 265 318 361 227 407 C141 450 73 537 73 603 C73 711 130 797 201 797 C212 797 227 795 243 790 C243 790 243 790 243 790 C280 781 319 742 332 704 C338 688 346 663 351 647 C351 647 361 647 361 647 C361 647 361 749 361 749 C310 779 239 803 202 803 C122 803 57 710 57 595 C57 524 125 434 210 391 C302 345 375 252 375 182 C375 81 316 1 243 1 C234 1 224 2 213 3 C213 3 213 3 213 3 C150 10 83 63 64 122 C61 130 57 143 54 151 C54 151 44 151 44 151 L44 151 Z " />
<glyph glyph-name="T" unicode="T" horiz-adv-x="581" d="M540 677 C537 710 533 762 530 795 C530 795 530 798 530 798 C530 798 524 798 524 798 C524 798 453 798 453 798 C453 798 119 798 119 798 C119 798 48 798 48 798 C48 798 43 798 43 798 C43 797 42 796 42 795 C40 762 35 710 32 677 C32 677 41 677 41 677 C41 677 55 712 55 712 C74 757 124 792 168 792 C168 792 275 792 275 792 C275 792 275 76 275 76 C275 40 253 11 226 11 C226 11 218 11 218 11 C218 11 218 0 218 0 C218 0 275 0 275 0 C275 0 286 0 286 0 C286 0 297 0 297 0 C297 0 355 0 355 0 C355 0 355 11 355 11 C355 11 346 11 346 11 C319 11 297 40 297 76 C297 76 297 792 297 792 C297 792 404 792 404 792 C449 792 499 757 517 712 C517 712 531 677 531 677 C531 677 540 677 540 677 L540 677 Z " />
<glyph glyph-name="U" unicode="U" horiz-adv-x="589" d="M562 798 C562 798 497 798 497 798 C497 798 493 798 493 798 C493 798 490 798 490 798 C490 798 421 798 421 798 C421 798 421 786 421 786 C421 786 432 786 432 786 C464 786 490 753 490 711 C490 711 490 210 490 210 C490 95 428 3 304 3 C181 3 119 108 119 240 C119 240 119 721 119 721 C119 758 141 786 168 786 C168 786 177 786 177 786 C176 786 176 789 177 792 C176 795 176 798 177 798 C177 798 119 798 119 798 C119 798 108 798 108 798 C108 798 97 798 97 798 C97 798 39 798 39 798 C39 798 39 786 39 786 C39 786 48 786 48 786 C75 786 97 758 97 721 C97 721 97 245 97 245 C97 106 165 -5 301 -5 C432 -5 497 90 497 208 C497 208 497 711 497 711 C497 753 521 786 552 786 C552 786 562 786 562 786 C562 786 562 798 562 798 L562 798 Z " />
<glyph glyph-name="V" unicode="V" horiz-adv-x="587" d="M553 798 C553 798 498 798 498 798 C498 798 494 798 494 798 C494 798 491 798 491 798 C491 798 399 798 399 798 C399 798 399 786 399 786 C399 786 412 786 412 786 C452 786 477 749 471 700 C471 700 321 -15 321 -15 C321 -15 326 -15 326 -15 C326 -15 484 732 484 732 C495 763 520 786 544 786 C544 786 553 786 553 786 C553 786 553 798 553 798 L553 798 Z M207 798 C207 798 131 798 131 798 C131 798 118 798 118 798 C118 798 106 798 106 798 C106 798 63 798 63 798 C63 798 63 786 63 786 C63 786 70 786 70 786 C92 786 117 758 126 721 C126 721 126 721 126 721 C126 721 321 -15 321 -15 C321 -15 328 21 328 21 C328 21 148 729 148 729 C144 762 164 786 196 786 C196 786 207 786 207 786 C207 786 207 798 207 798 L207 798 Z " />
<glyph glyph-name="W" unicode="W" horiz-adv-x="803" d="M766 798 C766 798 711 798 711 798 C711 798 708 798 708 798 C708 798 704 798 704 798 C704 798 624 798 624 798 C624 798 624 786 624 786 C624 786 637 786 637 786 C670 786 693 763 691 731 C691 731 557 26 557 26 C557 26 405 635 405 635 C405 635 400 635 400 635 C400 635 263 24 263 24 C263 24 124 726 124 726 C120 761 139 786 169 786 C169 786 179 786 179 786 C178 786 178 789 179 792 C178 795 178 798 179 798 C179 798 110 798 110 798 C110 798 97 798 97 798 C97 798 85 798 85 798 C85 798 42 798 42 798 C41 798 41 795 42 792 C41 789 41 786 42 786 C42 786 48 786 48 786 C70 786 93 758 101 721 C101 721 101 721 101 721 C101 721 254 -15 254 -15 C254 -15 260 -15 260 -15 C260 -15 405 635 405 635 C405 635 396 592 396 592 C396 592 549 -15 549 -15 C549 -15 555 -15 555 -15 C555 -15 697 726 697 726 C706 760 732 786 758 786 C758 786 766 786 766 786 C766 786 766 798 766 798 L766 798 Z " />
<glyph glyph-name="X" unicode="X" horiz-adv-x="561" d="M384 786 C384 786 398 786 398 786 C431 786 447 762 436 729 C436 729 292 418 292 418 C292 418 147 727 147 727 C133 761 147 786 179 786 C179 786 189 786 189 786 C189 786 189 798 189 798 C189 798 113 798 113 798 C113 798 100 798 100 798 C100 798 87 798 87 798 C87 798 51 798 51 798 C51 798 51 786 51 786 C51 786 57 786 57 786 C77 786 106 758 123 721 C123 721 123 721 123 721 C123 721 277 396 277 396 C277 396 145 76 145 76 C145 76 145 76 145 76 C130 40 96 11 69 11 C69 11 61 11 61 11 C61 11 61 0 61 0 C61 0 114 0 114 0 C114 0 117 0 117 0 C117 0 120 0 120 0 C120 0 205 0 205 0 C205 0 205 11 205 11 C205 11 193 11 193 11 C155 11 140 47 158 91 C158 91 157 91 157 91 C157 91 280 389 280 389 C280 389 428 76 428 76 C428 76 428 76 428 76 C444 40 431 11 398 11 C398 11 387 11 387 11 C387 11 387 0 387 0 C387 0 464 0 464 0 C464 0 476 0 476 0 C476 0 489 0 489 0 C489 0 526 0 526 0 C526 0 526 11 526 11 C526 11 519 11 519 11 C501 11 474 37 456 69 C456 69 295 412 295 412 C295 412 295 412 295 412 C295 412 439 721 439 721 C439 721 440 721 440 721 C456 758 492 786 519 786 C519 786 527 786 527 786 C528 786 528 789 527 792 C528 795 528 798 527 798 C527 798 475 798 475 798 C475 798 472 798 472 798 C472 798 468 798 468 798 C468 798 384 798 384 798 C384 798 384 786 384 786 L384 786 Z " />
<glyph glyph-name="Y" unicode="Y" horiz-adv-x="507" d="M339 11 C339 11 331 11 331 11 C303 11 282 40 282 76 C282 76 282 315 282 315 C282 315 428 721 428 721 C428 721 429 721 429 721 C442 758 471 786 495 786 C495 786 502 786 502 786 C502 786 502 798 502 798 C502 798 456 798 456 798 C456 798 453 798 453 798 C453 798 450 798 450 798 C450 798 365 798 365 798 C365 798 365 786 365 786 C365 786 377 786 377 786 C415 786 432 749 415 701 C415 701 415 701 415 701 C415 701 276 315 276 315 C276 315 276 315 276 315 C276 315 135 726 135 726 C126 761 141 786 171 786 C171 786 180 786 180 786 C180 786 180 798 180 798 C180 798 111 798 111 798 C111 798 98 798 98 798 C98 798 85 798 85 798 C85 798 47 798 47 798 C47 798 47 786 47 786 C47 786 53 786 53 786 C72 786 98 759 111 724 C111 724 259 301 259 301 C259 301 259 76 259 76 C259 40 237 11 211 11 C211 11 202 11 202 11 C202 11 202 0 202 0 C202 0 259 0 259 0 C259 0 271 0 271 0 C271 0 282 0 282 0 C282 0 339 0 339 0 C339 0 339 11 339 11 L339 11 Z " />
<glyph glyph-name="Z" unicode="Z" horiz-adv-x="522" d="M466 121 C466 121 456 96 456 96 C435 46 379 6 329 6 C329 6 90 6 90 6 C90 6 465 798 465 798 C465 798 453 798 453 798 C453 798 440 798 440 798 C440 798 213 798 213 798 C213 798 142 798 142 798 C142 798 136 798 136 798 C136 798 136 795 136 795 C129 769 117 727 110 700 C110 700 119 700 119 700 C119 700 129 714 129 714 C158 757 216 792 261 792 C261 792 437 792 437 792 C437 792 62 0 62 0 C62 0 74 0 74 0 C74 0 87 0 87 0 C87 0 383 0 383 0 C383 0 459 0 459 0 C459 0 460 0 460 0 C460 0 460 3 460 3 C466 34 474 84 480 115 C474 117 466 121 466 121 L466 121 Z " />
<glyph glyph-name="bracketleft" unicode="&#x5b;" horiz-adv-x="213" d="M99 793 C99 793 204 793 204 793 C204 793 204 798 204 798 C204 798 99 798 99 798 C99 798 83 798 83 798 C83 798 83 -120 83 -120 C83 -120 99 -120 99 -120 C99 -120 204 -120 204 -120 C204 -120 204 -116 204 -116 C204 -116 99 -116 99 -116 C99 -116 99 793 99 793 L99 793 Z " />
<glyph glyph-name="backslash" unicode="&#x5c;" horiz-adv-x="203" d="M197 -145 C197 -145 204 -145 204 -145 C204 -145 -53 848 -53 848 C-53 848 -60 848 -60 848 C-60 848 197 -145 197 -145 L197 -145 Z " />
<glyph glyph-name="bracketright" unicode="&#x5d;" horiz-adv-x="195" d="M110 793 C110 793 110 -116 110 -116 C110 -116 5 -116 5 -116 C5 -116 5 -120 5 -120 C5 -120 110 -120 110 -120 C110 -120 125 -120 125 -120 C125 -120 125 798 125 798 C125 798 110 798 110 798 C110 798 5 798 5 798 C5 798 5 793 5 793 C5 793 110 793 110 793 L110 793 Z " />
<glyph glyph-name="underscore" unicode="&#x5f;" horiz-adv-x="311" d="M5 -50 C5 -50 5 -61 5 -61 C5 -61 306 -61 306 -61 C306 -61 306 -50 306 -50 C306 -50 5 -50 5 -50 L5 -50 Z " />
<glyph glyph-name="a" unicode="a" horiz-adv-x="405" d="M383 34 C364 15 343 0 328 0 C301 0 290 24 290 54 C290 54 290 501 290 501 C290 580 251 643 203 643 C140 643 82 603 72 552 C72 552 92 552 92 552 C102 599 149 637 199 637 C238 637 269 578 269 505 C269 505 269 301 269 301 C269 301 162 288 162 288 C91 279 35 208 35 128 C35 54 74 -5 122 -5 C164 -5 226 33 269 82 C269 82 269 52 269 52 C269 18 282 -10 315 -10 C336 -10 362 8 386 31 C386 31 383 34 383 34 L383 34 Z M269 297 C269 297 269 86 269 86 C230 42 171 9 132 9 C89 9 55 64 55 134 C55 208 103 273 162 282 C162 282 269 297 269 297 L269 297 Z " />
<glyph glyph-name="b" unicode="b" horiz-adv-x="517" d="M37 830 C80 821 94 810 94 753 C94 753 94 0 94 0 C94 0 97 0 97 0 C99 14 103 26 108 26 C152 26 202 -5 262 -5 C374 -5 463 140 463 322 C463 500 378 643 271 643 C238 643 169 620 114 591 C114 591 114 759 114 759 C114 759 114 853 114 853 C114 853 114 858 114 858 C114 858 110 858 110 858 C110 858 37 837 37 837 C37 837 37 830 37 830 L37 830 Z M114 588 C163 613 225 634 256 634 C359 634 442 491 442 313 C442 140 362 1 262 1 C180 1 114 65 114 145 C114 145 114 588 114 588 L114 588 Z " />
<glyph glyph-name="c" unicode="c" horiz-adv-x="397" d="M338 24 C338 24 336 26 336 26 C324 15 268 7 211 7 C133 7 71 143 71 312 C71 492 148 637 244 637 C281 637 316 585 322 519 C322 513 326 509 332 509 C336 509 340 513 340 518 C335 587 293 643 246 643 C137 643 50 492 50 304 C50 132 114 -5 194 -5 C255 -5 319 8 338 24 L338 24 Z " />
<glyph glyph-name="d" unicode="d" horiz-adv-x="511" d="M324 830 C366 819 381 810 381 753 C381 753 381 558 381 558 C354 603 287 643 223 643 C123 643 42 487 42 291 C42 127 119 -5 215 -5 C271 -5 344 22 381 57 C381 57 381 5 381 5 C381 5 381 0 381 0 C381 0 385 0 385 0 C385 0 459 21 459 21 C458 25 458 28 459 28 C414 33 401 51 401 105 C401 105 401 759 401 759 C401 759 401 853 401 853 C401 853 401 858 401 858 C401 858 397 858 397 858 C397 858 324 837 324 837 C324 837 324 830 324 830 L324 830 Z M381 99 C381 99 381 61 381 61 C350 30 282 7 226 7 C136 7 63 137 63 299 C63 487 134 637 222 637 C289 637 359 593 381 547 C381 547 381 99 381 99 L381 99 Z " />
<glyph glyph-name="e" unicode="e" horiz-adv-x="397" d="M345 24 C345 24 343 26 343 26 C331 15 273 7 214 7 C135 7 71 143 71 312 C71 356 75 398 82 436 C82 436 328 436 328 436 C328 436 347 436 347 436 C347 551 290 643 218 643 C125 643 50 492 50 304 C50 132 116 -5 197 -5 C261 -5 326 8 345 24 L345 24 Z M328 443 C328 443 83 440 83 440 C105 556 156 637 217 637 C279 637 329 555 329 453 C329 453 329 451 329 451 C328 446 324 443 319 443 C319 443 328 443 328 443 C328 443 328 443 328 443 L328 443 Z " />
<glyph glyph-name="f" unicode="f" horiz-adv-x="245" d="M173 11 C173 11 164 11 164 11 C138 11 117 38 116 71 C116 71 116 76 116 76 C116 76 116 630 116 630 C116 630 208 630 208 630 C208 630 208 638 208 638 C208 638 116 638 116 638 C116 638 116 677 116 677 C116 775 152 853 196 853 C217 853 236 824 239 787 C240 783 244 779 249 779 C254 779 258 783 258 787 C255 827 230 858 201 858 C146 858 99 779 97 681 C97 681 96 638 96 638 C96 638 27 638 27 638 C27 638 27 630 27 630 C27 630 96 630 96 630 C96 630 96 76 96 76 C96 40 74 11 47 11 C47 11 38 11 38 11 C38 11 38 0 38 0 C38 0 96 0 96 0 C96 0 106 0 106 0 C106 0 116 0 116 0 C116 0 173 0 173 0 C173 0 173 11 173 11 L173 11 Z " />
<glyph glyph-name="g" unicode="g" horiz-adv-x="397" d="M398 638 C398 638 262 636 262 636 C262 636 262 636 262 636 C249 640 236 643 222 643 C141 643 76 557 76 449 C76 353 128 274 196 258 C196 258 185 258 185 258 C114 258 57 219 57 170 C57 113 107 70 170 74 C170 74 215 77 215 77 C297 77 363 22 363 -47 C363 -149 271 -231 155 -231 C94 -231 45 -164 45 -80 C45 -34 96 25 160 52 C160 52 158 54 158 54 C88 24 32 -36 32 -82 C32 -168 86 -236 153 -236 C278 -236 378 -147 378 -37 C378 37 308 96 220 96 C220 96 169 92 169 92 C114 89 70 127 70 177 C70 220 121 255 185 255 C185 255 222 255 222 255 C303 255 368 341 368 449 C368 530 331 599 279 628 C279 628 398 627 398 627 C398 627 398 638 398 638 L398 638 Z M95 449 C95 554 152 638 222 638 C236 638 249 635 262 629 C262 629 262 628 262 628 C262 628 263 628 263 628 C314 603 349 533 349 449 C349 343 293 259 222 259 C152 259 95 343 95 449 L95 449 Z " />
<glyph glyph-name="h" unicode="h" horiz-adv-x="514" d="M474 11 C474 11 465 11 465 11 C439 11 418 38 417 71 C417 71 417 76 417 76 C417 76 417 473 417 473 C417 568 380 643 307 643 C276 643 195 613 122 574 C122 574 122 759 122 759 C122 759 122 853 122 853 C122 853 122 858 122 858 C122 858 118 858 118 858 C118 858 45 837 45 837 C45 837 45 830 45 830 C88 821 102 810 102 753 C102 753 102 76 102 76 C102 40 80 11 54 11 C54 11 45 11 45 11 C45 11 45 0 45 0 C45 0 102 0 102 0 C102 0 112 0 112 0 C112 0 122 0 122 0 C122 0 180 0 180 0 C180 0 180 11 180 11 C180 11 171 11 171 11 C144 11 123 40 122 76 C122 76 122 572 122 572 C183 604 257 629 291 629 C362 629 397 559 397 471 C397 471 397 76 397 76 C397 40 375 11 348 11 C348 11 339 11 339 11 C339 11 339 0 339 0 C339 0 397 0 397 0 C397 0 407 0 407 0 C407 0 417 0 417 0 C417 0 474 0 474 0 C474 0 474 11 474 11 L474 11 Z " />
<glyph glyph-name="i" unicode="i" horiz-adv-x="224" d="M45 610 C88 601 102 590 102 533 C102 533 102 76 102 76 C102 40 80 11 54 11 C54 11 45 11 45 11 C45 11 45 0 45 0 C45 0 102 0 102 0 C102 0 112 0 112 0 C112 0 122 0 122 0 C122 0 180 0 180 0 C180 0 180 11 180 11 C180 11 171 11 171 11 C144 11 123 40 122 76 C122 76 122 539 122 539 C122 539 122 633 122 633 C122 633 122 638 122 638 C122 638 118 638 118 638 C118 638 45 617 45 617 C45 617 45 610 45 610 L45 610 Z M111 708 C122 708 131 717 131 728 C131 739 122 748 111 748 C100 748 91 739 91 728 C91 717 100 708 111 708 L111 708 Z " />
<glyph glyph-name="j" unicode="j" horiz-adv-x="212" d="M32 610 C75 600 90 590 90 533 C90 533 90 12 90 12 C90 -138 67 -195 16 -226 C16 -226 18 -229 18 -229 C82 -189 110 -130 110 18 C110 18 110 539 110 539 C110 539 110 633 110 633 C110 633 110 638 110 638 C110 638 106 638 106 638 C106 638 32 617 32 617 C32 617 32 610 32 610 L32 610 Z M99 708 C110 708 119 717 119 728 C119 739 110 748 99 748 C88 748 79 739 79 728 C79 717 88 708 99 708 L99 708 Z " />
<glyph glyph-name="k" unicode="k" horiz-adv-x="425" d="M458 11 C458 11 449 11 449 11 C422 11 380 40 355 76 C355 76 355 76 355 76 C355 76 153 363 153 363 C153 363 308 561 308 561 C308 561 309 561 309 561 C338 598 382 626 409 626 C409 626 418 626 418 626 C418 626 418 638 418 638 C418 638 369 638 369 638 C369 638 365 638 365 638 C365 638 360 638 360 638 C360 638 303 638 303 638 C303 638 303 626 303 626 C303 626 310 626 310 626 C331 626 329 603 308 571 C308 571 138 351 138 351 C138 351 138 759 138 759 C138 759 138 853 138 853 C138 853 138 858 138 858 C138 858 134 858 134 858 C134 858 61 837 61 837 C61 837 61 830 61 830 C104 821 118 810 118 753 C118 753 118 76 118 76 C118 40 96 11 70 11 C70 11 61 11 61 11 C61 11 61 0 61 0 C61 0 118 0 118 0 C118 0 128 0 128 0 C128 0 138 0 138 0 C138 0 196 0 196 0 C196 0 196 11 196 11 C196 11 187 11 187 11 C160 11 139 40 138 76 C138 76 138 351 138 351 C138 351 332 73 332 73 C355 39 355 11 333 11 C333 11 326 11 326 11 C326 11 326 0 326 0 C326 0 383 0 383 0 C383 0 396 0 396 0 C396 0 408 0 408 0 C408 0 458 0 458 0 C458 0 458 11 458 11 L458 11 Z " />
<glyph glyph-name="l" unicode="l" horiz-adv-x="224" d="M45 830 C88 821 102 810 102 753 C102 753 102 76 102 76 C102 40 80 11 54 11 C54 11 45 11 45 11 C45 11 45 0 45 0 C45 0 102 0 102 0 C102 0 112 0 112 0 C112 0 122 0 122 0 C122 0 180 0 180 0 C180 0 180 11 180 11 C180 11 171 11 171 11 C144 11 123 40 122 76 C122 76 122 759 122 759 C122 759 122 853 122 853 C122 853 122 858 122 858 C122 858 118 858 118 858 C118 858 45 837 45 837 C45 837 45 830 45 830 L45 830 Z " />
<glyph glyph-name="m" unicode="m" horiz-adv-x="828" d="M788 11 C788 11 780 11 780 11 C752 11 731 40 731 76 C731 76 731 473 731 473 C731 568 675 643 612 643 C590 643 503 604 412 556 C392 608 354 643 313 643 C275 643 194 613 122 574 C122 574 122 638 122 638 C122 638 118 638 118 638 C118 638 45 617 45 617 C45 617 45 610 45 610 C87 601 102 591 102 533 C102 533 102 76 102 76 C102 40 80 11 54 11 C54 11 45 11 45 11 C45 11 45 0 45 0 C45 0 102 0 102 0 C102 0 112 0 112 0 C112 0 122 0 122 0 C122 0 180 0 180 0 C180 0 180 11 180 11 C180 11 171 11 171 11 C144 11 123 40 122 76 C122 76 122 539 122 539 C122 539 122 556 122 556 C122 556 122 572 122 572 C184 605 258 631 298 631 C355 631 407 560 407 471 C407 471 407 76 407 76 C407 40 385 11 358 11 C358 11 349 11 349 11 C349 11 349 0 349 0 C349 0 407 0 407 0 C407 0 417 0 417 0 C417 0 427 0 427 0 C427 0 484 0 484 0 C484 0 484 11 484 11 C484 11 475 11 475 11 C449 11 428 38 427 71 C427 71 427 76 427 76 C427 76 427 473 427 473 C427 502 422 529 413 553 C494 595 573 629 597 629 C657 629 711 559 711 471 C711 471 711 76 711 76 C711 40 689 11 662 11 C662 11 653 11 653 11 C653 11 653 0 653 0 C653 0 711 0 711 0 C711 0 721 0 721 0 C721 0 731 0 731 0 C731 0 788 0 788 0 C788 0 788 11 788 11 L788 11 Z " />
<glyph glyph-name="n" unicode="n" horiz-adv-x="494" d="M474 11 C474 11 465 11 465 11 C439 11 418 38 417 71 C417 71 417 76 417 76 C417 76 417 473 417 473 C417 568 380 643 307 643 C276 643 195 613 122 574 C122 574 122 638 122 638 C122 638 118 638 118 638 C118 638 45 617 45 617 C45 617 45 610 45 610 C87 601 102 591 102 533 C102 533 102 76 102 76 C102 40 80 11 54 11 C54 11 45 11 45 11 C45 11 45 0 45 0 C45 0 102 0 102 0 C102 0 112 0 112 0 C112 0 122 0 122 0 C122 0 180 0 180 0 C180 0 180 11 180 11 C180 11 171 11 171 11 C144 11 123 40 122 76 C122 76 122 539 122 539 C122 539 122 556 122 556 C122 556 122 572 122 572 C183 604 257 629 291 629 C362 629 397 559 397 471 C397 471 397 76 397 76 C397 40 375 11 348 11 C348 11 339 11 339 11 C339 11 339 0 339 0 C339 0 397 0 397 0 C397 0 407 0 407 0 C407 0 417 0 417 0 C417 0 474 0 474 0 C474 0 474 11 474 11 L474 11 Z " />
<glyph glyph-name="o" unicode="o" horiz-adv-x="502" d="M258 -1 C155 -1 72 141 72 319 C72 496 155 638 258 638 C362 638 445 496 445 319 C445 141 362 -1 258 -1 L258 -1 Z M50 319 C50 139 143 -5 258 -5 C374 -5 467 139 467 319 C467 499 374 643 258 643 C143 643 50 499 50 319 L50 319 Z " />
<glyph glyph-name="p" unicode="p" horiz-adv-x="524" d="M45 610 C87 601 102 591 102 533 C102 533 102 -154 102 -154 C102 -190 80 -219 54 -219 C54 -219 45 -219 45 -219 C45 -219 45 -230 45 -230 C45 -230 102 -230 102 -230 C102 -230 112 -230 112 -230 C112 -230 122 -230 122 -230 C122 -230 180 -230 180 -230 C180 -230 180 -219 180 -219 C180 -219 171 -219 171 -219 C144 -219 123 -190 122 -154 C122 -154 122 84 122 84 C149 32 209 -5 277 -5 C396 -5 490 142 490 325 C490 502 408 643 305 643 C245 643 164 604 122 556 C122 556 122 556 122 556 C122 556 120 638 120 638 C120 638 116 638 116 638 C116 638 45 617 45 617 C45 617 45 610 45 610 L45 610 Z M122 135 C122 135 122 539 122 539 C122 539 122 552 122 552 C160 595 233 629 289 629 C390 629 470 487 470 309 C470 138 384 1 277 1 C198 1 129 61 122 135 C122 135 122 135 122 135 L122 135 Z " />
<glyph glyph-name="q" unicode="q" horiz-adv-x="513" d="M468 -219 C468 -219 460 -219 460 -219 C433 -219 411 -190 411 -154 C411 -154 411 638 411 638 C411 638 409 638 409 638 C407 623 401 612 394 612 C350 612 301 643 242 643 C137 643 53 487 53 291 C53 127 129 -5 224 -5 C278 -5 351 24 391 62 C391 62 391 -154 391 -154 C391 -190 369 -219 342 -219 C342 -219 334 -219 334 -219 C334 -219 334 -230 334 -230 C334 -230 391 -230 391 -230 C391 -230 401 -230 401 -230 C401 -230 411 -230 411 -230 C411 -230 468 -230 468 -230 C468 -230 468 -219 468 -219 L468 -219 Z M391 65 C358 32 288 7 235 7 C145 7 74 137 74 299 C74 487 149 637 242 637 C325 637 391 573 391 493 C391 493 391 65 391 65 L391 65 Z " />
<glyph glyph-name="r" unicode="r" horiz-adv-x="322" d="M45 610 C87 601 102 591 102 533 C102 533 102 76 102 76 C102 40 80 11 54 11 C54 11 45 11 45 11 C45 11 45 0 45 0 C45 0 102 0 102 0 C102 0 112 0 112 0 C112 0 122 0 122 0 C122 0 180 0 180 0 C180 0 180 11 180 11 C180 11 171 11 171 11 C144 11 123 40 122 76 C122 76 122 539 122 539 C122 539 122 556 122 556 C155 596 201 628 226 628 C251 628 279 598 303 598 C309 598 313 602 313 608 C313 627 289 643 242 643 C212 643 160 605 122 558 C122 558 120 638 120 638 C120 638 116 638 116 638 C116 638 45 617 45 617 C45 617 45 610 45 610 L45 610 Z " />
<glyph glyph-name="s" unicode="s" horiz-adv-x="359" d="M49 108 C49 108 49 36 49 36 C49 36 51 40 51 40 C51 40 51 40 51 40 C51 40 49 36 49 36 C89 13 154 -5 196 -5 C259 -5 310 69 310 162 C310 211 260 284 198 326 C137 368 88 445 88 499 C88 576 127 638 176 638 C180 638 187 636 196 632 C229 618 261 583 271 551 C272 546 274 538 276 533 C276 533 285 533 285 533 C285 533 285 596 285 596 C241 622 192 643 176 643 C118 643 72 576 72 492 C72 434 122 354 184 312 C244 270 293 201 293 155 C293 69 250 0 197 0 C192 0 187 0 181 1 C181 1 181 1 181 1 C134 6 83 44 66 87 C64 93 60 102 57 108 C57 108 49 108 49 108 L49 108 Z " />
<glyph glyph-name="t" unicode="t" horiz-adv-x="286" d="M256 638 C256 638 116 638 116 638 C116 638 116 805 116 805 C116 805 113 805 113 805 C113 805 97 637 97 637 C97 637 97 637 97 637 C97 637 99 663 99 663 C97 649 65 635 25 632 C25 632 25 630 25 630 C25 630 96 630 96 630 C96 630 96 142 96 142 C96 36 113 -5 158 -5 C193 -5 233 17 267 45 C267 45 265 46 265 46 C237 23 202 4 168 4 C131 4 116 41 116 138 C116 138 116 630 116 630 C116 630 256 630 256 630 C256 630 256 638 256 638 L256 638 Z M99 663 C99 663 99 663 99 663 C99 663 99 663 99 663 L99 663 Z " />
<glyph glyph-name="u" unicode="u" horiz-adv-x="466" d="M309 626 C309 626 318 626 318 626 C345 626 367 598 367 561 C367 561 367 99 367 99 C367 99 367 65 367 65 C335 33 279 8 221 8 C142 8 92 75 92 159 C92 159 92 638 92 638 C92 638 82 638 82 638 C82 638 72 638 72 638 C72 638 15 638 15 638 C15 638 15 626 15 626 C15 626 24 626 24 626 C50 626 72 598 72 561 C72 561 72 156 72 156 C72 67 124 -5 205 -5 C267 -5 329 25 367 63 C367 63 367 5 367 5 C367 5 367 0 367 0 C367 0 371 0 371 0 C371 0 444 21 444 21 C444 21 444 28 444 28 C403 33 388 48 387 94 C387 94 387 105 387 105 C387 105 387 638 387 638 C387 638 377 638 377 638 C377 638 367 638 367 638 C367 638 309 638 309 638 C309 638 309 626 309 626 L309 626 Z " />
<glyph glyph-name="v" unicode="v" horiz-adv-x="435" d="M407 638 C407 638 353 638 353 638 C353 638 349 638 349 638 C349 638 346 638 346 638 C346 638 288 638 288 638 C289 638 289 635 288 632 C289 629 289 626 288 626 C288 626 297 626 297 626 C323 626 337 598 329 561 C329 561 329 561 329 561 C329 561 203 -10 203 -10 C203 -10 206 -10 206 -10 C206 -10 338 572 338 572 C349 603 375 626 399 626 C399 626 407 626 407 626 C407 626 407 638 407 638 L407 638 Z M143 638 C143 638 86 638 86 638 C86 638 74 638 74 638 C74 638 63 638 63 638 C63 638 8 638 8 638 C8 638 8 626 8 626 C8 626 16 626 16 626 C44 626 72 598 79 561 C79 561 80 561 80 561 C80 561 203 -10 203 -10 C203 -10 210 23 210 23 C210 23 100 570 100 570 C97 602 111 626 135 626 C135 626 143 626 143 626 C143 626 143 638 143 638 L143 638 Z " />
<glyph glyph-name="w" unicode="w" horiz-adv-x="598" d="M572 638 C572 638 529 638 529 638 C529 638 522 638 522 638 C522 638 442 638 442 638 C442 638 442 626 442 626 C442 626 457 626 457 626 C489 626 512 609 503 551 C503 551 387 25 387 25 C387 25 277 566 277 566 C271 613 291 626 319 626 C319 626 335 626 335 626 C335 626 335 638 335 638 C335 638 262 638 262 638 C262 638 239 638 239 638 C239 638 199 638 199 638 C199 638 199 626 199 626 C199 626 213 626 213 626 C229 626 246 609 258 549 C258 549 258 549 258 549 C258 549 291 398 291 398 C291 398 223 -10 223 -10 C223 -10 226 -10 226 -10 C226 -10 293 388 293 388 C293 388 379 -10 379 -10 C379 -10 382 -10 382 -10 C382 -10 510 556 510 556 C524 610 541 626 558 626 C558 626 572 626 572 626 C572 626 572 638 572 638 L572 638 Z M172 638 C172 638 106 638 106 638 C106 638 83 638 83 638 C83 638 39 638 39 638 C39 638 39 626 39 626 C39 626 53 626 53 626 C71 626 89 609 102 549 C102 549 102 549 102 549 C102 549 223 -10 223 -10 C223 -10 228 24 228 24 C228 24 121 560 121 560 C113 612 130 626 157 626 C157 626 172 626 172 626 C172 626 172 638 172 638 L172 638 Z " />
<glyph glyph-name="x" unicode="x" horiz-adv-x="485" d="M424 638 C424 638 371 638 371 638 C371 638 369 638 369 638 C369 638 366 638 366 638 C366 638 289 638 289 638 C289 638 289 626 289 626 C289 626 300 626 300 626 C334 626 349 598 333 561 C333 561 333 561 333 561 C333 561 249 363 249 363 C249 363 142 569 142 569 C129 602 138 626 166 626 C166 626 176 626 176 626 C176 626 176 638 176 638 C176 638 107 638 107 638 C107 638 95 638 95 638 C95 638 82 638 82 638 C82 638 42 638 42 638 C43 638 43 635 42 632 C43 629 43 626 42 626 C42 626 49 626 49 626 C69 626 98 602 117 569 C117 569 237 337 237 337 C237 337 235 331 235 331 C235 331 234 331 234 331 C234 331 125 69 125 69 C108 36 74 11 45 11 C45 11 36 11 36 11 C36 11 36 0 36 0 C36 0 96 0 96 0 C96 0 99 0 99 0 C99 0 101 0 101 0 C101 0 193 0 193 0 C193 0 193 11 193 11 C193 11 171 11 171 11 C135 11 118 40 133 76 C133 76 132 76 132 76 C132 76 238 331 238 331 C238 331 239 331 239 331 C239 331 240 332 240 332 C240 332 372 76 372 76 C372 76 371 76 371 76 C390 40 385 11 361 11 C361 11 353 11 353 11 C353 11 353 0 353 0 C353 0 411 0 411 0 C411 0 423 0 423 0 C423 0 435 0 435 0 C435 0 468 0 468 0 C468 0 468 11 468 11 C468 11 462 11 462 11 C444 11 414 40 396 76 C396 76 396 76 396 76 C396 76 251 358 251 358 C251 358 338 561 338 561 C338 561 338 561 338 561 C354 598 388 626 415 626 C415 626 424 626 424 626 C424 626 424 638 424 638 L424 638 Z " />
<glyph glyph-name="y" unicode="y" horiz-adv-x="443" d="M427 638 C427 638 373 638 373 638 C373 638 369 638 369 638 C369 638 366 638 366 638 C366 638 308 638 308 638 C309 638 309 635 308 632 C309 629 309 626 308 626 C308 626 317 626 317 626 C343 626 357 598 349 561 C349 561 349 561 349 561 C349 561 224 -6 224 -6 C224 -6 224 -6 224 -6 C224 -6 230 23 230 23 C230 23 120 570 120 570 C117 602 131 626 155 626 C155 626 163 626 163 626 C163 626 163 638 163 638 C163 638 106 638 106 638 C106 638 94 638 94 638 C94 638 83 638 83 638 C83 638 28 638 28 638 C28 638 28 626 28 626 C28 626 36 626 36 626 C64 626 92 598 99 561 C99 561 100 561 100 561 C100 561 222 -7 222 -7 C222 -7 207 -70 207 -70 C185 -168 157 -217 123 -217 C106 -217 91 -193 75 -193 C69 -193 65 -197 65 -202 C65 -218 85 -230 110 -230 C154 -230 188 -177 212 -72 C212 -72 226 -10 226 -10 C226 -10 358 572 358 572 C369 603 395 626 419 626 C419 626 427 626 427 626 C427 626 427 638 427 638 L427 638 Z " />
<glyph glyph-name="z" unicode="z" horiz-adv-x="420" d="M372 119 C372 119 361 95 361 95 C340 44 284 4 234 5 C234 5 234 5 234 5 C234 5 91 4 91 4 C91 4 370 638 370 638 C370 638 359 638 359 638 C359 638 347 638 347 638 C347 638 147 638 147 638 C147 638 76 638 76 638 C76 638 71 638 71 638 C71 637 71 636 70 635 C65 616 57 584 51 564 C51 564 60 564 60 564 C60 564 69 574 69 574 C94 607 151 633 195 633 C195 633 345 633 345 633 C345 633 65 0 65 0 C65 0 77 0 77 0 C77 0 89 0 89 0 C89 0 289 0 289 0 C289 0 364 0 364 0 C364 0 365 0 365 0 C365 1 365 2 366 2 C371 33 380 83 385 114 C380 116 372 119 372 119 C372 119 372 119 372 119 L372 119 Z " />
<glyph glyph-name="braceleft" unicode="&#x7b;" horiz-adv-x="192" d="M178 -120 C178 -120 178 -117 178 -117 C178 -117 142 -117 142 -117 C95 -116 58 -76 58 -25 C58 -25 58 259 58 259 C58 301 40 335 18 339 C40 345 58 390 58 445 C58 445 58 703 58 703 C58 754 95 795 142 794 C142 794 178 794 178 794 C178 794 178 798 178 798 C178 798 138 798 138 798 C85 798 43 756 42 703 C42 703 42 434 42 434 C43 382 28 341 8 341 C8 341 5 341 5 341 C5 341 5 337 5 337 C5 337 8 337 8 337 C28 337 43 307 42 270 C42 270 42 -25 42 -25 C43 -78 85 -120 138 -120 C138 -120 178 -120 178 -120 L178 -120 Z " />
<glyph glyph-name="bar" unicode="&#x7c;" horiz-adv-x="135" d="M60 908 C60 908 60 -234 60 -234 C60 -234 76 -234 76 -234 C76 -234 76 908 76 908 C76 908 60 908 60 908 L60 908 Z " />
<glyph glyph-name="braceright" unicode="&#x7d;" horiz-adv-x="192" d="M5 798 C5 798 5 794 5 794 C5 794 41 794 41 794 C87 794 125 754 125 703 C125 703 125 418 125 418 C125 377 143 343 165 338 C143 333 125 288 125 233 C125 233 125 -25 125 -25 C125 -76 87 -117 41 -117 C41 -117 5 -117 5 -117 C5 -117 5 -120 5 -120 C5 -120 45 -120 45 -120 C98 -120 140 -78 140 -25 C140 -25 140 244 140 244 C140 296 155 337 174 337 C174 337 178 337 178 337 C178 337 178 341 178 341 C178 341 174 341 174 341 C155 341 140 370 140 407 C140 407 140 703 140 703 C140 756 98 798 45 798 C45 798 5 798 5 798 L5 798 Z " />
<glyph glyph-name="[namenotfound]" unicode="&#xa0;" horiz-adv-x="149" d="" />
<glyph glyph-name="exclamdown" unicode="&#xa1;" horiz-adv-x="153" d="M79 643 C68 643 59 634 59 623 C59 612 68 603 79 603 C90 603 99 612 99 623 C99 634 90 643 79 643 L79 643 Z M60 -120 C60 -145 68 -165 80 -165 C92 -165 101 -145 100 -120 C100 -120 80 528 80 528 C80 528 77 528 77 528 C77 528 60 -120 60 -120 L60 -120 Z " />
<glyph glyph-name="cent" unicode="&#xa2;" horiz-adv-x="390" d="M225 713 C225 713 225 641 225 641 C126 623 50 480 50 304 C50 132 114 -5 194 -5 C204 -5 215 -5 225 -4 C225 -4 225 -75 225 -75 C225 -75 238 -75 238 -75 C238 -75 238 -3 238 -3 C283 1 324 12 338 24 C338 24 336 26 336 26 C326 17 285 10 238 8 C238 8 238 637 238 637 C240 637 242 637 244 637 C281 637 316 585 322 519 C322 513 326 509 332 509 C336 509 340 513 340 518 C335 587 293 643 246 643 C243 643 241 643 238 643 C238 643 238 713 238 713 C238 713 225 713 225 713 L225 713 Z M225 7 C220 7 216 7 211 7 C133 7 71 143 71 312 C71 480 138 617 225 635 C225 635 225 7 225 7 L225 7 Z " />
<glyph glyph-name="guillemotleft" unicode="&#xab;" horiz-adv-x="343" d="M158 319 C158 319 297 599 297 599 C297 599 295 601 295 601 C295 601 138 320 138 320 C138 320 138 318 138 318 C138 318 296 36 296 36 C296 36 298 39 298 39 C298 39 158 319 158 319 L158 319 Z M39 319 C39 319 179 599 179 599 C179 599 177 601 177 601 C177 601 20 320 20 320 C20 320 20 318 20 318 C20 318 178 36 178 36 C178 36 180 39 180 39 C180 39 39 319 39 319 L39 319 Z " />
<glyph glyph-name="guillemotright" unicode="&#xbb;" horiz-adv-x="343" d="M185 319 C185 319 46 599 46 599 C46 599 48 601 48 601 C48 601 205 320 205 320 C205 320 205 318 205 318 C205 318 47 36 47 36 C47 36 45 39 45 39 C45 39 185 319 185 319 L185 319 Z M304 319 C304 319 164 599 164 599 C164 599 166 601 166 601 C166 601 323 320 323 320 C323 320 323 318 323 318 C323 318 165 36 165 36 C165 36 163 39 163 39 C163 39 304 319 304 319 L304 319 Z " />
<glyph glyph-name="questiondown" unicode="&#xbf;" horiz-adv-x="301" d="M179 643 C168 643 159 634 159 623 C159 612 168 603 179 603 C190 603 199 612 199 623 C199 634 190 643 179 643 L179 643 Z M185 203 C185 203 180 518 180 518 C180 518 178 518 178 518 C178 518 173 215 173 215 C173 215 138 215 138 215 C58 215 35 127 35 83 C35 -55 104 -165 192 -165 C228 -165 257 -134 257 -96 C257 -94 251 -93 245 -93 C214 -93 217 -149 185 -149 C104 -149 40 -47 40 81 C40 120 63 200 145 200 C145 200 180 200 180 200 C183 200 185 201 185 203 L185 203 Z " />
<glyph glyph-name="Agrave" unicode="&#xc0;" horiz-adv-x="505" d="M498 11 C498 11 491 11 491 11 C469 11 447 34 436 65 C436 65 255 816 255 816 C255 816 249 816 249 816 C249 816 243 792 243 792 C243 792 243 791 243 791 C243 791 243 791 243 791 C243 791 76 67 76 67 C65 35 39 11 14 11 C14 11 5 11 5 11 C5 11 5 0 5 0 C5 0 60 0 60 0 C60 0 64 0 64 0 C64 0 68 0 68 0 C68 0 152 0 152 0 C152 0 152 11 152 11 C152 11 140 11 140 11 C101 11 78 47 89 91 C89 91 89 91 89 91 C89 91 132 278 132 278 C132 278 363 278 363 278 C363 278 410 76 410 76 C410 76 410 76 410 76 C418 40 396 11 360 11 C360 11 346 11 346 11 C346 11 346 0 346 0 C346 0 428 0 428 0 C428 0 440 0 440 0 C440 0 452 0 452 0 C452 0 498 0 498 0 C498 0 498 11 498 11 L498 11 Z M227 969 C203 1001 183 1027 182 1027 C178 1027 170 1021 170 1019 C170 1016 191 991 217 961 C217 961 327 829 327 829 C327 829 329 831 329 831 C329 831 227 969 227 969 L227 969 Z M362 284 C362 284 133 284 133 284 C133 284 246 777 246 777 C246 777 362 284 362 284 L362 284 Z " />
<glyph glyph-name="Aacute" unicode="&#xc1;" horiz-adv-x="505" d="M189 829 C189 829 296 961 296 961 C320 992 340 1018 341 1019 C341 1021 332 1027 329 1027 C329 1027 309 1001 285 969 C285 969 186 831 186 831 C186 831 189 829 189 829 L189 829 Z M498 11 C498 11 491 11 491 11 C469 11 447 34 436 65 C436 65 255 816 255 816 C255 816 249 816 249 816 C249 816 243 792 243 792 C243 792 243 791 243 791 C243 791 243 791 243 791 C243 791 76 67 76 67 C65 35 39 11 14 11 C14 11 5 11 5 11 C5 11 5 0 5 0 C5 0 60 0 60 0 C60 0 64 0 64 0 C64 0 68 0 68 0 C68 0 152 0 152 0 C152 0 152 11 152 11 C152 11 140 11 140 11 C101 11 78 47 89 91 C89 91 89 91 89 91 C89 91 132 278 132 278 C132 278 363 278 363 278 C363 278 410 76 410 76 C410 76 410 76 410 76 C418 40 396 11 360 11 C360 11 346 11 346 11 C346 11 346 0 346 0 C346 0 428 0 428 0 C428 0 440 0 440 0 C440 0 452 0 452 0 C452 0 498 0 498 0 C498 0 498 11 498 11 L498 11 Z M362 284 C362 284 133 284 133 284 C133 284 246 777 246 777 C246 777 362 284 362 284 L362 284 Z " />
<glyph glyph-name="Acircumflex" unicode="&#xc2;" horiz-adv-x="505" d="M498 11 C498 11 491 11 491 11 C469 11 447 34 436 65 C436 65 255 816 255 816 C255 816 249 816 249 816 C249 816 243 792 243 792 C243 792 243 791 243 791 C243 791 243 791 243 791 C243 791 76 67 76 67 C65 35 39 11 14 11 C14 11 5 11 5 11 C5 11 5 0 5 0 C5 0 60 0 60 0 C60 0 64 0 64 0 C64 0 68 0 68 0 C68 0 152 0 152 0 C152 0 152 11 152 11 C152 11 140 11 140 11 C101 11 78 47 89 91 C89 91 89 91 89 91 C89 91 132 278 132 278 C132 278 363 278 363 278 C363 278 410 76 410 76 C410 76 410 76 410 76 C418 40 396 11 360 11 C360 11 346 11 346 11 C346 11 346 0 346 0 C346 0 428 0 428 0 C428 0 440 0 440 0 C440 0 452 0 452 0 C452 0 498 0 498 0 C498 0 498 11 498 11 L498 11 Z M252 1020 C252 1020 353 832 353 832 C353 832 355 834 355 834 C355 834 258 1037 258 1037 C258 1039 255 1043 252 1043 C249 1043 246 1039 246 1037 C246 1037 148 834 148 834 C148 834 150 832 150 832 C150 832 252 1020 252 1020 L252 1020 Z M362 284 C362 284 133 284 133 284 C133 284 246 777 246 777 C246 777 362 284 362 284 L362 284 Z " />
<glyph glyph-name="Atilde" unicode="&#xc3;" horiz-adv-x="505" d="M153 893 C153 932 167 964 186 964 C230 964 269 902 313 902 C336 902 354 935 354 975 C354 975 350 975 350 975 C350 942 335 915 317 915 C273 915 234 978 190 978 C168 978 150 940 150 893 C150 893 153 893 153 893 L153 893 Z M498 11 C498 11 491 11 491 11 C469 11 447 34 436 65 C436 65 255 816 255 816 C255 816 249 816 249 816 C249 816 243 792 243 792 C243 792 243 791 243 791 C243 791 243 791 243 791 C243 791 76 67 76 67 C65 35 39 11 14 11 C14 11 5 11 5 11 C5 11 5 0 5 0 C5 0 60 0 60 0 C60 0 64 0 64 0 C64 0 68 0 68 0 C68 0 152 0 152 0 C152 0 152 11 152 11 C152 11 140 11 140 11 C101 11 78 47 89 91 C89 91 89 91 89 91 C89 91 132 278 132 278 C132 278 363 278 363 278 C363 278 410 76 410 76 C410 76 410 76 410 76 C418 40 396 11 360 11 C360 11 346 11 346 11 C346 11 346 0 346 0 C346 0 428 0 428 0 C428 0 440 0 440 0 C440 0 452 0 452 0 C452 0 498 0 498 0 C498 0 498 11 498 11 L498 11 Z M362 284 C362 284 133 284 133 284 C133 284 246 777 246 777 C246 777 362 284 362 284 L362 284 Z " />
<glyph glyph-name="Adieresis" unicode="&#xc4;" horiz-adv-x="505" d="M334 868 C345 868 354 877 354 888 C354 899 345 908 334 908 C323 908 314 899 314 888 C314 877 323 868 334 868 L334 868 Z M170 868 C181 868 190 877 190 888 C190 899 181 908 170 908 C159 908 150 899 150 888 C150 877 159 868 170 868 L170 868 Z M498 11 C498 11 491 11 491 11 C469 11 447 34 436 65 C436 65 255 816 255 816 C255 816 249 816 249 816 C249 816 243 792 243 792 C243 792 243 791 243 791 C243 791 243 791 243 791 C243 791 76 67 76 67 C65 35 39 11 14 11 C14 11 5 11 5 11 C5 11 5 0 5 0 C5 0 60 0 60 0 C60 0 64 0 64 0 C64 0 68 0 68 0 C68 0 152 0 152 0 C152 0 152 11 152 11 C152 11 140 11 140 11 C101 11 78 47 89 91 C89 91 89 91 89 91 C89 91 132 278 132 278 C132 278 363 278 363 278 C363 278 410 76 410 76 C410 76 410 76 410 76 C418 40 396 11 360 11 C360 11 346 11 346 11 C346 11 346 0 346 0 C346 0 428 0 428 0 C428 0 440 0 440 0 C440 0 452 0 452 0 C452 0 498 0 498 0 C498 0 498 11 498 11 L498 11 Z M362 284 C362 284 133 284 133 284 C133 284 246 777 246 777 C246 777 362 284 362 284 L362 284 Z " />
<glyph glyph-name="Aring" unicode="&#xc5;" horiz-adv-x="505" d="M252 837 C208 837 164 881 164 925 C164 974 203 1013 252 1013 C300 1013 339 974 339 925 C339 881 295 837 252 837 L252 837 Z M159 925 C159 879 205 833 252 833 C298 833 345 879 345 925 C345 977 304 1018 252 1018 C200 1018 159 977 159 925 L159 925 Z M498 11 C498 11 491 11 491 11 C469 11 447 34 436 65 C436 65 255 816 255 816 C255 816 249 816 249 816 C249 816 243 792 243 792 C243 792 243 791 243 791 C243 791 243 791 243 791 C243 791 76 67 76 67 C65 35 39 11 14 11 C14 11 5 11 5 11 C5 11 5 0 5 0 C5 0 60 0 60 0 C60 0 64 0 64 0 C64 0 68 0 68 0 C68 0 152 0 152 0 C152 0 152 11 152 11 C152 11 140 11 140 11 C101 11 78 47 89 91 C89 91 89 91 89 91 C89 91 132 278 132 278 C132 278 363 278 363 278 C363 278 410 76 410 76 C410 76 410 76 410 76 C418 40 396 11 360 11 C360 11 346 11 346 11 C346 11 346 0 346 0 C346 0 428 0 428 0 C428 0 440 0 440 0 C440 0 452 0 452 0 C452 0 498 0 498 0 C498 0 498 11 498 11 L498 11 Z M362 284 C362 284 133 284 133 284 C133 284 246 777 246 777 C246 777 362 284 362 284 L362 284 Z " />
<glyph glyph-name="Ccedilla" unicode="&#xc7;" horiz-adv-x="662" d="M603 638 C603 638 603 739 603 739 C542 775 439 803 371 803 C204 803 71 623 71 399 C71 175 204 -5 371 -5 C439 -5 542 23 603 59 C603 59 603 160 603 160 C603 160 593 160 593 160 C590 152 586 138 583 130 C562 68 483 13 403 3 C392 2 381 1 371 1 C218 1 95 178 95 399 C95 620 218 797 371 797 C391 797 415 794 440 790 C503 776 565 723 583 668 C586 659 590 646 593 638 C593 638 603 638 603 638 L603 638 Z " />
<glyph glyph-name="Egrave" unicode="&#xc8;" horiz-adv-x="464" d="M302 342 C302 342 302 407 302 407 C302 407 302 410 302 410 C302 410 302 413 302 413 C302 413 302 471 302 471 C302 470 301 470 300 471 C296 470 293 470 293 471 C293 471 290 462 290 462 C282 435 237 413 190 413 C190 413 120 413 120 413 C120 413 120 792 120 792 C120 792 218 792 218 792 C273 792 330 753 346 704 C346 704 351 689 351 689 C351 689 360 689 360 689 C360 689 360 795 360 795 C360 795 360 798 360 798 C360 798 357 798 357 798 C357 798 283 798 283 798 C283 798 120 798 120 798 C120 798 109 798 109 798 C109 798 97 798 97 798 C97 798 40 798 40 798 C40 798 40 786 40 786 C40 786 49 786 49 786 C75 786 97 758 97 721 C97 721 97 76 97 76 C97 40 75 11 49 11 C49 11 40 11 40 11 C40 11 40 0 40 0 C40 0 97 0 97 0 C97 0 109 0 109 0 C109 0 120 0 120 0 C120 0 291 0 291 0 C291 0 367 0 367 0 C367 0 368 0 368 0 C368 0 368 3 368 3 C373 32 382 80 387 109 C387 109 379 109 379 109 C379 109 371 94 371 94 C347 45 285 7 231 6 C231 6 227 6 227 6 C227 6 120 6 120 6 C120 6 120 407 120 407 C120 407 190 407 190 407 C237 407 282 383 290 352 C290 352 293 342 293 342 C293 342 302 342 302 342 L302 342 Z M186 969 C163 1001 143 1027 141 1027 C138 1027 130 1021 130 1019 C130 1016 150 991 176 961 C176 961 286 829 286 829 C286 829 288 831 288 831 C288 831 186 969 186 969 L186 969 Z " />
<glyph glyph-name="Eacute" unicode="&#xc9;" horiz-adv-x="464" d="M194 829 C194 829 301 961 301 961 C326 992 347 1018 346 1019 C346 1021 338 1027 335 1027 C334 1027 315 1001 291 969 C291 969 192 831 192 831 C192 831 194 829 194 829 L194 829 Z M302 342 C302 342 302 407 302 407 C302 407 302 410 302 410 C302 410 302 413 302 413 C302 413 302 471 302 471 C302 470 301 470 300 471 C296 470 293 470 293 471 C293 471 290 462 290 462 C282 435 237 413 190 413 C190 413 120 413 120 413 C120 413 120 792 120 792 C120 792 218 792 218 792 C273 792 330 753 346 704 C346 704 351 689 351 689 C351 689 360 689 360 689 C360 689 360 795 360 795 C360 795 360 798 360 798 C360 798 357 798 357 798 C357 798 283 798 283 798 C283 798 120 798 120 798 C120 798 109 798 109 798 C109 798 97 798 97 798 C97 798 40 798 40 798 C40 798 40 786 40 786 C40 786 49 786 49 786 C75 786 97 758 97 721 C97 721 97 76 97 76 C97 40 75 11 49 11 C49 11 40 11 40 11 C40 11 40 0 40 0 C40 0 97 0 97 0 C97 0 109 0 109 0 C109 0 120 0 120 0 C120 0 291 0 291 0 C291 0 367 0 367 0 C367 0 368 0 368 0 C368 0 368 3 368 3 C373 32 382 80 387 109 C387 109 379 109 379 109 C379 109 371 94 371 94 C347 45 285 7 231 6 C231 6 227 6 227 6 C227 6 120 6 120 6 C120 6 120 407 120 407 C120 407 190 407 190 407 C237 407 282 383 290 352 C290 352 293 342 293 342 C293 342 302 342 302 342 L302 342 Z " />
<glyph glyph-name="Ecircumflex" unicode="&#xca;" horiz-adv-x="464" d="M302 342 C302 342 302 407 302 407 C302 407 302 410 302 410 C302 410 302 413 302 413 C302 413 302 471 302 471 C302 470 301 470 300 471 C296 470 293 470 293 471 C293 471 290 462 290 462 C282 435 237 413 190 413 C190 413 120 413 120 413 C120 413 120 792 120 792 C120 792 218 792 218 792 C273 792 330 753 346 704 C346 704 351 689 351 689 C351 689 360 689 360 689 C360 689 360 795 360 795 C360 795 360 798 360 798 C360 798 357 798 357 798 C357 798 283 798 283 798 C283 798 120 798 120 798 C120 798 109 798 109 798 C109 798 97 798 97 798 C97 798 40 798 40 798 C40 798 40 786 40 786 C40 786 49 786 49 786 C75 786 97 758 97 721 C97 721 97 76 97 76 C97 40 75 11 49 11 C49 11 40 11 40 11 C40 11 40 0 40 0 C40 0 97 0 97 0 C97 0 109 0 109 0 C109 0 120 0 120 0 C120 0 291 0 291 0 C291 0 367 0 367 0 C367 0 368 0 368 0 C368 0 368 3 368 3 C373 32 382 80 387 109 C387 109 379 109 379 109 C379 109 371 94 371 94 C347 45 285 7 231 6 C231 6 227 6 227 6 C227 6 120 6 120 6 C120 6 120 407 120 407 C120 407 190 407 190 407 C237 407 282 383 290 352 C290 352 293 342 293 342 C293 342 302 342 302 342 L302 342 Z M228 1019 C228 1019 329 832 329 832 C329 832 331 834 331 834 C331 834 234 1037 234 1037 C233 1039 230 1043 227 1043 C224 1043 221 1039 221 1037 C221 1037 124 834 124 834 C124 834 126 832 126 832 C126 832 228 1019 228 1019 L228 1019 Z " />
<glyph glyph-name="Edieresis" unicode="&#xcb;" horiz-adv-x="464" d="M310 868 C321 868 330 877 330 888 C330 899 321 908 310 908 C299 908 290 899 290 888 C290 877 299 868 310 868 L310 868 Z M145 868 C156 868 165 877 165 888 C165 899 156 908 145 908 C134 908 125 899 125 888 C125 877 134 868 145 868 L145 868 Z M302 342 C302 342 302 407 302 407 C302 407 302 410 302 410 C302 410 302 413 302 413 C302 413 302 471 302 471 C302 470 301 470 300 471 C296 470 293 470 293 471 C293 471 290 462 290 462 C282 435 237 413 190 413 C190 413 120 413 120 413 C120 413 120 792 120 792 C120 792 218 792 218 792 C273 792 330 753 346 704 C346 704 351 689 351 689 C351 689 360 689 360 689 C360 689 360 795 360 795 C360 795 360 798 360 798 C360 798 357 798 357 798 C357 798 283 798 283 798 C283 798 120 798 120 798 C120 798 109 798 109 798 C109 798 97 798 97 798 C97 798 40 798 40 798 C40 798 40 786 40 786 C40 786 49 786 49 786 C75 786 97 758 97 721 C97 721 97 76 97 76 C97 40 75 11 49 11 C49 11 40 11 40 11 C40 11 40 0 40 0 C40 0 97 0 97 0 C97 0 109 0 109 0 C109 0 120 0 120 0 C120 0 291 0 291 0 C291 0 367 0 367 0 C367 0 368 0 368 0 C368 0 368 3 368 3 C373 32 382 80 387 109 C387 109 379 109 379 109 C379 109 371 94 371 94 C347 45 285 7 231 6 C231 6 227 6 227 6 C227 6 120 6 120 6 C120 6 120 407 120 407 C120 407 190 407 190 407 C237 407 282 383 290 352 C290 352 293 342 293 342 C293 342 302 342 302 342 L302 342 Z " />
<glyph glyph-name="Igrave" unicode="&#xcc;" horiz-adv-x="217" d="M177 798 C177 798 120 798 120 798 C120 798 109 798 109 798 C109 798 97 798 97 798 C97 798 40 798 40 798 C40 798 40 786 40 786 C40 786 49 786 49 786 C75 786 97 758 97 721 C97 721 97 76 97 76 C97 40 75 11 49 11 C49 11 40 11 40 11 C40 11 40 0 40 0 C40 0 97 0 97 0 C97 0 109 0 109 0 C109 0 120 0 120 0 C120 0 177 0 177 0 C177 0 177 11 177 11 C177 11 169 11 169 11 C141 11 120 40 120 76 C120 76 120 721 120 721 C120 758 141 786 169 786 C169 786 177 786 177 786 C177 786 177 798 177 798 L177 798 Z M83 969 C60 1001 40 1027 38 1027 C35 1027 27 1021 27 1019 C27 1016 48 991 73 961 C73 961 183 829 183 829 C183 829 185 831 185 831 C185 831 83 969 83 969 L83 969 Z " />
<glyph glyph-name="Iacute" unicode="&#xcd;" horiz-adv-x="217" d="M45 829 C45 829 152 961 152 961 C177 992 197 1018 197 1019 C197 1021 189 1027 186 1027 C185 1027 166 1001 142 969 C142 969 43 831 43 831 C43 831 45 829 45 829 L45 829 Z M177 798 C177 798 120 798 120 798 C120 798 109 798 109 798 C109 798 97 798 97 798 C97 798 40 798 40 798 C40 798 40 786 40 786 C40 786 49 786 49 786 C75 786 97 758 97 721 C97 721 97 76 97 76 C97 40 75 11 49 11 C49 11 40 11 40 11 C40 11 40 0 40 0 C40 0 97 0 97 0 C97 0 109 0 109 0 C109 0 120 0 120 0 C120 0 177 0 177 0 C177 0 177 11 177 11 C177 11 169 11 169 11 C141 11 120 40 120 76 C120 76 120 721 120 721 C120 758 141 786 169 786 C169 786 177 786 177 786 C177 786 177 798 177 798 L177 798 Z " />
<glyph glyph-name="Icircumflex" unicode="&#xce;" horiz-adv-x="217" d="M177 798 C177 798 120 798 120 798 C120 798 109 798 109 798 C109 798 97 798 97 798 C97 798 40 798 40 798 C40 798 40 786 40 786 C40 786 49 786 49 786 C75 786 97 758 97 721 C97 721 97 76 97 76 C97 40 75 11 49 11 C49 11 40 11 40 11 C40 11 40 0 40 0 C40 0 97 0 97 0 C97 0 109 0 109 0 C109 0 120 0 120 0 C120 0 177 0 177 0 C177 0 177 11 177 11 C177 11 169 11 169 11 C141 11 120 40 120 76 C120 76 120 721 120 721 C120 758 141 786 169 786 C169 786 177 786 177 786 C177 786 177 798 177 798 L177 798 Z M109 1019 C109 1019 210 832 210 832 C210 832 212 834 212 834 C212 834 115 1037 115 1037 C114 1039 111 1043 109 1043 C106 1043 103 1039 102 1037 C102 1037 5 834 5 834 C5 834 7 832 7 832 C7 832 109 1019 109 1019 L109 1019 Z " />
<glyph glyph-name="Idieresis" unicode="&#xcf;" horiz-adv-x="217" d="M191 868 C202 868 211 877 211 888 C211 899 202 908 191 908 C180 908 171 899 171 888 C171 877 180 868 191 868 L191 868 Z M26 868 C37 868 46 877 46 888 C46 899 37 908 26 908 C15 908 6 899 6 888 C6 877 15 868 26 868 L26 868 Z M177 798 C177 798 120 798 120 798 C120 798 109 798 109 798 C109 798 97 798 97 798 C97 798 40 798 40 798 C40 798 40 786 40 786 C40 786 49 786 49 786 C75 786 97 758 97 721 C97 721 97 76 97 76 C97 40 75 11 49 11 C49 11 40 11 40 11 C40 11 40 0 40 0 C40 0 97 0 97 0 C97 0 109 0 109 0 C109 0 120 0 120 0 C120 0 177 0 177 0 C177 0 177 11 177 11 C177 11 169 11 169 11 C141 11 120 40 120 76 C120 76 120 721 120 721 C120 758 141 786 169 786 C169 786 177 786 177 786 C177 786 177 798 177 798 L177 798 Z " />
<glyph glyph-name="Ntilde" unicode="&#xd1;" horiz-adv-x="590" d="M201 893 C201 932 215 964 233 964 C277 964 316 902 360 902 C383 902 401 935 401 975 C401 975 398 975 398 975 C398 942 383 915 364 915 C320 915 281 978 237 978 C215 978 197 940 197 893 C197 893 201 893 201 893 L201 893 Z M553 798 C553 798 495 798 495 798 C495 798 492 798 492 798 C492 798 489 798 489 798 C489 798 431 798 431 798 C431 798 431 786 431 786 C431 786 440 786 440 786 C467 786 489 758 489 721 C489 721 489 35 489 35 C489 35 123 798 123 798 C123 798 109 788 109 788 C109 788 109 789 109 789 C109 789 123 798 123 798 C123 798 109 798 109 798 C109 798 106 798 106 798 C106 798 103 798 103 798 C103 798 45 798 45 798 C45 798 45 786 45 786 C45 786 54 786 54 786 C81 786 103 758 103 721 C103 721 103 76 103 76 C103 40 81 11 54 11 C54 11 45 11 45 11 C45 11 45 0 45 0 C45 0 103 0 103 0 C103 0 106 0 106 0 C106 0 109 0 109 0 C109 0 167 0 167 0 C167 0 167 11 167 11 C167 11 158 11 158 11 C131 11 109 40 109 76 C109 76 109 775 109 775 C109 775 479 9 479 9 C479 9 485 -4 485 -4 C485 -4 495 -4 495 -4 C495 -4 495 17 495 17 C495 17 495 721 495 721 C496 758 517 786 544 786 C544 786 553 786 553 786 C553 786 553 798 553 798 L553 798 Z " />
<glyph glyph-name="Ograve" unicode="&#xd2;" horiz-adv-x="695" d="M358 1 C197 1 95 200 95 399 C95 598 197 797 358 797 C519 797 621 598 621 399 C621 200 519 1 358 1 L358 1 Z M71 399 C71 197 183 -5 358 -5 C533 -5 645 197 645 399 C645 601 533 803 358 803 C183 803 71 601 71 399 L71 399 Z M333 969 C309 1001 289 1027 288 1027 C285 1027 276 1021 276 1019 C276 1016 297 991 323 961 C323 961 433 829 433 829 C433 829 435 831 435 831 C435 831 333 969 333 969 L333 969 Z " />
<glyph glyph-name="Oacute" unicode="&#xd3;" horiz-adv-x="695" d="M333 829 C333 829 440 961 440 961 C465 992 485 1018 485 1019 C485 1021 477 1027 473 1027 C473 1027 453 1001 430 969 C430 969 331 831 331 831 C331 831 333 829 333 829 L333 829 Z M358 1 C197 1 95 200 95 399 C95 598 197 797 358 797 C519 797 621 598 621 399 C621 200 519 1 358 1 L358 1 Z M71 399 C71 197 183 -5 358 -5 C533 -5 645 197 645 399 C645 601 533 803 358 803 C183 803 71 601 71 399 L71 399 Z " />
<glyph glyph-name="Ocircumflex" unicode="&#xd4;" horiz-adv-x="695" d="M358 1 C197 1 95 200 95 399 C95 598 197 797 358 797 C519 797 621 598 621 399 C621 200 519 1 358 1 L358 1 Z M71 399 C71 197 183 -5 358 -5 C533 -5 645 197 645 399 C645 601 533 803 358 803 C183 803 71 601 71 399 L71 399 Z M358 1020 C358 1020 459 832 459 832 C459 832 462 834 462 834 C462 834 364 1037 364 1037 C364 1039 361 1043 358 1043 C355 1043 352 1039 352 1037 C352 1037 255 834 255 834 C255 834 257 832 257 832 C257 832 358 1020 358 1020 L358 1020 Z " />
<glyph glyph-name="Otilde" unicode="&#xd5;" horiz-adv-x="695" d="M260 893 C260 932 274 964 292 964 C336 964 375 902 419 902 C442 902 460 935 460 975 C460 975 457 975 457 975 C457 942 442 915 423 915 C379 915 340 978 296 978 C274 978 256 940 256 893 C256 893 260 893 260 893 L260 893 Z M358 1 C197 1 95 200 95 399 C95 598 197 797 358 797 C519 797 621 598 621 399 C621 200 519 1 358 1 L358 1 Z M71 399 C71 197 183 -5 358 -5 C533 -5 645 197 645 399 C645 601 533 803 358 803 C183 803 71 601 71 399 L71 399 Z " />
<glyph glyph-name="Odieresis" unicode="&#xd6;" horiz-adv-x="695" d="M440 868 C451 868 460 877 460 888 C460 899 451 908 440 908 C429 908 420 899 420 888 C420 877 429 868 440 868 L440 868 Z M276 868 C287 868 296 877 296 888 C296 899 287 908 276 908 C265 908 256 899 256 888 C256 877 265 868 276 868 L276 868 Z M358 1 C197 1 95 200 95 399 C95 598 197 797 358 797 C519 797 621 598 621 399 C621 200 519 1 358 1 L358 1 Z M71 399 C71 197 183 -5 358 -5 C533 -5 645 197 645 399 C645 601 533 803 358 803 C183 803 71 601 71 399 L71 399 Z " />
<glyph glyph-name="Oslash" unicode="&#xd8;" horiz-adv-x="695" d="M75 -8 C75 -8 158 108 158 108 C207 40 276 -5 358 -5 C533 -5 645 197 645 399 C645 502 616 605 564 681 C564 681 649 800 649 800 C649 800 641 806 641 806 C641 806 558 690 558 690 C509 758 440 803 358 803 C183 803 71 601 71 399 C71 296 100 193 152 117 C152 117 67 -2 67 -2 C67 -2 75 -8 75 -8 L75 -8 Z M358 1 C278 1 213 50 168 123 C168 123 554 666 554 666 C597 592 621 496 621 399 C621 200 519 1 358 1 C358 1 358 1 358 1 L358 1 Z M162 132 C119 206 95 302 95 399 C95 598 197 797 358 797 C438 797 503 748 548 675 C548 675 162 132 162 132 L162 132 Z " />
<glyph glyph-name="Ugrave" unicode="&#xd9;" horiz-adv-x="591" d="M572 798 C572 798 507 798 507 798 C507 798 503 798 503 798 C503 798 500 798 500 798 C500 798 431 798 431 798 C431 798 431 786 431 786 C431 786 442 786 442 786 C474 786 500 753 500 711 C500 711 500 210 500 210 C500 95 438 3 314 3 C191 3 129 108 129 240 C129 240 129 721 129 721 C129 758 151 786 178 786 C178 786 187 786 187 786 C186 786 186 789 187 792 C186 795 186 798 187 798 C187 798 129 798 129 798 C129 798 118 798 118 798 C118 798 107 798 107 798 C107 798 49 798 49 798 C49 798 49 786 49 786 C49 786 58 786 58 786 C85 786 107 758 107 721 C107 721 107 245 107 245 C107 106 175 -5 311 -5 C442 -5 507 90 507 208 C507 208 507 711 507 711 C507 753 531 786 562 786 C562 786 572 786 572 786 C572 786 572 798 572 798 L572 798 Z M282 969 C258 1001 238 1027 237 1027 C233 1027 225 1021 225 1019 C225 1016 246 991 271 961 C271 961 381 829 381 829 C381 829 384 831 384 831 C384 831 282 969 282 969 L282 969 Z " />
<glyph glyph-name="Uacute" unicode="&#xda;" horiz-adv-x="591" d="M304 829 C304 829 411 961 411 961 C436 992 456 1018 456 1019 C456 1021 448 1027 445 1027 C444 1027 425 1001 401 969 C401 969 302 831 302 831 C302 831 304 829 304 829 L304 829 Z M572 798 C572 798 507 798 507 798 C507 798 503 798 503 798 C503 798 500 798 500 798 C500 798 431 798 431 798 C431 798 431 786 431 786 C431 786 442 786 442 786 C474 786 500 753 500 711 C500 711 500 210 500 210 C500 95 438 3 314 3 C191 3 129 108 129 240 C129 240 129 721 129 721 C129 758 151 786 178 786 C178 786 187 786 187 786 C186 786 186 789 187 792 C186 795 186 798 187 798 C187 798 129 798 129 798 C129 798 118 798 118 798 C118 798 107 798 107 798 C107 798 49 798 49 798 C49 798 49 786 49 786 C49 786 58 786 58 786 C85 786 107 758 107 721 C107 721 107 245 107 245 C107 106 175 -5 311 -5 C442 -5 507 90 507 208 C507 208 507 711 507 711 C507 753 531 786 562 786 C562 786 572 786 572 786 C572 786 572 798 572 798 L572 798 Z " />
<glyph glyph-name="Ucircumflex" unicode="&#xdb;" horiz-adv-x="591" d="M572 798 C572 798 507 798 507 798 C507 798 503 798 503 798 C503 798 500 798 500 798 C500 798 431 798 431 798 C431 798 431 786 431 786 C431 786 442 786 442 786 C474 786 500 753 500 711 C500 711 500 210 500 210 C500 95 438 3 314 3 C191 3 129 108 129 240 C129 240 129 721 129 721 C129 758 151 786 178 786 C178 786 187 786 187 786 C186 786 186 789 187 792 C186 795 186 798 187 798 C187 798 129 798 129 798 C129 798 118 798 118 798 C118 798 107 798 107 798 C107 798 49 798 49 798 C49 798 49 786 49 786 C49 786 58 786 58 786 C85 786 107 758 107 721 C107 721 107 245 107 245 C107 106 175 -5 311 -5 C442 -5 507 90 507 208 C507 208 507 711 507 711 C507 753 531 786 562 786 C562 786 572 786 572 786 C572 786 572 798 572 798 L572 798 Z M307 1019 C307 1019 408 832 408 832 C408 832 410 834 410 834 C410 834 313 1037 313 1037 C313 1039 310 1043 307 1043 C304 1043 301 1039 301 1037 C301 1037 203 834 203 834 C203 834 205 832 205 832 C205 832 307 1019 307 1019 L307 1019 Z " />
<glyph glyph-name="Udieresis" unicode="&#xdc;" horiz-adv-x="591" d="M389 868 C400 868 409 877 409 888 C409 899 400 908 389 908 C378 908 369 899 369 888 C369 877 378 868 389 868 L389 868 Z M224 868 C235 868 244 877 244 888 C244 899 235 908 224 908 C213 908 204 899 204 888 C204 877 213 868 224 868 L224 868 Z M572 798 C572 798 507 798 507 798 C507 798 503 798 503 798 C503 798 500 798 500 798 C500 798 431 798 431 798 C431 798 431 786 431 786 C431 786 442 786 442 786 C474 786 500 753 500 711 C500 711 500 210 500 210 C500 95 438 3 314 3 C191 3 129 108 129 240 C129 240 129 721 129 721 C129 758 151 786 178 786 C178 786 187 786 187 786 C186 786 186 789 187 792 C186 795 186 798 187 798 C187 798 129 798 129 798 C129 798 118 798 118 798 C118 798 107 798 107 798 C107 798 49 798 49 798 C49 798 49 786 49 786 C49 786 58 786 58 786 C85 786 107 758 107 721 C107 721 107 245 107 245 C107 106 175 -5 311 -5 C442 -5 507 90 507 208 C507 208 507 711 507 711 C507 753 531 786 562 786 C562 786 572 786 572 786 C572 786 572 798 572 798 L572 798 Z " />
<glyph glyph-name="Yacute" unicode="&#xdd;" horiz-adv-x="482" d="M251 829 C251 829 358 961 358 961 C383 992 403 1018 403 1019 C403 1021 395 1027 392 1027 C391 1027 372 1001 348 969 C348 969 249 831 249 831 C249 831 251 829 251 829 L251 829 Z M322 11 C322 11 314 11 314 11 C286 11 265 40 265 76 C265 76 265 315 265 315 C265 315 411 721 411 721 C411 721 412 721 412 721 C425 758 454 786 478 786 C478 786 485 786 485 786 C485 786 485 798 485 798 C485 798 439 798 439 798 C439 798 436 798 436 798 C436 798 433 798 433 798 C433 798 348 798 348 798 C348 798 348 786 348 786 C348 786 360 786 360 786 C398 786 415 749 398 701 C398 701 398 701 398 701 C398 701 259 315 259 315 C259 315 259 315 259 315 C259 315 118 726 118 726 C109 761 124 786 154 786 C154 786 163 786 163 786 C163 786 163 798 163 798 C163 798 94 798 94 798 C94 798 81 798 81 798 C81 798 68 798 68 798 C68 798 30 798 30 798 C30 798 30 786 30 786 C30 786 36 786 36 786 C55 786 81 759 94 724 C94 724 242 301 242 301 C242 301 242 76 242 76 C242 40 220 11 194 11 C194 11 185 11 185 11 C185 11 185 0 185 0 C185 0 242 0 242 0 C242 0 254 0 254 0 C254 0 265 0 265 0 C265 0 322 0 322 0 C322 0 322 11 322 11 L322 11 Z " />
<glyph glyph-name="agrave" unicode="&#xe0;" horiz-adv-x="502" d="M191 809 C168 841 148 867 146 867 C143 867 134 861 134 859 C134 856 155 831 181 801 C181 801 291 669 291 669 C291 669 293 671 293 671 C293 671 191 809 191 809 L191 809 Z M390 4 C390 4 450 21 450 21 C449 25 449 28 450 28 C405 33 392 51 392 105 C392 105 392 638 392 638 C392 638 387 638 387 638 C387 638 374 551 374 551 C351 598 285 643 224 643 C130 643 55 487 55 291 C55 127 127 -5 216 -5 C262 -5 330 50 372 121 C372 121 372 99 372 99 C372 99 372 0 372 0 C372 0 372 -5 372 -5 C372 -5 375 -5 375 -5 C375 -5 390 4 390 4 L390 4 Z M372 125 C334 59 270 7 227 7 C143 7 76 137 76 299 C76 487 141 637 223 637 C286 637 355 589 372 541 C372 541 372 125 372 125 L372 125 Z " />
<glyph glyph-name="aacute" unicode="&#xe1;" horiz-adv-x="405" d="M148 669 C148 669 255 801 255 801 C280 832 300 858 300 859 C300 861 292 867 289 867 C288 867 269 841 245 809 C245 809 146 671 146 671 C146 671 148 669 148 669 L148 669 Z M383 34 C364 15 343 0 328 0 C301 0 290 24 290 54 C290 54 290 501 290 501 C290 580 251 643 203 643 C140 643 82 603 72 552 C72 552 92 552 92 552 C102 599 149 637 199 637 C238 637 269 578 269 505 C269 505 269 301 269 301 C269 301 162 288 162 288 C91 279 35 208 35 128 C35 54 74 -5 122 -5 C164 -5 226 33 269 82 C269 82 269 52 269 52 C269 18 282 -10 315 -10 C336 -10 362 8 386 31 C386 31 383 34 383 34 L383 34 Z M269 297 C269 297 269 86 269 86 C230 42 171 9 132 9 C89 9 55 64 55 134 C55 208 103 273 162 282 C162 282 269 297 269 297 L269 297 Z " />
<glyph glyph-name="acircumflex" unicode="&#xe2;" horiz-adv-x="502" d="M216 860 C216 860 318 672 318 672 C318 672 320 674 320 674 C320 674 223 877 223 877 C222 879 219 883 216 883 C213 883 210 879 210 877 C210 877 113 674 113 674 C113 674 115 672 115 672 C115 672 216 860 216 860 L216 860 Z M390 4 C390 4 450 21 450 21 C449 25 449 28 450 28 C405 33 392 51 392 105 C392 105 392 638 392 638 C392 638 387 638 387 638 C387 638 374 551 374 551 C351 598 285 643 224 643 C130 643 55 487 55 291 C55 127 127 -5 216 -5 C262 -5 330 50 372 121 C372 121 372 99 372 99 C372 99 372 0 372 0 C372 0 372 -5 372 -5 C372 -5 375 -5 375 -5 C375 -5 390 4 390 4 L390 4 Z M372 125 C334 59 270 7 227 7 C143 7 76 137 76 299 C76 487 141 637 223 637 C286 637 355 589 372 541 C372 541 372 125 372 125 L372 125 Z " />
<glyph glyph-name="atilde" unicode="&#xe3;" horiz-adv-x="502" d="M118 733 C118 772 132 804 150 804 C194 804 233 742 277 742 C300 742 318 775 318 815 C318 815 315 815 315 815 C315 782 300 755 281 755 C237 755 198 818 154 818 C132 818 114 780 114 733 C114 733 118 733 118 733 L118 733 Z M390 4 C390 4 450 21 450 21 C449 25 449 28 450 28 C405 33 392 51 392 105 C392 105 392 638 392 638 C392 638 387 638 387 638 C387 638 374 551 374 551 C351 598 285 643 224 643 C130 643 55 487 55 291 C55 127 127 -5 216 -5 C262 -5 330 50 372 121 C372 121 372 99 372 99 C372 99 372 0 372 0 C372 0 372 -5 372 -5 C372 -5 375 -5 375 -5 C375 -5 390 4 390 4 L390 4 Z M372 125 C334 59 270 7 227 7 C143 7 76 137 76 299 C76 487 141 637 223 637 C286 637 355 589 372 541 C372 541 372 125 372 125 L372 125 Z " />
<glyph glyph-name="adieresis" unicode="&#xe4;" horiz-adv-x="502" d="M299 708 C310 708 319 717 319 728 C319 739 310 748 299 748 C288 748 279 739 279 728 C279 717 288 708 299 708 L299 708 Z M134 708 C145 708 154 717 154 728 C154 739 145 748 134 748 C123 748 114 739 114 728 C114 717 123 708 134 708 L134 708 Z M390 4 C390 4 450 21 450 21 C449 25 449 28 450 28 C405 33 392 51 392 105 C392 105 392 638 392 638 C392 638 387 638 387 638 C387 638 374 551 374 551 C351 598 285 643 224 643 C130 643 55 487 55 291 C55 127 127 -5 216 -5 C262 -5 330 50 372 121 C372 121 372 99 372 99 C372 99 372 0 372 0 C372 0 372 -5 372 -5 C372 -5 375 -5 375 -5 C375 -5 390 4 390 4 L390 4 Z M372 125 C334 59 270 7 227 7 C143 7 76 137 76 299 C76 487 141 637 223 637 C286 637 355 589 372 541 C372 541 372 125 372 125 L372 125 Z " />
<glyph glyph-name="aring" unicode="&#xe5;" horiz-adv-x="502" d="M216 677 C173 677 129 721 129 765 C129 814 168 853 216 853 C265 853 304 814 304 765 C304 721 260 677 216 677 L216 677 Z M123 765 C123 719 170 673 216 673 C263 673 309 719 309 765 C309 817 268 858 216 858 C164 858 123 817 123 765 L123 765 Z M390 4 C390 4 450 21 450 21 C449 25 449 28 450 28 C405 33 392 51 392 105 C392 105 392 638 392 638 C392 638 387 638 387 638 C387 638 374 551 374 551 C351 598 285 643 224 643 C130 643 55 487 55 291 C55 127 127 -5 216 -5 C262 -5 330 50 372 121 C372 121 372 99 372 99 C372 99 372 0 372 0 C372 0 372 -5 372 -5 C372 -5 375 -5 375 -5 C375 -5 390 4 390 4 L390 4 Z M372 125 C334 59 270 7 227 7 C143 7 76 137 76 299 C76 487 141 637 223 637 C286 637 355 589 372 541 C372 541 372 125 372 125 L372 125 Z " />
<glyph glyph-name="ccedilla" unicode="&#xe7;" horiz-adv-x="390" d="M338 24 C338 24 336 26 336 26 C324 15 268 7 211 7 C133 7 71 143 71 312 C71 492 148 637 244 637 C281 637 316 585 322 519 C322 513 326 509 332 509 C336 509 340 513 340 518 C335 587 293 643 246 643 C137 643 50 492 50 304 C50 132 114 -5 194 -5 C255 -5 319 8 338 24 L338 24 Z " />
<glyph glyph-name="egrave" unicode="&#xe8;" horiz-adv-x="397" d="M345 24 C345 24 343 26 343 26 C331 15 273 7 214 7 C135 7 71 143 71 312 C71 356 75 398 82 436 C82 436 328 436 328 436 C328 436 347 436 347 436 C347 551 290 643 218 643 C125 643 50 492 50 304 C50 132 116 -5 197 -5 C261 -5 326 8 345 24 L345 24 Z M193 809 C169 841 149 867 148 867 C144 867 136 861 136 859 C136 856 157 831 183 801 C183 801 293 669 293 669 C293 669 295 671 295 671 C295 671 193 809 193 809 L193 809 Z M328 443 C328 443 83 440 83 440 C105 556 156 637 217 637 C279 637 329 555 329 453 C329 453 329 451 329 451 C328 446 324 443 319 443 C319 443 328 443 328 443 C328 443 328 443 328 443 L328 443 Z " />
<glyph glyph-name="eacute" unicode="&#xe9;" horiz-adv-x="397" d="M185 669 C185 669 292 801 292 801 C317 832 337 858 337 859 C337 861 329 867 326 867 C325 867 306 841 282 809 C282 809 183 671 183 671 C183 671 185 669 185 669 L185 669 Z M345 24 C345 24 343 26 343 26 C331 15 273 7 214 7 C135 7 71 143 71 312 C71 356 75 398 82 436 C82 436 328 436 328 436 C328 436 347 436 347 436 C347 551 290 643 218 643 C125 643 50 492 50 304 C50 132 116 -5 197 -5 C261 -5 326 8 345 24 L345 24 Z M328 443 C328 443 83 440 83 440 C105 556 156 637 217 637 C279 637 329 555 329 453 C329 453 329 451 329 451 C328 446 324 443 319 443 C319 443 328 443 328 443 C328 443 328 443 328 443 L328 443 Z " />
<glyph glyph-name="ecircumflex" unicode="&#xea;" horiz-adv-x="397" d="M345 24 C345 24 343 26 343 26 C331 15 273 7 214 7 C135 7 71 143 71 312 C71 356 75 398 82 436 C82 436 328 436 328 436 C328 436 347 436 347 436 C347 551 290 643 218 643 C125 643 50 492 50 304 C50 132 116 -5 197 -5 C261 -5 326 8 345 24 L345 24 Z M218 860 C218 860 319 672 319 672 C319 672 321 674 321 674 C321 674 224 877 224 877 C224 879 221 883 218 883 C215 883 212 879 212 877 C212 877 114 674 114 674 C114 674 116 672 116 672 C116 672 218 860 218 860 L218 860 Z M328 443 C328 443 83 440 83 440 C105 556 156 637 217 637 C279 637 329 555 329 453 C329 453 329 451 329 451 C328 446 324 443 319 443 C319 443 328 443 328 443 C328 443 328 443 328 443 L328 443 Z " />
<glyph glyph-name="edieresis" unicode="&#xeb;" horiz-adv-x="397" d="M300 708 C311 708 320 717 320 728 C320 739 311 748 300 748 C289 748 280 739 280 728 C280 717 289 708 300 708 L300 708 Z M136 708 C147 708 156 717 156 728 C156 739 147 748 136 748 C125 748 116 739 116 728 C116 717 125 708 136 708 L136 708 Z M345 24 C345 24 343 26 343 26 C331 15 273 7 214 7 C135 7 71 143 71 312 C71 356 75 398 82 436 C82 436 328 436 328 436 C328 436 347 436 347 436 C347 551 290 643 218 643 C125 643 50 492 50 304 C50 132 116 -5 197 -5 C261 -5 326 8 345 24 L345 24 Z M328 443 C328 443 83 440 83 440 C105 556 156 637 217 637 C279 637 329 555 329 453 C329 453 329 451 329 451 C328 446 324 443 319 443 C319 443 328 443 328 443 C328 443 328 443 328 443 L328 443 Z " />
<glyph glyph-name="igrave" unicode="&#xec;" horiz-adv-x="224" d="M122 0 C122 0 180 0 180 0 C180 0 180 11 180 11 C180 11 168 11 168 11 C143 11 122 9 122 0 C122 0 122 561 122 561 C122 561 122 643 122 643 C122 643 121 643 121 643 C121 643 54 622 54 622 C54 622 54 614 54 614 C54 614 88 600 88 600 C96 597 102 586 102 556 C102 556 102 561 102 561 C102 561 122 561 122 561 C122 561 122 0 122 0 L122 0 Z M102 556 C102 556 102 0 102 0 C102 9 82 11 56 11 C56 11 45 11 45 11 C45 11 45 0 45 0 C45 0 102 0 102 0 C102 0 102 556 102 556 L102 556 Z M87 809 C64 841 44 867 42 867 C39 867 31 861 31 859 C31 856 52 831 77 801 C77 801 187 669 187 669 C187 669 189 671 189 671 C189 671 87 809 87 809 L87 809 Z " />
<glyph glyph-name="iacute" unicode="&#xed;" horiz-adv-x="224" d="M34 669 C34 669 141 801 141 801 C166 832 186 858 186 859 C186 861 178 867 175 867 C174 867 155 841 131 809 C131 809 32 671 32 671 C32 671 34 669 34 669 L34 669 Z M122 0 C122 0 180 0 180 0 C180 0 180 11 180 11 C180 11 168 11 168 11 C143 11 122 9 122 0 C122 0 122 561 122 561 C122 561 122 643 122 643 C122 643 121 643 121 643 C121 643 54 622 54 622 C54 622 54 614 54 614 C54 614 88 600 88 600 C96 597 102 586 102 556 C102 556 102 561 102 561 C102 561 122 561 122 561 C122 561 122 0 122 0 L122 0 Z M102 556 C102 556 102 0 102 0 C102 9 82 11 56 11 C56 11 45 11 45 11 C45 11 45 0 45 0 C45 0 102 0 102 0 C102 0 102 556 102 556 L102 556 Z " />
<glyph glyph-name="icircumflex" unicode="&#xee;" horiz-adv-x="224" d="M122 0 C122 0 180 0 180 0 C180 0 180 11 180 11 C180 11 168 11 168 11 C143 11 122 9 122 0 C122 0 122 561 122 561 C122 561 122 643 122 643 C122 643 121 643 121 643 C121 643 54 622 54 622 C54 622 54 614 54 614 C54 614 88 600 88 600 C96 597 102 586 102 556 C102 556 102 561 102 561 C102 561 122 561 122 561 C122 561 122 0 122 0 L122 0 Z M102 556 C102 556 102 0 102 0 C102 9 82 11 56 11 C56 11 45 11 45 11 C45 11 45 0 45 0 C45 0 102 0 102 0 C102 0 102 556 102 556 L102 556 Z M113 874 C113 874 106 877 106 877 C106 877 9 674 9 674 C9 674 11 672 11 672 C11 672 113 859 113 859 C113 859 214 672 214 672 C214 672 216 674 216 674 C216 674 119 877 119 877 C119 877 113 874 113 874 L113 874 Z M106 871 C106 871 113 859 113 859 C113 859 119 871 119 871 C119 871 106 871 106 871 L106 871 Z M119 877 C118 879 115 883 112 883 C110 883 107 879 106 877 C106 877 119 877 119 877 L119 877 Z " />
<glyph glyph-name="idieresis" unicode="&#xef;" horiz-adv-x="224" d="M195 708 C206 708 215 717 215 728 C215 739 206 748 195 748 C184 748 175 739 175 728 C175 717 184 708 195 708 L195 708 Z M30 708 C41 708 50 717 50 728 C50 739 41 748 30 748 C19 748 10 739 10 728 C10 717 19 708 30 708 L30 708 Z M122 0 C122 0 180 0 180 0 C180 0 180 11 180 11 C180 11 168 11 168 11 C143 11 122 9 122 0 C122 0 122 561 122 561 C122 561 122 643 122 643 C122 643 121 643 121 643 C121 643 54 622 54 622 C54 622 54 614 54 614 C54 614 88 600 88 600 C96 597 102 586 102 556 C102 556 102 561 102 561 C102 561 122 561 122 561 C122 561 122 0 122 0 L122 0 Z M102 556 C102 556 102 0 102 0 C102 9 82 11 56 11 C56 11 45 11 45 11 C45 11 45 0 45 0 C45 0 102 0 102 0 C102 0 102 556 102 556 L102 556 Z " />
<glyph glyph-name="ntilde" unicode="&#xf1;" horiz-adv-x="514" d="M161 733 C161 772 175 804 193 804 C237 804 276 742 320 742 C343 742 361 775 361 815 C361 815 358 815 358 815 C358 782 343 755 325 755 C281 755 241 818 197 818 C176 818 158 780 158 733 C158 733 161 733 161 733 L161 733 Z M474 11 C474 11 465 11 465 11 C439 11 418 38 417 71 C417 71 417 76 417 76 C417 76 417 473 417 473 C417 568 380 643 307 643 C276 643 195 613 122 574 C122 574 122 638 122 638 C122 638 118 638 118 638 C118 638 45 617 45 617 C45 617 45 610 45 610 C87 601 102 591 102 533 C102 533 102 76 102 76 C102 40 80 11 54 11 C54 11 45 11 45 11 C45 11 45 0 45 0 C45 0 102 0 102 0 C102 0 112 0 112 0 C112 0 122 0 122 0 C122 0 180 0 180 0 C180 0 180 11 180 11 C180 11 171 11 171 11 C144 11 123 40 122 76 C122 76 122 539 122 539 C122 539 122 556 122 556 C122 556 122 572 122 572 C183 604 257 629 291 629 C362 629 397 559 397 471 C397 471 397 76 397 76 C397 40 375 11 348 11 C348 11 339 11 339 11 C339 11 339 0 339 0 C339 0 397 0 397 0 C397 0 407 0 407 0 C407 0 417 0 417 0 C417 0 474 0 474 0 C474 0 474 11 474 11 L474 11 Z " />
<glyph glyph-name="ograve" unicode="&#xf2;" horiz-adv-x="516" d="M258 -1 C155 -1 72 141 72 319 C72 496 155 638 258 638 C362 638 445 496 445 319 C445 141 362 -1 258 -1 L258 -1 Z M50 319 C50 139 143 -5 258 -5 C374 -5 467 139 467 319 C467 499 374 643 258 643 C143 643 50 499 50 319 L50 319 Z M233 809 C210 841 190 867 188 867 C185 867 177 861 177 859 C177 856 198 831 223 801 C223 801 333 669 333 669 C333 669 335 671 335 671 C335 671 233 809 233 809 L233 809 Z " />
<glyph glyph-name="oacute" unicode="&#xf3;" horiz-adv-x="516" d="M226 669 C226 669 333 801 333 801 C358 832 378 858 378 859 C378 861 369 867 366 867 C365 867 346 841 322 809 C322 809 223 671 223 671 C223 671 226 669 226 669 L226 669 Z M258 -1 C155 -1 72 141 72 319 C72 496 155 638 258 638 C362 638 445 496 445 319 C445 141 362 -1 258 -1 L258 -1 Z M50 319 C50 139 143 -5 258 -5 C374 -5 467 139 467 319 C467 499 374 643 258 643 C143 643 50 499 50 319 L50 319 Z " />
<glyph glyph-name="ocircumflex" unicode="&#xf4;" horiz-adv-x="516" d="M258 -1 C155 -1 72 141 72 319 C72 496 155 638 258 638 C362 638 445 496 445 319 C445 141 362 -1 258 -1 L258 -1 Z M50 319 C50 139 143 -5 258 -5 C374 -5 467 139 467 319 C467 499 374 643 258 643 C143 643 50 499 50 319 L50 319 Z M259 859 C259 859 360 672 360 672 C360 672 362 674 362 674 C362 674 265 877 265 877 C264 879 261 883 258 883 C256 883 253 879 252 877 C252 877 155 674 155 674 C155 674 157 672 157 672 C157 672 259 859 259 859 L259 859 Z " />
<glyph glyph-name="otilde" unicode="&#xf5;" horiz-adv-x="516" d="M160 733 C160 772 174 804 192 804 C236 804 275 742 319 742 C342 742 360 775 360 815 C360 815 357 815 357 815 C357 782 342 755 324 755 C280 755 240 818 196 818 C174 818 157 780 157 733 C157 733 160 733 160 733 L160 733 Z M258 -1 C155 -1 72 141 72 319 C72 496 155 638 258 638 C362 638 445 496 445 319 C445 141 362 -1 258 -1 L258 -1 Z M50 319 C50 139 143 -5 258 -5 C374 -5 467 139 467 319 C467 499 374 643 258 643 C143 643 50 499 50 319 L50 319 Z " />
<glyph glyph-name="odieresis" unicode="&#xf6;" horiz-adv-x="516" d="M341 708 C352 708 361 717 361 728 C361 739 352 748 341 748 C330 748 321 739 321 728 C321 717 330 708 341 708 L341 708 Z M176 708 C187 708 196 717 196 728 C196 739 187 748 176 748 C165 748 156 739 156 728 C156 717 165 708 176 708 L176 708 Z M258 -1 C155 -1 72 141 72 319 C72 496 155 638 258 638 C362 638 445 496 445 319 C445 141 362 -1 258 -1 L258 -1 Z M50 319 C50 139 143 -5 258 -5 C374 -5 467 139 467 319 C467 499 374 643 258 643 C143 643 50 499 50 319 L50 319 Z " />
<glyph glyph-name="oslash" unicode="&#xf8;" horiz-adv-x="516" d="M53 -7 C53 -7 113 86 113 86 C150 30 202 -5 258 -5 C374 -5 467 139 467 319 C467 407 445 487 408 545 C408 545 470 641 470 641 C470 641 464 645 464 645 C464 645 404 552 404 552 C366 608 315 643 258 643 C143 643 50 499 50 319 C50 231 72 151 109 93 C109 93 47 -3 47 -3 C47 -3 53 -7 53 -7 L53 -7 Z M258 -1 C204 -1 156 38 122 100 C122 100 399 530 399 530 C428 474 445 400 445 319 C445 141 362 -1 258 -1 C258 -1 258 -1 258 -1 L258 -1 Z M118 107 C89 164 72 238 72 319 C72 496 155 638 258 638 C312 638 361 599 395 537 C395 537 118 107 118 107 L118 107 Z " />
<glyph glyph-name="ugrave" unicode="&#xf9;" horiz-adv-x="479" d="M309 626 C309 626 318 626 318 626 C345 626 367 598 367 561 C367 561 367 99 367 99 C367 99 367 65 367 65 C335 33 279 8 221 8 C142 8 92 75 92 159 C92 159 92 638 92 638 C92 638 82 638 82 638 C82 638 72 638 72 638 C72 638 15 638 15 638 C15 638 15 626 15 626 C15 626 24 626 24 626 C50 626 72 598 72 561 C72 561 72 156 72 156 C72 67 124 -5 205 -5 C267 -5 329 25 367 63 C367 63 367 5 367 5 C367 5 367 0 367 0 C367 0 371 0 371 0 C371 0 444 21 444 21 C444 21 444 28 444 28 C403 33 388 48 387 94 C387 94 387 105 387 105 C387 105 387 638 387 638 C387 638 377 638 377 638 C377 638 367 638 367 638 C367 638 309 638 309 638 C309 638 309 626 309 626 L309 626 Z M204 809 C181 841 161 867 159 867 C156 867 148 861 148 859 C148 856 169 831 194 801 C194 801 304 669 304 669 C304 669 306 671 306 671 C306 671 204 809 204 809 L204 809 Z " />
<glyph glyph-name="uacute" unicode="&#xfa;" horiz-adv-x="479" d="M197 669 C197 669 304 801 304 801 C329 832 349 858 349 859 C349 861 340 867 337 867 C337 867 317 841 293 809 C293 809 194 671 194 671 C194 671 197 669 197 669 L197 669 Z M309 626 C309 626 318 626 318 626 C345 626 367 598 367 561 C367 561 367 99 367 99 C367 99 367 65 367 65 C335 33 279 8 221 8 C142 8 92 75 92 159 C92 159 92 638 92 638 C92 638 82 638 82 638 C82 638 72 638 72 638 C72 638 15 638 15 638 C15 638 15 626 15 626 C15 626 24 626 24 626 C50 626 72 598 72 561 C72 561 72 156 72 156 C72 67 124 -5 205 -5 C267 -5 329 25 367 63 C367 63 367 5 367 5 C367 5 367 0 367 0 C367 0 371 0 371 0 C371 0 444 21 444 21 C444 21 444 28 444 28 C403 33 388 48 387 94 C387 94 387 105 387 105 C387 105 387 638 387 638 C387 638 377 638 377 638 C377 638 367 638 367 638 C367 638 309 638 309 638 C309 638 309 626 309 626 L309 626 Z " />
<glyph glyph-name="ucircumflex" unicode="&#xfb;" horiz-adv-x="479" d="M309 626 C309 626 318 626 318 626 C345 626 367 598 367 561 C367 561 367 99 367 99 C367 99 367 65 367 65 C335 33 279 8 221 8 C142 8 92 75 92 159 C92 159 92 638 92 638 C92 638 82 638 82 638 C82 638 72 638 72 638 C72 638 15 638 15 638 C15 638 15 626 15 626 C15 626 24 626 24 626 C50 626 72 598 72 561 C72 561 72 156 72 156 C72 67 124 -5 205 -5 C267 -5 329 25 367 63 C367 63 367 5 367 5 C367 5 367 0 367 0 C367 0 371 0 371 0 C371 0 444 21 444 21 C444 21 444 28 444 28 C403 33 388 48 387 94 C387 94 387 105 387 105 C387 105 387 638 387 638 C387 638 377 638 377 638 C377 638 367 638 367 638 C367 638 309 638 309 638 C309 638 309 626 309 626 L309 626 Z M230 859 C230 859 331 672 331 672 C331 672 333 674 333 674 C333 674 236 877 236 877 C235 879 232 883 229 883 C227 883 224 879 223 877 C223 877 126 674 126 674 C126 674 128 672 128 672 C128 672 230 859 230 859 L230 859 Z " />
<glyph glyph-name="udieresis" unicode="&#xfc;" horiz-adv-x="479" d="M312 708 C323 708 332 717 332 728 C332 739 323 748 312 748 C301 748 292 739 292 728 C292 717 301 708 312 708 L312 708 Z M147 708 C158 708 167 717 167 728 C167 739 158 748 147 748 C136 748 127 739 127 728 C127 717 136 708 147 708 L147 708 Z M309 626 C309 626 318 626 318 626 C345 626 367 598 367 561 C367 561 367 99 367 99 C367 99 367 65 367 65 C335 33 279 8 221 8 C142 8 92 75 92 159 C92 159 92 638 92 638 C92 638 82 638 82 638 C82 638 72 638 72 638 C72 638 15 638 15 638 C15 638 15 626 15 626 C15 626 24 626 24 626 C50 626 72 598 72 561 C72 561 72 156 72 156 C72 67 124 -5 205 -5 C267 -5 329 25 367 63 C367 63 367 5 367 5 C367 5 367 0 367 0 C367 0 371 0 371 0 C371 0 444 21 444 21 C444 21 444 28 444 28 C403 33 388 48 387 94 C387 94 387 105 387 105 C387 105 387 638 387 638 C387 638 377 638 377 638 C377 638 367 638 367 638 C367 638 309 638 309 638 C309 638 309 626 309 626 L309 626 Z " />
<glyph glyph-name="ydieresis" unicode="&#xff;" horiz-adv-x="348" d="M290 708 C301 708 310 717 310 728 C310 739 301 748 290 748 C279 748 270 739 270 728 C270 717 279 708 290 708 L290 708 Z M125 708 C136 708 145 717 145 728 C145 739 136 748 125 748 C114 748 105 739 105 728 C105 717 114 708 125 708 L125 708 Z M407 638 C407 638 353 638 353 638 C353 638 349 638 349 638 C349 638 346 638 346 638 C346 638 288 638 288 638 C289 638 289 635 288 632 C289 629 289 626 288 626 C288 626 297 626 297 626 C323 626 337 598 329 561 C329 561 329 561 329 561 C329 561 204 -6 204 -6 C204 -6 204 -6 204 -6 C204 -6 210 23 210 23 C210 23 100 570 100 570 C97 602 111 626 135 626 C135 626 143 626 143 626 C143 626 143 638 143 638 C143 638 86 638 86 638 C86 638 74 638 74 638 C74 638 63 638 63 638 C63 638 8 638 8 638 C8 638 8 626 8 626 C8 626 16 626 16 626 C44 626 72 598 79 561 C79 561 80 561 80 561 C80 561 202 -7 202 -7 C202 -7 187 -70 187 -70 C165 -168 137 -217 103 -217 C86 -217 71 -193 55 -193 C49 -193 45 -197 45 -202 C45 -218 65 -230 90 -230 C134 -230 168 -177 192 -72 C192 -72 206 -10 206 -10 C206 -10 338 572 338 572 C349 603 375 626 399 626 C399 626 407 626 407 626 C407 626 407 638 407 638 L407 638 Z " />
<glyph glyph-name="Amacron" unicode="&#x100;" horiz-adv-x="505" d="M134 912 C134 912 370 912 370 912 C370 912 370 923 370 923 C370 923 134 923 134 923 C134 923 134 912 134 912 L134 912 Z M498 11 C498 11 491 11 491 11 C469 11 447 34 436 65 C436 65 255 816 255 816 C255 816 249 816 249 816 C249 816 243 792 243 792 C243 792 243 791 243 791 C243 791 243 791 243 791 C243 791 76 67 76 67 C65 35 39 11 14 11 C14 11 5 11 5 11 C5 11 5 0 5 0 C5 0 60 0 60 0 C60 0 64 0 64 0 C64 0 68 0 68 0 C68 0 152 0 152 0 C152 0 152 11 152 11 C152 11 140 11 140 11 C101 11 78 47 89 91 C89 91 89 91 89 91 C89 91 132 278 132 278 C132 278 363 278 363 278 C363 278 410 76 410 76 C410 76 410 76 410 76 C418 40 396 11 360 11 C360 11 346 11 346 11 C346 11 346 0 346 0 C346 0 428 0 428 0 C428 0 440 0 440 0 C440 0 452 0 452 0 C452 0 498 0 498 0 C498 0 498 11 498 11 L498 11 Z M362 284 C362 284 133 284 133 284 C133 284 246 777 246 777 C246 777 362 284 362 284 L362 284 Z " />
<glyph glyph-name="amacron" unicode="&#x101;" horiz-adv-x="502" d="M98 752 C98 752 334 752 334 752 C334 752 334 763 334 763 C334 763 98 763 98 763 C98 763 98 752 98 752 L98 752 Z M390 4 C390 4 450 21 450 21 C449 25 449 28 450 28 C405 33 392 51 392 105 C392 105 392 638 392 638 C392 638 387 638 387 638 C387 638 374 551 374 551 C351 598 285 643 224 643 C130 643 55 487 55 291 C55 127 127 -5 216 -5 C262 -5 330 50 372 121 C372 121 372 99 372 99 C372 99 372 0 372 0 C372 0 372 -5 372 -5 C372 -5 375 -5 375 -5 C375 -5 390 4 390 4 L390 4 Z M372 125 C334 59 270 7 227 7 C143 7 76 137 76 299 C76 487 141 637 223 637 C286 637 355 589 372 541 C372 541 372 125 372 125 L372 125 Z " />
<glyph glyph-name="Abreve" unicode="&#x102;" horiz-adv-x="505" d="M177 1010 C180 960 214 921 252 921 C290 921 323 960 327 1010 C327 1010 323 1010 323 1010 C320 968 289 934 252 934 C215 934 184 968 181 1010 C181 1010 177 1010 177 1010 L177 1010 Z M498 11 C498 11 491 11 491 11 C469 11 447 34 436 65 C436 65 255 816 255 816 C255 816 249 816 249 816 C249 816 243 792 243 792 C243 792 243 791 243 791 C243 791 243 791 243 791 C243 791 76 67 76 67 C65 35 39 11 14 11 C14 11 5 11 5 11 C5 11 5 0 5 0 C5 0 60 0 60 0 C60 0 64 0 64 0 C64 0 68 0 68 0 C68 0 152 0 152 0 C152 0 152 11 152 11 C152 11 140 11 140 11 C101 11 78 47 89 91 C89 91 89 91 89 91 C89 91 132 278 132 278 C132 278 363 278 363 278 C363 278 410 76 410 76 C410 76 410 76 410 76 C418 40 396 11 360 11 C360 11 346 11 346 11 C346 11 346 0 346 0 C346 0 428 0 428 0 C428 0 440 0 440 0 C440 0 452 0 452 0 C452 0 498 0 498 0 C498 0 498 11 498 11 L498 11 Z M362 284 C362 284 133 284 133 284 C133 284 246 777 246 777 C246 777 362 284 362 284 L362 284 Z " />
<glyph glyph-name="abreve" unicode="&#x103;" horiz-adv-x="502" d="M141 820 C145 770 178 731 216 731 C254 731 288 770 291 820 C291 820 287 820 287 820 C284 778 253 744 216 744 C179 744 148 778 145 820 C145 820 141 820 141 820 L141 820 Z M390 4 C390 4 450 21 450 21 C449 25 449 28 450 28 C405 33 392 51 392 105 C392 105 392 638 392 638 C392 638 387 638 387 638 C387 638 374 551 374 551 C351 598 285 643 224 643 C130 643 55 487 55 291 C55 127 127 -5 216 -5 C262 -5 330 50 372 121 C372 121 372 99 372 99 C372 99 372 0 372 0 C372 0 372 -5 372 -5 C372 -5 375 -5 375 -5 C375 -5 390 4 390 4 L390 4 Z M372 125 C334 59 270 7 227 7 C143 7 76 137 76 299 C76 487 141 637 223 637 C286 637 355 589 372 541 C372 541 372 125 372 125 L372 125 Z " />
<glyph glyph-name="Aogonek" unicode="&#x104;" horiz-adv-x="505" d="M498 11 C498 11 491 11 491 11 C469 11 447 34 436 65 C436 65 255 816 255 816 C255 816 249 816 249 816 C249 816 243 792 243 792 C243 792 243 791 243 791 C243 791 243 791 243 791 C243 791 76 67 76 67 C65 35 39 11 14 11 C14 11 5 11 5 11 C5 11 5 0 5 0 C5 0 60 0 60 0 C60 0 64 0 64 0 C64 0 68 0 68 0 C68 0 152 0 152 0 C152 0 152 11 152 11 C152 11 140 11 140 11 C101 11 78 47 89 91 C89 91 89 91 89 91 C89 91 132 278 132 278 C132 278 363 278 363 278 C363 278 410 76 410 76 C410 76 410 76 410 76 C418 40 396 11 360 11 C360 11 346 11 346 11 C346 11 346 0 346 0 C346 0 419 0 419 0 C379 -21 299 -99 299 -159 C299 -199 337 -231 385 -231 C414 -231 449 -217 463 -200 C463 -200 462 -198 462 -198 C449 -214 417 -226 390 -226 C346 -226 311 -195 311 -157 C311 -93 395 -12 428 0 C428 0 440 0 440 0 C440 0 452 0 452 0 C452 0 498 0 498 0 C498 0 498 11 498 11 L498 11 Z M362 284 C362 284 133 284 133 284 C133 284 246 777 246 777 C246 777 362 284 362 284 L362 284 Z " />
<glyph glyph-name="aogonek" unicode="&#x105;" horiz-adv-x="405" d="M404 25 C404 25 404 29 404 29 C368 16 275 -73 275 -142 C275 -191 314 -231 362 -231 C390 -231 425 -217 440 -200 C440 -200 438 -198 438 -198 C425 -214 393 -226 366 -226 C322 -226 287 -188 287 -140 C287 -72 372 13 404 25 L404 25 Z M383 34 C364 15 343 0 328 0 C301 0 290 24 290 54 C290 54 290 501 290 501 C290 580 251 643 203 643 C140 643 82 603 72 552 C72 552 92 552 92 552 C102 599 149 637 199 637 C238 637 269 578 269 505 C269 505 269 301 269 301 C269 301 162 288 162 288 C91 279 35 208 35 128 C35 54 74 -5 122 -5 C164 -5 226 33 269 82 C269 82 269 52 269 52 C269 18 282 -10 315 -10 C336 -10 362 8 386 31 C386 31 383 34 383 34 L383 34 Z M269 297 C269 297 269 86 269 86 C230 42 171 9 132 9 C89 9 55 64 55 134 C55 208 103 273 162 282 C162 282 269 297 269 297 L269 297 Z " />
<glyph glyph-name="Cacute" unicode="&#x106;" horiz-adv-x="662" d="M323 829 C323 829 430 961 430 961 C455 992 475 1018 475 1019 C475 1021 466 1027 463 1027 C463 1027 443 1001 420 969 C420 969 321 831 321 831 C321 831 323 829 323 829 L323 829 Z M603 638 C603 638 603 739 603 739 C542 775 439 803 371 803 C204 803 71 623 71 399 C71 175 204 -5 371 -5 C439 -5 542 23 603 59 C603 59 603 160 603 160 C603 160 593 160 593 160 C590 152 586 138 583 130 C562 68 483 13 403 3 C392 2 381 1 371 1 C218 1 95 178 95 399 C95 620 218 797 371 797 C391 797 415 794 440 790 C503 776 565 723 583 668 C586 659 590 646 593 638 C593 638 603 638 603 638 L603 638 Z " />
<glyph glyph-name="cacute" unicode="&#x107;" horiz-adv-x="390" d="M168 669 C168 669 275 801 275 801 C300 832 320 858 320 859 C320 861 312 867 309 867 C308 867 289 841 265 809 C265 809 166 671 166 671 C166 671 168 669 168 669 L168 669 Z M338 24 C338 24 336 26 336 26 C324 15 268 7 211 7 C133 7 71 143 71 312 C71 492 148 637 244 637 C281 637 316 585 322 519 C322 513 326 509 332 509 C336 509 340 513 340 518 C335 587 293 643 246 643 C137 643 50 492 50 304 C50 132 114 -5 194 -5 C255 -5 319 8 338 24 L338 24 Z " />
<glyph glyph-name="Ccircumflex" unicode="&#x108;" horiz-adv-x="662" d="M603 638 C603 638 603 739 603 739 C542 775 439 803 371 803 C204 803 71 623 71 399 C71 175 204 -5 371 -5 C439 -5 542 23 603 59 C603 59 603 160 603 160 C603 160 593 160 593 160 C590 152 586 138 583 130 C562 68 483 13 403 3 C392 2 381 1 371 1 C218 1 95 178 95 399 C95 620 218 797 371 797 C391 797 415 794 440 790 C503 776 565 723 583 668 C586 659 590 646 593 638 C593 638 603 638 603 638 L603 638 Z M371 1019 C371 1019 472 832 472 832 C472 832 474 834 474 834 C474 834 377 1037 377 1037 C376 1039 373 1043 371 1043 C368 1043 365 1039 364 1037 C364 1037 267 834 267 834 C267 834 269 832 269 832 C269 832 371 1019 371 1019 L371 1019 Z " />
<glyph glyph-name="Cdotaccent" unicode="&#x10a;" horiz-adv-x="662" d="M371 868 C382 868 391 877 391 888 C391 899 382 908 371 908 C360 908 351 899 351 888 C351 877 360 868 371 868 L371 868 Z M603 638 C603 638 603 739 603 739 C542 775 439 803 371 803 C204 803 71 623 71 399 C71 175 204 -5 371 -5 C439 -5 542 23 603 59 C603 59 603 160 603 160 C603 160 593 160 593 160 C590 152 586 138 583 130 C562 68 483 13 403 3 C392 2 381 1 371 1 C218 1 95 178 95 399 C95 620 218 797 371 797 C391 797 415 794 440 790 C503 776 565 723 583 668 C586 659 590 646 593 638 C593 638 603 638 603 638 L603 638 Z " />
<glyph glyph-name="cdotaccent" unicode="&#x10b;" horiz-adv-x="390" d="M246 708 C257 708 266 717 266 728 C266 739 257 748 246 748 C235 748 226 739 226 728 C226 717 235 708 246 708 L246 708 Z M338 24 C338 24 336 26 336 26 C324 15 268 7 211 7 C133 7 71 143 71 312 C71 492 148 637 244 637 C281 637 316 585 322 519 C322 513 326 509 332 509 C336 509 340 513 340 518 C335 587 293 643 246 643 C137 643 50 492 50 304 C50 132 114 -5 194 -5 C255 -5 319 8 338 24 L338 24 Z " />
<glyph glyph-name="Ccaron" unicode="&#x10c;" horiz-adv-x="662" d="M603 638 C603 638 603 739 603 739 C542 775 439 803 371 803 C204 803 71 623 71 399 C71 175 204 -5 371 -5 C439 -5 542 23 603 59 C603 59 603 160 603 160 C603 160 593 160 593 160 C590 152 586 138 583 130 C562 68 483 13 403 3 C392 2 381 1 371 1 C218 1 95 178 95 399 C95 620 218 797 371 797 C391 797 415 794 440 790 C503 776 565 723 583 668 C586 659 590 646 593 638 C593 638 603 638 603 638 L603 638 Z M371 877 C371 877 472 1063 472 1063 C472 1063 474 1062 474 1062 C474 1062 377 859 377 859 C376 857 373 853 371 853 C368 853 365 857 364 858 C364 858 267 1062 267 1062 C267 1062 269 1063 269 1063 C269 1063 371 877 371 877 L371 877 Z " />
<glyph glyph-name="ccaron" unicode="&#x10d;" horiz-adv-x="390" d="M338 24 C338 24 336 26 336 26 C324 15 268 7 211 7 C133 7 71 143 71 312 C71 492 148 637 244 637 C281 637 316 585 322 519 C322 513 326 509 332 509 C336 509 340 513 340 518 C335 587 293 643 246 643 C137 643 50 492 50 304 C50 132 114 -5 194 -5 C255 -5 319 8 338 24 L338 24 Z M247 717 C247 717 348 903 348 903 C348 903 350 902 350 902 C350 902 253 699 253 699 C252 697 249 693 246 693 C244 693 241 697 240 698 C240 698 143 902 143 902 C143 902 145 903 145 903 C145 903 247 717 247 717 L247 717 Z " />
<glyph glyph-name="Dcaron" unicode="&#x10e;" horiz-adv-x="585" d="M59 786 C59 786 68 786 68 786 C95 786 117 758 117 721 C117 721 117 76 117 76 C117 40 95 11 68 11 C68 11 59 11 59 11 C59 11 59 0 59 0 C59 0 117 0 117 0 C117 0 128 0 128 0 C128 0 139 0 139 0 C139 0 263 0 263 0 C414 0 535 177 535 399 C535 621 400 798 232 798 C232 798 139 798 139 798 C139 798 128 798 128 798 C128 798 117 798 117 798 C117 798 59 798 59 798 C59 798 59 786 59 786 L59 786 Z M315 876 C315 876 416 1063 416 1063 C416 1063 419 1062 419 1062 C419 1062 321 859 321 859 C321 857 318 853 315 853 C312 853 309 857 309 858 C309 858 212 1062 212 1062 C212 1062 214 1063 214 1063 C214 1063 315 876 315 876 L315 876 Z M139 6 C139 6 139 792 139 792 C139 792 232 792 232 792 C388 792 513 617 513 399 C513 181 402 6 263 6 C263 6 139 6 139 6 L139 6 Z " />
<glyph glyph-name="dcaron" unicode="&#x10f;" horiz-adv-x="524" d="M337 830 C379 819 394 810 394 753 C394 753 394 558 394 558 C367 603 300 643 236 643 C136 643 55 487 55 291 C55 127 132 -5 228 -5 C284 -5 357 22 394 57 C394 57 394 5 394 5 C394 5 394 0 394 0 C394 0 398 0 398 0 C398 0 472 21 472 21 C471 25 471 28 472 28 C427 33 414 51 414 105 C414 105 414 759 414 759 C414 759 414 853 414 853 C414 853 414 858 414 858 C414 858 410 858 410 858 C410 858 337 837 337 837 C337 837 337 830 337 830 L337 830 Z M503 782 C516 833 526 884 526 888 C526 891 517 892 513 892 C509 892 497 828 490 786 C490 786 463 626 463 626 C463 626 466 625 466 625 C466 625 503 782 503 782 L503 782 Z M394 99 C394 99 394 61 394 61 C363 30 295 7 239 7 C149 7 76 137 76 299 C76 487 147 637 235 637 C302 637 372 593 394 547 C394 547 394 99 394 99 L394 99 Z " />
<glyph glyph-name="Emacron" unicode="&#x112;" horiz-adv-x="464" d="M109 912 C109 912 345 912 345 912 C345 912 345 923 345 923 C345 923 109 923 109 923 C109 923 109 912 109 912 L109 912 Z M302 342 C302 342 302 407 302 407 C302 407 302 410 302 410 C302 410 302 413 302 413 C302 413 302 471 302 471 C302 470 301 470 300 471 C296 470 293 470 293 471 C293 471 290 462 290 462 C282 435 237 413 190 413 C190 413 120 413 120 413 C120 413 120 792 120 792 C120 792 218 792 218 792 C273 792 330 753 346 704 C346 704 351 689 351 689 C351 689 360 689 360 689 C360 689 360 795 360 795 C360 795 360 798 360 798 C360 798 357 798 357 798 C357 798 283 798 283 798 C283 798 120 798 120 798 C120 798 109 798 109 798 C109 798 97 798 97 798 C97 798 40 798 40 798 C40 798 40 786 40 786 C40 786 49 786 49 786 C75 786 97 758 97 721 C97 721 97 76 97 76 C97 40 75 11 49 11 C49 11 40 11 40 11 C40 11 40 0 40 0 C40 0 97 0 97 0 C97 0 109 0 109 0 C109 0 120 0 120 0 C120 0 291 0 291 0 C291 0 367 0 367 0 C367 0 368 0 368 0 C368 0 368 3 368 3 C373 32 382 80 387 109 C387 109 379 109 379 109 C379 109 371 94 371 94 C347 45 285 7 231 6 C231 6 227 6 227 6 C227 6 120 6 120 6 C120 6 120 407 120 407 C120 407 190 407 190 407 C237 407 282 383 290 352 C290 352 293 342 293 342 C293 342 302 342 302 342 L302 342 Z " />
<glyph glyph-name="emacron" unicode="&#x113;" horiz-adv-x="397" d="M100 752 C100 752 336 752 336 752 C336 752 336 763 336 763 C336 763 100 763 100 763 C100 763 100 752 100 752 L100 752 Z M345 24 C345 24 343 26 343 26 C331 15 273 7 214 7 C135 7 71 143 71 312 C71 356 75 398 82 436 C82 436 328 436 328 436 C328 436 347 436 347 436 C347 551 290 643 218 643 C125 643 50 492 50 304 C50 132 116 -5 197 -5 C261 -5 326 8 345 24 L345 24 Z M328 443 C328 443 83 440 83 440 C105 556 156 637 217 637 C279 637 329 555 329 453 C329 453 329 451 329 451 C328 446 324 443 319 443 C319 443 328 443 328 443 C328 443 328 443 328 443 L328 443 Z " />
<glyph glyph-name="Ebreve" unicode="&#x114;" horiz-adv-x="464" d="M152 1010 C156 960 189 921 227 921 C265 921 299 960 302 1010 C302 1010 298 1010 298 1010 C295 968 264 934 227 934 C190 934 159 968 156 1010 C156 1010 152 1010 152 1010 L152 1010 Z M302 342 C302 342 302 407 302 407 C302 407 302 410 302 410 C302 410 302 413 302 413 C302 413 302 471 302 471 C302 470 301 470 300 471 C296 470 293 470 293 471 C293 471 290 462 290 462 C282 435 237 413 190 413 C190 413 120 413 120 413 C120 413 120 792 120 792 C120 792 218 792 218 792 C273 792 330 753 346 704 C346 704 351 689 351 689 C351 689 360 689 360 689 C360 689 360 795 360 795 C360 795 360 798 360 798 C360 798 357 798 357 798 C357 798 283 798 283 798 C283 798 120 798 120 798 C120 798 109 798 109 798 C109 798 97 798 97 798 C97 798 40 798 40 798 C40 798 40 786 40 786 C40 786 49 786 49 786 C75 786 97 758 97 721 C97 721 97 76 97 76 C97 40 75 11 49 11 C49 11 40 11 40 11 C40 11 40 0 40 0 C40 0 97 0 97 0 C97 0 109 0 109 0 C109 0 120 0 120 0 C120 0 291 0 291 0 C291 0 367 0 367 0 C367 0 368 0 368 0 C368 0 368 3 368 3 C373 32 382 80 387 109 C387 109 379 109 379 109 C379 109 371 94 371 94 C347 45 285 7 231 6 C231 6 227 6 227 6 C227 6 120 6 120 6 C120 6 120 407 120 407 C120 407 190 407 190 407 C237 407 282 383 290 352 C290 352 293 342 293 342 C293 342 302 342 302 342 L302 342 Z " />
<glyph glyph-name="ebreve" unicode="&#x115;" horiz-adv-x="397" d="M143 850 C146 800 180 761 218 761 C256 761 289 800 293 850 C293 850 289 850 289 850 C286 808 255 774 218 774 C181 774 150 808 147 850 C147 850 143 850 143 850 L143 850 Z M345 24 C345 24 343 26 343 26 C331 15 273 7 214 7 C135 7 71 143 71 312 C71 356 75 398 82 436 C82 436 328 436 328 436 C328 436 347 436 347 436 C347 551 290 643 218 643 C125 643 50 492 50 304 C50 132 116 -5 197 -5 C261 -5 326 8 345 24 L345 24 Z M328 443 C328 443 83 440 83 440 C105 556 156 637 217 637 C279 637 329 555 329 453 C329 453 329 451 329 451 C328 446 324 443 319 443 C319 443 328 443 328 443 C328 443 328 443 328 443 L328 443 Z " />
<glyph glyph-name="Edotaccent" unicode="&#x116;" horiz-adv-x="464" d="M227 868 C238 868 247 877 247 888 C247 899 238 908 227 908 C216 908 207 899 207 888 C207 877 216 868 227 868 L227 868 Z M302 342 C302 342 302 407 302 407 C302 407 302 410 302 410 C302 410 302 413 302 413 C302 413 302 471 302 471 C302 470 301 470 300 471 C296 470 293 470 293 471 C293 471 290 462 290 462 C282 435 237 413 190 413 C190 413 120 413 120 413 C120 413 120 792 120 792 C120 792 218 792 218 792 C273 792 330 753 346 704 C346 704 351 689 351 689 C351 689 360 689 360 689 C360 689 360 795 360 795 C360 795 360 798 360 798 C360 798 357 798 357 798 C357 798 283 798 283 798 C283 798 120 798 120 798 C120 798 109 798 109 798 C109 798 97 798 97 798 C97 798 40 798 40 798 C40 798 40 786 40 786 C40 786 49 786 49 786 C75 786 97 758 97 721 C97 721 97 76 97 76 C97 40 75 11 49 11 C49 11 40 11 40 11 C40 11 40 0 40 0 C40 0 97 0 97 0 C97 0 109 0 109 0 C109 0 120 0 120 0 C120 0 291 0 291 0 C291 0 367 0 367 0 C367 0 368 0 368 0 C368 0 368 3 368 3 C373 32 382 80 387 109 C387 109 379 109 379 109 C379 109 371 94 371 94 C347 45 285 7 231 6 C231 6 227 6 227 6 C227 6 120 6 120 6 C120 6 120 407 120 407 C120 407 190 407 190 407 C237 407 282 383 290 352 C290 352 293 342 293 342 C293 342 302 342 302 342 L302 342 Z " />
<glyph glyph-name="edotaccent" unicode="&#x117;" horiz-adv-x="397" d="M218 708 C229 708 238 717 238 728 C238 739 229 748 218 748 C207 748 198 739 198 728 C198 717 207 708 218 708 L218 708 Z M345 24 C345 24 343 26 343 26 C331 15 273 7 214 7 C135 7 71 143 71 312 C71 356 75 398 82 436 C82 436 328 436 328 436 C328 436 347 436 347 436 C347 551 290 643 218 643 C125 643 50 492 50 304 C50 132 116 -5 197 -5 C261 -5 326 8 345 24 L345 24 Z M328 443 C328 443 83 440 83 440 C105 556 156 637 217 637 C279 637 329 555 329 453 C329 453 329 451 329 451 C328 446 324 443 319 443 C319 443 328 443 328 443 C328 443 328 443 328 443 L328 443 Z " />
<glyph glyph-name="Eogonek" unicode="&#x118;" horiz-adv-x="464" d="M302 342 C302 342 302 407 302 407 C302 407 302 410 302 410 C302 410 302 413 302 413 C302 413 302 471 302 471 C302 470 301 470 300 471 C296 470 293 470 293 471 C293 471 290 462 290 462 C282 435 237 413 190 413 C190 413 120 413 120 413 C120 413 120 792 120 792 C120 792 218 792 218 792 C273 792 330 753 346 704 C346 704 351 689 351 689 C351 689 360 689 360 689 C360 689 360 795 360 795 C360 795 360 798 360 798 C360 798 357 798 357 798 C357 798 283 798 283 798 C283 798 120 798 120 798 C120 798 109 798 109 798 C109 798 97 798 97 798 C97 798 40 798 40 798 C40 798 40 786 40 786 C40 786 49 786 49 786 C75 786 97 758 97 721 C97 721 97 76 97 76 C97 40 75 11 49 11 C49 11 40 11 40 11 C40 11 40 0 40 0 C40 0 97 0 97 0 C97 0 109 0 109 0 C109 0 120 0 120 0 C120 0 291 0 291 0 C291 0 358 0 358 0 C318 -21 238 -99 238 -159 C238 -199 276 -231 325 -231 C353 -231 388 -217 402 -200 C402 -200 401 -198 401 -198 C388 -214 356 -226 329 -226 C285 -226 250 -195 250 -157 C250 -93 334 -12 367 0 C367 0 368 0 368 0 C368 0 368 3 368 3 C373 32 382 80 387 109 C387 109 379 109 379 109 C379 109 371 94 371 94 C347 45 285 7 231 6 C231 6 227 6 227 6 C227 6 120 6 120 6 C120 6 120 407 120 407 C120 407 190 407 190 407 C237 407 282 383 290 352 C290 352 293 342 293 342 C293 342 302 342 302 342 L302 342 Z " />
<glyph glyph-name="eogonek" unicode="&#x119;" horiz-adv-x="397" d="M328 443 C328 443 83 440 83 440 C105 556 156 637 217 637 C279 637 329 555 329 453 C329 453 329 451 329 451 C328 446 324 443 319 443 C319 443 328 443 328 443 C328 443 328 443 328 443 L328 443 Z M328 436 C328 436 347 436 347 436 C347 551 290 643 218 643 C125 643 50 492 50 304 C50 132 116 -5 197 -5 C221 -5 245 -3 267 0 C225 -28 157 -99 157 -155 C157 -197 196 -231 244 -231 C273 -231 307 -217 322 -200 C322 -200 320 -198 320 -198 C307 -214 275 -226 248 -226 C204 -226 169 -193 169 -153 C169 -94 240 -20 277 1 C309 7 334 15 345 24 C345 24 343 26 343 26 C331 15 273 7 214 7 C135 7 71 143 71 312 C71 356 75 398 82 436 C82 436 328 436 328 436 L328 436 Z " />
<glyph glyph-name="Ecaron" unicode="&#x11a;" horiz-adv-x="464" d="M302 342 C302 342 302 407 302 407 C302 407 302 410 302 410 C302 410 302 413 302 413 C302 413 302 471 302 471 C302 470 301 470 300 471 C296 470 293 470 293 471 C293 471 290 462 290 462 C282 435 237 413 190 413 C190 413 120 413 120 413 C120 413 120 792 120 792 C120 792 218 792 218 792 C273 792 330 753 346 704 C346 704 351 689 351 689 C351 689 360 689 360 689 C360 689 360 795 360 795 C360 795 360 798 360 798 C360 798 357 798 357 798 C357 798 283 798 283 798 C283 798 120 798 120 798 C120 798 109 798 109 798 C109 798 97 798 97 798 C97 798 40 798 40 798 C40 798 40 786 40 786 C40 786 49 786 49 786 C75 786 97 758 97 721 C97 721 97 76 97 76 C97 40 75 11 49 11 C49 11 40 11 40 11 C40 11 40 0 40 0 C40 0 97 0 97 0 C97 0 109 0 109 0 C109 0 120 0 120 0 C120 0 291 0 291 0 C291 0 367 0 367 0 C367 0 368 0 368 0 C368 0 368 3 368 3 C373 32 382 80 387 109 C387 109 379 109 379 109 C379 109 371 94 371 94 C347 45 285 7 231 6 C231 6 227 6 227 6 C227 6 120 6 120 6 C120 6 120 407 120 407 C120 407 190 407 190 407 C237 407 282 383 290 352 C290 352 293 342 293 342 C293 342 302 342 302 342 L302 342 Z M228 877 C228 877 329 1063 329 1063 C329 1063 331 1062 331 1062 C331 1062 234 859 234 859 C233 857 230 853 227 853 C224 853 221 857 221 858 C221 858 124 1062 124 1062 C124 1062 126 1063 126 1063 C126 1063 228 877 228 877 L228 877 Z " />
<glyph glyph-name="ecaron" unicode="&#x11b;" horiz-adv-x="397" d="M345 24 C345 24 343 26 343 26 C331 15 273 7 214 7 C135 7 71 143 71 312 C71 356 75 398 82 436 C82 436 328 436 328 436 C328 436 347 436 347 436 C347 551 290 643 218 643 C125 643 50 492 50 304 C50 132 116 -5 197 -5 C261 -5 326 8 345 24 L345 24 Z M218 716 C218 716 319 903 319 903 C319 903 321 902 321 902 C321 902 224 699 224 699 C224 697 221 693 218 693 C215 693 212 697 212 698 C212 698 114 902 114 902 C114 902 116 903 116 903 C116 903 218 716 218 716 L218 716 Z M328 443 C328 443 83 440 83 440 C105 556 156 637 217 637 C279 637 329 555 329 453 C329 453 329 451 329 451 C328 446 324 443 319 443 C319 443 328 443 328 443 C328 443 328 443 328 443 L328 443 Z " />
<glyph glyph-name="Gcircumflex" unicode="&#x11c;" horiz-adv-x="739" d="M510 363 C510 363 519 363 519 363 C546 363 568 334 568 298 C568 298 568 55 568 55 C507 24 418 1 360 1 C213 1 95 178 95 399 C95 620 213 797 360 797 C378 797 399 795 422 790 C483 776 545 723 563 668 C566 660 570 646 573 638 C573 638 583 638 583 638 C583 638 583 739 583 739 C522 775 423 803 360 803 C199 803 71 623 71 399 C71 175 199 -5 360 -5 C425 -5 527 23 588 59 C588 59 588 298 588 298 C588 334 610 363 637 363 C637 363 645 363 645 363 C646 363 646 366 645 369 C646 372 646 375 645 375 C645 375 588 375 588 375 C588 375 578 375 578 375 C578 375 568 375 568 375 C568 375 510 375 510 375 C510 375 510 363 510 363 L510 363 Z M360 1019 C360 1019 461 832 461 832 C461 832 463 834 463 834 C463 834 366 1037 366 1037 C365 1039 362 1043 360 1043 C357 1043 354 1039 353 1037 C353 1037 256 834 256 834 C256 834 258 832 258 832 C258 832 360 1019 360 1019 L360 1019 Z " />
<glyph glyph-name="Gbreve" unicode="&#x11e;" horiz-adv-x="739" d="M285 1010 C288 960 321 921 360 921 C398 921 431 960 434 1010 C434 1010 431 1010 431 1010 C428 968 396 934 360 934 C323 934 291 968 288 1010 C288 1010 285 1010 285 1010 L285 1010 Z M510 363 C510 363 519 363 519 363 C546 363 568 334 568 298 C568 298 568 55 568 55 C507 24 418 1 360 1 C213 1 95 178 95 399 C95 620 213 797 360 797 C378 797 399 795 422 790 C483 776 545 723 563 668 C566 660 570 646 573 638 C573 638 583 638 583 638 C583 638 583 739 583 739 C522 775 423 803 360 803 C199 803 71 623 71 399 C71 175 199 -5 360 -5 C425 -5 527 23 588 59 C588 59 588 298 588 298 C588 334 610 363 637 363 C637 363 645 363 645 363 C646 363 646 366 645 369 C646 372 646 375 645 375 C645 375 588 375 588 375 C588 375 578 375 578 375 C578 375 568 375 568 375 C568 375 510 375 510 375 C510 375 510 363 510 363 L510 363 Z " />
<glyph glyph-name="gbreve" unicode="&#x11f;" horiz-adv-x="397" d="M147 850 C151 800 184 761 222 761 C260 761 294 800 297 850 C297 850 293 850 293 850 C290 808 259 774 222 774 C185 774 154 808 151 850 C151 850 147 850 147 850 L147 850 Z M398 638 C398 638 262 636 262 636 C262 636 262 636 262 636 C249 640 236 643 222 643 C141 643 76 557 76 449 C76 353 128 274 196 258 C196 258 185 258 185 258 C114 258 57 219 57 170 C57 113 107 70 170 74 C170 74 215 77 215 77 C297 77 363 22 363 -47 C363 -149 271 -231 155 -231 C94 -231 45 -164 45 -80 C45 -34 96 25 160 52 C160 52 158 54 158 54 C88 24 32 -36 32 -82 C32 -168 86 -236 153 -236 C278 -236 378 -147 378 -37 C378 37 308 96 220 96 C220 96 169 92 169 92 C114 89 70 127 70 177 C70 220 121 255 185 255 C185 255 222 255 222 255 C303 255 368 341 368 449 C368 530 331 599 279 628 C279 628 398 627 398 627 C398 627 398 638 398 638 L398 638 Z M95 449 C95 554 152 638 222 638 C236 638 249 635 262 629 C262 629 262 628 262 628 C262 628 263 628 263 628 C314 603 349 533 349 449 C349 343 293 259 222 259 C152 259 95 343 95 449 L95 449 Z " />
<glyph glyph-name="Gdotaccent" unicode="&#x120;" horiz-adv-x="739" d="M360 868 C371 868 380 877 380 888 C380 899 371 908 360 908 C349 908 340 899 340 888 C340 877 349 868 360 868 L360 868 Z M510 363 C510 363 519 363 519 363 C546 363 568 334 568 298 C568 298 568 55 568 55 C507 24 418 1 360 1 C213 1 95 178 95 399 C95 620 213 797 360 797 C378 797 399 795 422 790 C483 776 545 723 563 668 C566 660 570 646 573 638 C573 638 583 638 583 638 C583 638 583 739 583 739 C522 775 423 803 360 803 C199 803 71 623 71 399 C71 175 199 -5 360 -5 C425 -5 527 23 588 59 C588 59 588 298 588 298 C588 334 610 363 637 363 C637 363 645 363 645 363 C646 363 646 366 645 369 C646 372 646 375 645 375 C645 375 588 375 588 375 C588 375 578 375 578 375 C578 375 568 375 568 375 C568 375 510 375 510 375 C510 375 510 363 510 363 L510 363 Z " />
<glyph glyph-name="gdotaccent" unicode="&#x121;" horiz-adv-x="397" d="M222 708 C233 708 242 717 242 728 C242 739 233 748 222 748 C211 748 202 739 202 728 C202 717 211 708 222 708 L222 708 Z M398 638 C398 638 262 636 262 636 C262 636 262 636 262 636 C249 640 236 643 222 643 C141 643 76 557 76 449 C76 353 128 274 196 258 C196 258 185 258 185 258 C114 258 57 219 57 170 C57 113 107 70 170 74 C170 74 215 77 215 77 C297 77 363 22 363 -47 C363 -149 271 -231 155 -231 C94 -231 45 -164 45 -80 C45 -34 96 25 160 52 C160 52 158 54 158 54 C88 24 32 -36 32 -82 C32 -168 86 -236 153 -236 C278 -236 378 -147 378 -37 C378 37 308 96 220 96 C220 96 169 92 169 92 C114 89 70 127 70 177 C70 220 121 255 185 255 C185 255 222 255 222 255 C303 255 368 341 368 449 C368 530 331 599 279 628 C279 628 398 627 398 627 C398 627 398 638 398 638 L398 638 Z M95 449 C95 554 152 638 222 638 C236 638 249 635 262 629 C262 629 262 628 262 628 C262 628 263 628 263 628 C314 603 349 533 349 449 C349 343 293 259 222 259 C152 259 95 343 95 449 L95 449 Z " />
<glyph glyph-name="Hcircumflex" unicode="&#x124;" horiz-adv-x="661" d="M622 798 C622 798 564 798 564 798 C564 798 553 798 553 798 C553 798 542 798 542 798 C542 798 485 798 485 798 C485 798 485 786 485 786 C485 786 493 786 493 786 C520 786 542 758 542 721 C542 721 542 405 542 405 C542 405 120 405 120 405 C120 405 120 721 120 721 C120 758 141 786 169 786 C169 786 177 786 177 786 C177 786 177 798 177 798 C177 798 120 798 120 798 C120 798 109 798 109 798 C109 798 97 798 97 798 C97 798 40 798 40 798 C40 798 40 786 40 786 C40 786 49 786 49 786 C75 786 97 758 97 721 C97 721 97 76 97 76 C97 40 75 11 49 11 C49 11 40 11 40 11 C40 11 40 0 40 0 C40 0 97 0 97 0 C97 0 109 0 109 0 C109 0 120 0 120 0 C120 0 177 0 177 0 C177 0 177 11 177 11 C177 11 169 11 169 11 C141 11 120 40 120 76 C120 76 120 400 120 400 C120 400 542 400 542 400 C542 400 542 76 542 76 C542 40 520 11 493 11 C493 11 485 11 485 11 C485 11 485 0 485 0 C485 0 542 0 542 0 C542 0 553 0 553 0 C553 0 564 0 564 0 C564 0 622 0 622 0 C622 0 622 11 622 11 C622 11 613 11 613 11 C586 11 564 40 564 76 C564 76 564 721 564 721 C564 758 586 786 613 786 C613 786 622 786 622 786 C622 786 622 798 622 798 L622 798 Z M331 1019 C331 1019 432 832 432 832 C432 832 434 834 434 834 C434 834 337 1037 337 1037 C337 1039 334 1043 331 1043 C328 1043 325 1039 325 1037 C325 1037 227 834 227 834 C227 834 229 832 229 832 C229 832 331 1019 331 1019 L331 1019 Z " />
<glyph glyph-name="Itilde" unicode="&#x128;" horiz-adv-x="217" d="M10 893 C10 932 24 964 42 964 C86 964 126 902 170 902 C192 902 210 935 210 975 C210 975 207 975 207 975 C207 942 192 915 174 915 C130 915 91 978 47 978 C25 978 7 940 7 893 C7 893 10 893 10 893 L10 893 Z M177 798 C177 798 120 798 120 798 C120 798 109 798 109 798 C109 798 97 798 97 798 C97 798 40 798 40 798 C40 798 40 786 40 786 C40 786 49 786 49 786 C75 786 97 758 97 721 C97 721 97 76 97 76 C97 40 75 11 49 11 C49 11 40 11 40 11 C40 11 40 0 40 0 C40 0 97 0 97 0 C97 0 109 0 109 0 C109 0 120 0 120 0 C120 0 177 0 177 0 C177 0 177 11 177 11 C177 11 169 11 169 11 C141 11 120 40 120 76 C120 76 120 721 120 721 C120 758 141 786 169 786 C169 786 177 786 177 786 C177 786 177 798 177 798 L177 798 Z " />
<glyph glyph-name="itilde" unicode="&#x129;" horiz-adv-x="224" d="M14 733 C14 772 28 804 46 804 C90 804 129 742 173 742 C196 742 214 775 214 815 C214 815 211 815 211 815 C211 782 196 755 178 755 C134 755 94 818 50 818 C29 818 11 780 11 733 C11 733 14 733 14 733 L14 733 Z M122 0 C122 0 180 0 180 0 C180 0 180 11 180 11 C180 11 168 11 168 11 C143 11 122 9 122 0 C122 0 122 561 122 561 C122 561 122 643 122 643 C122 643 121 643 121 643 C121 643 54 622 54 622 C54 622 54 614 54 614 C54 614 88 600 88 600 C96 597 102 586 102 556 C102 556 102 561 102 561 C102 561 122 561 122 561 C122 561 122 0 122 0 L122 0 Z M102 556 C102 556 102 0 102 0 C102 9 82 11 56 11 C56 11 45 11 45 11 C45 11 45 0 45 0 C45 0 102 0 102 0 C102 0 102 556 102 556 L102 556 Z " />
<glyph glyph-name="Imacron" unicode="&#x12a;" horiz-adv-x="217" d="M-10 912 C-10 912 227 912 227 912 C227 912 227 923 227 923 C227 923 -10 923 -10 923 C-10 923 -10 912 -10 912 L-10 912 Z M177 798 C177 798 120 798 120 798 C120 798 109 798 109 798 C109 798 97 798 97 798 C97 798 40 798 40 798 C40 798 40 786 40 786 C40 786 49 786 49 786 C75 786 97 758 97 721 C97 721 97 76 97 76 C97 40 75 11 49 11 C49 11 40 11 40 11 C40 11 40 0 40 0 C40 0 97 0 97 0 C97 0 109 0 109 0 C109 0 120 0 120 0 C120 0 177 0 177 0 C177 0 177 11 177 11 C177 11 169 11 169 11 C141 11 120 40 120 76 C120 76 120 721 120 721 C120 758 141 786 169 786 C169 786 177 786 177 786 C177 786 177 798 177 798 L177 798 Z " />
<glyph glyph-name="imacron" unicode="&#x12b;" horiz-adv-x="224" d="M-6 752 C-6 752 231 752 231 752 C231 752 231 763 231 763 C231 763 -6 763 -6 763 C-6 763 -6 752 -6 752 L-6 752 Z M122 0 C122 0 180 0 180 0 C180 0 180 11 180 11 C180 11 168 11 168 11 C143 11 122 9 122 0 C122 0 122 561 122 561 C122 561 122 643 122 643 C122 643 121 643 121 643 C121 643 54 622 54 622 C54 622 54 614 54 614 C54 614 88 600 88 600 C96 597 102 586 102 556 C102 556 102 561 102 561 C102 561 122 561 122 561 C122 561 122 0 122 0 L122 0 Z M102 556 C102 556 102 0 102 0 C102 9 82 11 56 11 C56 11 45 11 45 11 C45 11 45 0 45 0 C45 0 102 0 102 0 C102 0 102 556 102 556 L102 556 Z " />
<glyph glyph-name="Ibreve" unicode="&#x12c;" horiz-adv-x="217" d="M34 1010 C37 960 70 921 109 921 C147 921 180 960 183 1010 C183 1010 180 1010 180 1010 C177 968 145 934 109 934 C72 934 40 968 37 1010 C37 1010 34 1010 34 1010 L34 1010 Z M177 798 C177 798 120 798 120 798 C120 798 109 798 109 798 C109 798 97 798 97 798 C97 798 40 798 40 798 C40 798 40 786 40 786 C40 786 49 786 49 786 C75 786 97 758 97 721 C97 721 97 76 97 76 C97 40 75 11 49 11 C49 11 40 11 40 11 C40 11 40 0 40 0 C40 0 97 0 97 0 C97 0 109 0 109 0 C109 0 120 0 120 0 C120 0 177 0 177 0 C177 0 177 11 177 11 C177 11 169 11 169 11 C141 11 120 40 120 76 C120 76 120 721 120 721 C120 758 141 786 169 786 C169 786 177 786 177 786 C177 786 177 798 177 798 L177 798 Z " />
<glyph glyph-name="ibreve" unicode="&#x12d;" horiz-adv-x="224" d="M38 850 C41 800 74 761 112 761 C151 761 184 800 187 850 C187 850 184 850 184 850 C181 808 149 774 112 774 C76 774 44 808 41 850 C41 850 38 850 38 850 L38 850 Z M122 0 C122 0 180 0 180 0 C180 0 180 11 180 11 C180 11 168 11 168 11 C143 11 122 9 122 0 C122 0 122 561 122 561 C122 561 122 643 122 643 C122 643 121 643 121 643 C121 643 54 622 54 622 C54 622 54 614 54 614 C54 614 88 600 88 600 C96 597 102 586 102 556 C102 556 102 561 102 561 C102 561 122 561 122 561 C122 561 122 0 122 0 L122 0 Z M102 556 C102 556 102 0 102 0 C102 9 82 11 56 11 C56 11 45 11 45 11 C45 11 45 0 45 0 C45 0 102 0 102 0 C102 0 102 556 102 556 L102 556 Z " />
<glyph glyph-name="Idotaccent" unicode="&#x130;" horiz-adv-x="217" d="M109 868 C120 868 129 877 129 888 C129 899 120 908 109 908 C98 908 89 899 89 888 C89 877 98 868 109 868 L109 868 Z M177 798 C177 798 120 798 120 798 C120 798 109 798 109 798 C109 798 97 798 97 798 C97 798 40 798 40 798 C40 798 40 786 40 786 C40 786 49 786 49 786 C75 786 97 758 97 721 C97 721 97 76 97 76 C97 40 75 11 49 11 C49 11 40 11 40 11 C40 11 40 0 40 0 C40 0 97 0 97 0 C97 0 109 0 109 0 C109 0 120 0 120 0 C120 0 177 0 177 0 C177 0 177 11 177 11 C177 11 169 11 169 11 C141 11 120 40 120 76 C120 76 120 721 120 721 C120 758 141 786 169 786 C169 786 177 786 177 786 C177 786 177 798 177 798 L177 798 Z " />
<glyph glyph-name="dotlessi" unicode="&#x131;" horiz-adv-x="224" d="M122 0 C122 0 180 0 180 0 C180 0 180 11 180 11 C180 11 168 11 168 11 C143 11 122 9 122 0 C122 0 122 561 122 561 C122 561 122 643 122 643 C122 643 121 643 121 643 C121 643 54 622 54 622 C54 622 54 614 54 614 C54 614 88 600 88 600 C96 597 102 586 102 556 C102 556 102 561 102 561 C102 561 122 561 122 561 C122 561 122 0 122 0 L122 0 Z M102 556 C102 556 102 0 102 0 C102 9 82 11 56 11 C56 11 45 11 45 11 C45 11 45 0 45 0 C45 0 102 0 102 0 C102 0 102 556 102 556 L102 556 Z " />
<glyph glyph-name="Jcircumflex" unicode="&#x134;" horiz-adv-x="265" d="M225 798 C225 798 168 798 168 798 C168 798 157 798 157 798 C157 798 145 798 145 798 C145 798 88 798 88 798 C88 798 88 786 88 786 C88 786 97 786 97 786 C123 786 145 758 145 721 C145 721 145 242 145 242 C145 77 120 -6 69 -6 C49 -6 27 19 19 50 C18 55 13 59 9 59 C3 59 -1 55 0 50 C8 17 36 -10 63 -10 C133 -10 168 80 168 260 C168 260 168 721 168 721 C168 721 168 726 168 726 C169 760 190 786 217 786 C217 786 225 786 225 786 C225 786 225 798 225 798 L225 798 Z M157 1019 C157 1019 258 832 258 832 C258 832 260 834 260 834 C260 834 163 1037 163 1037 C162 1039 159 1043 157 1043 C154 1043 151 1039 150 1037 C150 1037 53 834 53 834 C53 834 55 832 55 832 C55 832 157 1019 157 1019 L157 1019 Z " />
<glyph glyph-name="Lacute" unicode="&#x139;" horiz-adv-x="464" d="M83 829 C83 829 190 961 190 961 C215 992 235 1018 235 1019 C235 1021 227 1027 224 1027 C223 1027 204 1001 180 969 C180 969 81 831 81 831 C81 831 83 829 83 829 L83 829 Z M374 121 C374 121 364 96 364 96 C344 46 290 7 241 6 C241 6 237 6 237 6 C237 6 120 6 120 6 C120 6 120 721 120 721 C120 758 141 786 169 786 C169 786 177 786 177 786 C177 786 177 798 177 798 C177 798 120 798 120 798 C120 798 109 798 109 798 C109 798 97 798 97 798 C97 798 40 798 40 798 C40 798 40 786 40 786 C40 786 49 786 49 786 C75 786 97 758 97 721 C97 721 97 76 97 76 C97 40 75 11 49 11 C49 11 40 11 40 11 C40 11 40 0 40 0 C40 0 97 0 97 0 C97 0 109 0 109 0 C109 0 120 0 120 0 C120 0 291 0 291 0 C291 0 367 0 367 0 C367 0 368 0 368 0 C368 0 368 3 368 3 C374 34 383 84 388 115 C383 117 374 120 374 121 L374 121 Z " />
<glyph glyph-name="Lcaron" unicode="&#x13d;" horiz-adv-x="464" d="M374 121 C374 121 364 96 364 96 C344 46 290 7 241 6 C241 6 237 6 237 6 C237 6 120 6 120 6 C120 6 120 721 120 721 C120 758 141 786 169 786 C169 786 177 786 177 786 C177 786 177 798 177 798 C177 798 120 798 120 798 C120 798 109 798 109 798 C109 798 97 798 97 798 C97 798 40 798 40 798 C40 798 40 786 40 786 C40 786 49 786 49 786 C75 786 97 758 97 721 C97 721 97 76 97 76 C97 40 75 11 49 11 C49 11 40 11 40 11 C40 11 40 0 40 0 C40 0 97 0 97 0 C97 0 109 0 109 0 C109 0 120 0 120 0 C120 0 291 0 291 0 C291 0 367 0 367 0 C367 0 368 0 368 0 C368 0 368 3 368 3 C374 34 383 84 388 115 C383 117 374 120 374 121 L374 121 Z M266 722 C279 773 289 824 289 828 C289 831 280 832 276 832 C272 832 260 768 254 726 C254 726 227 566 227 566 C227 566 229 565 229 565 C229 565 266 722 266 722 L266 722 Z " />
<glyph glyph-name="lcaron" unicode="&#x13e;" horiz-adv-x="224" d="M45 830 C88 821 102 810 102 753 C102 753 102 76 102 76 C102 40 80 11 54 11 C54 11 45 11 45 11 C45 11 45 0 45 0 C45 0 102 0 102 0 C102 0 112 0 112 0 C112 0 122 0 122 0 C122 0 180 0 180 0 C180 0 180 11 180 11 C180 11 171 11 171 11 C144 11 123 40 122 76 C122 76 122 759 122 759 C122 759 122 853 122 853 C122 853 122 858 122 858 C122 858 118 858 118 858 C118 858 45 837 45 837 C45 837 45 830 45 830 L45 830 Z M211 752 C224 803 234 854 234 858 C234 861 225 862 221 862 C217 862 205 798 199 756 C199 756 172 596 172 596 C172 596 174 595 174 595 C174 595 211 752 211 752 L211 752 Z " />
<glyph glyph-name="Lslash" unicode="&#x141;" horiz-adv-x="464" d="M47 346 C47 346 97 372 97 372 C97 372 97 76 97 76 C97 40 75 11 49 11 C49 11 40 11 40 11 C40 11 40 0 40 0 C40 0 97 0 97 0 C97 0 109 0 109 0 C109 0 120 0 120 0 C120 0 291 0 291 0 C291 0 367 0 367 0 C367 0 368 0 368 0 C368 0 368 3 368 3 C374 34 383 84 388 115 C383 117 374 120 374 121 C374 121 364 96 364 96 C344 46 290 7 241 6 C241 6 237 6 237 6 C237 6 120 6 120 6 C120 6 120 383 120 383 C120 383 243 446 243 446 C243 446 243 452 243 452 C243 452 120 389 120 389 C120 389 120 721 120 721 C120 758 141 786 169 786 C169 786 177 786 177 786 C177 786 177 798 177 798 C177 798 120 798 120 798 C120 798 109 798 109 798 C109 798 97 798 97 798 C97 798 40 798 40 798 C40 798 40 786 40 786 C40 786 49 786 49 786 C75 786 97 758 97 721 C97 721 97 378 97 378 C97 378 47 352 47 352 C47 352 47 346 47 346 L47 346 Z " />
<glyph glyph-name="lslash" unicode="&#x142;" horiz-adv-x="224" d="M2 376 C2 376 102 421 102 421 C102 421 102 76 102 76 C102 40 80 11 54 11 C54 11 45 11 45 11 C45 11 45 0 45 0 C45 0 102 0 102 0 C102 0 112 0 112 0 C112 0 122 0 122 0 C122 0 180 0 180 0 C180 0 180 11 180 11 C180 11 171 11 171 11 C144 11 123 40 122 76 C122 76 122 431 122 431 C122 431 222 476 222 476 C222 476 222 482 222 482 C222 482 122 437 122 437 C122 437 122 759 122 759 C122 759 122 853 122 853 C122 853 122 858 122 858 C122 858 118 858 118 858 C118 858 45 837 45 837 C45 837 45 830 45 830 C88 821 102 810 102 753 C102 753 102 427 102 427 C102 427 2 382 2 382 C2 382 2 376 2 376 L2 376 Z " />
<glyph glyph-name="Nacute" unicode="&#x143;" horiz-adv-x="590" d="M266 829 C266 829 373 961 373 961 C398 992 418 1018 418 1019 C418 1021 410 1027 407 1027 C406 1027 387 1001 363 969 C363 969 264 831 264 831 C264 831 266 829 266 829 L266 829 Z M553 798 C553 798 495 798 495 798 C495 798 492 798 492 798 C492 798 489 798 489 798 C489 798 431 798 431 798 C431 798 431 786 431 786 C431 786 440 786 440 786 C467 786 489 758 489 721 C489 721 489 35 489 35 C489 35 123 798 123 798 C123 798 109 788 109 788 C109 788 109 789 109 789 C109 789 123 798 123 798 C123 798 109 798 109 798 C109 798 106 798 106 798 C106 798 103 798 103 798 C103 798 45 798 45 798 C45 798 45 786 45 786 C45 786 54 786 54 786 C81 786 103 758 103 721 C103 721 103 76 103 76 C103 40 81 11 54 11 C54 11 45 11 45 11 C45 11 45 0 45 0 C45 0 103 0 103 0 C103 0 106 0 106 0 C106 0 109 0 109 0 C109 0 167 0 167 0 C167 0 167 11 167 11 C167 11 158 11 158 11 C131 11 109 40 109 76 C109 76 109 775 109 775 C109 775 479 9 479 9 C479 9 485 -4 485 -4 C485 -4 495 -4 495 -4 C495 -4 495 17 495 17 C495 17 495 721 495 721 C496 758 517 786 544 786 C544 786 553 786 553 786 C553 786 553 798 553 798 L553 798 Z " />
<glyph glyph-name="nacute" unicode="&#x144;" horiz-adv-x="514" d="M181 669 C181 669 288 801 288 801 C313 832 333 858 333 859 C333 861 325 867 322 867 C321 867 302 841 278 809 C278 809 179 671 179 671 C179 671 181 669 181 669 L181 669 Z M474 11 C474 11 465 11 465 11 C439 11 418 38 417 71 C417 71 417 76 417 76 C417 76 417 473 417 473 C417 568 380 643 307 643 C276 643 195 613 122 574 C122 574 122 638 122 638 C122 638 118 638 118 638 C118 638 45 617 45 617 C45 617 45 610 45 610 C87 601 102 591 102 533 C102 533 102 76 102 76 C102 40 80 11 54 11 C54 11 45 11 45 11 C45 11 45 0 45 0 C45 0 102 0 102 0 C102 0 112 0 112 0 C112 0 122 0 122 0 C122 0 180 0 180 0 C180 0 180 11 180 11 C180 11 171 11 171 11 C144 11 123 40 122 76 C122 76 122 539 122 539 C122 539 122 556 122 556 C122 556 122 572 122 572 C183 604 257 629 291 629 C362 629 397 559 397 471 C397 471 397 76 397 76 C397 40 375 11 348 11 C348 11 339 11 339 11 C339 11 339 0 339 0 C339 0 397 0 397 0 C397 0 407 0 407 0 C407 0 417 0 417 0 C417 0 474 0 474 0 C474 0 474 11 474 11 L474 11 Z " />
<glyph glyph-name="Ncaron" unicode="&#x147;" horiz-adv-x="590" d="M553 798 C553 798 495 798 495 798 C495 798 492 798 492 798 C492 798 489 798 489 798 C489 798 431 798 431 798 C431 798 431 786 431 786 C431 786 440 786 440 786 C467 786 489 758 489 721 C489 721 489 35 489 35 C489 35 123 798 123 798 C123 798 109 788 109 788 C109 788 109 789 109 789 C109 789 123 798 123 798 C123 798 109 798 109 798 C109 798 106 798 106 798 C106 798 103 798 103 798 C103 798 45 798 45 798 C45 798 45 786 45 786 C45 786 54 786 54 786 C81 786 103 758 103 721 C103 721 103 76 103 76 C103 40 81 11 54 11 C54 11 45 11 45 11 C45 11 45 0 45 0 C45 0 103 0 103 0 C103 0 106 0 106 0 C106 0 109 0 109 0 C109 0 167 0 167 0 C167 0 167 11 167 11 C167 11 158 11 158 11 C131 11 109 40 109 76 C109 76 109 775 109 775 C109 775 479 9 479 9 C479 9 485 -4 485 -4 C485 -4 495 -4 495 -4 C495 -4 495 17 495 17 C495 17 495 721 495 721 C496 758 517 786 544 786 C544 786 553 786 553 786 C553 786 553 798 553 798 L553 798 Z M299 876 C299 876 401 1063 401 1063 C401 1063 403 1062 403 1062 C403 1062 305 859 305 859 C305 857 302 853 299 853 C296 853 293 857 293 858 C293 858 196 1062 196 1062 C196 1062 198 1063 198 1063 C198 1063 299 876 299 876 L299 876 Z " />
<glyph glyph-name="ncaron" unicode="&#x148;" horiz-adv-x="514" d="M474 11 C474 11 465 11 465 11 C439 11 418 38 417 71 C417 71 417 76 417 76 C417 76 417 473 417 473 C417 568 380 643 307 643 C276 643 195 613 122 574 C122 574 122 638 122 638 C122 638 118 638 118 638 C118 638 45 617 45 617 C45 617 45 610 45 610 C87 601 102 591 102 533 C102 533 102 76 102 76 C102 40 80 11 54 11 C54 11 45 11 45 11 C45 11 45 0 45 0 C45 0 102 0 102 0 C102 0 112 0 112 0 C112 0 122 0 122 0 C122 0 180 0 180 0 C180 0 180 11 180 11 C180 11 171 11 171 11 C144 11 123 40 122 76 C122 76 122 539 122 539 C122 539 122 556 122 556 C122 556 122 572 122 572 C183 604 257 629 291 629 C362 629 397 559 397 471 C397 471 397 76 397 76 C397 40 375 11 348 11 C348 11 339 11 339 11 C339 11 339 0 339 0 C339 0 397 0 397 0 C397 0 407 0 407 0 C407 0 417 0 417 0 C417 0 474 0 474 0 C474 0 474 11 474 11 L474 11 Z M260 717 C260 717 361 903 361 903 C361 903 363 902 363 902 C363 902 266 699 266 699 C265 697 262 693 259 693 C257 693 254 697 253 698 C253 698 156 902 156 902 C156 902 158 903 158 903 C158 903 260 717 260 717 L260 717 Z " />
<glyph glyph-name="Omacron" unicode="&#x14c;" horiz-adv-x="695" d="M240 912 C240 912 476 912 476 912 C476 912 476 923 476 923 C476 923 240 923 240 923 C240 923 240 912 240 912 L240 912 Z M358 1 C197 1 95 200 95 399 C95 598 197 797 358 797 C519 797 621 598 621 399 C621 200 519 1 358 1 L358 1 Z M71 399 C71 197 183 -5 358 -5 C533 -5 645 197 645 399 C645 601 533 803 358 803 C183 803 71 601 71 399 L71 399 Z " />
<glyph glyph-name="omacron" unicode="&#x14d;" horiz-adv-x="516" d="M140 752 C140 752 376 752 376 752 C376 752 376 763 376 763 C376 763 140 763 140 763 C140 763 140 752 140 752 L140 752 Z M258 -1 C155 -1 72 141 72 319 C72 496 155 638 258 638 C362 638 445 496 445 319 C445 141 362 -1 258 -1 L258 -1 Z M50 319 C50 139 143 -5 258 -5 C374 -5 467 139 467 319 C467 499 374 643 258 643 C143 643 50 499 50 319 L50 319 Z " />
<glyph glyph-name="Obreve" unicode="&#x14e;" horiz-adv-x="695" d="M283 1010 C286 960 320 921 358 921 C396 921 430 960 433 1010 C433 1010 429 1010 429 1010 C426 968 395 934 358 934 C321 934 290 968 287 1010 C287 1010 283 1010 283 1010 L283 1010 Z M358 1 C197 1 95 200 95 399 C95 598 197 797 358 797 C519 797 621 598 621 399 C621 200 519 1 358 1 L358 1 Z M71 399 C71 197 183 -5 358 -5 C533 -5 645 197 645 399 C645 601 533 803 358 803 C183 803 71 601 71 399 L71 399 Z " />
<glyph glyph-name="obreve" unicode="&#x14f;" horiz-adv-x="516" d="M184 850 C187 800 220 761 258 761 C297 761 330 800 333 850 C333 850 330 850 330 850 C327 808 295 774 258 774 C222 774 190 808 187 850 C187 850 184 850 184 850 L184 850 Z M258 -1 C155 -1 72 141 72 319 C72 496 155 638 258 638 C362 638 445 496 445 319 C445 141 362 -1 258 -1 L258 -1 Z M50 319 C50 139 143 -5 258 -5 C374 -5 467 139 467 319 C467 499 374 643 258 643 C143 643 50 499 50 319 L50 319 Z " />
<glyph glyph-name="Racute" unicode="&#x154;" horiz-adv-x="499" d="M189 829 C189 829 296 961 296 961 C321 992 341 1018 341 1019 C341 1021 332 1027 329 1027 C328 1027 309 1001 285 969 C285 969 186 831 186 831 C186 831 189 829 189 829 L189 829 Z M59 786 C59 786 68 786 68 786 C95 786 117 758 117 721 C117 721 117 76 117 76 C117 40 95 11 68 11 C68 11 59 11 59 11 C59 11 59 0 59 0 C59 0 117 0 117 0 C117 0 128 0 128 0 C128 0 139 0 139 0 C139 0 197 0 197 0 C196 0 196 3 197 6 C196 9 196 11 197 11 C197 11 188 11 188 11 C161 11 139 40 139 76 C139 76 139 372 139 372 C139 372 210 372 210 372 C210 372 391 106 391 106 C454 12 465 0 488 0 C488 0 500 0 500 0 C500 0 500 4 500 4 C500 4 495 4 495 4 C488 4 480 15 421 102 C421 102 236 372 236 372 C338 380 417 471 417 583 C417 702 340 798 244 798 C244 798 139 798 139 798 C139 798 128 798 128 798 C128 798 117 798 117 798 C117 798 59 798 59 798 C59 798 59 786 59 786 L59 786 Z M223 377 C223 377 207 377 207 377 C207 377 139 377 139 377 C139 377 139 792 139 792 C139 792 244 792 244 792 C327 792 394 699 394 583 C394 468 318 377 223 377 L223 377 Z " />
<glyph glyph-name="Rcaron" unicode="&#x158;" horiz-adv-x="454" d="M59 786 C59 786 68 786 68 786 C95 786 117 758 117 721 C117 721 117 76 117 76 C117 40 95 11 68 11 C68 11 59 11 59 11 C59 11 59 0 59 0 C59 0 117 0 117 0 C117 0 128 0 128 0 C128 0 139 0 139 0 C139 0 197 0 197 0 C196 0 196 3 197 6 C196 9 196 11 197 11 C197 11 188 11 188 11 C161 11 139 40 139 76 C139 76 139 372 139 372 C139 372 223 372 223 372 C293 180 396 -4 455 -42 C455 -42 457 -39 457 -39 C410 -8 314 175 243 373 C243 373 241 373 241 373 C341 383 417 473 417 583 C417 702 340 798 244 798 C244 798 139 798 139 798 C139 798 128 798 128 798 C128 798 117 798 117 798 C117 798 59 798 59 798 C59 798 59 786 59 786 L59 786 Z M267 876 C267 876 368 1063 368 1063 C368 1063 371 1062 371 1062 C371 1062 273 859 273 859 C273 857 270 853 267 853 C264 853 261 857 261 858 C261 858 164 1062 164 1062 C164 1062 166 1063 166 1063 C166 1063 267 876 267 876 L267 876 Z M139 377 C139 377 139 792 139 792 C139 792 244 792 244 792 C327 792 394 699 394 583 C394 468 318 377 223 377 C223 377 139 377 139 377 L139 377 Z " />
<glyph glyph-name="rcaron" unicode="&#x159;" horiz-adv-x="322" d="M45 610 C87 601 102 591 102 533 C102 533 102 76 102 76 C102 40 80 11 54 11 C54 11 45 11 45 11 C45 11 45 0 45 0 C45 0 102 0 102 0 C102 0 112 0 112 0 C112 0 122 0 122 0 C122 0 180 0 180 0 C180 0 180 11 180 11 C180 11 171 11 171 11 C144 11 123 40 122 76 C122 76 122 539 122 539 C122 539 122 556 122 556 C155 596 201 628 226 628 C251 628 279 598 303 598 C309 598 313 602 313 608 C313 627 289 643 242 643 C212 643 160 605 122 558 C122 558 120 638 120 638 C120 638 116 638 116 638 C116 638 45 617 45 617 C45 617 45 610 45 610 L45 610 Z M173 717 C173 717 274 903 274 903 C274 903 276 902 276 902 C276 902 179 699 179 699 C178 697 175 693 172 693 C170 693 167 697 166 698 C166 698 69 902 69 902 C69 902 71 903 71 903 C71 903 173 717 173 717 L173 717 Z " />
<glyph glyph-name="Sacute" unicode="&#x15a;" horiz-adv-x="436" d="M153 829 C153 829 260 961 260 961 C285 992 305 1018 305 1019 C305 1021 297 1027 294 1027 C293 1027 274 1001 250 969 C250 969 151 831 151 831 C151 831 153 829 153 829 L153 829 Z M44 151 C44 151 44 48 44 48 C44 48 46 52 46 52 C46 52 46 52 46 52 C46 52 44 48 44 48 C95 19 184 -5 243 -5 C325 -5 391 82 391 191 C391 265 318 361 227 407 C141 450 73 537 73 603 C73 711 130 797 201 797 C212 797 227 795 243 790 C243 790 243 790 243 790 C280 781 319 742 332 704 C338 688 346 663 351 647 C351 647 361 647 361 647 C361 647 361 749 361 749 C310 779 239 803 202 803 C122 803 57 710 57 595 C57 524 125 434 210 391 C302 345 375 252 375 182 C375 81 316 1 243 1 C234 1 224 2 213 3 C213 3 213 3 213 3 C150 10 83 63 64 122 C61 130 57 143 54 151 C54 151 44 151 44 151 L44 151 Z " />
<glyph glyph-name="sacute" unicode="&#x15b;" horiz-adv-x="359" d="M98 669 C98 669 205 801 205 801 C230 832 250 858 250 859 C250 861 242 867 238 867 C237 867 218 841 195 809 C195 809 96 671 96 671 C96 671 98 669 98 669 L98 669 Z M49 108 C49 108 49 36 49 36 C49 36 51 40 51 40 C51 40 51 40 51 40 C51 40 49 36 49 36 C89 13 154 -5 196 -5 C259 -5 310 69 310 162 C310 211 260 284 198 326 C137 368 88 445 88 499 C88 576 127 638 176 638 C180 638 187 636 196 632 C229 618 261 583 271 551 C272 546 274 538 276 533 C276 533 285 533 285 533 C285 533 285 596 285 596 C241 622 192 643 176 643 C118 643 72 576 72 492 C72 434 122 354 184 312 C244 270 293 201 293 155 C293 69 250 0 197 0 C192 0 187 0 181 1 C181 1 181 1 181 1 C134 6 83 44 66 87 C64 93 60 102 57 108 C57 108 49 108 49 108 L49 108 Z " />
<glyph glyph-name="Scircumflex" unicode="&#x15c;" horiz-adv-x="436" d="M44 151 C44 151 44 48 44 48 C44 48 46 52 46 52 C46 52 46 52 46 52 C46 52 44 48 44 48 C95 19 184 -5 243 -5 C325 -5 391 82 391 191 C391 265 318 361 227 407 C141 450 73 537 73 603 C73 711 130 797 201 797 C212 797 227 795 243 790 C243 790 243 790 243 790 C280 781 319 742 332 704 C338 688 346 663 351 647 C351 647 361 647 361 647 C361 647 361 749 361 749 C310 779 239 803 202 803 C122 803 57 710 57 595 C57 524 125 434 210 391 C302 345 375 252 375 182 C375 81 316 1 243 1 C234 1 224 2 213 3 C213 3 213 3 213 3 C150 10 83 63 64 122 C61 130 57 143 54 151 C54 151 44 151 44 151 L44 151 Z M202 1019 C202 1019 303 832 303 832 C303 832 305 834 305 834 C305 834 208 1037 208 1037 C207 1039 204 1043 201 1043 C199 1043 196 1039 195 1037 C195 1037 98 834 98 834 C98 834 100 832 100 832 C100 832 202 1019 202 1019 L202 1019 Z " />
<glyph glyph-name="Scedilla" unicode="&#x15e;" horiz-adv-x="436" d="M44 151 C44 151 44 48 44 48 C44 48 46 52 46 52 C46 52 46 52 46 52 C46 52 44 48 44 48 C95 19 184 -5 243 -5 C325 -5 391 82 391 191 C391 265 318 361 227 407 C141 450 73 537 73 603 C73 711 130 797 201 797 C212 797 227 795 243 790 C243 790 243 790 243 790 C280 781 319 742 332 704 C338 688 346 663 351 647 C351 647 361 647 361 647 C361 647 361 749 361 749 C310 779 239 803 202 803 C122 803 57 710 57 595 C57 524 125 434 210 391 C302 345 375 252 375 182 C375 81 316 1 243 1 C234 1 224 2 213 3 C213 3 213 3 213 3 C150 10 83 63 64 122 C61 130 57 143 54 151 C54 151 44 151 44 151 L44 151 Z " />
<glyph glyph-name="scedilla" unicode="&#x15f;" horiz-adv-x="359" d="M49 108 C49 108 49 36 49 36 C49 36 51 40 51 40 C51 40 51 40 51 40 C51 40 49 36 49 36 C89 13 154 -5 196 -5 C259 -5 310 69 310 162 C310 211 260 284 198 326 C137 368 88 445 88 499 C88 576 127 638 176 638 C180 638 187 636 196 632 C229 618 261 583 271 551 C272 546 274 538 276 533 C276 533 285 533 285 533 C285 533 285 596 285 596 C241 622 192 643 176 643 C118 643 72 576 72 492 C72 434 122 354 184 312 C244 270 293 201 293 155 C293 69 250 0 197 0 C192 0 187 0 181 1 C181 1 181 1 181 1 C134 6 83 44 66 87 C64 93 60 102 57 108 C57 108 49 108 49 108 L49 108 Z " />
<glyph glyph-name="Scaron" unicode="&#x160;" horiz-adv-x="436" d="M44 151 C44 151 44 48 44 48 C44 48 46 52 46 52 C46 52 46 52 46 52 C46 52 44 48 44 48 C95 19 184 -5 243 -5 C325 -5 391 82 391 191 C391 265 318 361 227 407 C141 450 73 537 73 603 C73 711 130 797 201 797 C212 797 227 795 243 790 C243 790 243 790 243 790 C280 781 319 742 332 704 C338 688 346 663 351 647 C351 647 361 647 361 647 C361 647 361 749 361 749 C310 779 239 803 202 803 C122 803 57 710 57 595 C57 524 125 434 210 391 C302 345 375 252 375 182 C375 81 316 1 243 1 C234 1 224 2 213 3 C213 3 213 3 213 3 C150 10 83 63 64 122 C61 130 57 143 54 151 C54 151 44 151 44 151 L44 151 Z M202 877 C202 877 303 1063 303 1063 C303 1063 305 1062 305 1062 C305 1062 208 859 208 859 C207 857 204 853 201 853 C199 853 196 857 195 858 C195 858 98 1062 98 1062 C98 1062 100 1063 100 1063 C100 1063 202 877 202 877 L202 877 Z " />
<glyph glyph-name="scaron" unicode="&#x161;" horiz-adv-x="359" d="M49 108 C49 108 49 36 49 36 C49 36 51 40 51 40 C51 40 51 40 51 40 C51 40 49 36 49 36 C89 13 154 -5 196 -5 C259 -5 310 69 310 162 C310 211 260 284 198 326 C137 368 88 445 88 499 C88 576 127 638 176 638 C180 638 187 636 196 632 C229 618 261 583 271 551 C272 546 274 538 276 533 C276 533 285 533 285 533 C285 533 285 596 285 596 C241 622 192 643 176 643 C118 643 72 576 72 492 C72 434 122 354 184 312 C244 270 293 201 293 155 C293 69 250 0 197 0 C192 0 187 0 181 1 C181 1 181 1 181 1 C134 6 83 44 66 87 C64 93 60 102 57 108 C57 108 49 108 49 108 L49 108 Z M177 717 C177 717 278 903 278 903 C278 903 280 902 280 902 C280 902 183 699 183 699 C182 697 179 693 176 693 C174 693 171 697 170 698 C170 698 73 902 73 902 C73 902 75 903 75 903 C75 903 177 717 177 717 L177 717 Z " />
<glyph glyph-name="Tcaron" unicode="&#x164;" horiz-adv-x="556" d="M532 677 C529 710 525 762 522 795 C522 795 522 798 522 798 C522 798 516 798 516 798 C516 798 445 798 445 798 C445 798 111 798 111 798 C111 798 40 798 40 798 C40 798 35 798 35 798 C35 797 34 796 34 795 C32 762 27 710 24 677 C24 677 33 677 33 677 C33 677 47 712 47 712 C66 757 116 792 160 792 C160 792 267 792 267 792 C267 792 267 76 267 76 C267 40 245 11 218 11 C218 11 210 11 210 11 C210 11 210 0 210 0 C210 0 267 0 267 0 C267 0 278 0 278 0 C278 0 289 0 289 0 C289 0 347 0 347 0 C347 0 347 11 347 11 C347 11 338 11 338 11 C311 11 289 40 289 76 C289 76 289 792 289 792 C289 792 396 792 396 792 C441 792 491 757 509 712 C509 712 523 677 523 677 C523 677 532 677 532 677 L532 677 Z M278 876 C278 876 380 1063 380 1063 C380 1063 382 1062 382 1062 C382 1062 285 859 285 859 C284 857 281 853 278 853 C275 853 272 857 272 858 C272 858 175 1062 175 1062 C175 1062 177 1063 177 1063 C177 1063 278 876 278 876 L278 876 Z " />
<glyph glyph-name="tcaron" unicode="&#x165;" horiz-adv-x="286" d="M256 638 C256 638 116 638 116 638 C116 638 116 805 116 805 C116 805 113 805 113 805 C113 805 97 637 97 637 C97 637 97 637 97 637 C97 637 99 663 99 663 C97 649 65 635 25 632 C25 632 25 630 25 630 C25 630 96 630 96 630 C96 630 96 142 96 142 C96 36 113 -5 158 -5 C193 -5 233 17 267 45 C267 45 265 46 265 46 C237 23 202 4 168 4 C131 4 116 41 116 138 C116 138 116 630 116 630 C116 630 256 630 256 630 C256 630 256 638 256 638 L256 638 Z M345 752 C358 803 368 854 368 858 C368 861 359 862 355 862 C351 862 339 798 333 756 C333 756 306 596 306 596 C306 596 308 595 308 595 C308 595 345 752 345 752 L345 752 Z M99 663 C99 663 99 663 99 663 C99 663 99 663 99 663 L99 663 Z " />
<glyph glyph-name="Utilde" unicode="&#x168;" horiz-adv-x="591" d="M208 893 C208 932 222 964 240 964 C285 964 324 902 368 902 C391 902 409 935 409 975 C409 975 405 975 405 975 C405 942 390 915 372 915 C328 915 289 978 245 978 C223 978 205 940 205 893 C205 893 208 893 208 893 L208 893 Z M572 798 C572 798 507 798 507 798 C507 798 503 798 503 798 C503 798 500 798 500 798 C500 798 431 798 431 798 C431 798 431 786 431 786 C431 786 442 786 442 786 C474 786 500 753 500 711 C500 711 500 210 500 210 C500 95 438 3 314 3 C191 3 129 108 129 240 C129 240 129 721 129 721 C129 758 151 786 178 786 C178 786 187 786 187 786 C186 786 186 789 187 792 C186 795 186 798 187 798 C187 798 129 798 129 798 C129 798 118 798 118 798 C118 798 107 798 107 798 C107 798 49 798 49 798 C49 798 49 786 49 786 C49 786 58 786 58 786 C85 786 107 758 107 721 C107 721 107 245 107 245 C107 106 175 -5 311 -5 C442 -5 507 90 507 208 C507 208 507 711 507 711 C507 753 531 786 562 786 C562 786 572 786 572 786 C572 786 572 798 572 798 L572 798 Z " />
<glyph glyph-name="utilde" unicode="&#x169;" horiz-adv-x="479" d="M131 733 C131 772 145 804 163 804 C207 804 246 742 290 742 C313 742 331 775 331 815 C331 815 328 815 328 815 C328 782 313 755 295 755 C251 755 211 818 167 818 C146 818 128 780 128 733 C128 733 131 733 131 733 L131 733 Z M309 626 C309 626 318 626 318 626 C345 626 367 598 367 561 C367 561 367 99 367 99 C367 99 367 65 367 65 C335 33 279 8 221 8 C142 8 92 75 92 159 C92 159 92 638 92 638 C92 638 82 638 82 638 C82 638 72 638 72 638 C72 638 15 638 15 638 C15 638 15 626 15 626 C15 626 24 626 24 626 C50 626 72 598 72 561 C72 561 72 156 72 156 C72 67 124 -5 205 -5 C267 -5 329 25 367 63 C367 63 367 5 367 5 C367 5 367 0 367 0 C367 0 371 0 371 0 C371 0 444 21 444 21 C444 21 444 28 444 28 C403 33 388 48 387 94 C387 94 387 105 387 105 C387 105 387 638 387 638 C387 638 377 638 377 638 C377 638 367 638 367 638 C367 638 309 638 309 638 C309 638 309 626 309 626 L309 626 Z " />
<glyph glyph-name="Umacron" unicode="&#x16a;" horiz-adv-x="591" d="M189 912 C189 912 425 912 425 912 C425 912 425 923 425 923 C425 923 189 923 189 923 C189 923 189 912 189 912 L189 912 Z M572 798 C572 798 507 798 507 798 C507 798 503 798 503 798 C503 798 500 798 500 798 C500 798 431 798 431 798 C431 798 431 786 431 786 C431 786 442 786 442 786 C474 786 500 753 500 711 C500 711 500 210 500 210 C500 95 438 3 314 3 C191 3 129 108 129 240 C129 240 129 721 129 721 C129 758 151 786 178 786 C178 786 187 786 187 786 C186 786 186 789 187 792 C186 795 186 798 187 798 C187 798 129 798 129 798 C129 798 118 798 118 798 C118 798 107 798 107 798 C107 798 49 798 49 798 C49 798 49 786 49 786 C49 786 58 786 58 786 C85 786 107 758 107 721 C107 721 107 245 107 245 C107 106 175 -5 311 -5 C442 -5 507 90 507 208 C507 208 507 711 507 711 C507 753 531 786 562 786 C562 786 572 786 572 786 C572 786 572 798 572 798 L572 798 Z " />
<glyph glyph-name="umacron" unicode="&#x16b;" horiz-adv-x="479" d="M111 752 C111 752 348 752 348 752 C348 752 348 763 348 763 C348 763 111 763 111 763 C111 763 111 752 111 752 L111 752 Z M309 626 C309 626 318 626 318 626 C345 626 367 598 367 561 C367 561 367 99 367 99 C367 99 367 65 367 65 C335 33 279 8 221 8 C142 8 92 75 92 159 C92 159 92 638 92 638 C92 638 82 638 82 638 C82 638 72 638 72 638 C72 638 15 638 15 638 C15 638 15 626 15 626 C15 626 24 626 24 626 C50 626 72 598 72 561 C72 561 72 156 72 156 C72 67 124 -5 205 -5 C267 -5 329 25 367 63 C367 63 367 5 367 5 C367 5 367 0 367 0 C367 0 371 0 371 0 C371 0 444 21 444 21 C444 21 444 28 444 28 C403 33 388 48 387 94 C387 94 387 105 387 105 C387 105 387 638 387 638 C387 638 377 638 377 638 C377 638 367 638 367 638 C367 638 309 638 309 638 C309 638 309 626 309 626 L309 626 Z " />
<glyph glyph-name="Ubreve" unicode="&#x16c;" horiz-adv-x="591" d="M232 1010 C235 960 269 921 307 921 C345 921 378 960 382 1010 C382 1010 378 1010 378 1010 C375 968 344 934 307 934 C270 934 239 968 236 1010 C236 1010 232 1010 232 1010 L232 1010 Z M572 798 C572 798 507 798 507 798 C507 798 503 798 503 798 C503 798 500 798 500 798 C500 798 431 798 431 798 C431 798 431 786 431 786 C431 786 442 786 442 786 C474 786 500 753 500 711 C500 711 500 210 500 210 C500 95 438 3 314 3 C191 3 129 108 129 240 C129 240 129 721 129 721 C129 758 151 786 178 786 C178 786 187 786 187 786 C186 786 186 789 187 792 C186 795 186 798 187 798 C187 798 129 798 129 798 C129 798 118 798 118 798 C118 798 107 798 107 798 C107 798 49 798 49 798 C49 798 49 786 49 786 C49 786 58 786 58 786 C85 786 107 758 107 721 C107 721 107 245 107 245 C107 106 175 -5 311 -5 C442 -5 507 90 507 208 C507 208 507 711 507 711 C507 753 531 786 562 786 C562 786 572 786 572 786 C572 786 572 798 572 798 L572 798 Z " />
<glyph glyph-name="ubreve" unicode="&#x16d;" horiz-adv-x="479" d="M155 850 C158 800 191 761 229 761 C268 761 301 800 304 850 C304 850 301 850 301 850 C298 808 266 774 229 774 C193 774 161 808 158 850 C158 850 155 850 155 850 L155 850 Z M309 626 C309 626 318 626 318 626 C345 626 367 598 367 561 C367 561 367 99 367 99 C367 99 367 65 367 65 C335 33 279 8 221 8 C142 8 92 75 92 159 C92 159 92 638 92 638 C92 638 82 638 82 638 C82 638 72 638 72 638 C72 638 15 638 15 638 C15 638 15 626 15 626 C15 626 24 626 24 626 C50 626 72 598 72 561 C72 561 72 156 72 156 C72 67 124 -5 205 -5 C267 -5 329 25 367 63 C367 63 367 5 367 5 C367 5 367 0 367 0 C367 0 371 0 371 0 C371 0 444 21 444 21 C444 21 444 28 444 28 C403 33 388 48 387 94 C387 94 387 105 387 105 C387 105 387 638 387 638 C387 638 377 638 377 638 C377 638 367 638 367 638 C367 638 309 638 309 638 C309 638 309 626 309 626 L309 626 Z " />
<glyph glyph-name="Uring" unicode="&#x16e;" horiz-adv-x="591" d="M307 837 C263 837 219 881 219 925 C219 974 258 1013 307 1013 C355 1013 394 974 394 925 C394 881 350 837 307 837 L307 837 Z M214 925 C214 879 260 833 307 833 C353 833 400 879 400 925 C400 977 359 1018 307 1018 C255 1018 214 977 214 925 L214 925 Z M572 798 C572 798 507 798 507 798 C507 798 503 798 503 798 C503 798 500 798 500 798 C500 798 431 798 431 798 C431 798 431 786 431 786 C431 786 442 786 442 786 C474 786 500 753 500 711 C500 711 500 210 500 210 C500 95 438 3 314 3 C191 3 129 108 129 240 C129 240 129 721 129 721 C129 758 151 786 178 786 C178 786 187 786 187 786 C186 786 186 789 187 792 C186 795 186 798 187 798 C187 798 129 798 129 798 C129 798 118 798 118 798 C118 798 107 798 107 798 C107 798 49 798 49 798 C49 798 49 786 49 786 C49 786 58 786 58 786 C85 786 107 758 107 721 C107 721 107 245 107 245 C107 106 175 -5 311 -5 C442 -5 507 90 507 208 C507 208 507 711 507 711 C507 753 531 786 562 786 C562 786 572 786 572 786 C572 786 572 798 572 798 L572 798 Z " />
<glyph glyph-name="uring" unicode="&#x16f;" horiz-adv-x="479" d="M229 677 C186 677 142 721 142 765 C142 814 181 853 229 853 C278 853 317 814 317 765 C317 721 273 677 229 677 L229 677 Z M136 765 C136 719 183 673 229 673 C276 673 323 719 323 765 C323 817 281 858 229 858 C178 858 136 817 136 765 L136 765 Z M309 626 C309 626 318 626 318 626 C345 626 367 598 367 561 C367 561 367 99 367 99 C367 99 367 65 367 65 C335 33 279 8 221 8 C142 8 92 75 92 159 C92 159 92 638 92 638 C92 638 82 638 82 638 C82 638 72 638 72 638 C72 638 15 638 15 638 C15 638 15 626 15 626 C15 626 24 626 24 626 C50 626 72 598 72 561 C72 561 72 156 72 156 C72 67 124 -5 205 -5 C267 -5 329 25 367 63 C367 63 367 5 367 5 C367 5 367 0 367 0 C367 0 371 0 371 0 C371 0 444 21 444 21 C444 21 444 28 444 28 C403 33 388 48 387 94 C387 94 387 105 387 105 C387 105 387 638 387 638 C387 638 377 638 377 638 C377 638 367 638 367 638 C367 638 309 638 309 638 C309 638 309 626 309 626 L309 626 Z " />
<glyph glyph-name="Wcircumflex" unicode="&#x174;" horiz-adv-x="727" d="M724 798 C724 798 669 798 669 798 C669 798 666 798 666 798 C666 798 662 798 662 798 C662 798 582 798 582 798 C582 798 582 786 582 786 C582 786 595 786 595 786 C628 786 651 763 649 731 C649 731 515 26 515 26 C515 26 363 808 363 808 C363 808 358 808 358 808 C358 808 219 24 219 24 C219 24 83 722 83 722 C77 759 95 786 127 786 C127 786 137 786 137 786 C136 786 136 789 137 792 C136 795 136 798 137 798 C137 798 68 798 68 798 C68 798 55 798 55 798 C55 798 43 798 43 798 C43 798 0 798 0 798 C-1 798 -1 795 0 792 C-1 789 -1 786 0 786 C0 786 6 786 6 786 C28 786 51 758 59 721 C59 721 59 721 59 721 C59 721 212 -15 212 -15 C212 -15 218 -15 218 -15 C218 -15 363 808 363 808 C363 808 356 764 356 764 C356 764 507 -15 507 -15 C507 -15 513 -15 513 -15 C513 -15 655 726 655 726 C664 760 690 786 716 786 C716 786 724 786 724 786 C724 786 724 798 724 798 L724 798 Z M361 1019 C361 1019 462 832 462 832 C462 832 464 834 464 834 C464 834 367 1037 367 1037 C366 1039 363 1043 360 1043 C358 1043 355 1039 354 1037 C354 1037 257 834 257 834 C257 834 259 832 259 832 C259 832 361 1019 361 1019 L361 1019 Z " />
<glyph glyph-name="Ycircumflex" unicode="&#x176;" horiz-adv-x="482" d="M322 11 C322 11 314 11 314 11 C286 11 265 40 265 76 C265 76 265 315 265 315 C265 315 411 721 411 721 C411 721 412 721 412 721 C425 758 454 786 478 786 C478 786 485 786 485 786 C485 786 485 798 485 798 C485 798 439 798 439 798 C439 798 436 798 436 798 C436 798 433 798 433 798 C433 798 348 798 348 798 C348 798 348 786 348 786 C348 786 360 786 360 786 C398 786 415 749 398 701 C398 701 398 701 398 701 C398 701 259 315 259 315 C259 315 259 315 259 315 C259 315 118 726 118 726 C109 761 124 786 154 786 C154 786 163 786 163 786 C163 786 163 798 163 798 C163 798 94 798 94 798 C94 798 81 798 81 798 C81 798 68 798 68 798 C68 798 30 798 30 798 C30 798 30 786 30 786 C30 786 36 786 36 786 C55 786 81 759 94 724 C94 724 242 301 242 301 C242 301 242 76 242 76 C242 40 220 11 194 11 C194 11 185 11 185 11 C185 11 185 0 185 0 C185 0 242 0 242 0 C242 0 254 0 254 0 C254 0 265 0 265 0 C265 0 322 0 322 0 C322 0 322 11 322 11 L322 11 Z M254 1019 C254 1019 355 832 355 832 C355 832 357 834 357 834 C357 834 260 1037 260 1037 C259 1039 256 1043 254 1043 C251 1043 248 1039 247 1037 C247 1037 150 834 150 834 C150 834 152 832 152 832 C152 832 254 1019 254 1019 L254 1019 Z " />
<glyph glyph-name="Ydieresis" unicode="&#x178;" horiz-adv-x="482" d="M336 868 C347 868 356 877 356 888 C356 899 347 908 336 908 C325 908 316 899 316 888 C316 877 325 868 336 868 L336 868 Z M171 868 C182 868 191 877 191 888 C191 899 182 908 171 908 C160 908 151 899 151 888 C151 877 160 868 171 868 L171 868 Z M322 11 C322 11 314 11 314 11 C286 11 265 40 265 76 C265 76 265 315 265 315 C265 315 411 721 411 721 C411 721 412 721 412 721 C425 758 454 786 478 786 C478 786 485 786 485 786 C485 786 485 798 485 798 C485 798 439 798 439 798 C439 798 436 798 436 798 C436 798 433 798 433 798 C433 798 348 798 348 798 C348 798 348 786 348 786 C348 786 360 786 360 786 C398 786 415 749 398 701 C398 701 398 701 398 701 C398 701 259 315 259 315 C259 315 259 315 259 315 C259 315 118 726 118 726 C109 761 124 786 154 786 C154 786 163 786 163 786 C163 786 163 798 163 798 C163 798 94 798 94 798 C94 798 81 798 81 798 C81 798 68 798 68 798 C68 798 30 798 30 798 C30 798 30 786 30 786 C30 786 36 786 36 786 C55 786 81 759 94 724 C94 724 242 301 242 301 C242 301 242 76 242 76 C242 40 220 11 194 11 C194 11 185 11 185 11 C185 11 185 0 185 0 C185 0 242 0 242 0 C242 0 254 0 254 0 C254 0 265 0 265 0 C265 0 322 0 322 0 C322 0 322 11 322 11 L322 11 Z " />
<glyph glyph-name="Zacute" unicode="&#x179;" horiz-adv-x="522" d="M301 829 C301 829 408 961 408 961 C433 992 453 1018 453 1019 C453 1021 445 1027 442 1027 C441 1027 422 1001 398 969 C398 969 299 831 299 831 C299 831 301 829 301 829 L301 829 Z M466 121 C466 121 456 96 456 96 C435 46 379 6 329 6 C329 6 90 6 90 6 C90 6 465 798 465 798 C465 798 453 798 453 798 C453 798 440 798 440 798 C440 798 213 798 213 798 C213 798 142 798 142 798 C142 798 136 798 136 798 C136 798 136 795 136 795 C129 769 117 727 110 700 C110 700 119 700 119 700 C119 700 129 714 129 714 C158 757 216 792 261 792 C261 792 437 792 437 792 C437 792 62 0 62 0 C62 0 74 0 74 0 C74 0 87 0 87 0 C87 0 383 0 383 0 C383 0 459 0 459 0 C459 0 460 0 460 0 C460 0 460 3 460 3 C466 34 474 84 480 115 C474 117 466 121 466 121 L466 121 Z " />
<glyph glyph-name="zacute" unicode="&#x17a;" horiz-adv-x="420" d="M145 669 C145 669 252 801 252 801 C277 832 297 858 297 859 C297 861 289 867 285 867 C284 867 265 841 242 809 C242 809 142 671 142 671 C142 671 145 669 145 669 L145 669 Z M372 119 C372 119 361 95 361 95 C340 44 284 4 234 5 C234 5 234 5 234 5 C234 5 91 4 91 4 C91 4 370 638 370 638 C370 638 359 638 359 638 C359 638 347 638 347 638 C347 638 147 638 147 638 C147 638 76 638 76 638 C76 638 71 638 71 638 C71 637 71 636 70 635 C65 616 57 584 51 564 C51 564 60 564 60 564 C60 564 69 574 69 574 C94 607 151 633 195 633 C195 633 345 633 345 633 C345 633 65 0 65 0 C65 0 77 0 77 0 C77 0 89 0 89 0 C89 0 289 0 289 0 C289 0 364 0 364 0 C364 0 365 0 365 0 C365 1 365 2 366 2 C371 33 380 83 385 114 C380 116 372 119 372 119 C372 119 372 119 372 119 L372 119 Z " />
<glyph glyph-name="Zdotaccent" unicode="&#x17b;" horiz-adv-x="522" d="M304 868 C315 868 324 877 324 888 C324 899 315 908 304 908 C293 908 284 899 284 888 C284 877 293 868 304 868 L304 868 Z M466 121 C466 121 456 96 456 96 C435 46 379 6 329 6 C329 6 90 6 90 6 C90 6 465 798 465 798 C465 798 453 798 453 798 C453 798 440 798 440 798 C440 798 213 798 213 798 C213 798 142 798 142 798 C142 798 136 798 136 798 C136 798 136 795 136 795 C129 769 117 727 110 700 C110 700 119 700 119 700 C119 700 129 714 129 714 C158 757 216 792 261 792 C261 792 437 792 437 792 C437 792 62 0 62 0 C62 0 74 0 74 0 C74 0 87 0 87 0 C87 0 383 0 383 0 C383 0 459 0 459 0 C459 0 460 0 460 0 C460 0 460 3 460 3 C466 34 474 84 480 115 C474 117 466 121 466 121 L466 121 Z " />
<glyph glyph-name="zdotaccent" unicode="&#x17c;" horiz-adv-x="420" d="M223 708 C234 708 243 717 243 728 C243 739 234 748 223 748 C212 748 203 739 203 728 C203 717 212 708 223 708 L223 708 Z M372 119 C372 119 361 95 361 95 C340 44 284 4 234 5 C234 5 234 5 234 5 C234 5 91 4 91 4 C91 4 370 638 370 638 C370 638 359 638 359 638 C359 638 347 638 347 638 C347 638 147 638 147 638 C147 638 76 638 76 638 C76 638 71 638 71 638 C71 637 71 636 70 635 C65 616 57 584 51 564 C51 564 60 564 60 564 C60 564 69 574 69 574 C94 607 151 633 195 633 C195 633 345 633 345 633 C345 633 65 0 65 0 C65 0 77 0 77 0 C77 0 89 0 89 0 C89 0 289 0 289 0 C289 0 364 0 364 0 C364 0 365 0 365 0 C365 1 365 2 366 2 C371 33 380 83 385 114 C380 116 372 119 372 119 C372 119 372 119 372 119 L372 119 Z " />
<glyph glyph-name="Zcaron" unicode="&#x17d;" horiz-adv-x="522" d="M466 121 C466 121 456 96 456 96 C435 46 379 6 329 6 C329 6 90 6 90 6 C90 6 465 798 465 798 C465 798 453 798 453 798 C453 798 440 798 440 798 C440 798 213 798 213 798 C213 798 142 798 142 798 C142 798 136 798 136 798 C136 798 136 795 136 795 C129 769 117 727 110 700 C110 700 119 700 119 700 C119 700 129 714 129 714 C158 757 216 792 261 792 C261 792 437 792 437 792 C437 792 62 0 62 0 C62 0 74 0 74 0 C74 0 87 0 87 0 C87 0 383 0 383 0 C383 0 459 0 459 0 C459 0 460 0 460 0 C460 0 460 3 460 3 C466 34 474 84 480 115 C474 117 466 121 466 121 L466 121 Z M304 877 C304 877 405 1063 405 1063 C405 1063 407 1062 407 1062 C407 1062 310 859 310 859 C309 857 306 853 304 853 C301 853 298 857 297 858 C297 858 200 1062 200 1062 C200 1062 202 1063 202 1063 C202 1063 304 877 304 877 L304 877 Z " />
<glyph glyph-name="zcaron" unicode="&#x17e;" horiz-adv-x="420" d="M372 119 C372 119 361 95 361 95 C340 44 284 4 234 5 C234 5 234 5 234 5 C234 5 91 4 91 4 C91 4 370 638 370 638 C370 638 359 638 359 638 C359 638 347 638 347 638 C347 638 147 638 147 638 C147 638 76 638 76 638 C76 638 71 638 71 638 C71 637 71 636 70 635 C65 616 57 584 51 564 C51 564 60 564 60 564 C60 564 69 574 69 574 C94 607 151 633 195 633 C195 633 345 633 345 633 C345 633 65 0 65 0 C65 0 77 0 77 0 C77 0 89 0 89 0 C89 0 289 0 289 0 C289 0 364 0 364 0 C364 0 365 0 365 0 C365 1 365 2 366 2 C371 33 380 83 385 114 C380 116 372 119 372 119 C372 119 372 119 372 119 L372 119 Z M224 717 C224 717 325 903 325 903 C325 903 327 902 327 902 C327 902 230 699 230 699 C229 697 226 693 223 693 C220 693 217 697 217 698 C217 698 120 902 120 902 C120 902 122 903 122 903 C122 903 224 717 224 717 L224 717 Z " />
<glyph glyph-name="SmallLetterOwithogon" unicode="&#x1eb;" horiz-adv-x="654" d="M648 -50 C648 -50 646 -49 646 -49 C618 -82 566 -109 529 -109 C473 -109 399 -64 341 -5 C502 -3 604 171 604 346 C604 521 501 696 338 696 C175 696 72 521 72 346 C72 171 173 -2 334 -5 C399 -71 477 -122 527 -122 C560 -122 614 -90 648 -50 L648 -50 Z M338 0 C189 0 94 173 94 346 C94 518 189 691 338 691 C487 691 582 518 582 346 C582 173 487 0 338 0 L338 0 Z " />
<glyph glyph-name="CapitalLetterAwithdo" unicode="&#x226;" horiz-adv-x="505" d="M252 868 C263 868 272 877 272 888 C272 899 263 908 252 908 C241 908 232 899 232 888 C232 877 241 868 252 868 L252 868 Z M498 11 C498 11 491 11 491 11 C469 11 447 34 436 65 C436 65 255 816 255 816 C255 816 249 816 249 816 C249 816 243 792 243 792 C243 792 243 791 243 791 C243 791 243 791 243 791 C243 791 76 67 76 67 C65 35 39 11 14 11 C14 11 5 11 5 11 C5 11 5 0 5 0 C5 0 60 0 60 0 C60 0 64 0 64 0 C64 0 68 0 68 0 C68 0 152 0 152 0 C152 0 152 11 152 11 C152 11 140 11 140 11 C101 11 78 47 89 91 C89 91 89 91 89 91 C89 91 132 278 132 278 C132 278 363 278 363 278 C363 278 410 76 410 76 C410 76 410 76 410 76 C418 40 396 11 360 11 C360 11 346 11 346 11 C346 11 346 0 346 0 C346 0 428 0 428 0 C428 0 440 0 440 0 C440 0 452 0 452 0 C452 0 498 0 498 0 C498 0 498 11 498 11 L498 11 Z M362 284 C362 284 133 284 133 284 C133 284 246 777 246 777 C246 777 362 284 362 284 L362 284 Z " />
<glyph glyph-name="LETTERSMALLCAPITALG" unicode="&#x262;" horiz-adv-x="698" d="M605 325 C590 324 566 324 548 325 C548 325 548 325 548 325 C548 325 539 325 539 325 C539 325 530 325 530 325 C530 325 530 325 530 325 C511 324 487 324 472 325 C472 325 472 313 472 313 C472 313 481 313 481 313 C508 313 530 284 530 248 C530 248 530 55 530 55 C470 24 388 0 337 0 C202 0 94 154 94 346 C94 537 202 691 337 691 C349 691 363 690 378 687 C440 673 504 619 523 562 C526 553 530 540 533 532 C533 532 543 532 543 532 C543 532 543 632 543 632 C481 668 390 696 337 696 C190 696 72 540 72 346 C72 151 190 -5 337 -5 C393 -5 486 23 548 59 C548 59 548 248 548 248 C548 248 548 253 548 253 C549 286 570 313 596 313 C596 313 605 313 605 313 C605 313 605 325 605 325 L605 325 Z " />
<glyph glyph-name="LETTERSMALLCAPITALI" unicode="&#x26a;" horiz-adv-x="216" d="M176 691 C176 691 119 691 119 691 C119 691 109 691 109 691 C109 691 99 691 99 691 C99 691 41 691 41 691 C41 691 41 680 41 680 C41 680 50 680 50 680 C77 679 99 651 99 615 C99 615 99 76 99 76 C99 40 77 11 50 11 C50 11 41 11 41 11 C41 11 41 0 41 0 C41 0 99 0 99 0 C99 0 109 0 109 0 C109 0 119 0 119 0 C119 0 176 0 176 0 C176 0 176 11 176 11 C176 11 167 11 167 11 C141 11 120 38 119 71 C119 71 119 76 119 76 C119 76 119 615 119 615 C119 615 119 620 119 620 C120 653 141 679 167 680 C167 680 176 680 176 680 C176 680 176 691 176 691 L176 691 Z " />
<glyph glyph-name="LETTERSMALLCAPITALN" unicode="&#x274;" horiz-adv-x="548" d="M390 680 C390 680 399 680 399 680 C426 679 448 651 448 615 C448 615 448 31 448 31 C448 31 121 691 121 691 C121 691 109 691 109 691 C109 691 106 691 106 691 C106 691 103 691 103 691 C103 691 46 691 46 691 C46 691 46 680 46 680 C46 680 54 680 54 680 C81 679 103 651 103 615 C103 615 103 76 103 76 C103 40 81 11 54 11 C54 11 46 11 46 11 C46 11 46 0 46 0 C46 0 103 0 103 0 C103 0 106 0 106 0 C106 0 109 0 109 0 C109 0 166 0 166 0 C166 0 166 11 166 11 C166 11 158 11 158 11 C131 11 109 40 109 76 C109 76 109 670 109 670 C109 670 439 8 439 8 C439 8 445 -4 445 -4 C445 -4 454 -4 454 -4 C454 -4 454 15 454 15 C454 15 454 615 454 615 C454 651 475 679 503 680 C503 680 511 680 511 680 C512 679 512 682 511 685 C512 689 512 691 511 691 C511 691 454 691 454 691 C454 691 451 691 451 691 C451 691 448 691 448 691 C448 691 390 691 390 691 C390 691 390 680 390 680 L390 680 Z " />
<glyph glyph-name="LETTERSMALLCAPITALR" unicode="&#x280;" horiz-adv-x="465" d="M60 680 C60 680 69 680 69 680 C95 679 117 651 117 615 C117 615 117 76 117 76 C117 40 95 11 69 11 C69 11 60 11 60 11 C60 11 60 0 60 0 C60 0 117 0 117 0 C117 0 127 0 127 0 C127 0 137 0 137 0 C137 0 195 0 195 0 C195 0 195 11 195 11 C195 11 186 11 186 11 C159 11 138 40 137 76 C137 76 137 322 137 322 C137 322 185 322 185 322 C185 322 351 106 351 106 C423 12 434 0 454 0 C454 0 466 0 466 0 C466 0 466 4 466 4 C466 4 461 4 461 4 C454 4 445 15 378 102 C378 102 209 322 209 322 C302 328 375 408 375 506 C375 609 303 691 212 691 C212 691 137 691 137 691 C137 691 127 691 127 691 C127 691 117 691 117 691 C117 691 60 691 60 691 C60 691 60 680 60 680 L60 680 Z M197 327 C197 327 181 327 181 327 C181 327 137 327 137 327 C137 327 137 686 137 686 C137 686 212 686 212 686 C291 686 354 606 354 506 C354 407 284 327 197 327 L197 327 Z " />
<glyph glyph-name="LETTERSMALLCAPITALY" unicode="&#x28f;" horiz-adv-x="439" d="M300 11 C300 11 291 11 291 11 C264 11 243 40 242 76 C242 76 242 273 242 273 C242 273 242 273 242 273 C242 273 368 615 368 615 C368 615 368 615 368 615 C381 651 411 679 434 680 C434 680 442 680 442 680 C442 680 442 691 442 691 C442 691 396 691 396 691 C396 691 393 691 393 691 C393 691 390 691 390 691 C390 691 306 691 306 691 C306 691 306 680 306 680 C306 680 318 680 318 680 C354 679 371 645 357 601 C357 601 237 273 237 273 C237 273 235 273 235 273 C235 273 118 615 118 615 C118 615 119 615 119 615 C106 651 121 679 152 680 C152 680 161 680 161 680 C161 680 161 691 161 691 C161 691 92 691 92 691 C92 691 80 691 80 691 C80 691 68 691 68 691 C68 691 30 691 30 691 C30 691 30 680 30 680 C30 680 37 680 37 680 C54 679 76 658 90 629 C90 629 222 260 222 260 C222 260 222 76 222 76 C222 40 200 11 174 11 C174 11 165 11 165 11 C165 11 165 0 165 0 C165 0 222 0 222 0 C222 0 232 0 232 0 C232 0 242 0 242 0 C242 0 300 0 300 0 C300 0 300 11 300 11 L300 11 Z " />
<glyph glyph-name="LETTERSMALLCAPITALB" unicode="&#x299;" horiz-adv-x="444" d="M60 680 C60 680 69 680 69 680 C95 679 117 651 117 615 C117 615 117 76 117 76 C117 40 95 11 69 11 C69 11 60 11 60 11 C60 11 60 0 60 0 C60 0 117 0 117 0 C117 0 127 0 127 0 C127 0 137 0 137 0 C137 0 229 0 229 0 C338 0 425 80 425 180 C425 270 342 344 234 357 C314 374 373 446 373 534 C373 621 301 691 212 691 C212 691 137 691 137 691 C137 691 127 691 127 691 C127 691 117 691 117 691 C117 691 60 691 60 691 C60 691 60 680 60 680 L60 680 Z M222 358 C214 359 207 359 199 359 C199 359 137 358 137 358 C137 358 137 686 137 686 C137 686 212 686 212 686 C290 686 353 618 353 534 C353 445 297 371 222 358 C222 358 222 358 222 358 L222 358 Z M216 354 C322 345 404 271 404 180 C404 83 325 5 227 5 C227 5 137 5 137 5 C137 5 137 353 137 353 C137 353 197 353 197 353 C203 353 210 353 216 354 C216 354 216 354 216 354 L216 354 Z " />
<glyph glyph-name="LETTERSMALLCAPITALH" unicode="&#x29c;" horiz-adv-x="620" d="M581 691 C581 691 523 691 523 691 C523 691 513 691 513 691 C513 691 503 691 503 691 C503 691 446 691 446 691 C446 691 446 680 446 680 C446 680 455 680 455 680 C481 679 503 651 503 615 C503 615 503 353 503 353 C503 353 118 353 118 353 C118 353 118 615 118 615 C118 651 140 679 167 680 C167 680 175 680 175 680 C175 681 175 683 176 685 C175 689 175 691 176 691 C176 691 118 691 118 691 C118 691 108 691 108 691 C108 691 98 691 98 691 C98 691 41 691 41 691 C41 691 41 680 41 680 C41 680 49 680 49 680 C76 679 98 651 98 615 C98 615 98 76 98 76 C98 40 76 11 49 11 C49 11 41 11 41 11 C41 11 41 0 41 0 C41 0 98 0 98 0 C98 0 108 0 108 0 C108 0 118 0 118 0 C118 0 176 0 176 0 C175 0 175 3 176 6 C175 9 175 11 176 11 C176 11 167 11 167 11 C140 11 118 40 118 76 C118 76 118 348 118 348 C118 348 503 348 503 348 C503 348 503 76 503 76 C503 40 481 11 455 11 C455 11 446 11 446 11 C446 11 446 0 446 0 C446 0 503 0 503 0 C503 0 513 0 513 0 C513 0 523 0 523 0 C523 0 581 0 581 0 C581 0 581 11 581 11 C581 11 572 11 572 11 C545 11 524 40 523 76 C523 76 523 615 523 615 C524 651 545 679 572 680 C572 680 581 680 581 680 C581 680 581 691 581 691 L581 691 Z M175 680 C175 680 176 680 176 680 C176 680 176 680 175 680 L175 680 Z " />
<glyph glyph-name="LETTERSMALLCAPITALL" unicode="&#x29f;" horiz-adv-x="432" d="M41 680 C41 680 49 680 49 680 C76 679 98 651 98 615 C98 615 98 76 98 76 C98 40 76 11 49 11 C49 11 41 11 41 11 C41 11 41 0 41 0 C41 0 98 0 98 0 C98 0 108 0 108 0 C108 0 118 0 118 0 C118 0 259 0 259 0 C259 0 335 0 335 0 C336 1 336 2 336 3 C341 33 350 83 355 114 C355 114 355 115 353 115 C347 118 342 120 342 120 C342 120 331 95 331 95 C311 45 254 5 204 5 C204 5 118 5 118 5 C118 5 118 615 118 615 C118 651 140 679 167 680 C167 680 175 680 175 680 C175 681 175 683 176 685 C175 689 175 691 176 691 C176 691 118 691 118 691 C118 691 108 691 108 691 C108 691 98 691 98 691 C98 691 41 691 41 691 C41 691 41 680 41 680 L41 680 Z M175 680 C175 680 176 680 176 680 C176 680 176 680 175 680 L175 680 Z " />
<glyph glyph-name="LETTERSMALLCAPITALA" unicode="&#x1d00;" horiz-adv-x="462" d="M455 11 C455 11 447 11 447 11 C425 11 401 38 391 72 C391 72 233 707 233 707 C233 707 228 707 228 707 C228 707 75 64 75 64 C64 34 38 11 14 11 C14 11 6 11 6 11 C6 11 6 0 6 0 C6 0 60 0 60 0 C60 0 64 0 64 0 C64 0 67 0 67 0 C67 0 151 0 151 0 C151 0 151 11 151 11 C151 11 139 11 139 11 C101 11 78 47 89 91 C89 91 88 91 88 91 C88 91 124 241 124 241 C124 241 329 241 329 241 C329 241 370 72 370 72 C375 38 354 11 319 11 C319 11 305 11 305 11 C305 11 305 0 305 0 C305 0 387 0 387 0 C387 0 398 0 398 0 C398 0 409 0 409 0 C409 0 455 0 455 0 C455 0 455 11 455 11 L455 11 Z M328 246 C328 246 125 246 125 246 C125 246 225 675 225 675 C225 675 328 246 328 246 L328 246 Z " />
<glyph glyph-name="LETTERSMALLCAPITALC" unicode="&#x1d04;" horiz-adv-x="622" d="M563 532 C563 532 563 632 563 632 C501 668 406 696 348 696 C195 696 72 540 72 346 C72 151 195 -5 348 -5 C406 -5 501 23 563 59 C563 59 563 159 563 159 C563 159 553 159 553 159 C550 151 546 138 543 130 C521 66 447 11 372 1 C364 0 356 0 348 0 C207 0 94 154 94 346 C94 537 207 691 348 691 C363 691 380 689 398 686 C460 672 524 618 543 561 C546 553 550 540 553 532 C553 532 563 532 563 532 L563 532 Z " />
<glyph glyph-name="LETTERSMALLCAPITALD" unicode="&#x1d05;" horiz-adv-x="542" d="M60 680 C60 680 69 680 69 680 C95 679 117 651 117 615 C117 615 117 76 117 76 C117 40 95 11 69 11 C69 11 60 11 60 11 C60 11 60 0 60 0 C60 0 117 0 117 0 C117 0 127 0 127 0 C127 0 137 0 137 0 C137 0 230 0 230 0 C376 0 493 154 493 346 C493 537 366 691 207 691 C207 691 137 691 137 691 C137 691 127 691 127 691 C127 691 117 691 117 691 C117 691 60 691 60 691 C60 691 60 680 60 680 L60 680 Z M137 5 C137 5 137 686 137 686 C137 686 207 686 207 686 C355 686 473 535 473 346 C473 156 365 5 230 5 C230 5 137 5 137 5 L137 5 Z " />
<glyph glyph-name="LETTERSMALLCAPITALE" unicode="&#x1d07;" horiz-adv-x="432" d="M270 288 C270 288 270 353 270 353 C270 353 270 355 270 355 C270 355 270 358 270 358 C270 358 270 415 270 415 C270 416 269 416 268 415 C264 416 260 416 260 415 C260 415 258 407 258 407 C250 380 205 358 158 358 C158 358 118 358 118 358 C118 358 118 686 118 686 C118 686 185 686 185 686 C241 686 298 647 314 598 C314 598 319 583 319 583 C319 583 327 583 327 583 C327 583 327 689 327 689 C327 689 327 691 327 691 C327 691 325 691 325 691 C325 691 251 691 251 691 C251 691 118 691 118 691 C118 691 108 691 108 691 C108 691 98 691 98 691 C98 691 41 691 41 691 C41 691 41 680 41 680 C41 680 49 680 49 680 C76 679 98 651 98 615 C98 615 98 76 98 76 C98 40 76 11 49 11 C49 11 41 11 41 11 C41 11 41 0 41 0 C41 0 98 0 98 0 C98 0 108 0 108 0 C108 0 118 0 118 0 C118 0 259 0 259 0 C259 0 335 0 335 0 C336 1 336 2 336 3 C341 32 349 79 354 108 C354 108 346 108 346 108 C346 108 338 93 338 93 C314 44 250 5 194 5 C194 5 118 5 118 5 C118 5 118 353 118 353 C118 353 158 353 158 353 C205 353 250 328 258 298 C258 298 260 288 260 288 C260 288 270 288 270 288 L270 288 Z " />
<glyph glyph-name="LETTERSMALLCAPITALJ" unicode="&#x1d0a;" horiz-adv-x="225" d="M186 691 C186 691 128 691 128 691 C128 691 118 691 118 691 C118 691 108 691 108 691 C108 691 51 691 51 691 C51 691 51 680 51 680 C51 680 59 680 59 680 C86 679 108 651 108 615 C108 615 108 209 108 209 C108 66 89 -6 52 -6 C40 -6 25 19 17 50 C16 54 12 58 8 58 C2 58 -1 54 0 50 C8 17 29 -10 47 -10 C101 -10 128 69 128 226 C128 226 128 615 128 615 C128 651 150 679 177 680 C177 680 186 680 186 680 C186 680 186 691 186 691 L186 691 Z " />
<glyph glyph-name="LETTERSMALLCAPITALK" unicode="&#x1d0b;" horiz-adv-x="500" d="M337 680 C337 680 344 680 344 680 C367 679 362 651 333 615 C333 615 334 615 334 615 C334 615 137 372 137 372 C137 372 137 615 137 615 C138 651 159 679 186 680 C186 680 195 680 195 680 C195 680 195 691 195 691 C195 691 137 691 137 691 C137 691 127 691 127 691 C127 691 117 691 117 691 C117 691 60 691 60 691 C60 691 60 680 60 680 C60 680 69 680 69 680 C95 679 117 651 117 615 C117 615 117 76 117 76 C117 40 95 11 69 11 C69 11 60 11 60 11 C60 11 60 0 60 0 C60 0 117 0 117 0 C117 0 127 0 127 0 C127 0 137 0 137 0 C137 0 195 0 195 0 C195 0 195 11 195 11 C195 11 186 11 186 11 C159 11 138 40 137 76 C137 76 137 372 137 372 C137 372 280 194 280 194 C387 61 454 -5 480 -5 C480 -5 491 -5 491 -5 C491 -5 491 -1 491 -1 C491 -1 486 -1 486 -1 C471 -1 406 69 293 210 C293 210 153 383 153 383 C153 383 350 628 350 628 C378 658 415 679 439 680 C439 680 448 680 448 680 C448 680 448 691 448 691 C448 691 400 691 400 691 C400 691 397 691 397 691 C397 691 395 691 395 691 C395 691 337 691 337 691 C337 691 337 680 337 680 L337 680 Z " />
<glyph glyph-name="LETTERSMALLCAPITALM" unicode="&#x1d0d;" horiz-adv-x="648" d="M610 691 C610 691 553 691 553 691 C553 691 544 691 544 691 C544 691 542 691 542 691 C542 691 535 691 535 691 C535 691 340 24 340 24 C340 24 137 691 137 691 C137 691 128 691 128 691 C128 691 125 691 125 691 C125 691 122 691 122 691 C122 691 64 691 64 691 C64 691 64 680 64 680 C64 680 73 680 73 680 C100 679 120 651 119 615 C119 615 119 615 119 615 C119 615 100 71 100 71 C96 37 74 11 48 11 C48 11 40 11 40 11 C40 11 40 0 40 0 C40 0 97 0 97 0 C97 0 100 0 100 0 C100 0 103 0 103 0 C103 0 187 0 187 0 C187 0 187 11 187 11 C187 11 175 11 175 11 C137 11 108 43 106 83 C106 83 127 661 127 661 C127 661 327 8 327 8 C327 8 331 -5 331 -5 C331 -5 336 -5 336 -5 C336 -5 536 670 536 670 C536 670 560 71 560 71 C560 37 540 11 514 11 C514 11 506 11 506 11 C506 11 506 0 506 0 C506 0 563 0 563 0 C563 0 573 0 573 0 C573 0 583 0 583 0 C583 0 640 0 640 0 C640 0 640 11 640 11 C640 11 632 11 632 11 C605 11 582 40 580 76 C580 76 580 76 580 76 C580 76 556 621 556 621 C557 654 577 679 602 680 C602 680 610 680 610 680 C610 680 610 691 610 691 L610 691 Z M340 24 C340 24 340 25 340 25 C340 25 340 23 340 23 C340 23 340 24 340 24 L340 24 Z " />
<glyph glyph-name="LETTERSMALLCAPITALO" unicode="&#x1d0f;" horiz-adv-x="654" d="M338 0 C189 0 94 173 94 346 C94 518 189 691 338 691 C487 691 582 518 582 346 C582 173 487 0 338 0 L338 0 Z M72 346 C72 170 175 -5 338 -5 C501 -5 604 170 604 346 C604 521 501 696 338 696 C175 696 72 521 72 346 L72 346 Z " />
<glyph glyph-name="LETTERSMALLCAPITALP" unicode="&#x1d18;" horiz-adv-x="428" d="M60 680 C60 680 69 680 69 680 C95 679 117 651 117 615 C117 615 117 76 117 76 C117 40 95 11 69 11 C69 11 60 11 60 11 C60 11 60 0 60 0 C60 0 117 0 117 0 C117 0 127 0 127 0 C127 0 137 0 137 0 C137 0 195 0 195 0 C195 0 195 11 195 11 C195 11 186 11 186 11 C159 11 138 40 137 76 C137 76 137 303 137 303 C137 303 207 303 207 303 C319 303 409 388 409 494 C409 604 327 691 224 691 C224 691 137 691 137 691 C137 691 127 691 127 691 C127 691 117 691 117 691 C117 691 60 691 60 691 C60 691 60 680 60 680 L60 680 Z M137 308 C137 308 137 686 137 686 C137 686 224 686 224 686 C315 686 388 601 388 494 C388 391 307 308 207 308 C207 308 137 308 137 308 L137 308 Z " />
<glyph glyph-name="LETTERSMALLCAPITALT" unicode="&#x1d1b;" horiz-adv-x="515" d="M491 571 C488 604 483 656 480 689 C480 689 480 691 480 691 C480 691 475 691 475 691 C475 691 404 691 404 691 C404 691 112 691 112 691 C112 691 40 691 40 691 C40 691 35 691 35 691 C35 691 35 689 35 689 C32 656 28 604 25 571 C25 571 34 571 34 571 C34 571 48 606 48 606 C66 650 116 686 160 686 C160 686 248 686 248 686 C248 686 248 76 248 76 C248 40 226 11 199 11 C199 11 190 11 190 11 C190 11 190 0 190 0 C190 0 248 0 248 0 C248 0 258 0 258 0 C258 0 268 0 268 0 C268 0 325 0 325 0 C325 0 325 11 325 11 C325 11 317 11 317 11 C290 11 269 38 268 71 C268 71 268 76 268 76 C268 76 268 686 268 686 C268 686 355 686 355 686 C400 686 450 650 467 606 C467 606 482 571 482 571 C482 571 491 571 491 571 L491 571 Z " />
<glyph glyph-name="LETTERSMALLCAPITALU" unicode="&#x1d1c;" horiz-adv-x="551" d="M391 680 C391 680 402 680 402 680 C434 679 460 646 460 605 C460 605 460 181 460 181 C460 82 404 2 293 2 C183 2 128 93 128 207 C128 207 127 618 127 618 C129 653 150 679 176 680 C176 680 185 680 185 680 C185 680 185 691 185 691 C185 691 127 691 127 691 C127 691 117 691 117 691 C117 691 107 691 107 691 C107 691 50 691 50 691 C50 691 50 680 50 680 C50 680 59 680 59 680 C85 679 107 651 107 615 C107 615 107 211 107 211 C107 91 168 -5 290 -5 C407 -5 466 77 466 180 C466 180 466 605 466 605 C467 646 491 679 522 680 C522 680 531 680 531 680 C532 679 532 682 531 685 C532 689 532 691 531 691 C531 691 466 691 466 691 C466 691 463 691 463 691 C463 691 460 691 460 691 C460 691 391 691 391 691 C391 691 391 680 391 680 L391 680 Z " />
<glyph glyph-name="LETTERSMALLCAPITALV" unicode="&#x1d20;" horiz-adv-x="467" d="M468 691 C468 691 413 691 413 691 C413 691 410 691 410 691 C410 691 407 691 407 691 C407 691 315 691 315 691 C315 691 315 680 315 680 C315 680 328 680 328 680 C370 679 395 637 384 585 C384 585 385 585 385 585 C385 585 258 -15 258 -15 C258 -15 263 -15 263 -15 C263 -15 399 626 399 626 C410 657 435 679 459 680 C459 680 468 680 468 680 C468 680 468 691 468 691 L468 691 Z M22 680 C22 680 29 680 29 680 C49 679 73 654 84 621 C84 621 258 -15 258 -15 C258 -15 264 15 264 15 C264 15 107 615 107 615 C107 615 107 615 107 615 C97 651 118 679 152 680 C152 680 163 680 163 680 C164 679 164 682 163 685 C164 689 164 691 163 691 C163 691 87 691 87 691 C87 691 76 691 76 691 C76 691 65 691 65 691 C65 691 22 691 22 691 C22 691 22 680 22 680 L22 680 Z " />
<glyph glyph-name="LETTERSMALLCAPITALW" unicode="&#x1d21;" horiz-adv-x="643" d="M640 691 C640 691 585 691 585 691 C585 691 582 691 582 691 C582 691 579 691 579 691 C579 691 498 691 498 691 C498 691 498 680 498 680 C498 680 512 680 512 680 C548 679 571 651 564 615 C564 615 564 615 564 615 C564 615 451 20 451 20 C451 20 320 701 320 701 C320 701 315 701 315 701 C315 701 191 -15 191 -15 C191 -15 196 -15 196 -15 C196 -15 320 701 320 701 C320 701 314 665 314 665 C314 665 444 -15 444 -15 C444 -15 449 -15 449 -15 C449 -15 572 623 572 623 C581 655 606 679 631 680 C631 680 640 680 640 680 C640 680 640 691 640 691 L640 691 Z M134 691 C134 691 65 691 65 691 C65 691 54 691 54 691 C54 691 43 691 43 691 C43 691 0 691 0 691 C0 691 0 680 0 680 C0 680 7 680 7 680 C27 679 49 654 58 621 C58 621 191 -15 191 -15 C191 -15 196 17 196 17 C196 17 80 615 80 615 C80 615 80 615 80 615 C73 651 93 679 124 680 C124 680 134 680 134 680 C134 680 134 691 134 691 L134 691 Z " />
<glyph glyph-name="LETTERSMALLCAPITALZ" unicode="&#x1d22;" horiz-adv-x="482" d="M420 3 C425 34 434 83 440 114 C440 114 439 115 437 115 C431 118 426 120 426 120 C426 120 416 95 416 95 C395 45 339 5 288 5 C288 5 87 5 87 5 C87 5 424 691 424 691 C424 691 413 691 413 691 C413 691 402 691 402 691 C402 691 214 691 214 691 C214 691 142 691 142 691 C142 691 138 691 138 691 C138 691 137 690 137 689 C130 662 119 620 112 594 C112 594 121 594 121 594 C121 594 130 608 130 608 C159 651 217 686 262 686 C262 686 400 686 400 686 C400 686 62 0 62 0 C62 0 74 0 74 0 C74 0 85 0 85 0 C85 0 343 0 343 0 C343 0 419 0 419 0 C420 1 420 2 420 3 L420 3 Z " />
<glyph glyph-name="Wgrave" unicode="&#x1e80;" horiz-adv-x="727" d="M724 798 C724 798 669 798 669 798 C669 798 666 798 666 798 C666 798 662 798 662 798 C662 798 582 798 582 798 C582 798 582 786 582 786 C582 786 595 786 595 786 C628 786 651 763 649 731 C649 731 515 26 515 26 C515 26 363 808 363 808 C363 808 358 808 358 808 C358 808 219 24 219 24 C219 24 83 722 83 722 C77 759 95 786 127 786 C127 786 137 786 137 786 C136 786 136 789 137 792 C136 795 136 798 137 798 C137 798 68 798 68 798 C68 798 55 798 55 798 C55 798 43 798 43 798 C43 798 0 798 0 798 C-1 798 -1 795 0 792 C-1 789 -1 786 0 786 C0 786 6 786 6 786 C28 786 51 758 59 721 C59 721 59 721 59 721 C59 721 212 -15 212 -15 C212 -15 218 -15 218 -15 C218 -15 363 808 363 808 C363 808 356 764 356 764 C356 764 507 -15 507 -15 C507 -15 513 -15 513 -15 C513 -15 655 726 655 726 C664 760 690 786 716 786 C716 786 724 786 724 786 C724 786 724 798 724 798 L724 798 Z M335 969 C312 1001 292 1027 290 1027 C287 1027 279 1021 279 1019 C279 1016 300 991 325 961 C325 961 435 829 435 829 C435 829 437 831 437 831 C437 831 335 969 335 969 L335 969 Z " />
<glyph glyph-name="Wacute" unicode="&#x1e82;" horiz-adv-x="727" d="M297 829 C297 829 404 961 404 961 C429 992 449 1018 449 1019 C449 1021 441 1027 438 1027 C437 1027 418 1001 394 969 C394 969 295 831 295 831 C295 831 297 829 297 829 L297 829 Z M724 798 C724 798 669 798 669 798 C669 798 666 798 666 798 C666 798 662 798 662 798 C662 798 582 798 582 798 C582 798 582 786 582 786 C582 786 595 786 595 786 C628 786 651 763 649 731 C649 731 515 26 515 26 C515 26 363 808 363 808 C363 808 358 808 358 808 C358 808 219 24 219 24 C219 24 83 722 83 722 C77 759 95 786 127 786 C127 786 137 786 137 786 C136 786 136 789 137 792 C136 795 136 798 137 798 C137 798 68 798 68 798 C68 798 55 798 55 798 C55 798 43 798 43 798 C43 798 0 798 0 798 C-1 798 -1 795 0 792 C-1 789 -1 786 0 786 C0 786 6 786 6 786 C28 786 51 758 59 721 C59 721 59 721 59 721 C59 721 212 -15 212 -15 C212 -15 218 -15 218 -15 C218 -15 363 808 363 808 C363 808 356 764 356 764 C356 764 507 -15 507 -15 C507 -15 513 -15 513 -15 C513 -15 655 726 655 726 C664 760 690 786 716 786 C716 786 724 786 724 786 C724 786 724 798 724 798 L724 798 Z " />
<glyph glyph-name="Wdieresis" unicode="&#x1e84;" horiz-adv-x="727" d="M443 868 C454 868 463 877 463 888 C463 899 454 908 443 908 C432 908 423 899 423 888 C423 877 432 868 443 868 L443 868 Z M278 868 C289 868 298 877 298 888 C298 899 289 908 278 908 C267 908 258 899 258 888 C258 877 267 868 278 868 L278 868 Z M724 798 C724 798 669 798 669 798 C669 798 666 798 666 798 C666 798 662 798 662 798 C662 798 582 798 582 798 C582 798 582 786 582 786 C582 786 595 786 595 786 C628 786 651 763 649 731 C649 731 515 26 515 26 C515 26 363 808 363 808 C363 808 358 808 358 808 C358 808 219 24 219 24 C219 24 83 722 83 722 C77 759 95 786 127 786 C127 786 137 786 137 786 C136 786 136 789 137 792 C136 795 136 798 137 798 C137 798 68 798 68 798 C68 798 55 798 55 798 C55 798 43 798 43 798 C43 798 0 798 0 798 C-1 798 -1 795 0 792 C-1 789 -1 786 0 786 C0 786 6 786 6 786 C28 786 51 758 59 721 C59 721 59 721 59 721 C59 721 212 -15 212 -15 C212 -15 218 -15 218 -15 C218 -15 363 808 363 808 C363 808 356 764 356 764 C356 764 507 -15 507 -15 C507 -15 513 -15 513 -15 C513 -15 655 726 655 726 C664 760 690 786 716 786 C716 786 724 786 724 786 C724 786 724 798 724 798 L724 798 Z " />
<glyph glyph-name="CapitalLetterEWITHTI" unicode="&#x1ebc;" horiz-adv-x="464" d="M129 893 C129 932 143 964 161 964 C205 964 244 902 288 902 C311 902 329 935 329 975 C329 975 326 975 326 975 C326 942 311 915 292 915 C248 915 209 978 165 978 C143 978 125 940 125 893 C125 893 129 893 129 893 L129 893 Z M302 342 C302 342 302 407 302 407 C302 407 302 410 302 410 C302 410 302 413 302 413 C302 413 302 471 302 471 C302 470 301 470 300 471 C296 470 293 470 293 471 C293 471 290 462 290 462 C282 435 237 413 190 413 C190 413 120 413 120 413 C120 413 120 792 120 792 C120 792 218 792 218 792 C273 792 330 753 346 704 C346 704 351 689 351 689 C351 689 360 689 360 689 C360 689 360 795 360 795 C360 795 360 798 360 798 C360 798 357 798 357 798 C357 798 283 798 283 798 C283 798 120 798 120 798 C120 798 109 798 109 798 C109 798 97 798 97 798 C97 798 40 798 40 798 C40 798 40 786 40 786 C40 786 49 786 49 786 C75 786 97 758 97 721 C97 721 97 76 97 76 C97 40 75 11 49 11 C49 11 40 11 40 11 C40 11 40 0 40 0 C40 0 97 0 97 0 C97 0 109 0 109 0 C109 0 120 0 120 0 C120 0 291 0 291 0 C291 0 367 0 367 0 C367 0 368 0 368 0 C368 0 368 3 368 3 C373 32 382 80 387 109 C387 109 379 109 379 109 C379 109 371 94 371 94 C347 45 285 7 231 6 C231 6 227 6 227 6 C227 6 120 6 120 6 C120 6 120 407 120 407 C120 407 190 407 190 407 C237 407 282 383 290 352 C290 352 293 342 293 342 C293 342 302 342 302 342 L302 342 Z " />
<glyph glyph-name="Ygrave" unicode="&#x1ef2;" horiz-adv-x="482" d="M322 11 C322 11 314 11 314 11 C286 11 265 40 265 76 C265 76 265 315 265 315 C265 315 411 721 411 721 C411 721 412 721 412 721 C425 758 454 786 478 786 C478 786 485 786 485 786 C485 786 485 798 485 798 C485 798 439 798 439 798 C439 798 436 798 436 798 C436 798 433 798 433 798 C433 798 348 798 348 798 C348 798 348 786 348 786 C348 786 360 786 360 786 C398 786 415 749 398 701 C398 701 398 701 398 701 C398 701 259 315 259 315 C259 315 259 315 259 315 C259 315 118 726 118 726 C109 761 124 786 154 786 C154 786 163 786 163 786 C163 786 163 798 163 798 C163 798 94 798 94 798 C94 798 81 798 81 798 C81 798 68 798 68 798 C68 798 30 798 30 798 C30 798 30 786 30 786 C30 786 36 786 36 786 C55 786 81 759 94 724 C94 724 242 301 242 301 C242 301 242 76 242 76 C242 40 220 11 194 11 C194 11 185 11 185 11 C185 11 185 0 185 0 C185 0 242 0 242 0 C242 0 254 0 254 0 C254 0 265 0 265 0 C265 0 322 0 322 0 C322 0 322 11 322 11 L322 11 Z M228 969 C205 1001 185 1027 183 1027 C180 1027 172 1021 172 1019 C172 1016 193 991 218 961 C218 961 328 829 328 829 C328 829 330 831 330 831 C330 831 228 969 228 969 L228 969 Z " />
<glyph glyph-name="quoteleft" unicode="&#x2018;" horiz-adv-x="150" d="M19 717 C19 717 34 731 34 731 C41 724 48 720 53 720 C47 704 34 702 19 717 L19 717 Z M79 741 C76 741 73 740 70 739 C71 744 72 751 72 759 C72 776 81 795 92 800 C92 800 91 804 91 804 C72 795 57 769 57 746 C57 735 56 726 53 720 C56 720 58 721 60 722 C60 712 68 703 79 703 C89 703 98 712 98 722 C98 733 89 741 79 741 L79 741 Z " />
</font>
</svg>
