<?xml version="1.0" encoding="UTF-8"?>
<svg xmlns="http://www.w3.org/2000/svg" xmlns:xlink="http://www.w3.org/1999/xlink" version="1.2" >
<font id="Wacian Bold">
<font-face  font-family="Wacian" units-per-em="1024" ascent="936" descent="-280" font-style="normal" font-weight="700" font-stretch="normal" cap-height="929" x-height="468" underline-position="-125" underline-thickness="50" />
<missing-glyph  horiz-adv-x="100" d="" />
<glyph glyph-name="NULL" d="" />
<glyph glyph-name="CR" unicode="&#xd;" horiz-adv-x="256" d="" />
<glyph glyph-name="space" unicode="&#x20;" horiz-adv-x="250" d="" />
<glyph glyph-name="exclam" unicode="&#x21;" horiz-adv-x="265" d="M143 -5 C191 -5 223 27 223 75 C223 123 191 155 143 155 C95 155 63 123 63 75 C63 27 95 -5 143 -5 L143 -5 Z M205 583 C213 632 185 665 135 665 C83 665 55 632 65 583 C65 477 135 230 135 230 L151 230 C151 230 205 477 205 583 L205 583 Z " />
<glyph glyph-name="quotedbl" unicode="&#x22;" horiz-adv-x="403" d="M216 660 L280 400 L299 400 L363 660 L216 660 L216 660 Z M39 660 L103 400 L122 400 L186 660 L39 660 L39 660 Z " />
<glyph glyph-name="numbersign" unicode="&#x23;" horiz-adv-x="554" d="M390 656 L367 504 L236 504 L259 656 L215 656 L192 504 L71 504 L59 416 L178 416 L152 244 L28 244 L16 156 L139 156 L115 0 L159 0 L183 156 L314 156 L290 0 L334 0 L358 156 L473 156 L485 244 L371 244 L397 416 L521 416 L534 504 L411 504 L434 656 L390 656 L390 656 Z M222 416 L353 416 L327 244 L196 244 L222 416 L222 416 Z " />
<glyph glyph-name="dollar" unicode="&#x24;" horiz-adv-x="514" d="M275 735 L275 665 C261 666 247 666 233 665 L233 736 L195 736 L195 659 C99 636 39 562 39 460 C39 385 101 314 195 282 L195 32 C191 33 187 34 183 35 C116 49 62 104 47 173 C45 183 42 195 40 205 L39 205 L39 41 C76 20 134 4 195 -2 L195 -74 L233 -74 L233 -4 C247 -4 261 -4 274 -3 L274 -74 L312 -74 L312 3 C408 25 468 95 468 190 C468 268 406 341 312 376 L312 623 C313 623 328 618 328 618 C368 603 400 564 409 522 C413 503 419 477 423 458 L424 458 L424 622 C392 640 351 654 312 661 L312 736 L275 735 L275 735 Z M232 408 L232 634 C247 636 260 636 275 633 L275 390 C260 396 246 402 233 408 L232 408 L232 408 Z M195 429 C152 456 127 486 127 513 C127 566 153 606 195 625 L195 429 L195 429 Z M233 271 C248 265 262 259 275 252 L275 32 C262 30 248 29 233 30 L233 271 L233 271 Z M313 230 C354 202 378 170 378 140 C378 95 354 60 313 42 L313 230 L313 230 Z " />
<glyph glyph-name="percent" unicode="&#x25;" horiz-adv-x="806" d="M143 552 C143 635 154 691 171 691 C208 691 233 617 233 506 C233 432 219 383 197 383 C165 383 143 451 143 552 L143 552 Z M31 530 C31 419 93 345 187 345 C279 345 341 425 341 545 C341 653 279 725 187 725 C93 725 31 647 31 530 L31 530 Z M574 200 C574 285 588 341 610 341 C656 341 686 266 686 154 C686 81 666 32 636 32 C599 32 574 99 574 200 L574 200 Z M461 178 C461 68 527 -5 626 -5 C727 -5 794 75 794 194 C794 303 727 375 626 375 C527 375 461 296 461 178 L461 178 Z M212 -16 L677 704 L626 736 L161 16 L212 -16 L212 -16 Z " />
<glyph glyph-name="ampersand" unicode="&#x26;" horiz-adv-x="730" d="M321 379 C409 406 466 471 466 548 C466 618 404 664 311 664 C218 664 156 597 156 496 C156 458 176 408 211 351 C113 304 51 230 51 153 C51 58 133 -6 255 -6 C345 -6 420 14 473 49 C567 -18 643 -17 730 -2 L730 17 C685 9 639 17 538 118 C550 141 556 167 556 195 L556 225 C556 264 582 292 620 295 L631 296 L631 297 L456 297 L456 296 L467 295 C505 292 531 264 531 225 L531 195 C531 174 526 155 517 138 C460 198 369 306 320 377 L321 379 L321 379 Z M242 546 C242 601 266 638 301 638 C345 638 375 599 375 540 C375 474 349 421 307 396 C266 458 242 510 242 546 L242 546 Z M444 69 C410 53 367 44 318 44 C223 44 159 105 159 196 C159 247 184 294 225 326 C276 248 373 128 444 70 L444 69 L444 69 Z " />
<glyph glyph-name="quotesingle" unicode="&#x27;" horiz-adv-x="226" d="M39 660 L103 400 L122 400 L186 660 L39 660 L39 660 Z " />
<glyph glyph-name="parenleft" unicode="&#x28;" horiz-adv-x="279" d="M257 690 C138 603 59 485 59 270 C59 55 138 -63 257 -150 L269 -135 C197 -82 149 22 149 270 C149 518 197 622 269 675 L257 690 L257 690 Z " />
<glyph glyph-name="parenright" unicode="&#x29;" horiz-adv-x="279" d="M10 -150 C129 -63 208 55 208 270 C208 485 129 603 10 690 L-2 675 C70 622 118 518 118 270 C118 22 70 -82 -2 -135 L10 -150 L10 -150 Z " />
<glyph glyph-name="asterisk" unicode="&#x2a;" horiz-adv-x="300" d="M271 570 C293 575 298 594 284 618 C271 641 252 646 236 630 L156 550 L185 660 C191 681 177 695 150 695 C123 695 109 681 115 660 L144 551 L64 630 C48 646 29 641 16 618 C2 594 7 575 29 570 L138 540 L29 510 C7 505 2 486 16 463 C29 439 48 434 64 450 L144 529 L115 420 C109 399 123 385 150 385 C177 385 191 399 185 420 L156 530 L236 450 C252 434 271 439 284 463 C298 486 293 505 271 510 L163 540 L271 570 L271 570 Z " />
<glyph glyph-name="plus" unicode="&#x2b;" horiz-adv-x="555" d="M247 450 L247 276 L75 276 L75 224 L247 224 L247 50 L303 50 L303 224 L475 224 L475 276 L303 276 L303 450 L247 450 L247 450 Z " />
<glyph glyph-name="comma" unicode="&#x2c;" horiz-adv-x="283" d="M139 154 C92 154 60 122 60 74 C60 27 92 -5 139 -5 C147 -5 156 3 165 14 C167 5 168 -4 168 -13 C168 -81 136 -138 89 -156 L89 -174 C176 -141 234 -55 234 42 C234 97 200 154 140 154 L139 154 L139 154 Z " />
<glyph glyph-name="hyphen" unicode="&#x2d;" horiz-adv-x="280" d="M20 190 L260 190 L260 280 L20 280 L20 190 L20 190 Z " />
<glyph glyph-name="period" unicode="&#x2e;" horiz-adv-x="265" d="M125 -5 C173 -5 205 27 205 75 C205 123 173 155 125 155 C77 155 45 123 45 75 C45 27 77 -5 125 -5 L125 -5 Z " />
<glyph glyph-name="slash" unicode="&#x2f;" horiz-adv-x="361" d="M0 -145 L51 -145 L361 710 L310 710 L0 -145 L0 -145 Z " />
<glyph glyph-name="zero" unicode="0" horiz-adv-x="617" d="M178 250 C178 387 230 479 309 479 C387 479 439 387 439 250 C439 113 387 21 309 21 C230 21 178 113 178 250 L178 250 Z M50 250 C50 97 154 -5 309 -5 C464 -5 567 97 567 250 C567 403 464 505 309 505 C154 505 50 403 50 250 L50 250 Z " />
<glyph glyph-name="one" unicode="1" horiz-adv-x="375" d="M320 0 L320 1 L309 2 C271 5 245 33 245 72 L245 428 C245 467 271 495 309 498 L320 499 L320 500 L55 500 L55 499 L66 498 C104 495 130 467 130 428 L130 72 C130 33 104 5 66 2 L55 1 L55 0 L320 0 L320 0 Z " />
<glyph glyph-name="two" unicode="2" horiz-adv-x="487" d="M450 61 L455 115 C455 115 462 187 462 190 L461 190 L459 179 C452 141 422 115 383 115 L206 115 C352 208 442 274 442 355 C442 445 375 505 274 505 C186 505 104 447 69 359 L84 350 C101 392 154 420 217 420 C275 420 314 378 314 316 C314 181 198 139 25 26 L25 0 L445 0 L450 57 C450 58 450 59 450 60 L450 61 L450 61 Z " />
<glyph glyph-name="three" unicode="3" horiz-adv-x="471" d="M149 164 C240 164 300 112 300 35 C300 -95 189 -187 23 -196 L24 -215 C262 -203 421 -100 421 41 C421 130 350 193 240 207 C334 256 391 316 391 372 C391 451 330 504 238 504 C155 504 63 450 8 368 L21 358 C46 395 109 420 179 420 C237 420 275 386 275 335 C275 278 225 221 145 186 C133 181 119 176 103 170 L103 151 C115 155 137 163 149 163 L149 164 L149 164 Z " />
<glyph glyph-name="four" unicode="4" horiz-adv-x="491" d="M4 20 L4 0 L256 0 L256 -150 L371 -150 L371 0 L481 0 L481 51 L371 51 L371 505 L352 505 C344 500 4 20 4 20 L4 20 Z M68 51 C113 114 191 224 257 315 C257 314 257 313 257 312 L257 52 L68 51 L68 51 Z " />
<glyph glyph-name="five" unicode="5" horiz-adv-x="457" d="M64 173 L93 173 C93 173 94 182 96 198 C95 184 94 174 93 174 L107 174 C217 174 291 124 291 48 C291 -71 187 -154 30 -159 L31 -181 C257 -173 407 -66 407 86 C407 207 311 287 166 287 L105 287 C108 316 111 348 113 379 L355 379 L383 465 C395 501 408 542 418 575 L417 575 L413 564 C397 526 361 500 322 500 L84 500 C84 402 64 173 64 173 L64 173 Z " />
<glyph glyph-name="six" unicode="6" horiz-adv-x="569" d="M489 715 C227 706 53 537 53 293 C53 114 143 -5 278 -5 C430 -5 526 84 519 217 C519 346 439 432 318 432 C251 432 210 401 186 349 C192 552 312 690 489 696 L489 715 L489 715 Z M298 400 C357 400 397 324 397 210 C403 100 360 27 289 27 C226 27 184 89 184 183 C185 313 212 400 298 400 L298 400 Z " />
<glyph glyph-name="seven" unicode="7" horiz-adv-x="444" d="M20 382 C18 356 15 329 13 307 L14 307 L16 318 C23 356 53 382 92 382 L382 382 L113 -140 L241 -140 C305 70 369 280 434 489 L425 500 L30 500 L20 382 L20 382 Z " />
<glyph glyph-name="eight" unicode="8" horiz-adv-x="540" d="M352 359 C417 390 457 449 457 520 C457 607 381 665 268 665 C153 665 77 595 77 489 C77 425 111 364 167 321 C94 296 49 238 49 161 C49 62 137 -4 270 -4 C402 -4 490 70 490 181 C490 246 437 313 352 360 L352 359 L352 359 Z M329 372 C315 379 300 385 284 391 C218 415 174 473 174 535 C174 599 209 641 262 641 C323 641 363 585 363 502 C363 445 351 399 330 372 L329 372 L329 372 Z M158 180 C158 234 172 277 196 303 C211 294 227 286 244 280 C327 250 383 194 383 142 C383 69 341 21 277 21 C206 21 158 85 158 180 L158 180 Z " />
<glyph glyph-name="nine" unicode="9" horiz-adv-x="569" d="M80 -215 C342 -206 516 -37 516 207 C516 386 426 505 291 505 C139 505 43 416 50 283 C50 154 130 68 251 68 C318 68 359 99 383 151 C377 -52 257 -190 80 -196 L80 -215 L80 -215 Z M271 100 C212 100 172 176 172 290 C166 400 209 473 280 473 C343 473 385 411 385 317 C384 187 357 100 271 100 L271 100 Z " />
<glyph glyph-name="colon" unicode="&#x3a;" horiz-adv-x="265" d="M125 408 C173 408 205 440 205 488 C205 536 173 568 125 568 C77 568 45 536 45 488 C45 440 77 408 125 408 L125 408 Z M125 -5 C173 -5 205 27 205 75 C205 123 173 155 125 155 C77 155 45 123 45 75 C45 27 77 -5 125 -5 L125 -5 Z " />
<glyph glyph-name="semicolon" unicode="&#x3b;" horiz-adv-x="283" d="M139 411 C186 411 218 443 218 490 C218 538 186 570 139 570 C92 570 60 538 60 490 C60 443 92 411 139 411 L139 411 Z M139 154 C92 154 60 122 60 74 C60 27 92 -5 139 -5 C147 -5 156 3 165 14 C167 5 168 -4 168 -13 C168 -81 136 -138 89 -156 L89 -174 C176 -141 234 -55 234 42 C234 97 200 154 140 154 L139 154 L139 154 Z " />
<glyph glyph-name="less" unicode="&#x3c;" horiz-adv-x="540" d="M465 500 L50 309 C46 307 43 306 40 304 L40 247 L50 242 L465 50 L465 108 L89 276 L465 444 L465 500 L465 500 Z " />
<glyph glyph-name="equal" unicode="&#x3d;" horiz-adv-x="538" d="M88 226 L88 174 L468 174 L468 226 L88 226 L88 226 Z M88 326 L88 274 L468 274 L468 326 L88 326 L88 326 Z " />
<glyph glyph-name="greater" unicode="&#x3e;" horiz-adv-x="530" d="M490 248 L490 303 C485 305 481 307 477 309 L75 500 L75 443 L439 276 L75 109 L75 51 C213 117 350 185 489 249 L490 248 L490 248 Z " />
<glyph glyph-name="question" unicode="&#x3f;" horiz-adv-x="373" d="M139 -5 C187 -5 219 27 219 75 C219 123 187 155 139 155 C91 155 59 123 59 75 C59 27 91 -5 139 -5 L139 -5 Z M158 290 L193 290 C315 290 338 371 338 416 C338 565 250 665 119 665 C69 665 36 636 36 592 C36 562 56 542 85 542 C106 542 134 575 155 575 C249 575 311 517 311 429 C311 410 286 377 154 377 L119 377 C109 377 104 370 106 360 L132 235 L147 235 L158 290 L158 290 Z " />
<glyph glyph-name="at" unicode="&#x40;" horiz-adv-x="1178" d="M1039 0 C974 -140 803 -234 612 -234 C332 -234 145 -37 145 259 C145 555 323 752 589 752 C856 752 1034 588 1034 343 C1034 143 964 10 859 10 C785 10 755 86 783 200 L853 480 L744 480 L727 413 C707 461 659 490 594 490 C407 490 282 369 282 188 C282 78 354 4 463 4 C550 4 624 41 667 101 C679 19 740 -31 838 -31 C1009 -31 1123 118 1123 342 C1123 607 909 783 589 783 C269 783 56 573 56 258 C56 -57 278 -267 612 -267 C817 -267 1004 -161 1078 -1 L1039 0 L1039 0 Z M713 355 L674 199 C654 120 593 67 522 67 C454 67 408 124 408 209 C408 358 482 457 592 457 C665 457 713 416 714 355 L713 355 L713 355 Z " />
<glyph glyph-name="A" unicode="A" horiz-adv-x="708" d="M612 72 L611 72 L347 675 L315 675 L93 72 L92 72 C77 33 42 5 3 2 L-9 1 L-9 0 L219 0 L219 1 L191 3 C143 5 124 40 140 87 L191 232 L406 232 L478 62 C489 28 473 4 436 2 L395 0 L395 -1 L703 -1 L703 0 C664 4 632 24 612 70 L612 72 L612 72 Z M392 262 L202 262 L288 507 L392 262 L392 262 Z " />
<glyph glyph-name="B" unicode="B" horiz-adv-x="673" d="M437 356 C536 378 597 431 597 502 C597 597 499 660 353 660 L33 660 L33 659 L44 658 C82 655 108 627 108 588 L108 72 C108 33 82 5 44 2 L33 1 L33 0 L377 0 C543 0 653 74 653 184 C653 273 569 338 437 356 L437 356 Z M236 364 L236 628 L353 628 C423 628 469 578 469 502 C469 419 413 364 329 364 L236 364 L236 364 Z M236 336 L321 336 C439 336 518 275 518 184 C518 93 456 32 364 32 L236 32 L236 336 L236 336 Z " />
<glyph glyph-name="C" unicode="C" horiz-adv-x="731" d="M663 68 L663 68 L663 68 Z M671 53 L671 207 L670 207 C668 197 665 184 663 174 C648 103 582 47 498 33 C472 29 445 27 419 27 C277 27 182 148 182 330 C182 512 277 633 419 633 C460 633 503 628 543 619 C602 603 650 551 663 486 C665 476 668 463 670 453 L671 453 L671 607 C611 642 510 665 419 665 C193 665 42 531 42 330 C42 129 193 -5 419 -5 C510 -5 611 18 671 53 L671 53 Z " />
<glyph glyph-name="D" unicode="D" horiz-adv-x="767" d="M377 0 C581 0 717 132 717 330 C717 528 567 660 342 660 L33 660 L33 659 L44 658 C82 655 108 627 108 588 L108 72 C108 33 82 5 44 2 L33 1 L33 0 L377 0 L377 0 Z M236 32 L236 628 L342 628 C490 628 589 509 589 330 C589 151 504 32 377 32 L236 32 L236 32 Z " />
<glyph glyph-name="E" unicode="E" horiz-adv-x="653" d="M545 16 C553 61 564 122 572 167 L571 167 L559 132 C538 72 484 32 424 32 L243 32 L243 336 L373 336 C424 336 463 307 470 264 L472 251 L473 251 L473 443 L472 443 L470 432 C463 394 424 368 373 368 L243 368 L243 628 L419 628 C479 628 526 588 536 528 L542 493 L543 493 L543 660 L40 660 L40 659 L51 658 C89 655 115 627 115 588 L115 72 C115 33 89 5 51 2 L40 1 L40 0 L542 0 L545 16 L545 16 Z " />
<glyph glyph-name="F" unicode="F" horiz-adv-x="568" d="M573 660 L40 660 L40 659 L51 658 C89 655 115 627 115 588 L115 72 C115 33 89 5 51 2 L40 1 L40 0 L328 0 L328 1 L308 3 C269 5 243 33 243 72 L243 331 L363 331 C414 331 453 302 460 259 L462 246 L463 246 L463 438 L462 438 L460 427 C453 389 414 363 363 363 L243 363 L243 628 L449 628 C509 628 556 588 566 528 L572 493 L573 493 L573 660 L573 660 Z " />
<glyph glyph-name="G" unicode="G" horiz-adv-x="827" d="M542 238 L542 44 C500 34 453 28 409 28 C273 28 182 149 182 331 C182 513 273 634 409 634 C445 634 483 629 520 621 C581 605 629 552 642 487 C644 477 647 464 649 454 L650 454 L650 608 C590 643 493 666 408 666 C188 666 41 532 41 331 C41 130 188 -4 408 -4 C497 -4 596 19 656 54 L656 239 C656 278 682 306 720 309 L731 310 L731 311 L466 311 L466 310 L477 309 C515 306 541 278 541 239 L542 238 L542 238 Z " />
<glyph glyph-name="H" unicode="H" horiz-adv-x="787" d="M747 0 L747 1 L736 2 C698 5 672 33 672 72 L672 588 C672 627 698 655 736 658 L747 659 L747 660 L469 660 L469 659 L480 658 C518 655 544 627 544 588 L544 363 L243 363 L243 588 C243 627 269 655 307 658 L318 659 L318 660 L40 660 L40 659 L51 658 C89 655 115 627 115 588 L115 72 C115 33 89 5 51 2 L40 1 L40 0 L318 0 L318 1 L307 2 C269 5 243 33 243 72 L243 331 L544 331 L544 72 C544 33 518 5 480 2 L469 1 L469 0 L747 0 L747 0 Z " />
<glyph glyph-name="I" unicode="I" horiz-adv-x="358" d="M318 0 L318 1 L307 2 C269 5 243 33 243 72 L243 588 C243 627 269 655 307 658 L318 659 L318 660 L40 660 L40 659 L51 658 C89 655 115 627 115 588 L115 72 C115 33 89 5 51 2 L40 1 L40 0 L318 0 L318 0 Z " />
<glyph glyph-name="J" unicode="J" horiz-adv-x="444" d="M201 588 L201 200 C201 68 189 16 159 16 C136 16 115 35 108 64 C100 95 78 115 51 115 C13 115 -8 95 0 64 C11 20 62 -10 128 -10 C273 -10 329 79 329 308 L329 588 C329 627 355 655 393 658 L404 659 L404 660 L126 660 L126 659 L137 658 C175 655 201 627 201 588 L201 588 Z " />
<glyph glyph-name="K" unicode="K" horiz-adv-x="687" d="M677 -5 L677 20 C622 20 572 70 480 210 C415 309 364 386 339 424 L488 588 L489 588 C525 627 575 655 613 658 L628 659 L628 660 L433 660 L433 659 L443 658 C478 655 479 629 447 592 L237 356 L237 589 C237 628 263 656 301 659 L312 660 L312 661 L34 661 L34 660 L45 659 C83 656 109 628 109 589 L109 73 C109 34 83 6 45 3 L34 2 L34 1 L312 1 L312 2 L301 3 C263 6 237 34 237 73 L237 335 L240 317 L254 332 C279 295 330 218 396 118 C453 32 520 -2 635 -2 L677 -5 L677 -5 Z " />
<glyph glyph-name="L" unicode="L" horiz-adv-x="653" d="M545 16 C553 63 565 127 573 174 C573 179 573 184 572 183 L553 123 C535 69 488 33 434 33 L243 33 L243 589 C243 628 269 656 307 659 L318 660 L318 661 L40 661 L40 660 L51 659 C89 656 115 628 115 589 L115 73 C115 34 89 6 51 3 L40 2 L40 1 L542 1 L545 16 L545 16 Z " />
<glyph glyph-name="M" unicode="M" horiz-adv-x="897" d="M809 72 L785 595 C786 630 810 655 846 658 L857 659 L857 660 L667 660 L462 146 L231 660 L57 660 L57 659 L68 658 C106 655 129 626 129 587 L109 63 C105 28 79 4 43 1 L32 0 L32 -1 L256 -1 L256 0 L226 2 C181 4 151 34 149 78 L165 501 C244 332 323 163 402 -6 L462 145 L462 145 L402 -6 L434 -6 L670 558 L683 71 C684 32 659 4 621 1 L610 0 L610 -1 L888 -1 L888 0 L877 1 C839 4 812 33 809 72 L809 72 Z " />
<glyph glyph-name="N" unicode="N" horiz-adv-x="724" d="M570 588 L570 184 L227 660 L37 660 L37 659 L48 658 C86 655 112 627 112 588 L112 72 C112 33 86 5 48 2 L37 1 L37 0 L226 0 L226 1 L215 2 C177 5 151 33 151 72 L151 547 C289 358 426 169 564 -20 L609 -20 L609 588 C609 627 635 655 673 658 L684 659 L684 660 L495 660 L495 659 L506 658 C544 655 570 627 570 588 L570 588 Z " />
<glyph glyph-name="O" unicode="O" horiz-adv-x="759" d="M182 330 C182 494 248 633 376 633 C503 633 569 494 569 330 C569 166 503 27 376 27 C248 27 182 166 182 330 L182 330 Z M42 330 C42 149 156 -5 376 -5 C596 -5 709 149 709 330 C709 511 596 665 376 665 C156 665 42 511 42 330 L42 330 Z " />
<glyph glyph-name="P" unicode="P" horiz-adv-x="609" d="M311 0 L311 1 L300 2 C262 5 236 33 236 72 L236 293 L323 293 C483 293 589 367 589 478 C589 587 491 660 345 660 L33 660 L33 659 L44 658 C82 655 108 627 108 588 L108 72 C108 33 82 5 44 2 L33 1 L33 0 L311 0 L311 0 Z M236 325 L236 628 L345 628 C410 628 454 568 454 478 C454 386 402 325 323 325 L236 325 L236 325 Z " />
<glyph glyph-name="Q" unicode="Q" horiz-adv-x="759" d="M803 -28 L790 -20 C776 -42 713 -57 632 -57 C513 -57 436 -37 391 -5 C601 2 709 153 709 330 C709 511 596 665 376 665 C156 665 42 511 42 330 C42 159 144 12 342 -3 C429 -86 523 -140 619 -140 C688 -140 762 -95 803 -28 L803 -28 Z M182 330 C182 494 248 633 376 633 C503 633 569 494 569 330 C569 166 503 27 376 27 C248 27 182 166 182 330 L182 330 Z " />
<glyph glyph-name="R" unicode="R" horiz-adv-x="712" d="M712 0 L712 25 C664 25 663 25 624 81 C539 203 475 291 449 327 C546 353 605 412 605 491 C605 593 505 661 354 661 L35 661 L35 660 L46 659 C84 656 110 628 110 589 L110 73 C110 34 84 6 46 3 L35 2 L35 1 L313 1 L313 2 L302 3 C264 6 238 34 238 73 L238 313 L306 313 C334 274 386 201 452 107 C524 5 533 1 671 1 L712 0 L712 0 Z M332 345 L239 345 L239 629 L355 629 C425 629 471 574 471 491 C471 403 415 345 332 345 L332 345 Z " />
<glyph glyph-name="S" unicode="S" horiz-adv-x="514" d="M329 616 L329 616 C369 601 401 562 410 520 C414 501 420 475 424 456 L425 456 L425 620 C378 647 312 665 260 665 C127 665 39 583 39 460 C39 383 104 311 201 280 C307 246 378 188 378 137 C378 71 325 27 245 27 C226 27 205 29 183 33 C116 47 62 102 47 171 C45 181 42 193 40 203 L39 203 L39 39 C86 12 168 -6 245 -6 C379 -6 469 72 469 188 C469 270 401 346 300 379 C196 413 127 465 127 510 C127 584 178 633 254 633 C273 633 300 626 329 615 L329 616 L329 616 Z " />
<glyph glyph-name="T" unicode="T" horiz-adv-x="620" d="M612 644 L611 660 L9 660 L8 644 C3 594 -3 528 -7 478 L-6 478 L12 548 C24 596 64 628 112 628 L246 628 L246 72 C246 33 220 5 182 2 L171 1 L171 0 L449 0 L449 1 L438 2 C400 5 374 33 374 72 L374 628 L508 628 C556 628 596 596 608 548 L626 478 L627 478 C623 528 617 594 612 644 L612 644 Z " />
<glyph glyph-name="U" unicode="U" horiz-adv-x="703" d="M98 588 L98 219 C98 85 169 -5 353 -5 C529 -5 598 73 598 189 L598 578 C598 623 627 655 670 658 L683 659 L683 660 L469 660 L469 659 L484 658 C529 655 559 623 559 578 L559 202 C559 105 507 40 372 40 C267 40 226 102 226 194 L226 588 C226 627 252 655 290 658 L301 659 L301 660 L23 660 L23 659 L34 658 C72 655 98 627 98 588 L98 588 Z " />
<glyph glyph-name="V" unicode="V" horiz-adv-x="740" d="M79 588 L79 588 L350 -15 L382 -15 L600 588 C614 627 650 655 689 658 L701 659 L701 660 L467 660 L467 659 L490 658 C547 655 570 615 550 558 L408 153 L214 597 C203 631 219 655 255 657 L287 659 L287 660 L-12 660 L-12 659 C28 655 59 633 79 589 L79 588 L79 588 Z " />
<glyph glyph-name="W" unicode="W" horiz-adv-x="1025" d="M81 588 L311 -15 L343 -15 L496 466 L699 -15 L731 -15 L917 588 C929 627 963 655 1002 658 L1014 659 L1014 660 L795 660 L795 659 L833 657 C869 655 888 631 882 597 L757 178 L562 670 L530 670 L369 164 L219 593 C208 629 225 655 262 657 L285 659 L285 660 L-6 660 L-6 659 L4 658 C35 655 66 626 82 588 L81 588 L81 588 Z " />
<glyph glyph-name="X" unicode="X" horiz-adv-x="703" d="M592 72 L592 72 C527 173 462 274 397 375 L542 588 C569 627 613 655 652 658 L665 659 L665 660 L432 660 L432 659 L473 657 C510 655 520 630 500 594 L378 404 L254 596 C235 631 245 655 281 657 L312 659 L312 660 L13 660 L13 659 C51 655 85 632 113 588 L113 588 L292 311 L132 72 C106 33 62 4 23 1 L10 0 L10 -1 L241 -1 L241 0 L215 2 C167 4 156 38 187 86 L312 280 L452 63 C471 28 461 3 425 1 L394 -1 L394 -2 L694 -2 L694 -1 C656 3 622 26 594 70 L592 72 L592 72 Z " />
<glyph glyph-name="Y" unicode="Y" horiz-adv-x="672" d="M681 659 L681 660 L468 660 L468 659 L489 658 C537 655 550 622 522 575 L378 355 L237 595 C220 630 232 655 268 657 L289 659 L289 660 L-8 660 L-8 659 C28 655 59 635 85 595 L267 289 L267 72 C267 33 241 5 203 2 L192 1 L192 0 L470 0 L470 1 L459 2 C421 5 395 33 395 72 L395 330 C395 330 553 566 568 588 C598 632 637 654 681 658 L681 659 L681 659 Z " />
<glyph glyph-name="Z" unicode="Z" horiz-adv-x="592" d="M500 16 L500 16 C508 64 520 127 528 175 C528 180 528 185 527 184 L508 124 C490 70 443 34 389 34 L193 34 L529 661 L81 661 L77 645 C66 604 51 550 40 509 L41 509 L60 549 C83 597 130 629 178 629 L367 629 L32 1 L497 1 L500 16 L500 16 Z " />
<glyph glyph-name="bracketleft" unicode="&#x5b;" horiz-adv-x="269" d="M154 634 L259 634 L259 660 L65 660 L65 -120 L259 -120 L259 -94 L154 -94 L154 634 L154 634 Z " />
<glyph glyph-name="backslash" unicode="&#x5c;" horiz-adv-x="270" d="M230 -145 L270 -145 L-20 710 L-60 710 L230 -145 L230 -145 Z " />
<glyph glyph-name="bracketright" unicode="&#x5d;" horiz-adv-x="269" d="M109 634 L109 -94 L4 -94 L4 -120 L199 -120 L199 660 L4 660 L4 634 L109 634 L109 634 Z " />
<glyph glyph-name="asciicircum" unicode="&#x5e;" horiz-adv-x="340" d="M207 712 C202 722 189 744 170 744 C152 744 139 722 134 712 C134 712 46 539 48 541 L60 531 C112 593 147 629 170 649 C214 604 279 531 279 531 L291 541 C291 541 255 612 206 712 L207 712 L207 712 Z M132 676 C129 681 129 683 131 682 L132 676 L132 676 Z " />
<glyph glyph-name="underscore" unicode="&#x5f;" horiz-adv-x="455" d="M5 -50 L5 -114 L450 -114 L450 -50 L5 -50 L5 -50 Z " />
<glyph glyph-name="grave" unicode="&#x60;" horiz-adv-x="340" d="M86 701 C86 693 100 676 122 654 C154 613 242 530 242 530 L255 539 C255 539 205 657 181 699 C165 728 156 749 151 749 C132 749 86 715 86 701 L86 701 Z " />
<glyph glyph-name="a" unicode="a" horiz-adv-x="512" d="M490 64 C482 53 470 45 444 45 C414 45 405 72 405 112 L405 352 C405 444 348 505 263 505 C148 505 63 458 49 388 L164 388 C174 439 203 473 237 473 C265 473 283 435 283 378 L283 264 C261 261 237 257 218 252 C109 225 37 166 37 105 C37 39 84 -5 155 -5 C207 -5 256 11 293 37 C304 7 326 -11 367 -11 C443 -11 481 12 504 47 L490 64 L490 64 Z M284 231 L284 99 C284 92 284 85 284 79 C263 74 239 71 212 71 C175 71 150 97 150 137 C150 174 177 205 217 215 C241 221 263 226 282 230 L284 231 L284 231 Z " />
<glyph glyph-name="b" unicode="b" horiz-adv-x="601" d="M88 0 L101 0 C112 19 136 32 161 32 C203 32 245 -5 302 -5 C448 -5 546 97 546 249 C546 403 470 505 357 505 C286 505 225 486 203 458 L203 720 L180 720 L13 669 L13 668 L24 668 C78 669 88 659 88 605 L88 0 L88 0 Z M302 27 C243 27 203 87 203 177 L203 439 C210 448 236 454 269 454 C361 454 422 355 422 207 C422 99 374 27 302 27 L302 27 Z " />
<glyph glyph-name="c" unicode="c" horiz-adv-x="521" d="M471 79 L460 91 C441 75 400 65 357 65 C246 65 172 148 172 273 C172 393 220 473 293 473 C331 473 359 445 363 404 C366 370 389 348 420 348 C451 348 471 368 471 399 C465 463 399 505 306 505 C152 505 50 395 50 229 C50 89 134 -5 261 -5 C327 -5 411 29 471 79 L471 79 Z " />
<glyph glyph-name="d" unicode="d" horiz-adv-x="611" d="M501 720 L478 720 L311 669 L311 668 L322 668 C376 669 386 659 386 605 L386 467 C359 490 324 505 288 505 C148 505 54 391 54 219 C54 85 130 -5 243 -5 C284 -5 339 21 385 62 L385 0 L408 0 L575 51 L575 52 L564 52 C510 51 500 61 500 115 L501 720 L501 720 Z M385 80 C370 71 340 65 305 65 C226 65 173 144 173 263 C173 390 216 474 281 474 C323 474 362 451 385 421 L385 80 L385 80 Z " />
<glyph glyph-name="e" unicode="e" horiz-adv-x="527" d="M477 79 L466 91 C447 75 405 65 360 65 C237 65 165 160 173 300 L477 300 C477 423 400 505 285 505 C144 505 50 395 50 229 C50 89 136 -5 264 -5 C332 -5 417 29 477 79 L477 79 Z M370 393 L370 396 C370 395 370 394 370 393 L370 393 Z M315 337 L175 322 C185 414 224 473 279 473 C334 473 370 442 370 396 C369 363 348 340 315 337 L315 337 Z " />
<glyph glyph-name="f" unicode="f" horiz-adv-x="490" d="M303 0 L303 1 L292 2 C254 5 228 33 228 72 L228 455 L363 455 L363 500 L228 500 L228 533 C228 629 296 694 325 694 C354 694 374 674 377 645 C380 614 402 594 434 594 C465 594 485 614 485 645 C481 690 430 720 357 720 C214 720 119 655 119 558 C116 558 113 500 113 500 L45 500 L45 455 L113 455 L113 72 C113 33 87 5 49 2 L38 1 L38 0 L303 0 L303 0 Z " />
<glyph glyph-name="g" unicode="g" horiz-adv-x="479" d="M479 500 L341 472 C312 493 273 505 228 505 C124 505 54 441 54 346 C54 280 88 229 144 204 C81 194 41 151 41 90 C41 42 74 6 128 -10 C60 -29 16 -76 16 -134 L93 -121 L16 -135 C16 -200 79 -244 173 -244 C345 -244 459 -158 459 -29 C459 44 387 93 278 93 C259 93 189 90 189 90 C146 90 118 107 118 133 C118 165 140 186 173 186 L228 186 C333 186 403 250 403 345 C403 377 395 406 380 430 L479 436 L479 500 L479 500 Z M228 213 C188 213 162 266 162 346 C162 426 188 479 228 479 C268 479 295 426 295 346 C295 266 268 213 228 213 L228 213 Z M161 -16 C172 -17 183 -18 195 -18 L247 -15 C324 -15 376 -43 376 -86 C376 -161 300 -211 186 -211 C130 -211 93 -175 93 -120 C93 -67 120 -27 162 -16 L161 -16 L161 -16 Z " />
<glyph glyph-name="h" unicode="h" horiz-adv-x="636" d="M406 72 C406 33 380 5 342 2 L331 1 L331 0 L596 0 L596 1 L585 2 C547 5 521 33 521 72 L521 338 C521 438 490 505 410 505 C345 505 277 477 234 433 L234 719 L211 719 L44 668 L44 667 L55 667 C109 668 119 658 119 604 L119 71 C119 32 93 4 55 1 L44 0 L44 -1 L309 -1 L309 0 L298 1 C260 4 234 32 234 71 L234 415 C252 423 284 427 321 427 C382 427 406 386 406 325 L406 72 L406 72 Z " />
<glyph glyph-name="i" unicode="i" horiz-adv-x="355" d="M171 570 C217 570 248 601 248 647 C248 693 217 723 171 723 C125 723 94 693 94 647 C94 601 125 570 171 570 L171 570 Z M310 0 L310 1 L299 2 C261 5 235 33 235 72 L235 500 L212 500 L45 449 L45 448 L56 448 C110 449 120 439 120 385 L120 72 C120 33 94 5 56 2 L45 1 L45 0 L310 0 L310 0 Z " />
<glyph glyph-name="j" unicode="j" horiz-adv-x="355" d="M171 570 C217 570 248 601 248 647 C248 693 217 723 171 723 C125 723 94 693 94 647 C94 601 125 570 171 570 L171 570 Z M120 389 C120 254 120 -2 119 -1 C119 -130 92 -171 9 -223 L20 -239 C182 -138 236 -82 236 31 C235 33 235 470 235 470 L235 500 L212 500 L45 449 L45 448 L56 448 C109 449 120 440 120 389 L120 389 Z " />
<glyph glyph-name="k" unicode="k" horiz-adv-x="601" d="M515 72 L514 72 L322 338 L420 428 L421 428 C464 468 519 496 557 498 L573 499 L573 500 L373 500 L373 499 L383 498 C415 495 417 473 390 441 L227 275 L227 720 L204 720 L37 669 L37 668 L48 668 C102 669 112 659 112 605 L112 72 C112 33 86 5 48 2 L37 1 L37 0 L302 0 L302 1 L291 2 C253 5 227 33 227 72 L227 263 L229 253 L235 259 L370 72 C398 33 394 5 358 2 L347 1 L347 0 L640 0 L640 1 L626 2 C588 5 543 33 515 72 L515 72 Z " />
<glyph glyph-name="l" unicode="l" horiz-adv-x="355" d="M310 0 L310 1 L299 2 C261 5 235 33 235 72 L235 720 L212 720 L45 669 L45 668 L56 668 C110 669 120 659 120 605 L120 72 C120 33 94 5 56 2 L45 1 L45 0 L310 0 L310 0 Z " />
<glyph glyph-name="m" unicode="m" horiz-adv-x="943" d="M713 72 C713 33 687 5 649 2 L638 1 L638 0 L903 0 L903 1 L892 2 C854 5 828 33 828 72 L828 338 C828 438 777 505 710 505 C625 505 555 475 514 429 C494 476 458 504 415 504 C340 504 275 476 233 432 L233 498 L210 498 L43 447 L43 446 L54 446 C108 447 118 437 118 383 L118 70 C118 31 92 3 54 0 L43 -1 L43 -2 L308 -2 L308 -1 L297 0 C259 3 233 31 233 70 L233 416 C252 427 284 433 326 433 C377 433 415 389 415 324 L415 70 C415 31 389 3 351 0 L340 -1 L340 -2 L605 -2 L605 -1 L594 0 C556 3 530 31 530 70 L530 336 C530 363 526 388 519 410 C535 420 569 427 619 427 C671 427 711 386 711 325 L713 72 L713 72 Z " />
<glyph glyph-name="n" unicode="n" horiz-adv-x="636" d="M406 72 C406 33 380 5 342 2 L331 1 L331 0 L596 0 L596 1 L585 2 C547 5 521 33 521 72 L521 338 C521 438 490 505 410 505 C345 505 277 477 234 433 L234 499 L211 499 L44 448 L44 447 L55 447 C109 448 119 438 119 384 L119 71 C119 32 93 4 55 1 L44 0 L44 -1 L309 -1 L309 0 L298 1 C260 4 234 32 234 71 L234 415 C252 423 284 427 321 427 C382 427 406 386 406 325 L406 72 L406 72 Z " />
<glyph glyph-name="o" unicode="o" horiz-adv-x="607" d="M178 250 C178 387 228 479 304 479 C379 479 429 387 429 250 C429 113 379 21 304 21 C228 21 178 113 178 250 L178 250 Z M50 250 C50 97 152 -5 304 -5 C456 -5 557 97 557 250 C557 403 456 505 304 505 C152 505 50 403 50 250 L50 250 Z " />
<glyph glyph-name="p" unicode="p" horiz-adv-x="650" d="M309 -230 L309 -229 L298 -228 C260 -225 234 -197 234 -158 L234 14 C263 2 297 -5 335 -5 C491 -5 595 104 595 268 C595 410 520 505 408 505 C329 505 264 480 234 441 L234 500 L211 500 L44 449 L44 448 L55 448 C109 449 119 439 119 385 L119 -158 C119 -197 93 -225 55 -228 L44 -229 L44 -230 L309 -230 L309 -230 Z M234 135 L234 412 C251 422 282 428 320 428 C414 428 476 332 476 187 C476 91 420 27 336 27 C281 27 241 70 235 135 L234 135 L234 135 Z " />
<glyph glyph-name="q" unicode="q" horiz-adv-x="614" d="M569 -230 L569 -229 L558 -228 C520 -225 494 -197 494 -158 L494 500 L481 500 C470 481 442 468 410 468 C371 468 333 505 280 505 C141 505 48 391 48 219 C48 85 118 -5 223 -5 C268 -5 329 24 379 68 L379 -158 C379 -197 353 -225 315 -228 L304 -229 L304 -230 L569 -230 L569 -230 Z M379 89 C360 75 324 66 286 66 C215 66 168 145 168 264 C168 390 213 474 280 474 C339 474 379 414 379 324 L379 89 L379 89 Z " />
<glyph glyph-name="r" unicode="r" horiz-adv-x="437" d="M264 420 C296 420 340 376 372 376 C405 376 427 398 427 431 C427 475 407 505 356 505 C308 505 262 480 234 440 L234 500 L211 500 L44 449 L44 448 L55 448 C109 449 119 439 119 385 L119 72 C119 33 93 5 55 2 L44 1 L44 0 L309 0 L309 1 L298 2 C260 5 234 33 234 72 L234 414 C242 418 252 420 264 420 L264 420 Z " />
<glyph glyph-name="s" unicode="s" horiz-adv-x="421" d="M348 355 L349 355 L349 466 C308 489 261 505 231 505 C122 505 50 448 50 362 C50 309 104 248 186 209 C239 183 275 144 275 111 C275 57 242 21 192 21 C192 21 159 24 160 26 C108 39 65 80 52 128 C50 135 48 143 46 150 L45 150 L45 29 C80 9 136 -5 185 -5 C297 -5 371 59 371 154 C371 206 329 261 267 291 C190 328 139 372 139 401 C139 448 176 479 231 479 C235 479 248 474 266 465 C312 439 340 402 348 355 L348 355 Z " />
<glyph glyph-name="t" unicode="t" horiz-adv-x="370" d="M338 500 L203 500 L203 640 L184 640 L171 616 C124 533 67 475 25 468 L25 455 L88 455 L88 125 C88 24 112 -5 196 -5 C260 -5 307 19 350 55 L342 65 C328 54 305 46 253 46 C214 46 203 59 203 105 L203 455 L338 455 L338 500 L338 500 Z M181 633 L184 639 C183 637 182 635 181 633 L181 633 Z " />
<glyph glyph-name="u" unicode="u" horiz-adv-x="601" d="M89 428 L90 154 C90 59 135 -5 221 -5 C271 -5 324 26 375 74 L375 0 L398 0 L565 51 L565 52 L554 52 C500 51 490 61 490 115 L490 500 L300 500 L300 499 L311 498 C349 495 375 467 375 428 L375 92 C359 79 338 71 310 71 C239 71 203 109 203 166 L203 500 L13 500 L13 499 L24 498 C62 495 88 467 88 428 L89 428 L89 428 Z " />
<glyph glyph-name="v" unicode="v" horiz-adv-x="618" d="M85 428 L86 428 L284 -10 L303 -10 L493 428 C510 467 547 495 586 498 L598 499 L598 500 L410 500 L410 499 L421 498 C456 495 470 470 459 435 L341 136 L214 430 C199 468 212 495 248 498 L259 499 L259 500 L-22 500 L-22 499 L-10 498 C29 495 66 467 84 428 L85 428 L85 428 Z " />
<glyph glyph-name="w" unicode="w" horiz-adv-x="937" d="M103 428 L104 428 L302 -10 L321 -10 L468 348 L630 -10 L649 -10 L839 428 C856 467 893 495 932 498 L944 499 L944 500 L726 500 L726 499 L763 497 C800 495 816 471 806 437 L687 136 L560 430 C545 468 560 495 598 497 L625 499 L625 500 L344 500 L344 499 C380 494 409 472 429 428 L430 428 L453 377 L357 135 L232 429 C216 468 230 497 269 499 L291 501 L291 502 L10 502 L10 501 C49 497 81 475 101 431 L103 428 L103 428 Z " />
<glyph glyph-name="x" unicode="x" horiz-adv-x="583" d="M129 428 L129 428 L250 231 L137 69 C110 32 67 5 29 3 L5 1 L5 0 L248 0 L248 1 L197 4 C158 6 150 33 176 72 L265 206 L352 64 C370 29 361 4 327 1 L316 0 L316 -1 L580 -1 L580 0 C545 4 514 27 487 71 L487 71 L340 310 L434 427 C466 466 513 494 552 497 L566 498 L566 499 L353 499 L353 498 L383 496 C419 494 428 470 406 436 L327 330 L262 435 C244 470 255 495 291 497 L312 499 L312 500 L23 500 L23 499 C63 495 99 473 126 429 L129 428 L129 428 Z " />
<glyph glyph-name="y" unicode="y" horiz-adv-x="592" d="M113 428 L114 428 L305 7 C297 -8 285 -34 275 -63 C246 -129 221 -155 186 -155 C186 -155 124 -130 98 -130 C63 -130 40 -150 40 -179 C40 -210 70 -231 115 -231 C203 -231 256 -187 305 -73 C317 -38 332 -11 332 -11 L522 427 C539 466 576 494 615 497 L627 498 L627 499 L439 499 L439 498 L450 497 C485 494 499 469 488 434 L370 135 L243 429 C228 467 241 494 277 497 L288 498 L288 499 L7 499 L7 498 L19 497 C58 494 95 466 113 427 L113 428 L113 428 Z " />
<glyph glyph-name="z" unicode="z" horiz-adv-x="483" d="M169 473 L286 473 L37 -1 L405 -1 L408 12 C416 58 427 120 435 167 C435 172 435 177 434 176 L415 116 C397 62 350 26 296 26 L187 26 L433 500 L70 500 L66 486 L67 486 C58 455 47 414 39 383 L40 383 L47 397 C73 443 121 472 169 473 L169 473 Z " />
<glyph glyph-name="braceleft" unicode="&#x7b;" horiz-adv-x="254" d="M239 -120 L239 -101 L225 -101 C179 -101 149 -54 149 16 L149 139 C149 208 115 258 62 270 C115 282 149 332 149 402 L149 524 C149 594 179 641 225 641 L239 641 L239 660 L199 660 C116 660 60 606 60 524 L60 338 C60 300 39 280 5 280 L5 260 C39 260 60 240 60 203 L60 16 C60 -66 116 -120 199 -120 L239 -120 L239 -120 Z " />
<glyph glyph-name="bar" unicode="&#x7c;" horiz-adv-x="209" d="M60 770 L60 -234 L149 -234 L149 770 L60 770 L60 770 Z " />
<glyph glyph-name="braceright" unicode="&#x7d;" horiz-adv-x="254" d="M5 660 L5 641 L19 641 C65 641 95 594 95 524 L95 401 C95 332 129 282 182 270 C129 258 95 208 95 138 L95 16 C95 -54 65 -101 19 -101 L5 -101 L5 -120 L45 -120 C128 -120 184 -66 184 16 L184 202 C184 240 205 260 239 260 L239 280 C205 280 184 300 184 337 L184 524 C184 606 128 660 45 660 L5 660 L5 660 Z " />
<glyph glyph-name="asciitilde" unicode="&#x7e;" horiz-adv-x="340" d="M31 310 C31 344 47 366 70 366 C121 366 188 303 239 303 C292 303 328 358 328 440 L309 440 C309 404 291 380 264 380 C213 380 146 442 95 442 C45 442 12 389 12 310 L31 310 L31 310 Z " />
<glyph glyph-name="nbspace" unicode="&#xa0;" horiz-adv-x="220" d="" />
<glyph glyph-name="exclamdown" unicode="&#xa1;" horiz-adv-x="265" d="M122 505 C74 505 42 473 42 425 C42 377 74 345 122 345 C170 345 202 377 202 425 C202 473 170 505 122 505 L122 505 Z M60 -83 C52 -132 80 -165 130 -165 C182 -165 210 -132 200 -83 C200 129 130 270 130 270 L114 270 C114 270 60 129 60 -83 L60 -83 Z " />
<glyph glyph-name="cent" unicode="&#xa2;" horiz-adv-x="521" d="M272 575 L272 503 C137 488 50 382 50 229 C50 87 137 -12 272 -5 L272 -75 L310 -75 L310 0 C365 11 425 40 471 78 L460 90 C433 68 360 58 310 70 L310 471 C339 464 359 439 362 404 C365 370 388 348 419 348 C450 348 470 368 470 399 C464 462 400 504 309 505 L309 575 L272 575 L272 575 Z M271 84 C209 115 171 183 171 272 C171 380 210 456 271 470 L271 84 L271 84 Z " />
<glyph glyph-name="guillemotleft" unicode="&#xab;" horiz-adv-x="461" d="M294 248 C322 304 384 426 412 454 L400 466 C269 335 185 257 185 257 L185 244 C199 236 403 34 403 34 L416 46 C416 46 339 154 294 248 L294 248 Z M130 249 C158 306 219 426 248 455 L236 467 C104 335 20 258 20 258 L20 245 L20 245 C20 245 20 245 21 245 C35 236 239 35 239 35 L251 47 C251 47 175 155 130 250 L130 249 L130 249 Z " />
<glyph glyph-name="acute" unicode="&#xb4;" horiz-adv-x="340" d="M94 530 C94 530 180 614 211 654 C232 677 246 694 246 701 C246 715 201 749 181 749 C177 749 166 729 152 699 C127 655 81 539 81 539 L94 530 L94 530 Z " />
<glyph glyph-name="guillemotright" unicode="&#xbb;" horiz-adv-x="461" d="M58 34 C58 34 262 236 276 244 L276 244 L276 257 C276 257 192 335 61 466 L49 454 C77 426 139 304 167 248 C122 154 45 46 45 46 L58 34 L58 34 Z M222 34 C222 34 426 235 441 244 L441 244 L441 257 C441 257 357 334 225 466 L213 454 C242 425 303 305 331 248 C286 153 210 45 210 45 L222 34 L222 34 Z " />
<glyph glyph-name="onequarter" unicode="&#xbc;" horiz-adv-x="780" d="M145 -25 L685 645 L635 685 L95 15 L145 -25 L145 -25 Z M446 67 L446 50 L541 50 L541 -2 L639 -2 L639 50 L694 50 L694 94 L639 94 L639 303 L623 303 C611 296 446 67 446 67 L446 67 Z M502 94 C513 110 527 128 541 147 C541 146 541 145 541 144 L541 94 L502 94 L502 94 Z M344 415 L344 416 C321 416 307 430 307 451 L307 629 C307 649 320 663 339 664 L344 665 L172 665 L177 664 C196 663 209 649 209 629 L209 451 C209 430 195 416 172 416 L172 415 L344 415 L344 415 Z " />
<glyph glyph-name="onehalf" unicode="&#xbd;" horiz-adv-x="780" d="M145 -25 L685 645 L635 685 L95 15 L145 -25 L145 -25 Z M651 87 L605 87 C658 123 689 151 689 181 C689 224 653 253 599 253 C557 253 513 215 490 158 L502 150 C509 169 529 181 551 181 C568 181 580 168 580 148 C580 76 536 65 469 22 L469 0 C493 16 516 30 537 43 C519 31 501 19 469 0 L679 0 L683 43 C683 44 683 45 683 46 L687 86 C687 86 690 121 690 123 C686 101 673 86 651 86 L651 87 L651 87 Z M344 414 L344 415 C321 415 307 429 307 450 L307 628 C307 648 320 662 339 663 L344 664 L172 664 L177 663 C196 662 209 648 209 628 L209 450 C209 429 195 415 172 415 L172 414 L344 414 L344 414 Z " />
<glyph glyph-name="threequarters" unicode="&#xbe;" horiz-adv-x="780" d="M170 492 L170 476 C180 479 189 482 193 482 C219 482 236 470 236 452 C236 398 194 360 130 357 L131 340 C256 347 340 394 340 458 C340 491 320 515 280 526 C314 549 334 575 334 599 C334 640 300 668 249 668 C209 668 158 633 122 580 L134 572 C144 587 170 597 200 597 C222 597 236 585 236 567 C236 533 207 506 169 492 L170 492 L170 492 Z M144 -25 L684 645 L634 685 L94 15 L144 -25 L144 -25 Z M445 67 L445 50 L540 50 L540 -2 L638 -2 L638 50 L693 50 L693 94 L638 94 L638 303 L622 303 C610 296 445 67 445 67 L445 67 Z M501 94 C512 110 526 128 540 147 C540 146 540 145 540 144 L540 94 L501 94 L501 94 Z " />
<glyph glyph-name="questiondown" unicode="&#xbf;" horiz-adv-x="373" d="M234 505 C186 505 154 473 154 425 C154 377 186 345 234 345 C282 345 314 377 314 425 C314 473 282 505 234 505 L234 505 Z M215 210 L180 210 C58 210 35 129 35 84 C35 -65 123 -165 254 -165 C304 -165 337 -136 337 -92 C337 -62 317 -42 288 -42 C267 -42 239 -75 218 -75 C124 -75 62 -17 62 71 C62 90 87 123 219 123 L254 123 C264 123 269 130 267 140 L241 265 L226 265 L215 210 L215 210 Z " />
<glyph glyph-name="Agrave" unicode="&#xc0;" horiz-adv-x="708" d="M612 72 L611 72 L347 675 L315 675 L93 72 L92 72 C77 33 42 5 3 2 L-9 1 L-9 0 L219 0 L219 1 L191 3 C143 5 124 40 140 87 L191 232 L406 232 L478 62 C489 28 473 4 436 2 L395 0 L395 -1 L703 -1 L703 0 C664 4 632 24 612 70 L612 72 L612 72 Z M247 859 C247 851 261 834 283 812 C315 771 403 688 403 688 L416 697 C416 697 374 816 342 857 C328 887 317 907 312 907 C293 907 247 873 247 859 L247 859 Z M392 262 L202 262 L288 507 L392 262 L392 262 Z " />
<glyph glyph-name="Aacute" unicode="&#xc1;" horiz-adv-x="708" d="M270 690 C270 690 356 774 387 814 C408 837 422 854 422 861 C422 875 377 909 357 909 C353 909 342 889 328 859 C297 819 257 699 257 699 L270 690 L270 690 Z M612 72 L611 72 L347 675 L315 675 L93 72 L92 72 C77 33 42 5 3 2 L-9 1 L-9 0 L219 0 L219 1 L191 3 C143 5 124 40 140 87 L191 232 L406 232 L478 62 C489 28 473 4 436 2 L395 0 L395 -1 L703 -1 L703 0 C664 4 632 24 612 70 L612 72 L612 72 Z M392 262 L202 262 L288 507 L392 262 L392 262 Z " />
<glyph glyph-name="Acircumflex" unicode="&#xc2;" horiz-adv-x="708" d="M612 72 L611 72 L347 675 L315 675 L93 72 L92 72 C77 33 42 5 3 2 L-9 1 L-9 0 L219 0 L219 1 L191 3 C143 5 124 40 140 87 L191 232 L406 232 L478 62 C489 28 473 4 436 2 L395 0 L395 -1 L703 -1 L703 0 C664 4 632 24 612 70 L612 72 L612 72 Z M368 870 C363 880 350 902 331 902 C313 902 300 880 295 870 C295 870 207 697 209 699 L221 689 C273 751 308 787 331 807 C375 762 440 689 440 689 L452 699 C452 699 416 770 367 870 L368 870 L368 870 Z M293 834 C290 839 290 841 292 840 L293 834 L293 834 Z M390 262 L200 262 L286 507 L390 262 L390 262 Z " />
<glyph glyph-name="Atilde" unicode="&#xc3;" horiz-adv-x="708" d="M192 755 C192 789 208 811 231 811 C282 811 349 748 400 748 C453 748 489 803 489 885 L470 885 C470 849 452 825 425 825 C374 825 307 887 256 887 C206 887 173 834 173 755 L192 755 L192 755 Z M612 72 L611 72 L347 675 L315 675 L93 72 L92 72 C77 33 42 5 3 2 L-9 1 L-9 0 L219 0 L219 1 L191 3 C143 5 124 40 140 87 L191 232 L406 232 L478 62 C489 28 473 4 436 2 L395 0 L395 -1 L703 -1 L703 0 C664 4 632 24 612 70 L612 72 L612 72 Z M392 262 L202 262 L288 507 L392 262 L392 262 Z " />
<glyph glyph-name="Adieresis" unicode="&#xc4;" horiz-adv-x="708" d="M431 730 C474 730 502 758 502 800 C502 843 474 871 431 871 C389 871 361 843 361 800 C361 758 389 730 431 730 L431 730 Z M231 730 C273 730 301 758 301 800 C301 843 273 871 231 871 C188 871 160 843 160 800 C160 758 188 730 231 730 L231 730 Z M612 72 L611 72 L347 675 L315 675 L93 72 L92 72 C77 33 42 5 3 2 L-9 1 L-9 0 L219 0 L219 1 L191 3 C143 5 124 40 140 87 L191 232 L406 232 L478 62 C489 28 473 4 436 2 L395 0 L395 -1 L703 -1 L703 0 C664 4 632 24 612 70 L612 72 L612 72 Z M392 262 L202 262 L288 507 L392 262 L392 262 Z " />
<glyph glyph-name="Aring" unicode="&#xc5;" horiz-adv-x="708" d="M267 788 C267 828 293 854 331 854 C369 854 395 828 395 788 C395 752 366 721 331 721 C296 721 267 752 267 788 L267 788 Z M235 788 C235 738 279 695 331 695 C383 695 427 738 427 788 C427 843 389 880 331 880 C273 880 235 843 235 788 L235 788 Z M612 72 L611 72 L347 675 L315 675 L93 72 L92 72 C77 33 42 5 3 2 L-9 1 L-9 0 L219 0 L219 1 L191 3 C143 5 124 40 140 87 L191 232 L406 232 L478 62 C489 28 473 4 436 2 L395 0 L395 -1 L703 -1 L703 0 C664 4 632 24 612 70 L612 72 L612 72 Z M392 262 L202 262 L288 507 L392 262 L392 262 Z " />
<glyph glyph-name="Ccedilla" unicode="&#xc7;" horiz-adv-x="731" d="M378 -74 L366 -94 C370 -87 374 -80 378 -74 L378 -74 Z M380 -72 C407 -29 428 -11 439 -4 C525 -1 616 21 672 54 L664 69 L664 69 L672 54 L672 208 L671 208 C669 198 666 185 664 175 C649 104 583 48 499 34 C473 30 446 28 420 28 C278 28 183 149 183 331 C183 513 278 634 420 634 C461 634 504 629 544 620 C603 604 651 552 664 487 C666 477 669 464 671 454 L672 454 L672 608 C612 643 511 666 420 666 C194 666 43 532 43 331 C43 134 188 1 407 -4 C401 -16 383 -47 359 -89 L367 -93 C383 -84 403 -78 416 -78 C445 -78 464 -100 464 -133 C464 -165 436 -186 393 -186 C366 -186 343 -180 334 -172 L327 -184 C349 -205 385 -219 416 -219 C487 -219 535 -185 535 -133 C535 -86 498 -55 443 -55 C423 -55 397 -61 380 -71 L380 -72 L380 -72 Z " />
<glyph glyph-name="Egrave" unicode="&#xc8;" horiz-adv-x="653" d="M221 861 C221 854 236 837 258 814 C290 774 377 690 377 690 L390 699 C390 699 348 818 316 859 C302 889 292 909 287 909 C267 909 221 875 221 861 L221 861 Z M545 16 C553 61 564 122 572 167 L571 167 L559 132 C538 72 484 32 424 32 L243 32 L243 336 L373 336 C424 336 463 307 470 264 L472 251 L473 251 L473 443 L472 443 L470 432 C463 394 424 368 373 368 L243 368 L243 628 L419 628 C479 628 526 588 536 528 L542 493 L543 493 L543 660 L40 660 L40 659 L51 658 C89 655 115 627 115 588 L115 72 C115 33 89 5 51 2 L40 1 L40 0 L542 0 L545 16 L545 16 Z " />
<glyph glyph-name="Eacute" unicode="&#xc9;" horiz-adv-x="653" d="M292 690 C292 690 377 774 408 814 C430 838 444 855 444 861 C444 875 398 909 378 909 C374 909 364 889 350 859 C319 819 279 699 279 699 L292 690 L292 690 Z M545 16 C553 61 564 122 572 167 L571 167 L559 132 C538 72 484 32 424 32 L243 32 L243 336 L373 336 C424 336 463 307 470 264 L472 251 L473 251 L473 443 L472 443 L470 432 C463 394 424 368 373 368 L243 368 L243 628 L419 628 C479 628 526 588 536 528 L542 493 L543 493 L543 660 L40 660 L40 659 L51 658 C89 655 115 627 115 588 L115 72 C115 33 89 5 51 2 L40 1 L40 0 L542 0 L545 16 L545 16 Z " />
<glyph glyph-name="Ecircumflex" unicode="&#xca;" horiz-adv-x="653" d="M358 872 C353 882 340 904 322 904 C303 904 290 882 285 872 C285 872 197 699 199 701 L211 691 C263 754 299 790 322 810 C366 765 432 691 432 691 L444 701 C444 701 406 774 358 872 L358 872 Z M285 836 C282 841 282 843 284 842 L285 836 L285 836 Z M544 16 C552 61 563 122 571 167 L570 167 L558 132 C537 72 483 32 423 32 L242 32 L242 336 L372 336 C423 336 462 307 469 264 L471 251 L472 251 L472 443 L471 443 L469 432 C462 394 423 368 372 368 L242 368 L242 628 L418 628 C478 628 525 588 535 528 L541 493 L542 493 L542 660 L39 660 L39 659 L50 658 C88 655 114 627 114 588 L114 72 C114 33 88 5 50 2 L39 1 L39 0 L541 0 L544 16 L544 16 Z " />
<glyph glyph-name="Edieresis" unicode="&#xcb;" horiz-adv-x="653" d="M422 730 C464 730 492 758 492 800 C492 843 464 871 422 871 C380 871 352 843 352 800 C352 758 380 730 422 730 L422 730 Z M221 730 C263 730 291 758 291 800 C291 843 263 871 221 871 C179 871 151 843 151 800 C151 758 179 730 221 730 L221 730 Z M545 16 C553 61 564 122 572 167 L571 167 L559 132 C538 72 484 32 424 32 L243 32 L243 336 L373 336 C424 336 463 307 470 264 L472 251 L473 251 L473 443 L472 443 L470 432 C463 394 424 368 373 368 L243 368 L243 628 L419 628 C479 628 526 588 536 528 L542 493 L543 493 L543 660 L40 660 L40 659 L51 658 C89 655 115 627 115 588 L115 72 C115 33 89 5 51 2 L40 1 L40 0 L542 0 L545 16 L545 16 Z " />
<glyph glyph-name="Igrave" unicode="&#xcc;" horiz-adv-x="358" d="M95 861 C95 853 109 836 131 814 C163 773 251 690 251 690 L264 699 C264 699 222 818 190 859 C176 889 165 909 160 909 C141 909 95 875 95 861 L95 861 Z M318 0 L318 1 L307 2 C269 5 243 33 243 72 L243 588 C243 627 269 655 307 658 L318 659 L318 660 L40 660 L40 659 L51 658 C89 655 115 627 115 588 L115 72 C115 33 89 5 51 2 L40 1 L40 0 L318 0 L318 0 Z " />
<glyph glyph-name="Iacute" unicode="&#xcd;" horiz-adv-x="358" d="M118 690 C118 690 204 774 235 814 C256 837 270 854 270 861 C270 875 225 909 205 909 C201 909 190 889 176 859 C145 819 105 699 105 699 L118 690 L118 690 Z M318 0 L318 1 L307 2 C269 5 243 33 243 72 L243 588 C243 627 269 655 307 658 L318 659 L318 660 L40 660 L40 659 L51 658 C89 655 115 627 115 588 L115 72 C115 33 89 5 51 2 L40 1 L40 0 L318 0 L318 0 Z " />
<glyph glyph-name="Icircumflex" unicode="&#xce;" horiz-adv-x="358" d="M216 872 C211 882 198 904 179 904 C161 904 148 882 143 872 C143 872 55 699 57 701 L69 691 C121 753 156 789 179 809 C223 764 288 691 288 691 L300 701 C300 701 264 772 215 872 L216 872 L216 872 Z M141 836 C138 841 138 843 140 842 L141 836 L141 836 Z M316 0 L316 1 L305 2 C267 5 241 33 241 72 L241 588 C241 627 267 655 305 658 L316 659 L316 660 L38 660 L38 659 L49 658 C87 655 113 627 113 588 L113 72 C113 33 87 5 49 2 L38 1 L38 0 L316 0 L316 0 Z " />
<glyph glyph-name="Idieresis" unicode="&#xcf;" horiz-adv-x="358" d="M279 730 C322 730 350 758 350 800 C350 843 322 871 279 871 C237 871 209 843 209 800 C209 758 237 730 279 730 L279 730 Z M79 730 C121 730 149 758 149 800 C149 843 121 871 79 871 C36 871 8 843 8 800 C8 758 36 730 79 730 L79 730 Z M318 0 L318 1 L307 2 C269 5 243 33 243 72 L243 588 C243 627 269 655 307 658 L318 659 L318 660 L40 660 L40 659 L51 658 C89 655 115 627 115 588 L115 72 C115 33 89 5 51 2 L40 1 L40 0 L318 0 L318 0 Z " />
<glyph glyph-name="Ntilde" unicode="&#xd1;" horiz-adv-x="724" d="M221 755 C221 789 237 811 260 811 C311 811 379 748 430 748 C483 748 519 803 519 885 L500 885 C500 849 482 825 455 825 C404 825 336 887 285 887 C235 887 202 834 202 755 L221 755 L221 755 Z M570 588 L570 184 L227 660 L37 660 L37 659 L48 658 C86 655 112 627 112 588 L112 72 C112 33 86 5 48 2 L37 1 L37 0 L226 0 L226 1 L215 2 C177 5 151 33 151 72 L151 547 C289 358 426 169 564 -20 L609 -20 L609 588 C609 627 635 655 673 658 L684 659 L684 660 L495 660 L495 659 L506 658 C544 655 570 627 570 588 L570 588 Z " />
<glyph glyph-name="Ograve" unicode="&#xd2;" horiz-adv-x="759" d="M182 330 C182 494 248 633 376 633 C503 633 569 494 569 330 C569 166 503 27 376 27 C248 27 182 166 182 330 L182 330 Z M42 330 C42 149 156 -5 376 -5 C596 -5 709 149 709 330 C709 511 596 665 376 665 C156 665 42 511 42 330 L42 330 Z M291 861 C291 854 306 837 328 814 C360 774 447 690 447 690 L460 699 C460 699 418 818 386 859 C372 889 362 909 357 909 C337 909 291 875 291 861 L291 861 Z " />
<glyph glyph-name="Oacute" unicode="&#xd3;" horiz-adv-x="759" d="M353 690 C353 690 438 774 469 814 C491 838 505 855 505 861 C505 875 459 909 439 909 C435 909 425 889 411 859 C380 819 340 699 340 699 L353 690 L353 690 Z M182 330 C182 494 248 633 376 633 C503 633 569 494 569 330 C569 166 503 27 376 27 C248 27 182 166 182 330 L182 330 Z M42 330 C42 149 156 -5 376 -5 C596 -5 709 149 709 330 C709 511 596 665 376 665 C156 665 42 511 42 330 L42 330 Z " />
<glyph glyph-name="Ocircumflex" unicode="&#xd4;" horiz-adv-x="759" d="M182 330 C182 494 248 633 376 633 C503 633 569 494 569 330 C569 166 503 27 376 27 C248 27 182 166 182 330 L182 330 Z M42 330 C42 149 156 -5 376 -5 C596 -5 709 149 709 330 C709 511 596 665 376 665 C156 665 42 511 42 330 L42 330 Z M412 872 C407 882 394 904 376 904 C357 904 344 882 339 872 C339 872 251 699 253 701 L265 691 C317 754 353 790 376 810 C420 765 486 691 486 691 L498 701 C498 701 460 774 412 872 L412 872 Z M339 836 C336 841 336 843 338 842 L339 836 L339 836 Z " />
<glyph glyph-name="Otilde" unicode="&#xd5;" horiz-adv-x="759" d="M236 755 C236 789 252 811 275 811 C326 811 394 748 445 748 C498 748 534 803 534 885 L515 885 C515 849 497 825 470 825 C419 825 351 887 300 887 C250 887 217 834 217 755 L236 755 L236 755 Z M182 330 C182 494 248 633 376 633 C503 633 569 494 569 330 C569 166 503 27 376 27 C248 27 182 166 182 330 L182 330 Z M42 330 C42 149 156 -5 376 -5 C596 -5 709 149 709 330 C709 511 596 665 376 665 C156 665 42 511 42 330 L42 330 Z " />
<glyph glyph-name="Odieresis" unicode="&#xd6;" horiz-adv-x="759" d="M476 730 C518 730 546 758 546 800 C546 843 518 871 476 871 C434 871 406 843 406 800 C406 758 434 730 476 730 L476 730 Z M275 730 C317 730 345 758 345 800 C345 843 317 871 275 871 C233 871 205 843 205 800 C205 758 233 730 275 730 L275 730 Z M182 330 C182 494 248 633 376 633 C503 633 569 494 569 330 C569 166 503 27 376 27 C248 27 182 166 182 330 L182 330 Z M42 330 C42 149 156 -5 376 -5 C596 -5 709 149 709 330 C709 511 596 665 376 665 C156 665 42 511 42 330 L42 330 Z " />
<glyph glyph-name="Oslash" unicode="&#xd8;" horiz-adv-x="759" d="M62 -25 L154 68 C209 23 283 -4 376 -4 C596 -4 709 150 709 331 C709 415 685 493 637 553 L730 646 L690 686 L598 593 C544 638 470 665 377 665 C157 665 43 511 43 330 C43 246 68 168 116 108 L23 15 L62 -25 L62 -25 Z M531 525 L201 193 C189 234 183 281 183 330 C183 494 249 633 377 633 C447 633 499 591 531 525 L531 525 Z M553 467 C565 426 571 379 571 330 C571 166 505 27 378 27 C307 27 255 69 223 135 L553 467 L553 467 Z " />
<glyph glyph-name="Ugrave" unicode="&#xd9;" horiz-adv-x="703" d="M264 861 C264 853 278 836 300 814 C332 773 420 690 420 690 L433 699 C433 699 391 818 359 859 C345 889 334 909 329 909 C310 909 264 875 264 861 L264 861 Z M98 588 L98 219 C98 85 169 -5 353 -5 C529 -5 598 73 598 189 L598 578 C598 623 627 655 670 658 L683 659 L683 660 L469 660 L469 659 L484 658 C529 655 559 623 559 578 L559 202 C559 105 507 40 372 40 C267 40 226 102 226 194 L226 588 C226 627 252 655 290 658 L301 659 L301 660 L23 660 L23 659 L34 658 C72 655 98 627 98 588 L98 588 Z " />
<glyph glyph-name="Uacute" unicode="&#xda;" horiz-adv-x="703" d="M348 690 C348 690 434 774 465 814 C486 837 500 854 500 861 C500 875 455 909 435 909 C431 909 420 889 406 859 C375 819 335 699 335 699 L348 690 L348 690 Z M98 588 L98 219 C98 85 169 -5 353 -5 C529 -5 598 73 598 189 L598 578 C598 623 627 655 670 658 L683 659 L683 660 L469 660 L469 659 L484 658 C529 655 559 623 559 578 L559 202 C559 105 507 40 372 40 C267 40 226 102 226 194 L226 588 C226 627 252 655 290 658 L301 659 L301 660 L23 660 L23 659 L34 658 C72 655 98 627 98 588 L98 588 Z " />
<glyph glyph-name="Ucircumflex" unicode="&#xdb;" horiz-adv-x="703" d="M385 872 C380 882 367 904 348 904 C330 904 317 882 312 872 C312 872 224 699 226 701 L238 691 C290 753 325 789 348 809 C392 764 457 691 457 691 L469 701 C469 701 433 772 384 872 L385 872 L385 872 Z M310 836 C307 841 307 843 309 842 L310 836 L310 836 Z M96 588 L96 219 C96 85 167 -5 351 -5 C527 -5 596 73 596 189 L596 578 C596 623 625 655 668 658 L681 659 L681 660 L467 660 L467 659 L482 658 C527 655 557 623 557 578 L557 202 C557 105 505 40 370 40 C265 40 224 102 224 194 L224 588 C224 627 250 655 288 658 L299 659 L299 660 L21 660 L21 659 L32 658 C70 655 96 627 96 588 L96 588 Z " />
<glyph glyph-name="Udieresis" unicode="&#xdc;" horiz-adv-x="703" d="M448 730 C491 730 519 758 519 800 C519 843 491 871 448 871 C406 871 378 843 378 800 C378 758 406 730 448 730 L448 730 Z M248 730 C290 730 318 758 318 800 C318 843 290 871 248 871 C205 871 177 843 177 800 C177 758 205 730 248 730 L248 730 Z M98 588 L98 219 C98 85 169 -5 353 -5 C529 -5 598 73 598 189 L598 578 C598 623 627 655 670 658 L683 659 L683 660 L469 660 L469 659 L484 658 C529 655 559 623 559 578 L559 202 C559 105 507 40 372 40 C267 40 226 102 226 194 L226 588 C226 627 252 655 290 658 L301 659 L301 660 L23 660 L23 659 L34 658 C72 655 98 627 98 588 L98 588 Z " />
<glyph glyph-name="Yacute" unicode="&#xdd;" horiz-adv-x="672" d="M332 690 C332 690 418 774 449 814 C470 837 484 854 484 861 C484 875 439 909 419 909 C415 909 404 889 390 859 C359 819 319 699 319 699 L332 690 L332 690 Z M681 659 L681 660 L468 660 L468 659 L489 658 C537 655 550 622 522 575 L378 355 L237 595 C220 630 232 655 268 657 L289 659 L289 660 L-8 660 L-8 659 C28 655 59 635 85 595 L267 289 L267 72 C267 33 241 5 203 2 L192 1 L192 0 L470 0 L470 1 L459 2 C421 5 395 33 395 72 L395 330 C395 330 553 566 568 588 C598 632 637 654 681 658 L681 659 L681 659 Z " />
<glyph glyph-name="agrave" unicode="&#xe0;" horiz-adv-x="512" d="M490 64 C482 53 470 45 444 45 C414 45 405 72 405 112 L405 352 C405 444 348 505 263 505 C148 505 63 458 49 388 L164 388 C174 439 203 473 237 473 C265 473 283 435 283 378 L283 264 C261 261 237 257 218 252 C109 225 37 166 37 105 C37 39 84 -5 155 -5 C207 -5 256 11 293 37 C304 7 326 -11 367 -11 C443 -11 481 12 504 47 L490 64 L490 64 Z M144 700 C144 692 158 675 180 653 C212 612 300 529 300 529 L313 538 C313 538 271 657 239 698 C225 728 214 748 209 748 C190 748 144 714 144 700 L144 700 Z M284 231 L284 99 C284 92 284 85 284 79 C263 74 239 71 212 71 C175 71 150 97 150 137 C150 174 177 205 217 215 C241 221 263 226 282 230 L284 231 L284 231 Z " />
<glyph glyph-name="aacute" unicode="&#xe1;" horiz-adv-x="512" d="M197 530 C197 530 283 614 314 654 C335 677 349 694 349 701 C349 715 304 749 284 749 C280 749 269 729 255 699 C224 659 184 539 184 539 L197 530 L197 530 Z M490 64 C482 53 470 45 444 45 C414 45 405 72 405 112 L405 352 C405 444 348 505 263 505 C148 505 63 458 49 388 L164 388 C174 439 203 473 237 473 C265 473 283 435 283 378 L283 264 C261 261 237 257 218 252 C109 225 37 166 37 105 C37 39 84 -5 155 -5 C207 -5 256 11 293 37 C304 7 326 -11 367 -11 C443 -11 481 12 504 47 L490 64 L490 64 Z M284 231 L284 99 C284 92 284 85 284 79 C263 74 239 71 212 71 C175 71 150 97 150 137 C150 174 177 205 217 215 C241 221 263 226 282 230 L284 231 L284 231 Z " />
<glyph glyph-name="acircumflex" unicode="&#xe2;" horiz-adv-x="512" d="M490 64 C482 53 470 45 444 45 C414 45 405 72 405 112 L405 352 C405 444 348 505 263 505 C148 505 63 458 49 388 L164 388 C174 439 203 473 237 473 C265 473 283 435 283 378 L283 264 C261 261 237 257 218 252 C109 225 37 166 37 105 C37 39 84 -5 155 -5 C207 -5 256 11 293 37 C304 7 326 -11 367 -11 C443 -11 481 12 504 47 L490 64 L490 64 Z M265 711 C260 721 247 743 228 743 C210 743 197 721 192 711 C192 711 104 538 106 540 L118 530 C170 592 205 628 228 648 C272 603 337 530 337 530 L349 540 C349 540 313 611 264 711 L265 711 L265 711 Z M190 675 C187 680 187 682 189 681 L190 675 L190 675 Z M282 231 L282 99 C282 92 282 85 282 79 C261 74 237 71 210 71 C173 71 148 97 148 137 C148 174 175 205 215 215 C239 221 261 226 280 230 L282 231 L282 231 Z " />
<glyph glyph-name="atilde" unicode="&#xe3;" horiz-adv-x="512" d="M88 595 C88 629 104 651 127 651 C178 651 245 588 296 588 C349 588 385 643 385 725 L366 725 C366 689 348 665 321 665 C270 665 203 727 152 727 C102 727 69 674 69 595 L88 595 L88 595 Z M490 64 C482 53 470 45 444 45 C414 45 405 72 405 112 L405 352 C405 444 348 505 263 505 C148 505 63 458 49 388 L164 388 C174 439 203 473 237 473 C265 473 283 435 283 378 L283 264 C261 261 237 257 218 252 C109 225 37 166 37 105 C37 39 84 -5 155 -5 C207 -5 256 11 293 37 C304 7 326 -11 367 -11 C443 -11 481 12 504 47 L490 64 L490 64 Z M284 231 L284 99 C284 92 284 85 284 79 C263 74 239 71 212 71 C175 71 150 97 150 137 C150 174 177 205 217 215 C241 221 263 226 282 230 L284 231 L284 231 Z " />
<glyph glyph-name="adieresis" unicode="&#xe4;" horiz-adv-x="512" d="M327 570 C370 570 398 598 398 640 C398 683 370 711 327 711 C285 711 257 683 257 640 C257 598 285 570 327 570 L327 570 Z M127 570 C169 570 197 598 197 640 C197 683 169 711 127 711 C84 711 56 683 56 640 C56 598 84 570 127 570 L127 570 Z M490 64 C482 53 470 45 444 45 C414 45 405 72 405 112 L405 352 C405 444 348 505 263 505 C148 505 63 458 49 388 L164 388 C174 439 203 473 237 473 C265 473 283 435 283 378 L283 264 C261 261 237 257 218 252 C109 225 37 166 37 105 C37 39 84 -5 155 -5 C207 -5 256 11 293 37 C304 7 326 -11 367 -11 C443 -11 481 12 504 47 L490 64 L490 64 Z M284 231 L284 99 C284 92 284 85 284 79 C263 74 239 71 212 71 C175 71 150 97 150 137 C150 174 177 205 217 215 C241 221 263 226 282 230 L284 231 L284 231 Z " />
<glyph glyph-name="aring" unicode="&#xe5;" horiz-adv-x="512" d="M163 628 C163 668 189 694 227 694 C265 694 291 668 291 628 C291 592 262 561 227 561 C192 561 163 592 163 628 L163 628 Z M131 628 C131 578 175 535 227 535 C279 535 323 578 323 628 C323 683 285 720 227 720 C169 720 131 683 131 628 L131 628 Z M490 64 C482 53 470 45 444 45 C414 45 405 72 405 112 L405 352 C405 444 348 505 263 505 C148 505 63 458 49 388 L164 388 C174 439 203 473 237 473 C265 473 283 435 283 378 L283 264 C261 261 237 257 218 252 C109 225 37 166 37 105 C37 39 84 -5 155 -5 C207 -5 256 11 293 37 C304 7 326 -11 367 -11 C443 -11 481 12 504 47 L490 64 L490 64 Z M284 231 L284 99 C284 92 284 85 284 79 C263 74 239 71 212 71 C175 71 150 97 150 137 C150 174 177 205 217 215 C241 221 263 226 282 230 L284 231 L284 231 Z " />
<glyph glyph-name="ccedilla" unicode="&#xe7;" horiz-adv-x="521" d="M220 -74 L208 -94 C212 -87 216 -80 220 -74 L220 -74 Z M222 -72 C250 -28 271 -11 282 -4 C344 2 417 34 471 79 L460 91 C441 75 400 65 357 65 C246 65 172 148 172 273 C172 393 220 473 293 473 C331 473 359 445 363 404 C366 370 389 348 420 348 C451 348 471 368 471 399 C465 463 399 505 306 505 C152 505 50 395 50 229 C50 94 128 2 248 -4 C242 -15 224 -46 200 -89 L208 -93 C224 -84 244 -78 257 -78 C286 -78 305 -100 305 -133 C305 -165 277 -186 234 -186 C207 -186 184 -180 175 -172 L168 -184 C190 -205 226 -219 257 -219 C328 -219 376 -185 376 -133 C376 -86 339 -55 284 -55 C264 -55 238 -61 221 -71 L222 -72 L222 -72 Z " />
<glyph glyph-name="egrave" unicode="&#xe8;" horiz-adv-x="527" d="M477 79 L466 91 C447 75 405 65 360 65 C237 65 165 160 173 300 L477 300 C477 423 400 505 285 505 C144 505 50 395 50 229 C50 89 136 -5 264 -5 C332 -5 417 29 477 79 L477 79 Z M201 701 C201 693 215 676 237 654 C269 613 357 530 357 530 L370 539 C370 539 328 658 296 699 C282 729 271 749 266 749 C247 749 201 715 201 701 L201 701 Z M370 393 L370 396 C370 395 370 394 370 393 L370 393 Z M315 337 L175 322 C185 414 224 473 279 473 C334 473 370 442 370 396 C369 363 348 340 315 337 L315 337 Z " />
<glyph glyph-name="eacute" unicode="&#xe9;" horiz-adv-x="527" d="M255 530 C255 530 341 614 372 654 C393 677 407 694 407 701 C407 715 362 749 342 749 C338 749 327 729 313 699 C282 659 242 539 242 539 L255 530 L255 530 Z M477 79 L466 91 C447 75 405 65 360 65 C237 65 165 160 173 300 L477 300 C477 423 400 505 285 505 C144 505 50 395 50 229 C50 89 136 -5 264 -5 C332 -5 417 29 477 79 L477 79 Z M370 393 L370 396 C370 395 370 394 370 393 L370 393 Z M315 337 L175 322 C185 414 224 473 279 473 C334 473 370 442 370 396 C369 363 348 340 315 337 L315 337 Z " />
<glyph glyph-name="ecircumflex" unicode="&#xea;" horiz-adv-x="527" d="M477 79 L466 91 C447 75 405 65 360 65 C237 65 165 160 173 300 L477 300 C477 423 400 505 285 505 C144 505 50 395 50 229 C50 89 136 -5 264 -5 C332 -5 417 29 477 79 L477 79 Z M322 712 C317 722 304 744 285 744 C267 744 254 722 249 712 C249 712 161 539 163 541 L175 531 C227 593 262 629 285 649 C329 604 394 531 394 531 L406 541 C406 541 370 612 321 712 L322 712 L322 712 Z M247 676 C244 681 244 683 246 682 L247 676 L247 676 Z M368 393 L368 396 C368 395 368 394 368 393 L368 393 Z M313 337 L173 322 C183 414 222 473 277 473 C332 473 368 442 368 396 C367 363 346 340 313 337 L313 337 Z " />
<glyph glyph-name="edieresis" unicode="&#xeb;" horiz-adv-x="527" d="M385 570 C428 570 456 598 456 640 C456 683 428 711 385 711 C343 711 315 683 315 640 C315 598 343 570 385 570 L385 570 Z M185 570 C227 570 255 598 255 640 C255 683 227 711 185 711 C142 711 114 683 114 640 C114 598 142 570 185 570 L185 570 Z M477 79 L466 91 C447 75 405 65 360 65 C237 65 165 160 173 300 L477 300 C477 423 400 505 285 505 C144 505 50 395 50 229 C50 89 136 -5 264 -5 C332 -5 417 29 477 79 L477 79 Z M370 393 L370 396 C370 395 370 394 370 393 L370 393 Z M315 337 L175 322 C185 414 224 473 279 473 C334 473 370 442 370 396 C369 363 348 340 315 337 L315 337 Z " />
<glyph glyph-name="igrave" unicode="&#xec;" horiz-adv-x="355" d="M94 701 C94 693 108 676 130 654 C162 613 250 530 250 530 L263 539 C263 539 221 658 189 699 C175 729 164 749 159 749 C140 749 94 715 94 701 L94 701 Z M310 0 L310 1 L299 2 C261 5 235 33 235 72 L235 500 L212 500 L45 449 L45 448 L56 448 C110 449 120 439 120 385 L120 72 C120 33 94 5 56 2 L45 1 L45 0 L310 0 L310 0 Z " />
<glyph glyph-name="iacute" unicode="&#xed;" horiz-adv-x="355" d="M102 530 C102 530 188 614 219 654 C240 677 254 694 254 701 C254 715 209 749 189 749 C185 749 174 729 160 699 C129 659 89 539 89 539 L102 530 L102 530 Z M310 0 L310 1 L299 2 C261 5 235 33 235 72 L235 500 L212 500 L45 449 L45 448 L56 448 C110 449 120 439 120 385 L120 72 C120 33 94 5 56 2 L45 1 L45 0 L310 0 L310 0 Z " />
<glyph glyph-name="icircumflex" unicode="&#xee;" horiz-adv-x="355" d="M215 712 C210 722 197 744 178 744 C160 744 147 722 142 712 C142 712 54 539 56 541 L68 531 C120 593 155 629 178 649 C222 604 287 531 287 531 L299 541 C299 541 263 612 214 712 L215 712 L215 712 Z M140 676 C137 681 137 683 139 682 L140 676 L140 676 Z M308 0 L308 1 L297 2 C259 5 233 33 233 72 L233 500 L210 500 L43 449 L43 448 L54 448 C108 449 118 439 118 385 L118 72 C118 33 92 5 54 2 L43 1 L43 0 L308 0 L308 0 Z " />
<glyph glyph-name="idieresis" unicode="&#xef;" horiz-adv-x="355" d="M278 570 C321 570 349 598 349 640 C349 683 321 711 278 711 C236 711 208 683 208 640 C208 598 236 570 278 570 L278 570 Z M78 570 C120 570 148 598 148 640 C148 683 120 711 78 711 C35 711 7 683 7 640 C7 598 35 570 78 570 L78 570 Z M310 0 L310 1 L299 2 C261 5 235 33 235 72 L235 500 L212 500 L45 449 L45 448 L56 448 C110 449 120 439 120 385 L120 72 C120 33 94 5 56 2 L45 1 L45 0 L310 0 L310 0 Z " />
<glyph glyph-name="ntilde" unicode="&#xf1;" horiz-adv-x="636" d="M181 595 C181 629 197 651 220 651 C271 651 338 588 389 588 C442 588 478 643 478 725 L459 725 C459 689 441 665 414 665 C363 665 296 727 245 727 C195 727 162 674 162 595 L181 595 L181 595 Z M406 72 C406 33 380 5 342 2 L331 1 L331 0 L596 0 L596 1 L585 2 C547 5 521 33 521 72 L521 338 C521 438 490 505 410 505 C345 505 277 477 234 433 L234 499 L211 499 L44 448 L44 447 L55 447 C109 448 119 438 119 384 L119 71 C119 32 93 4 55 1 L44 0 L44 -1 L309 -1 L309 0 L298 1 C260 4 234 32 234 71 L234 415 C252 423 284 427 321 427 C382 427 406 386 406 325 L406 72 L406 72 Z " />
<glyph glyph-name="ograve" unicode="&#xf2;" horiz-adv-x="607" d="M178 250 C178 387 228 479 304 479 C379 479 429 387 429 250 C429 113 379 21 304 21 C228 21 178 113 178 250 L178 250 Z M50 250 C50 97 152 -5 304 -5 C456 -5 557 97 557 250 C557 403 456 505 304 505 C152 505 50 403 50 250 L50 250 Z M219 701 C219 694 234 677 256 654 C288 614 375 530 375 530 L388 539 C388 539 346 658 314 699 C300 729 290 749 285 749 C265 749 219 715 219 701 L219 701 Z " />
<glyph glyph-name="oacute" unicode="&#xf3;" horiz-adv-x="607" d="M274 530 C274 530 359 614 390 654 C412 678 426 695 426 701 C426 715 380 749 360 749 C356 749 346 729 332 699 C301 659 261 539 261 539 L274 530 L274 530 Z M178 250 C178 387 228 479 304 479 C379 479 429 387 429 250 C429 113 379 21 304 21 C228 21 178 113 178 250 L178 250 Z M50 250 C50 97 152 -5 304 -5 C456 -5 557 97 557 250 C557 403 456 505 304 505 C152 505 50 403 50 250 L50 250 Z " />
<glyph glyph-name="ocircumflex" unicode="&#xf4;" horiz-adv-x="607" d="M178 250 C178 387 228 479 304 479 C379 479 429 387 429 250 C429 113 379 21 304 21 C228 21 178 113 178 250 L178 250 Z M50 250 C50 97 152 -5 304 -5 C456 -5 557 97 557 250 C557 403 456 505 304 505 C152 505 50 403 50 250 L50 250 Z M340 712 C335 722 322 744 304 744 C285 744 272 722 267 712 C267 712 179 539 181 541 L193 531 C245 594 281 630 304 650 C348 605 414 531 414 531 L426 541 C426 541 388 614 340 712 L340 712 Z M267 676 C264 681 264 683 266 682 L267 676 L267 676 Z " />
<glyph glyph-name="otilde" unicode="&#xf5;" horiz-adv-x="607" d="M164 595 C164 629 180 651 203 651 C254 651 322 588 373 588 C426 588 462 643 462 725 L443 725 C443 689 425 665 398 665 C347 665 279 727 228 727 C178 727 145 674 145 595 L164 595 L164 595 Z M178 250 C178 387 228 479 304 479 C379 479 429 387 429 250 C429 113 379 21 304 21 C228 21 178 113 178 250 L178 250 Z M50 250 C50 97 152 -5 304 -5 C456 -5 557 97 557 250 C557 403 456 505 304 505 C152 505 50 403 50 250 L50 250 Z " />
<glyph glyph-name="odieresis" unicode="&#xf6;" horiz-adv-x="607" d="M404 570 C446 570 474 598 474 640 C474 683 446 711 404 711 C362 711 334 683 334 640 C334 598 362 570 404 570 L404 570 Z M203 570 C245 570 273 598 273 640 C273 683 245 711 203 711 C161 711 133 683 133 640 C133 598 161 570 203 570 L203 570 Z M178 250 C178 387 228 479 304 479 C379 479 429 387 429 250 C429 113 379 21 304 21 C228 21 178 113 178 250 L178 250 Z M50 250 C50 97 152 -5 304 -5 C456 -5 557 97 557 250 C557 403 456 505 304 505 C152 505 50 403 50 250 L50 250 Z " />
<glyph glyph-name="oslash" unicode="&#xf8;" horiz-adv-x="607" d="M64 -19 L134 52 C177 16 235 -4 303 -4 C455 -4 556 98 556 251 C556 320 536 378 500 421 L570 492 L542 520 L472 449 C429 485 371 505 303 505 C151 505 49 403 49 250 C49 182 69 124 105 81 L34 10 L64 -19 L64 -19 Z M407 385 L184 161 C179 188 176 218 176 251 C176 388 226 480 302 480 C349 480 386 445 407 385 L407 385 Z M419 341 C424 314 427 284 427 251 C427 114 377 22 302 22 C255 22 218 57 197 117 L419 341 L419 341 Z " />
<glyph glyph-name="ugrave" unicode="&#xf9;" horiz-adv-x="601" d="M89 428 L90 154 C90 59 135 -5 221 -5 C271 -5 324 26 375 74 L375 0 L398 0 L565 51 L565 52 L554 52 C500 51 490 61 490 115 L490 500 L300 500 L300 499 L311 498 C349 495 375 467 375 428 L375 92 C359 79 338 71 310 71 C239 71 203 109 203 166 L203 500 L13 500 L13 499 L24 498 C62 495 88 467 88 428 L89 428 L89 428 Z M205 701 C205 693 219 676 241 654 C273 613 361 530 361 530 L374 539 C374 539 332 658 300 699 C286 729 275 749 270 749 C251 749 205 715 205 701 L205 701 Z " />
<glyph glyph-name="uacute" unicode="&#xfa;" horiz-adv-x="601" d="M260 530 C260 530 346 614 377 654 C398 677 412 694 412 701 C412 715 367 749 347 749 C343 749 332 729 318 699 C287 659 247 539 247 539 L260 530 L260 530 Z M89 428 L90 154 C90 59 135 -5 221 -5 C271 -5 324 26 375 74 L375 0 L398 0 L565 51 L565 52 L554 52 C500 51 490 61 490 115 L490 500 L300 500 L300 499 L311 498 C349 495 375 467 375 428 L375 92 C359 79 338 71 310 71 C239 71 203 109 203 166 L203 500 L13 500 L13 499 L24 498 C62 495 88 467 88 428 L89 428 L89 428 Z " />
<glyph glyph-name="ucircumflex" unicode="&#xfb;" horiz-adv-x="601" d="M89 428 L90 154 C90 59 135 -5 221 -5 C271 -5 324 26 375 74 L375 0 L398 0 L565 51 L565 52 L554 52 C500 51 490 61 490 115 L490 500 L300 500 L300 499 L311 498 C349 495 375 467 375 428 L375 92 C359 79 338 71 310 71 C239 71 203 109 203 166 L203 500 L13 500 L13 499 L24 498 C62 495 88 467 88 428 L89 428 L89 428 Z M326 712 C321 722 308 744 289 744 C271 744 258 722 253 712 C253 712 165 539 167 541 L179 531 C231 593 266 629 289 649 C333 604 398 531 398 531 L410 541 C410 541 374 612 325 712 L326 712 L326 712 Z M251 676 C248 681 248 683 250 682 L251 676 L251 676 Z " />
<glyph glyph-name="udieresis" unicode="&#xfc;" horiz-adv-x="601" d="M390 570 C433 570 461 598 461 640 C461 683 433 711 390 711 C348 711 320 683 320 640 C320 598 348 570 390 570 L390 570 Z M190 570 C232 570 260 598 260 640 C260 683 232 711 190 711 C147 711 119 683 119 640 C119 598 147 570 190 570 L190 570 Z M89 428 L90 154 C90 59 135 -5 221 -5 C271 -5 324 26 375 74 L375 0 L398 0 L565 51 L565 52 L554 52 C500 51 490 61 490 115 L490 500 L300 500 L300 499 L311 498 C349 495 375 467 375 428 L375 92 C359 79 338 71 310 71 C239 71 203 109 203 166 L203 500 L13 500 L13 499 L24 498 C62 495 88 467 88 428 L89 428 L89 428 Z " />
<glyph glyph-name="ydieresis" unicode="&#xff;" horiz-adv-x="537" d="M389 570 C431 570 459 598 459 640 C459 683 431 711 389 711 C347 711 319 683 319 640 C319 598 347 570 389 570 L389 570 Z M188 570 C230 570 258 598 258 640 C258 683 230 711 188 711 C146 711 118 683 118 640 C118 598 146 570 188 570 L188 570 Z M85 428 L86 428 L277 7 C269 -8 257 -34 247 -63 C218 -129 193 -155 158 -155 C158 -155 96 -130 70 -130 C35 -130 12 -150 12 -179 C12 -210 42 -231 87 -231 C175 -231 228 -187 277 -73 C289 -38 304 -11 304 -11 L494 427 C511 466 548 494 587 497 L599 498 L599 499 L411 499 L411 498 L422 497 C457 494 471 469 460 434 L342 135 L215 429 C200 467 213 494 249 497 L260 498 L260 499 L-21 499 L-21 498 L-9 497 C30 494 67 466 85 427 L85 428 L85 428 Z " />
<glyph glyph-name="Amacron" unicode="&#x100;" horiz-adv-x="708" d="M181 761 L481 761 L481 825 L181 825 L181 761 L181 761 Z M612 72 L611 72 L347 675 L315 675 L93 72 L92 72 C77 33 42 5 3 2 L-9 1 L-9 0 L219 0 L219 1 L191 3 C143 5 124 40 140 87 L191 232 L406 232 L478 62 C489 28 473 4 436 2 L395 0 L395 -1 L703 -1 L703 0 C664 4 632 24 612 70 L612 72 L612 72 Z M392 262 L202 262 L288 507 L392 262 L392 262 Z " />
<glyph glyph-name="amacron" unicode="&#x101;" horiz-adv-x="512" d="M77 601 L377 601 L377 665 L77 665 L77 601 L77 601 Z M490 64 C482 53 470 45 444 45 C414 45 405 72 405 112 L405 352 C405 444 348 505 263 505 C148 505 63 458 49 388 L164 388 C174 439 203 473 237 473 C265 473 283 435 283 378 L283 264 C261 261 237 257 218 252 C109 225 37 166 37 105 C37 39 84 -5 155 -5 C207 -5 256 11 293 37 C304 7 326 -11 367 -11 C443 -11 481 12 504 47 L490 64 L490 64 Z M284 231 L284 99 C284 92 284 85 284 79 C263 74 239 71 212 71 C175 71 150 97 150 137 C150 174 177 205 217 215 C241 221 263 226 282 230 L284 231 L284 231 Z " />
<glyph glyph-name="Abreve" unicode="&#x102;" horiz-adv-x="708" d="M199 870 C233 790 286 736 331 736 C376 736 429 790 463 870 L444 878 C427 838 382 812 331 812 C280 812 235 838 218 878 L199 870 L199 870 Z M612 72 L611 72 L347 675 L315 675 L93 72 L92 72 C77 33 42 5 3 2 L-9 1 L-9 0 L219 0 L219 1 L191 3 C143 5 124 40 140 87 L191 232 L406 232 L478 62 C489 28 473 4 436 2 L395 0 L395 -1 L703 -1 L703 0 C664 4 632 24 612 70 L612 72 L612 72 Z M392 262 L202 262 L288 507 L392 262 L392 262 Z " />
<glyph glyph-name="abreve" unicode="&#x103;" horiz-adv-x="512" d="M95 680 C129 600 182 546 227 546 C272 546 325 600 359 680 L340 688 C323 648 278 622 227 622 C176 622 131 648 114 688 L95 680 L95 680 Z M490 64 C482 53 470 45 444 45 C414 45 405 72 405 112 L405 352 C405 444 348 505 263 505 C148 505 63 458 49 388 L164 388 C174 439 203 473 237 473 C265 473 283 435 283 378 L283 264 C261 261 237 257 218 252 C109 225 37 166 37 105 C37 39 84 -5 155 -5 C207 -5 256 11 293 37 C304 7 326 -11 367 -11 C443 -11 481 12 504 47 L490 64 L490 64 Z M284 231 L284 99 C284 92 284 85 284 79 C263 74 239 71 212 71 C175 71 150 97 150 137 C150 174 177 205 217 215 C241 221 263 226 282 230 L284 231 L284 231 Z " />
<glyph glyph-name="Aogonek" unicode="&#x104;" horiz-adv-x="708" d="M612 72 L611 72 L347 675 L315 675 L93 72 L92 72 C77 33 42 5 3 2 L-9 1 L-9 0 L219 0 L219 1 L191 3 C143 5 124 40 140 87 L191 232 L406 232 L478 62 C489 28 473 4 436 2 L395 0 L395 -1 L455 -1 C399 -38 331 -103 331 -156 C331 -205 387 -238 470 -238 C506 -238 541 -226 556 -208 L548 -198 C544 -203 523 -206 495 -206 C439 -206 402 -181 402 -144 C402 -81 473 -13 504 -2 L703 -2 L703 -1 C664 3 632 23 612 69 L612 72 L612 72 Z M392 261 L202 261 L288 506 L392 261 L392 261 Z " />
<glyph glyph-name="aogonek" unicode="&#x105;" horiz-adv-x="512" d="M490 64 C482 53 470 45 444 45 C414 45 405 72 405 112 L405 352 C405 444 348 505 263 505 C148 505 63 458 49 388 L164 388 C174 439 203 473 237 473 C265 473 283 435 283 378 L283 264 C261 261 237 257 218 252 C109 225 37 166 37 105 C37 39 84 -5 155 -5 C207 -5 256 11 293 37 C307 -1 339 -14 393 -10 C346 -48 301 -100 301 -145 C301 -200 357 -237 440 -237 C476 -237 511 -225 526 -207 L518 -197 C514 -202 493 -205 465 -205 C409 -205 372 -176 372 -133 C372 -78 420 -21 454 4 C477 14 493 29 505 47 L490 64 L490 64 Z M285 231 L285 99 C285 92 285 85 285 79 C264 74 240 71 213 71 C176 71 151 97 151 137 C151 174 178 205 218 215 C242 221 264 226 283 230 L285 231 L285 231 Z " />
<glyph glyph-name="Cacute" unicode="&#x106;" horiz-adv-x="731" d="M373 690 C373 690 459 774 490 814 C511 837 525 854 525 861 C525 875 480 909 460 909 C456 909 445 889 431 859 C400 819 360 699 360 699 L373 690 L373 690 Z M663 68 L663 68 L663 68 Z M671 53 L671 207 L670 207 C668 197 665 184 663 174 C648 103 582 47 498 33 C472 29 445 27 419 27 C277 27 182 148 182 330 C182 512 277 633 419 633 C460 633 503 628 543 619 C602 603 650 551 663 486 C665 476 668 463 670 453 L671 453 L671 607 C611 642 510 665 419 665 C193 665 42 531 42 330 C42 129 193 -5 419 -5 C510 -5 611 18 671 53 L671 53 Z " />
<glyph glyph-name="cacute" unicode="&#x107;" horiz-adv-x="521" d="M230 530 C230 530 316 614 347 654 C368 677 382 694 382 701 C382 715 337 749 317 749 C313 749 302 729 288 699 C257 659 217 539 217 539 L230 530 L230 530 Z M471 79 L460 91 C441 75 400 65 357 65 C246 65 172 148 172 273 C172 393 220 473 293 473 C331 473 359 445 363 404 C366 370 389 348 420 348 C451 348 471 368 471 399 C465 463 399 505 306 505 C152 505 50 395 50 229 C50 89 134 -5 261 -5 C327 -5 411 29 471 79 L471 79 Z " />
<glyph glyph-name="Ccircumflex" unicode="&#x108;" horiz-adv-x="731" d="M456 872 C451 882 438 904 419 904 C401 904 388 882 383 872 C383 872 295 699 297 701 L309 691 C361 753 396 789 419 809 C463 764 528 691 528 691 L540 701 C540 701 504 772 455 872 L456 872 L456 872 Z M381 836 C378 841 378 843 380 842 L381 836 L381 836 Z M661 68 L661 68 L661 68 Z M669 53 L669 207 L668 207 C666 197 663 184 661 174 C646 103 580 47 496 33 C470 29 443 27 417 27 C275 27 180 148 180 330 C180 512 275 633 417 633 C458 633 501 628 541 619 C600 603 648 551 661 486 C663 476 666 463 668 453 L669 453 L669 607 C609 642 508 665 417 665 C191 665 40 531 40 330 C40 129 191 -5 417 -5 C508 -5 609 18 669 53 L669 53 Z " />
<glyph glyph-name="Cdot" unicode="&#x10a;" horiz-adv-x="731" d="M419 730 C461 730 489 758 489 800 C489 843 461 871 419 871 C377 871 349 843 349 800 C349 758 377 730 419 730 L419 730 Z M663 68 L663 68 L663 68 Z M671 53 L671 207 L670 207 C668 197 665 184 663 174 C648 103 582 47 498 33 C472 29 445 27 419 27 C277 27 182 148 182 330 C182 512 277 633 419 633 C460 633 503 628 543 619 C602 603 650 551 663 486 C665 476 668 463 670 453 L671 453 L671 607 C611 642 510 665 419 665 C193 665 42 531 42 330 C42 129 193 -5 419 -5 C510 -5 611 18 671 53 L671 53 Z " />
<glyph glyph-name="cdot" unicode="&#x10b;" horiz-adv-x="521" d="M306 570 C348 570 376 598 376 640 C376 683 348 711 306 711 C264 711 236 683 236 640 C236 598 264 570 306 570 L306 570 Z M471 79 L460 91 C441 75 400 65 357 65 C246 65 172 148 172 273 C172 393 220 473 293 473 C331 473 359 445 363 404 C366 370 389 348 420 348 C451 348 471 368 471 399 C465 463 399 505 306 505 C152 505 50 395 50 229 C50 89 134 -5 261 -5 C327 -5 411 29 471 79 L471 79 Z " />
<glyph glyph-name="Ccaron" unicode="&#x10c;" horiz-adv-x="731" d="M529 929 C529 929 464 856 420 811 C397 831 362 867 310 929 L298 919 L384 748 C389 738 402 716 420 716 C439 716 452 738 457 748 C506 848 542 919 542 919 L529 929 L529 929 Z M383 778 C381 777 381 779 384 784 L383 778 L383 778 Z M665 68 L665 68 L665 68 Z M673 53 L673 207 L672 207 C670 197 667 184 665 174 C650 103 584 47 500 33 C474 29 447 27 421 27 C279 27 184 148 184 330 C184 512 279 633 421 633 C462 633 505 628 545 619 C604 603 652 551 665 486 C667 476 670 463 672 453 L673 453 L673 607 C613 642 512 665 421 665 C195 665 44 531 44 330 C44 129 195 -5 421 -5 C512 -5 613 18 673 53 L673 53 Z " />
<glyph glyph-name="ccaron" unicode="&#x10d;" horiz-adv-x="521" d="M416 769 C416 769 351 696 307 651 C284 671 249 707 197 769 L185 759 L271 588 C276 578 289 556 307 556 C326 556 339 578 344 588 C393 688 429 759 429 759 L416 769 L416 769 Z M472 79 L461 91 C442 75 401 65 358 65 C247 65 173 148 173 273 C173 393 221 473 294 473 C332 473 360 445 364 404 C367 370 390 348 421 348 C452 348 472 368 472 399 C466 463 400 505 307 505 C153 505 51 395 51 229 C51 89 135 -5 262 -5 C328 -5 412 29 472 79 L472 79 Z M270 618 C268 617 268 619 271 624 L270 618 L270 618 Z " />
<glyph glyph-name="Dcaron" unicode="&#x10e;" horiz-adv-x="767" d="M459 929 C459 929 393 855 349 810 C326 830 290 866 238 929 L226 919 L312 748 C317 738 330 716 349 716 C367 716 380 738 385 748 C433 846 471 919 471 919 L459 929 L459 929 Z M312 778 C310 777 310 779 313 784 L312 778 L312 778 Z M378 0 C582 0 718 132 718 330 C718 528 568 660 343 660 L34 660 L34 659 L45 658 C83 655 109 627 109 588 L109 72 C109 33 83 5 45 2 L34 1 L34 0 L378 0 L378 0 Z M237 32 L237 628 L343 628 C491 628 590 509 590 330 C590 151 505 32 378 32 L237 32 L237 32 Z " />
<glyph glyph-name="dcaron" unicode="&#x10f;" horiz-adv-x="611" d="M619 751 C595 751 580 688 573 643 L547 477 L562 472 L645 616 C673 663 691 716 691 725 C691 744 641 751 619 751 L619 751 Z M501 720 L478 720 L311 669 L311 668 L322 668 C376 669 386 659 386 605 L386 467 C359 490 324 505 288 505 C148 505 54 391 54 219 C54 85 130 -5 243 -5 C284 -5 339 21 385 62 L385 0 L408 0 L575 51 L575 52 L564 52 C510 51 500 61 500 115 L501 720 L501 720 Z M385 80 C370 71 340 65 305 65 C226 65 173 144 173 263 C173 390 216 474 281 474 C323 474 362 451 385 421 L385 80 L385 80 Z " />
<glyph glyph-name="Emacron" unicode="&#x112;" horiz-adv-x="653" d="M172 761 L472 761 L472 825 L172 825 L172 761 L172 761 Z M545 16 C553 61 564 122 572 167 L571 167 L559 132 C538 72 484 32 424 32 L243 32 L243 336 L373 336 C424 336 463 307 470 264 L472 251 L473 251 L473 443 L472 443 L470 432 C463 394 424 368 373 368 L243 368 L243 628 L419 628 C479 628 526 588 536 528 L542 493 L543 493 L543 660 L40 660 L40 659 L51 658 C89 655 115 627 115 588 L115 72 C115 33 89 5 51 2 L40 1 L40 0 L542 0 L545 16 L545 16 Z " />
<glyph glyph-name="emacron" unicode="&#x113;" horiz-adv-x="527" d="M135 601 L435 601 L435 665 L135 665 L135 601 L135 601 Z M477 79 L466 91 C447 75 405 65 360 65 C237 65 165 160 173 300 L477 300 C477 423 400 505 285 505 C144 505 50 395 50 229 C50 89 136 -5 264 -5 C332 -5 417 29 477 79 L477 79 Z M370 393 L370 396 C370 395 370 394 370 393 L370 393 Z M315 337 L175 322 C185 414 224 473 279 473 C334 473 370 442 370 396 C369 363 348 340 315 337 L315 337 Z " />
<glyph glyph-name="Ebreve" unicode="&#x114;" horiz-adv-x="653" d="M189 870 C223 790 276 736 322 736 C367 736 420 790 454 870 L435 878 C418 838 373 812 322 812 C270 812 225 838 208 878 L189 870 L189 870 Z M545 16 C553 61 564 122 572 167 L571 167 L559 132 C538 72 484 32 424 32 L243 32 L243 336 L373 336 C424 336 463 307 470 264 L472 251 L473 251 L473 443 L472 443 L470 432 C463 394 424 368 373 368 L243 368 L243 628 L419 628 C479 628 526 588 536 528 L542 493 L543 493 L543 660 L40 660 L40 659 L51 658 C89 655 115 627 115 588 L115 72 C115 33 89 5 51 2 L40 1 L40 0 L542 0 L545 16 L545 16 Z " />
<glyph glyph-name="ebreve" unicode="&#x115;" horiz-adv-x="527" d="M153 710 C187 630 240 576 285 576 C330 576 383 630 417 710 L398 718 C381 678 336 652 285 652 C234 652 189 678 172 718 L153 710 L153 710 Z M477 79 L466 91 C447 75 405 65 360 65 C237 65 165 160 173 300 L477 300 C477 423 400 505 285 505 C144 505 50 395 50 229 C50 89 136 -5 264 -5 C332 -5 417 29 477 79 L477 79 Z M370 393 L370 396 C370 395 370 394 370 393 L370 393 Z M315 337 L175 322 C185 414 224 473 279 473 C334 473 370 442 370 396 C369 363 348 340 315 337 L315 337 Z " />
<glyph glyph-name="Edot" unicode="&#x116;" horiz-adv-x="653" d="M322 730 C364 730 392 758 392 800 C392 843 364 871 322 871 C279 871 251 843 251 800 C251 758 279 730 322 730 L322 730 Z M545 16 C553 61 564 122 572 167 L571 167 L559 132 C538 72 484 32 424 32 L243 32 L243 336 L373 336 C424 336 463 307 470 264 L472 251 L473 251 L473 443 L472 443 L470 432 C463 394 424 368 373 368 L243 368 L243 628 L419 628 C479 628 526 588 536 528 L542 493 L543 493 L543 660 L40 660 L40 659 L51 658 C89 655 115 627 115 588 L115 72 C115 33 89 5 51 2 L40 1 L40 0 L542 0 L545 16 L545 16 Z " />
<glyph glyph-name="edot" unicode="&#x117;" horiz-adv-x="527" d="M285 570 C327 570 355 598 355 640 C355 683 327 711 285 711 C243 711 215 683 215 640 C215 598 243 570 285 570 L285 570 Z M477 79 L466 91 C447 75 405 65 360 65 C237 65 165 160 173 300 L477 300 C477 423 400 505 285 505 C144 505 50 395 50 229 C50 89 136 -5 264 -5 C332 -5 417 29 477 79 L477 79 Z M370 393 L370 396 C370 395 370 394 370 393 L370 393 Z M315 337 L175 322 C185 414 224 473 279 473 C334 473 370 442 370 396 C369 363 348 340 315 337 L315 337 Z " />
<glyph glyph-name="Eogonek" unicode="&#x118;" horiz-adv-x="653" d="M545 16 C553 61 564 122 572 167 L571 167 L559 132 C538 72 484 32 424 32 L243 32 L243 336 L373 336 C424 336 463 307 470 264 L472 251 L473 251 L473 443 L472 443 L470 432 C463 394 424 368 373 368 L243 368 L243 628 L419 628 C479 628 526 588 536 528 L542 493 L543 493 L543 660 L40 660 L40 659 L51 658 C89 655 115 627 115 588 L115 72 C115 33 89 5 51 2 L40 1 L40 0 L489 0 C433 -37 365 -102 365 -155 C365 -204 421 -237 504 -237 C540 -237 575 -225 590 -207 L582 -197 C578 -202 557 -205 529 -205 C473 -205 436 -180 436 -143 C436 -80 507 -12 538 -1 L542 -1 L545 16 L545 16 Z " />
<glyph glyph-name="eogonek" unicode="&#x119;" horiz-adv-x="527" d="M370 393 L370 396 C370 395 370 394 370 393 L370 393 Z M315 337 L175 322 C185 414 224 473 279 473 C334 473 370 442 370 396 C369 363 348 340 315 337 L315 337 Z M173 300 L477 300 C477 423 400 505 285 505 C144 505 50 395 50 229 C50 77 155 -28 308 0 C261 -39 216 -92 216 -138 C216 -197 272 -236 355 -236 C391 -236 426 -224 441 -206 L433 -196 C429 -201 408 -204 380 -204 C324 -204 287 -172 287 -125 C287 -62 347 3 381 22 C416 37 449 57 477 80 L466 92 C447 76 405 66 360 66 C237 66 165 161 173 301 L173 300 L173 300 Z " />
<glyph glyph-name="Ecaron" unicode="&#x11a;" horiz-adv-x="653" d="M432 929 C432 929 366 855 322 810 C299 830 263 866 211 929 L199 919 L285 748 C290 738 303 716 322 716 C340 716 353 738 358 748 C406 846 444 919 444 919 L432 929 L432 929 Z M285 778 C283 777 283 779 286 784 L285 778 L285 778 Z M546 16 C554 61 565 122 573 167 L572 167 L560 132 C539 72 485 32 425 32 L244 32 L244 336 L374 336 C425 336 464 307 471 264 L473 251 L474 251 L474 443 L473 443 L471 432 C464 394 425 368 374 368 L244 368 L244 628 L420 628 C480 628 527 588 537 528 L543 493 L544 493 L544 660 L41 660 L41 659 L52 658 C90 655 116 627 116 588 L116 72 C116 33 90 5 52 2 L41 1 L41 0 L543 0 L546 16 L546 16 Z " />
<glyph glyph-name="ecaron" unicode="&#x11b;" horiz-adv-x="527" d="M395 769 C395 769 330 696 286 651 C263 671 228 707 176 769 L164 759 L250 588 C255 578 268 556 286 556 C305 556 318 578 323 588 C372 688 408 759 408 759 L395 769 L395 769 Z M478 79 L467 91 C448 75 406 65 361 65 C238 65 166 160 174 300 L478 300 C478 423 401 505 286 505 C145 505 51 395 51 229 C51 89 137 -5 265 -5 C333 -5 418 29 478 79 L478 79 Z M249 618 C247 617 247 619 250 624 L249 618 L249 618 Z M372 393 L372 396 C372 395 372 394 372 393 L372 393 Z M317 337 L177 322 C187 414 226 473 281 473 C336 473 372 442 372 396 C371 363 350 340 317 337 L317 337 Z " />
<glyph glyph-name="Gcircumflex" unicode="&#x11c;" horiz-adv-x="827" d="M446 872 C441 882 428 904 409 904 C391 904 378 882 373 872 C373 872 285 699 287 701 L299 691 C351 753 386 789 409 809 C453 764 518 691 518 691 L530 701 C530 701 494 772 445 872 L446 872 L446 872 Z M371 836 C368 841 368 843 370 842 L371 836 L371 836 Z M540 238 L540 44 C498 34 451 28 407 28 C271 28 180 149 180 331 C180 513 271 634 407 634 C443 634 481 629 518 621 C579 605 627 552 640 487 C642 477 645 464 647 454 L648 454 L648 608 C588 643 491 666 406 666 C186 666 39 532 39 331 C39 130 186 -4 406 -4 C495 -4 594 19 654 54 L654 239 C654 278 680 306 718 309 L729 310 L729 311 L464 311 L464 310 L475 309 C513 306 539 278 539 239 L540 238 L540 238 Z " />
<glyph glyph-name="Gbreve" unicode="&#x11e;" horiz-adv-x="827" d="M277 870 C311 790 364 736 409 736 C454 736 507 790 541 870 L522 878 C505 838 460 812 409 812 C358 812 313 838 296 878 L277 870 L277 870 Z M542 238 L542 44 C500 34 453 28 409 28 C273 28 182 149 182 331 C182 513 273 634 409 634 C445 634 483 629 520 621 C581 605 629 552 642 487 C644 477 647 464 649 454 L650 454 L650 608 C590 643 493 666 408 666 C188 666 41 532 41 331 C41 130 188 -4 408 -4 C497 -4 596 19 656 54 L656 239 C656 278 682 306 720 309 L731 310 L731 311 L466 311 L466 310 L477 309 C515 306 541 278 541 239 L542 238 L542 238 Z " />
<glyph glyph-name="gbreve" unicode="&#x11f;" horiz-adv-x="479" d="M96 710 C130 630 183 576 228 576 C273 576 326 630 360 710 L341 718 C324 678 279 652 228 652 C177 652 132 678 115 718 L96 710 L96 710 Z M479 500 L341 472 C312 493 273 505 228 505 C124 505 54 441 54 346 C54 280 88 229 144 204 C81 194 41 151 41 90 C41 42 74 6 128 -10 C60 -29 16 -76 16 -134 L93 -121 L16 -135 C16 -200 79 -244 173 -244 C345 -244 459 -158 459 -29 C459 44 387 93 278 93 C259 93 189 90 189 90 C146 90 118 107 118 133 C118 165 140 186 173 186 L228 186 C333 186 403 250 403 345 C403 377 395 406 380 430 L479 436 L479 500 L479 500 Z M228 213 C188 213 162 266 162 346 C162 426 188 479 228 479 C268 479 295 426 295 346 C295 266 268 213 228 213 L228 213 Z M161 -16 C172 -17 183 -18 195 -18 L247 -15 C324 -15 376 -43 376 -86 C376 -161 300 -211 186 -211 C130 -211 93 -175 93 -120 C93 -67 120 -27 162 -16 L161 -16 L161 -16 Z " />
<glyph glyph-name="Gdot" unicode="&#x120;" horiz-adv-x="827" d="M409 730 C451 730 479 758 479 800 C479 843 451 871 409 871 C367 871 339 843 339 800 C339 758 367 730 409 730 L409 730 Z M542 238 L542 44 C500 34 453 28 409 28 C273 28 182 149 182 331 C182 513 273 634 409 634 C445 634 483 629 520 621 C581 605 629 552 642 487 C644 477 647 464 649 454 L650 454 L650 608 C590 643 493 666 408 666 C188 666 41 532 41 331 C41 130 188 -4 408 -4 C497 -4 596 19 656 54 L656 239 C656 278 682 306 720 309 L731 310 L731 311 L466 311 L466 310 L477 309 C515 306 541 278 541 239 L542 238 L542 238 Z " />
<glyph glyph-name="gdot" unicode="&#x121;" horiz-adv-x="479" d="M228 570 C270 570 298 598 298 640 C298 683 270 711 228 711 C186 711 158 683 158 640 C158 598 186 570 228 570 L228 570 Z M479 500 L341 472 C312 493 273 505 228 505 C124 505 54 441 54 346 C54 280 88 229 144 204 C81 194 41 151 41 90 C41 42 74 6 128 -10 C60 -29 16 -76 16 -134 L93 -121 L16 -135 C16 -200 79 -244 173 -244 C345 -244 459 -158 459 -29 C459 44 387 93 278 93 C259 93 189 90 189 90 C146 90 118 107 118 133 C118 165 140 186 173 186 L228 186 C333 186 403 250 403 345 C403 377 395 406 380 430 L479 436 L479 500 L479 500 Z M228 213 C188 213 162 266 162 346 C162 426 188 479 228 479 C268 479 295 426 295 346 C295 266 268 213 228 213 L228 213 Z M161 -16 C172 -17 183 -18 195 -18 L247 -15 C324 -15 376 -43 376 -86 C376 -161 300 -211 186 -211 C130 -211 93 -175 93 -120 C93 -67 120 -27 162 -16 L161 -16 L161 -16 Z " />
<glyph glyph-name="Hcircumflex" unicode="&#x124;" horiz-adv-x="787" d="M430 872 C425 882 412 904 394 904 C375 904 362 882 357 872 C357 872 269 699 271 701 L283 691 C335 754 371 790 394 810 C438 765 504 691 504 691 L516 701 C516 701 478 774 430 872 L430 872 Z M357 836 C354 841 354 843 356 842 L357 836 L357 836 Z M746 0 L746 1 L735 2 C697 5 671 33 671 72 L671 588 C671 627 697 655 735 658 L746 659 L746 660 L468 660 L468 659 L479 658 C517 655 543 627 543 588 L543 363 L242 363 L242 588 C242 627 268 655 306 658 L317 659 L317 660 L39 660 L39 659 L50 658 C88 655 114 627 114 588 L114 72 C114 33 88 5 50 2 L39 1 L39 0 L317 0 L317 1 L306 2 C268 5 242 33 242 72 L242 331 L543 331 L543 72 C543 33 517 5 479 2 L468 1 L468 0 L746 0 L746 0 Z " />
<glyph glyph-name="Itilde" unicode="&#x128;" horiz-adv-x="358" d="M40 755 C40 789 56 811 79 811 C130 811 197 748 248 748 C301 748 337 803 337 885 L318 885 C318 849 300 825 273 825 C222 825 155 887 104 887 C54 887 21 834 21 755 L40 755 L40 755 Z M318 0 L318 1 L307 2 C269 5 243 33 243 72 L243 588 C243 627 269 655 307 658 L318 659 L318 660 L40 660 L40 659 L51 658 C89 655 115 627 115 588 L115 72 C115 33 89 5 51 2 L40 1 L40 0 L318 0 L318 0 Z " />
<glyph glyph-name="itilde" unicode="&#x129;" horiz-adv-x="355" d="M39 595 C39 629 55 651 78 651 C129 651 196 588 247 588 C300 588 336 643 336 725 L317 725 C317 689 299 665 272 665 C221 665 154 727 103 727 C53 727 20 674 20 595 L39 595 L39 595 Z M310 0 L310 1 L299 2 C261 5 235 33 235 72 L235 500 L212 500 L45 449 L45 448 L56 448 C110 449 120 439 120 385 L120 72 C120 33 94 5 56 2 L45 1 L45 0 L310 0 L310 0 Z " />
<glyph glyph-name="Imacron" unicode="&#x12a;" horiz-adv-x="358" d="M29 761 L329 761 L329 825 L29 825 L29 761 L29 761 Z M318 0 L318 1 L307 2 C269 5 243 33 243 72 L243 588 C243 627 269 655 307 658 L318 659 L318 660 L40 660 L40 659 L51 658 C89 655 115 627 115 588 L115 72 C115 33 89 5 51 2 L40 1 L40 0 L318 0 L318 0 Z " />
<glyph glyph-name="imacron" unicode="&#x12b;" horiz-adv-x="355" d="M28 601 L328 601 L328 665 L28 665 L28 601 L28 601 Z M310 0 L310 1 L299 2 C261 5 235 33 235 72 L235 500 L212 500 L45 449 L45 448 L56 448 C110 449 120 439 120 385 L120 72 C120 33 94 5 56 2 L45 1 L45 0 L310 0 L310 0 Z " />
<glyph glyph-name="Ibreve" unicode="&#x12c;" horiz-adv-x="358" d="M47 870 C81 790 134 736 179 736 C224 736 277 790 311 870 L292 878 C275 838 230 812 179 812 C128 812 83 838 66 878 L47 870 L47 870 Z M318 0 L318 1 L307 2 C269 5 243 33 243 72 L243 588 C243 627 269 655 307 658 L318 659 L318 660 L40 660 L40 659 L51 658 C89 655 115 627 115 588 L115 72 C115 33 89 5 51 2 L40 1 L40 0 L318 0 L318 0 Z " />
<glyph glyph-name="ibreve" unicode="&#x12d;" horiz-adv-x="355" d="M46 710 C80 630 133 576 178 576 C223 576 276 630 310 710 L291 718 C274 678 229 652 178 652 C127 652 82 678 65 718 L46 710 L46 710 Z M310 0 L310 1 L299 2 C261 5 235 33 235 72 L235 500 L212 500 L45 449 L45 448 L56 448 C110 449 120 439 120 385 L120 72 C120 33 94 5 56 2 L45 1 L45 0 L310 0 L310 0 Z " />
<glyph glyph-name="Idot" unicode="&#x130;" horiz-adv-x="358" d="M179 730 C221 730 249 758 249 800 C249 843 221 871 179 871 C137 871 109 843 109 800 C109 758 137 730 179 730 L179 730 Z M318 0 L318 1 L307 2 C269 5 243 33 243 72 L243 588 C243 627 269 655 307 658 L318 659 L318 660 L40 660 L40 659 L51 658 C89 655 115 627 115 588 L115 72 C115 33 89 5 51 2 L40 1 L40 0 L318 0 L318 0 Z " />
<glyph glyph-name="dotlessi" unicode="&#x131;" horiz-adv-x="355" d="M310 0 L310 1 L299 2 C261 5 235 33 235 72 L235 500 L212 500 L45 449 L45 448 L56 448 C110 449 120 439 120 385 L120 72 C120 33 94 5 56 2 L45 1 L45 0 L310 0 L310 0 Z " />
<glyph glyph-name="Jcircumflex" unicode="&#x134;" horiz-adv-x="444" d="M302 872 C297 882 284 904 265 904 C247 904 234 882 229 872 C229 872 141 699 143 701 L155 691 C207 753 242 789 265 809 C309 764 374 691 374 691 L386 701 C386 701 350 772 301 872 L302 872 L302 872 Z M227 836 C224 841 224 843 226 842 L227 836 L227 836 Z M199 588 L199 200 C199 68 187 16 157 16 C134 16 113 35 106 64 C98 95 76 115 49 115 C11 115 -10 95 -2 64 C9 20 60 -10 126 -10 C271 -10 327 79 327 308 L327 588 C327 627 353 655 391 658 L402 659 L402 660 L124 660 L124 659 L135 658 C173 655 199 627 199 588 L199 588 Z " />
<glyph glyph-name="Lacute" unicode="&#x139;" horiz-adv-x="653" d="M156 690 C156 690 242 774 273 814 C294 837 308 854 308 861 C308 875 263 909 243 909 C239 909 228 889 214 859 C183 819 143 699 143 699 L156 690 L156 690 Z M545 16 C553 63 565 127 573 174 C573 179 573 184 572 183 L553 123 C535 69 488 33 434 33 L243 33 L243 589 C243 628 269 656 307 659 L318 660 L318 661 L40 661 L40 660 L51 659 C89 656 115 628 115 589 L115 73 C115 34 89 6 51 3 L40 2 L40 1 L542 1 L545 16 L545 16 Z " />
<glyph glyph-name="Lcaron" unicode="&#x13d;" horiz-adv-x="653" d="M436 691 C412 691 397 628 390 583 L364 417 L379 412 L462 556 C490 603 508 656 508 665 C508 684 458 691 436 691 L436 691 Z M545 16 C553 63 565 127 573 174 C573 179 573 184 572 183 L553 123 C535 69 488 33 434 33 L243 33 L243 589 C243 628 269 656 307 659 L318 660 L318 661 L40 661 L40 660 L51 659 C89 656 115 628 115 589 L115 73 C115 34 89 6 51 3 L40 2 L40 1 L542 1 L545 16 L545 16 Z " />
<glyph glyph-name="lcaron" unicode="&#x13e;" horiz-adv-x="355" d="M353 721 C329 721 314 658 307 613 L281 447 L296 442 L379 586 C407 633 425 686 425 695 C425 714 375 721 353 721 L353 721 Z M310 0 L310 1 L299 2 C261 5 235 33 235 72 L235 720 L212 720 L45 669 L45 668 L56 668 C110 669 120 659 120 605 L120 72 C120 33 94 5 56 2 L45 1 L45 0 L310 0 L310 0 Z " />
<glyph glyph-name="Lslash" unicode="&#x141;" horiz-adv-x="653" d="M65 261 L115 276 L115 72 C115 33 89 5 51 2 L40 1 L40 0 L542 0 L545 16 C553 63 565 127 573 174 C573 179 573 184 572 183 L553 123 C535 69 488 33 434 33 L243 33 L243 317 L391 362 L391 400 L243 355 L243 589 C243 628 269 656 307 659 L318 660 L318 661 L40 661 L40 660 L51 659 C89 656 115 628 115 589 L115 315 L65 300 L65 261 L65 261 Z " />
<glyph glyph-name="lslash" unicode="&#x142;" horiz-adv-x="355" d="M20 291 L120 323 L120 72 C120 33 94 5 56 2 L45 1 L45 0 L310 0 L310 1 L299 2 C261 5 235 33 235 72 L235 359 L335 391 L335 429 L235 397 L235 720 L212 720 L45 669 L45 668 L56 668 C110 669 120 659 120 605 L120 361 L20 329 L20 291 L20 291 Z " />
<glyph glyph-name="Nacute" unicode="&#x143;" horiz-adv-x="724" d="M331 690 C331 690 416 774 447 814 C469 838 483 855 483 861 C483 875 437 909 417 909 C413 909 403 889 389 859 C358 819 318 699 318 699 L331 690 L331 690 Z M570 588 L570 184 L227 660 L37 660 L37 659 L48 658 C86 655 112 627 112 588 L112 72 C112 33 86 5 48 2 L37 1 L37 0 L226 0 L226 1 L215 2 C177 5 151 33 151 72 L151 547 C289 358 426 169 564 -20 L609 -20 L609 588 C609 627 635 655 673 658 L684 659 L684 660 L495 660 L495 659 L506 658 C544 655 570 627 570 588 L570 588 Z " />
<glyph glyph-name="nacute" unicode="&#x144;" horiz-adv-x="636" d="M244 530 C244 530 330 614 361 654 C382 677 396 694 396 701 C396 715 351 749 331 749 C327 749 316 729 302 699 C271 659 231 539 231 539 L244 530 L244 530 Z M406 72 C406 33 380 5 342 2 L331 1 L331 0 L596 0 L596 1 L585 2 C547 5 521 33 521 72 L521 338 C521 438 490 505 410 505 C345 505 277 477 234 433 L234 499 L211 499 L44 448 L44 447 L55 447 C109 448 119 438 119 384 L119 71 C119 32 93 4 55 1 L44 0 L44 -1 L309 -1 L309 0 L298 1 C260 4 234 32 234 71 L234 415 C252 423 284 427 321 427 C382 427 406 386 406 325 L406 72 L406 72 Z " />
<glyph glyph-name="Ncaron" unicode="&#x147;" horiz-adv-x="724" d="M471 929 C471 929 405 855 361 810 C338 830 302 866 250 929 L238 919 L324 748 C329 738 342 716 361 716 C379 716 392 738 397 748 C445 846 483 919 483 919 L471 929 L471 929 Z M324 778 C322 777 322 779 325 784 L324 778 L324 778 Z M571 588 L571 184 L228 660 L38 660 L38 659 L49 658 C87 655 113 627 113 588 L113 72 C113 33 87 5 49 2 L38 1 L38 0 L227 0 L227 1 L216 2 C178 5 152 33 152 72 L152 547 C290 358 427 169 565 -20 L610 -20 L610 588 C610 627 636 655 674 658 L685 659 L685 660 L496 660 L496 659 L507 658 C545 655 571 627 571 588 L571 588 Z " />
<glyph glyph-name="ncaron" unicode="&#x148;" horiz-adv-x="636" d="M430 769 C430 769 365 696 321 651 C298 671 263 707 211 769 L199 759 L285 588 C290 578 303 556 321 556 C340 556 353 578 358 588 C407 688 443 759 443 759 L430 769 L430 769 Z M284 618 C282 617 282 619 285 624 L284 618 L284 618 Z M408 72 C408 33 382 5 344 2 L333 1 L333 0 L598 0 L598 1 L587 2 C549 5 523 33 523 72 L523 338 C523 438 492 505 412 505 C347 505 279 477 236 433 L236 499 L213 499 L46 448 L46 447 L57 447 C111 448 121 438 121 384 L121 71 C121 32 95 4 57 1 L46 0 L46 -1 L311 -1 L311 0 L300 1 C262 4 236 32 236 71 L236 415 C254 423 286 427 323 427 C384 427 408 386 408 325 L408 72 L408 72 Z " />
<glyph glyph-name="Omacron" unicode="&#x14c;" horiz-adv-x="759" d="M226 761 L526 761 L526 825 L226 825 L226 761 L226 761 Z M182 330 C182 494 248 633 376 633 C503 633 569 494 569 330 C569 166 503 27 376 27 C248 27 182 166 182 330 L182 330 Z M42 330 C42 149 156 -5 376 -5 C596 -5 709 149 709 330 C709 511 596 665 376 665 C156 665 42 511 42 330 L42 330 Z " />
<glyph glyph-name="omacron" unicode="&#x14d;" horiz-adv-x="607" d="M154 601 L454 601 L454 665 L154 665 L154 601 L154 601 Z M178 250 C178 387 228 479 304 479 C379 479 429 387 429 250 C429 113 379 21 304 21 C228 21 178 113 178 250 L178 250 Z M50 250 C50 97 152 -5 304 -5 C456 -5 557 97 557 250 C557 403 456 505 304 505 C152 505 50 403 50 250 L50 250 Z " />
<glyph glyph-name="Obreve" unicode="&#x14e;" horiz-adv-x="759" d="M243 870 C277 790 330 736 376 736 C421 736 474 790 508 870 L489 878 C472 838 427 812 376 812 C324 812 279 838 262 878 L243 870 L243 870 Z M182 330 C182 494 248 633 376 633 C503 633 569 494 569 330 C569 166 503 27 376 27 C248 27 182 166 182 330 L182 330 Z M42 330 C42 149 156 -5 376 -5 C596 -5 709 149 709 330 C709 511 596 665 376 665 C156 665 42 511 42 330 L42 330 Z " />
<glyph glyph-name="obreve" unicode="&#x14f;" horiz-adv-x="607" d="M171 710 C205 630 258 576 304 576 C349 576 402 630 436 710 L417 718 C400 678 355 652 304 652 C252 652 207 678 190 718 L171 710 L171 710 Z M178 250 C178 387 228 479 304 479 C379 479 429 387 429 250 C429 113 379 21 304 21 C228 21 178 113 178 250 L178 250 Z M50 250 C50 97 152 -5 304 -5 C456 -5 557 97 557 250 C557 403 456 505 304 505 C152 505 50 403 50 250 L50 250 Z " />
<glyph glyph-name="Racute" unicode="&#x154;" horiz-adv-x="712" d="M280 690 C280 690 365 774 396 814 C418 838 432 855 432 861 C432 875 386 909 366 909 C362 909 352 889 338 859 C307 819 267 699 267 699 L280 690 L280 690 Z M712 0 L712 25 C664 25 663 25 624 81 C539 203 475 291 449 327 C546 353 605 412 605 491 C605 593 505 661 354 661 L35 661 L35 660 L46 659 C84 656 110 628 110 589 L110 73 C110 34 84 6 46 3 L35 2 L35 1 L313 1 L313 2 L302 3 C264 6 238 34 238 73 L238 313 L306 313 C334 274 386 201 452 107 C524 5 533 1 671 1 L712 0 L712 0 Z M332 345 L239 345 L239 629 L355 629 C425 629 471 574 471 491 C471 403 415 345 332 345 L332 345 Z " />
<glyph glyph-name="Rcaron" unicode="&#x158;" horiz-adv-x="712" d="M466 929 C466 929 400 855 356 810 C333 830 297 866 245 929 L233 919 L319 748 C324 738 337 716 356 716 C374 716 387 738 392 748 C440 846 478 919 478 919 L466 929 L466 929 Z M712 0 L712 25 C664 25 663 25 624 81 C539 203 475 291 449 327 C546 353 605 412 605 491 C605 593 505 661 354 661 L35 661 L35 660 L46 659 C84 656 110 628 110 589 L110 73 C110 34 84 6 46 3 L35 2 L35 1 L313 1 L313 2 L302 3 C264 6 238 34 238 73 L238 313 L306 313 C334 274 386 201 452 107 C524 5 533 1 671 1 L712 0 L712 0 Z M322 779 C320 778 320 780 323 785 L322 779 L322 779 Z M333 345 L240 345 L240 629 L356 629 C426 629 472 574 472 491 C472 403 416 345 333 345 L333 345 Z " />
<glyph glyph-name="rcaron" unicode="&#x159;" horiz-adv-x="437" d="M348 769 C348 769 282 695 238 650 C215 670 179 706 127 769 L115 759 L201 588 C206 578 219 556 238 556 C256 556 269 578 274 588 C322 686 360 759 360 759 L348 769 L348 769 Z M201 618 C199 617 199 619 202 624 L201 618 L201 618 Z M265 420 C297 420 341 376 373 376 C406 376 428 398 428 431 C428 475 408 505 357 505 C309 505 263 480 235 440 L235 500 L212 500 L45 449 L45 448 L56 448 C110 449 120 439 120 385 L120 72 C120 33 94 5 56 2 L45 1 L45 0 L310 0 L310 1 L299 2 C261 5 235 33 235 72 L235 414 C243 418 253 420 265 420 L265 420 Z " />
<glyph glyph-name="Sacute" unicode="&#x15a;" horiz-adv-x="514" d="M208 690 C208 690 294 774 325 814 C346 837 360 854 360 861 C360 875 315 909 295 909 C291 909 280 889 266 859 C235 819 195 699 195 699 L208 690 L208 690 Z M329 616 L329 616 C369 601 401 562 410 520 C414 501 420 475 424 456 L425 456 L425 620 C378 647 312 665 260 665 C127 665 39 583 39 460 C39 383 104 311 201 280 C307 246 378 188 378 137 C378 71 325 27 245 27 C226 27 205 29 183 33 C116 47 62 102 47 171 C45 181 42 193 40 203 L39 203 L39 39 C86 12 168 -6 245 -6 C379 -6 469 72 469 188 C469 270 401 346 300 379 C196 413 127 465 127 510 C127 584 178 633 254 633 C273 633 300 626 329 615 L329 616 L329 616 Z " />
<glyph glyph-name="sacute" unicode="&#x15b;" horiz-adv-x="421" d="M155 530 C155 530 241 614 272 654 C293 677 307 694 307 701 C307 715 262 749 242 749 C238 749 227 729 213 699 C182 659 142 539 142 539 L155 530 L155 530 Z M348 355 L349 355 L349 466 C308 489 261 505 231 505 C122 505 50 448 50 362 C50 309 104 248 186 209 C239 183 275 144 275 111 C275 57 242 21 192 21 C192 21 159 24 160 26 C108 39 65 80 52 128 C50 135 48 143 46 150 L45 150 L45 29 C80 9 136 -5 185 -5 C297 -5 371 59 371 154 C371 206 329 261 267 291 C190 328 139 372 139 401 C139 448 176 479 231 479 C235 479 248 474 266 465 C312 439 340 402 348 355 L348 355 Z " />
<glyph glyph-name="Scircumflex" unicode="&#x15c;" horiz-adv-x="514" d="M291 872 C286 882 273 904 254 904 C236 904 223 882 218 872 C218 872 130 699 132 701 L144 691 C196 753 231 789 254 809 C298 764 363 691 363 691 L375 701 C375 701 339 772 290 872 L291 872 L291 872 Z M216 836 C213 841 213 843 215 842 L216 836 L216 836 Z M327 616 L327 616 C367 601 399 562 408 520 C412 501 418 475 422 456 L423 456 L423 620 C376 647 310 665 258 665 C125 665 37 583 37 460 C37 383 102 311 199 280 C305 246 376 188 376 137 C376 71 323 27 243 27 C224 27 203 29 181 33 C114 47 60 102 45 171 C43 181 40 193 38 203 L37 203 L37 39 C84 12 166 -6 243 -6 C377 -6 467 72 467 188 C467 270 399 346 298 379 C194 413 125 465 125 510 C125 584 176 633 252 633 C271 633 298 626 327 615 L327 616 L327 616 Z " />
<glyph glyph-name="Scedilla" unicode="&#x15e;" horiz-adv-x="514" d="M204 -74 L192 -94 C196 -87 200 -80 204 -74 L204 -74 Z M206 -72 C233 -29 254 -12 265 -5 C388 2 469 78 469 188 C469 270 401 346 300 379 C196 413 127 465 127 510 C127 584 178 633 254 633 C273 633 300 626 329 615 L329 615 C369 600 401 561 410 519 C414 500 420 474 424 455 L425 455 L425 619 C378 646 312 664 260 664 C127 664 39 582 39 459 C39 382 104 310 201 279 C307 245 378 187 378 136 C378 70 325 26 245 26 C226 26 205 28 183 32 C116 46 62 101 47 170 C45 180 42 192 40 202 L39 202 L39 38 C83 12 159 -5 232 -7 C226 -19 208 -50 184 -92 L192 -96 C208 -87 228 -81 241 -81 C270 -81 289 -103 289 -136 C289 -168 261 -189 218 -189 C191 -189 168 -183 159 -175 L152 -187 C174 -208 210 -222 241 -222 C312 -222 360 -188 360 -136 C360 -89 323 -58 268 -58 C248 -58 222 -64 205 -74 L206 -72 L206 -72 Z " />
<glyph glyph-name="scedilla" unicode="&#x15f;" horiz-adv-x="421" d="M144 -74 L132 -94 C136 -87 140 -80 144 -74 L144 -74 Z M146 -72 C173 -29 194 -12 205 -5 C306 2 371 64 371 153 C371 205 329 260 267 290 C190 327 139 371 139 400 C139 447 176 478 231 478 C235 478 248 473 266 464 C312 438 340 401 348 354 L349 354 L349 465 C308 488 261 504 231 504 C122 504 50 447 50 361 C50 308 104 247 186 208 C239 182 275 143 275 110 C275 56 242 20 192 20 C192 20 159 23 160 25 C108 38 65 79 52 127 C50 134 48 142 46 149 L45 149 L45 28 C77 10 127 -3 173 -5 C167 -16 149 -47 125 -90 L133 -94 C149 -85 169 -79 182 -79 C211 -79 230 -101 230 -134 C230 -166 202 -187 159 -187 C132 -187 109 -181 100 -173 L93 -185 C115 -206 151 -220 182 -220 C253 -220 301 -186 301 -134 C301 -87 264 -56 209 -56 C189 -56 163 -62 146 -72 L146 -72 Z " />
<glyph glyph-name="Scaron" unicode="&#x160;" horiz-adv-x="514" d="M364 929 C364 929 299 856 255 811 C232 831 197 867 145 929 L133 919 L219 748 C224 738 237 716 255 716 C274 716 287 738 292 748 C341 848 377 919 377 919 L364 929 L364 929 Z M218 778 C216 777 216 779 219 784 L218 778 L218 778 Z M331 616 L331 616 C371 601 403 562 412 520 C416 501 422 475 426 456 L427 456 L427 620 C380 647 314 665 262 665 C129 665 41 583 41 460 C41 383 106 311 203 280 C309 246 380 188 380 137 C380 71 327 27 247 27 C228 27 207 29 185 33 C118 47 64 102 49 171 C47 181 44 193 42 203 L41 203 L41 39 C88 12 170 -6 247 -6 C381 -6 471 72 471 188 C471 270 403 346 302 379 C198 413 129 465 129 510 C129 584 180 633 256 633 C275 633 302 626 331 615 L331 616 L331 616 Z " />
<glyph glyph-name="scaron" unicode="&#x161;" horiz-adv-x="421" d="M341 769 C341 769 276 696 232 651 C209 671 174 707 122 769 L110 759 L196 588 C201 578 214 556 232 556 C251 556 264 578 269 588 C318 688 354 759 354 759 L341 769 L341 769 Z M195 618 C193 617 193 619 196 624 L195 618 L195 618 Z M350 355 L351 355 L351 466 C310 489 263 505 233 505 C124 505 52 448 52 362 C52 309 106 248 188 209 C241 183 277 144 277 111 C277 57 244 21 194 21 C194 21 161 24 162 26 C110 39 67 80 54 128 C52 135 50 143 48 150 L47 150 L47 29 C82 9 138 -5 187 -5 C299 -5 373 59 373 154 C373 206 331 261 269 291 C192 328 141 372 141 401 C141 448 178 479 233 479 C237 479 250 474 268 465 C314 439 342 402 350 355 L350 355 Z " />
<glyph glyph-name="Tcaron" unicode="&#x164;" horiz-adv-x="620" d="M420 929 C420 929 355 856 311 811 C288 831 253 867 201 929 L189 919 L275 748 C280 738 293 716 311 716 C330 716 343 738 348 748 C397 848 433 919 433 919 L420 929 L420 929 Z M274 778 C272 777 272 779 275 784 L274 778 L274 778 Z M614 644 L613 660 L11 660 L10 644 C5 594 -1 528 -5 478 L-4 478 L14 548 C26 596 66 628 114 628 L248 628 L248 72 C248 33 222 5 184 2 L173 1 L173 0 L451 0 L451 1 L440 2 C402 5 376 33 376 72 L376 628 L510 628 C558 628 598 596 610 548 L628 478 L629 478 C625 528 619 594 614 644 L614 644 Z " />
<glyph glyph-name="tcaron" unicode="&#x165;" horiz-adv-x="370" d="M338 500 L203 500 L203 640 L184 640 L171 616 C124 533 67 475 25 468 L25 455 L88 455 L88 125 C88 24 112 -5 196 -5 C260 -5 307 19 350 55 L342 65 C328 54 305 46 253 46 C214 46 203 59 203 105 L203 455 L338 455 L338 500 L338 500 Z M456 721 C432 721 417 658 410 613 L384 447 L399 442 L482 586 C510 633 528 686 528 695 C528 714 478 721 456 721 L456 721 Z M181 633 L184 639 C183 637 182 635 181 633 L181 633 Z " />
<glyph glyph-name="Utilde" unicode="&#x168;" horiz-adv-x="703" d="M209 755 C209 789 225 811 248 811 C299 811 366 748 417 748 C470 748 506 803 506 885 L487 885 C487 849 469 825 442 825 C391 825 324 887 273 887 C223 887 190 834 190 755 L209 755 L209 755 Z M98 588 L98 219 C98 85 169 -5 353 -5 C529 -5 598 73 598 189 L598 578 C598 623 627 655 670 658 L683 659 L683 660 L469 660 L469 659 L484 658 C529 655 559 623 559 578 L559 202 C559 105 507 40 372 40 C267 40 226 102 226 194 L226 588 C226 627 252 655 290 658 L301 659 L301 660 L23 660 L23 659 L34 658 C72 655 98 627 98 588 L98 588 Z " />
<glyph glyph-name="utilde" unicode="&#x169;" horiz-adv-x="601" d="M151 595 C151 629 167 651 190 651 C241 651 308 588 359 588 C412 588 448 643 448 725 L429 725 C429 689 411 665 384 665 C333 665 266 727 215 727 C165 727 132 674 132 595 L151 595 L151 595 Z M89 428 L90 154 C90 59 135 -5 221 -5 C271 -5 324 26 375 74 L375 0 L398 0 L565 51 L565 52 L554 52 C500 51 490 61 490 115 L490 500 L300 500 L300 499 L311 498 C349 495 375 467 375 428 L375 92 C359 79 338 71 310 71 C239 71 203 109 203 166 L203 500 L13 500 L13 499 L24 498 C62 495 88 467 88 428 L89 428 L89 428 Z " />
<glyph glyph-name="Umacron" unicode="&#x16a;" horiz-adv-x="703" d="M198 761 L498 761 L498 825 L198 825 L198 761 L198 761 Z M98 588 L98 219 C98 85 169 -5 353 -5 C529 -5 598 73 598 189 L598 578 C598 623 627 655 670 658 L683 659 L683 660 L469 660 L469 659 L484 658 C529 655 559 623 559 578 L559 202 C559 105 507 40 372 40 C267 40 226 102 226 194 L226 588 C226 627 252 655 290 658 L301 659 L301 660 L23 660 L23 659 L34 658 C72 655 98 627 98 588 L98 588 Z " />
<glyph glyph-name="umacron" unicode="&#x16b;" horiz-adv-x="497" d="M140 601 L440 601 L440 665 L140 665 L140 601 L140 601 Z M89 428 L90 154 C90 59 135 -5 221 -5 C271 -5 324 26 375 74 L375 0 L398 0 L565 51 L565 52 L554 52 C500 51 490 61 490 115 L490 500 L300 500 L300 499 L311 498 C349 495 375 467 375 428 L375 92 C359 79 338 71 310 71 C239 71 203 109 203 166 L203 500 L13 500 L13 499 L24 498 C62 495 88 467 88 428 L89 428 L89 428 Z " />
<glyph glyph-name="Ubreve" unicode="&#x16c;" horiz-adv-x="703" d="M216 870 C250 790 303 736 348 736 C393 736 446 790 480 870 L461 878 C444 838 399 812 348 812 C297 812 252 838 235 878 L216 870 L216 870 Z M98 588 L98 219 C98 85 169 -5 353 -5 C529 -5 598 73 598 189 L598 578 C598 623 627 655 670 658 L683 659 L683 660 L469 660 L469 659 L484 658 C529 655 559 623 559 578 L559 202 C559 105 507 40 372 40 C267 40 226 102 226 194 L226 588 C226 627 252 655 290 658 L301 659 L301 660 L23 660 L23 659 L34 658 C72 655 98 627 98 588 L98 588 Z " />
<glyph glyph-name="ubreve" unicode="&#x16d;" horiz-adv-x="601" d="M158 710 C192 630 245 576 290 576 C335 576 388 630 422 710 L403 718 C386 678 341 652 290 652 C239 652 194 678 177 718 L158 710 L158 710 Z M89 428 L90 154 C90 59 135 -5 221 -5 C271 -5 324 26 375 74 L375 0 L398 0 L565 51 L565 52 L554 52 C500 51 490 61 490 115 L490 500 L300 500 L300 499 L311 498 C349 495 375 467 375 428 L375 92 C359 79 338 71 310 71 C239 71 203 109 203 166 L203 500 L13 500 L13 499 L24 498 C62 495 88 467 88 428 L89 428 L89 428 Z " />
<glyph glyph-name="Uring" unicode="&#x16e;" horiz-adv-x="703" d="M284 788 C284 828 310 854 348 854 C386 854 412 828 412 788 C412 752 383 721 348 721 C313 721 284 752 284 788 L284 788 Z M252 788 C252 738 296 695 348 695 C400 695 444 738 444 788 C444 843 406 880 348 880 C290 880 252 843 252 788 L252 788 Z M98 588 L98 219 C98 85 169 -5 353 -5 C529 -5 598 73 598 189 L598 578 C598 623 627 655 670 658 L683 659 L683 660 L469 660 L469 659 L484 658 C529 655 559 623 559 578 L559 202 C559 105 507 40 372 40 C267 40 226 102 226 194 L226 588 C226 627 252 655 290 658 L301 659 L301 660 L23 660 L23 659 L34 658 C72 655 98 627 98 588 L98 588 Z " />
<glyph glyph-name="uring" unicode="&#x16f;" horiz-adv-x="601" d="M226 628 C226 668 252 694 290 694 C328 694 354 668 354 628 C354 592 325 561 290 561 C255 561 226 592 226 628 L226 628 Z M194 628 C194 578 238 535 290 535 C342 535 386 578 386 628 C386 683 348 720 290 720 C232 720 194 683 194 628 L194 628 Z M89 428 L90 154 C90 59 135 -5 221 -5 C271 -5 324 26 375 74 L375 0 L398 0 L565 51 L565 52 L554 52 C500 51 490 61 490 115 L490 500 L300 500 L300 499 L311 498 C349 495 375 467 375 428 L375 92 C359 79 338 71 310 71 C239 71 203 109 203 166 L203 500 L13 500 L13 499 L24 498 C62 495 88 467 88 428 L89 428 L89 428 Z " />
<glyph glyph-name="Wcircumflex" unicode="&#x174;" horiz-adv-x="1014" d="M81 588 L311 -15 L343 -15 L496 466 L699 -15 L731 -15 L917 588 C929 627 963 655 1002 658 L1014 659 L1014 660 L795 660 L795 659 L833 657 C869 655 888 631 882 597 L757 178 L562 670 L530 670 L369 164 L219 593 C208 629 225 655 262 657 L285 659 L285 660 L-6 660 L-6 659 L4 658 C35 655 66 626 82 588 L81 588 L81 588 Z M583 872 C578 882 565 904 546 904 C528 904 515 882 510 872 C510 872 422 699 424 701 L436 691 C488 753 523 789 546 809 C590 764 655 691 655 691 L667 701 C667 701 631 772 582 872 L583 872 L583 872 Z M508 836 C505 841 505 843 507 842 L508 836 L508 836 Z " />
<glyph glyph-name="Ycircumflex" unicode="&#x176;" horiz-adv-x="672" d="M369 872 C364 882 351 904 332 904 C314 904 301 882 296 872 C296 872 208 699 210 701 L222 691 C274 753 309 789 332 809 C376 764 441 691 441 691 L453 701 C453 701 417 772 368 872 L369 872 L369 872 Z M294 836 C291 841 291 843 293 842 L294 836 L294 836 Z M679 659 L679 660 L466 660 L466 659 L487 658 C535 655 548 622 520 575 L376 355 L235 595 C218 630 230 655 266 657 L287 659 L287 660 L-10 660 L-10 659 C26 655 57 635 83 595 L265 289 L265 72 C265 33 239 5 201 2 L190 1 L190 0 L468 0 L468 1 L457 2 C419 5 393 33 393 72 L393 330 C393 330 551 566 566 588 C596 632 635 654 679 658 L679 659 L679 659 Z " />
<glyph glyph-name="Ydieresis" unicode="&#x178;" horiz-adv-x="672" d="M432 730 C475 730 503 758 503 800 C503 843 475 871 432 871 C390 871 362 843 362 800 C362 758 390 730 432 730 L432 730 Z M232 730 C274 730 302 758 302 800 C302 843 274 871 232 871 C189 871 161 843 161 800 C161 758 189 730 232 730 L232 730 Z M681 659 L681 660 L468 660 L468 659 L489 658 C537 655 550 622 522 575 L378 355 L237 595 C220 630 232 655 268 657 L289 659 L289 660 L-8 660 L-8 659 C28 655 59 635 85 595 L267 289 L267 72 C267 33 241 5 203 2 L192 1 L192 0 L470 0 L470 1 L459 2 C421 5 395 33 395 72 L395 330 C395 330 553 566 568 588 C598 632 637 654 681 658 L681 659 L681 659 Z " />
<glyph glyph-name="Zacute" unicode="&#x179;" horiz-adv-x="592" d="M321 690 C321 690 406 774 437 814 C459 838 473 855 473 861 C473 875 427 909 407 909 C403 909 393 889 379 859 C348 819 308 699 308 699 L321 690 L321 690 Z M500 16 L500 16 C508 64 520 127 528 175 C528 180 528 185 527 184 L508 124 C490 70 443 34 389 34 L193 34 L529 661 L81 661 L77 645 C66 604 51 550 40 509 L41 509 L60 549 C83 597 130 629 178 629 L367 629 L32 1 L497 1 L500 16 L500 16 Z " />
<glyph glyph-name="zacute" unicode="&#x17a;" horiz-adv-x="483" d="M191 530 C191 530 277 614 308 654 C329 677 343 694 343 701 C343 715 298 749 278 749 C274 749 263 729 249 699 C218 659 178 539 178 539 L191 530 L191 530 Z M169 473 L286 473 L37 -1 L405 -1 L408 12 C416 58 427 120 435 167 C435 172 435 177 434 176 L415 116 C397 62 350 26 296 26 L187 26 L433 500 L70 500 L66 486 L67 486 C58 455 47 414 39 383 L40 383 L47 397 C73 443 121 472 169 473 L169 473 Z " />
<glyph glyph-name="Zdot" unicode="&#x17b;" horiz-adv-x="592" d="M321 730 C363 730 391 758 391 800 C391 843 363 871 321 871 C278 871 250 843 250 800 C250 758 278 730 321 730 L321 730 Z M500 16 L500 16 C508 64 520 127 528 175 C528 180 528 185 527 184 L508 124 C490 70 443 34 389 34 L193 34 L529 661 L81 661 L77 645 C66 604 51 550 40 509 L41 509 L60 549 C83 597 130 629 178 629 L367 629 L32 1 L497 1 L500 16 L500 16 Z " />
<glyph glyph-name="zdot" unicode="&#x17c;" horiz-adv-x="483" d="M267 570 C309 570 337 598 337 640 C337 683 309 711 267 711 C225 711 197 683 197 640 C197 598 225 570 267 570 L267 570 Z M169 473 L286 473 L37 -1 L405 -1 L408 12 C416 58 427 120 435 167 C435 172 435 177 434 176 L415 116 C397 62 350 26 296 26 L187 26 L433 500 L70 500 L66 486 L67 486 C58 455 47 414 39 383 L40 383 L47 397 C73 443 121 472 169 473 L169 473 Z " />
<glyph glyph-name="Zcaron" unicode="&#x17d;" horiz-adv-x="592" d="M431 929 C431 929 365 855 321 810 C298 830 262 866 210 929 L198 919 L284 748 C289 738 302 716 321 716 C339 716 352 738 357 748 C405 846 443 919 443 919 L431 929 L431 929 Z M284 778 C282 777 282 779 285 784 L284 778 L284 778 Z M501 16 L501 16 C509 64 521 127 529 175 C529 180 529 185 528 184 L509 124 C491 70 444 34 390 34 L194 34 L530 661 L82 661 L78 645 C67 604 52 550 41 509 L42 509 L61 549 C84 597 131 629 179 629 L368 629 L33 1 L498 1 L501 16 L501 16 Z " />
<glyph glyph-name="zcaron" unicode="&#x17e;" horiz-adv-x="483" d="M377 769 C377 769 312 696 268 651 C245 671 210 707 158 769 L146 759 L232 588 C237 578 250 556 268 556 C287 556 300 578 305 588 C354 688 390 759 390 759 L377 769 L377 769 Z M170 473 L287 473 L38 -1 L406 -1 L409 12 C417 58 428 120 436 167 C436 172 436 177 435 176 L416 116 C398 62 351 26 297 26 L188 26 L434 500 L71 500 L67 486 L68 486 C59 455 48 414 40 383 L41 383 L48 397 C74 443 122 472 170 473 L170 473 Z M231 618 C229 617 229 619 232 624 L231 618 L231 618 Z " />
<glyph glyph-name="oogonek" unicode="&#x1eb;" horiz-adv-x="699" d="M715 -39 L704 -31 C690 -50 636 -63 567 -63 C471 -63 404 -40 359 -4 C550 1 649 129 649 278 C649 430 546 559 347 559 C148 559 45 430 45 278 C45 134 138 10 318 -2 C402 -83 485 -136 556 -136 C610 -136 674 -96 716 -37 L715 -39 L715 -39 Z M173 279 C173 416 233 532 348 532 C464 532 523 416 523 279 C523 142 464 26 348 26 C233 26 173 142 173 279 L173 279 Z " />
<glyph glyph-name="Adotabove" unicode="&#x226;" horiz-adv-x="708" d="M331 730 C373 730 401 758 401 800 C401 843 373 871 331 871 C289 871 261 843 261 800 C261 758 289 730 331 730 L331 730 Z M612 72 L611 72 L347 675 L315 675 L93 72 L92 72 C77 33 42 5 3 2 L-9 1 L-9 0 L219 0 L219 1 L191 3 C143 5 124 40 140 87 L191 232 L406 232 L478 62 C489 28 473 4 436 2 L395 0 L395 -1 L703 -1 L703 0 C664 4 632 24 612 70 L612 72 L612 72 Z M392 262 L202 262 L288 507 L392 262 L392 262 Z " />
<glyph glyph-name="G_sc" unicode="&#x262;" horiz-adv-x="756" d="M483 188 L483 42 C445 31 405 24 370 24 C252 24 173 125 173 277 C173 429 252 530 370 530 C395 530 423 526 451 519 C513 501 561 448 575 382 C577 372 580 359 582 349 L583 349 L583 500 C523 535 438 558 371 558 C177 558 47 446 47 277 C47 108 177 -5 371 -5 C440 -5 527 19 588 54 L588 188 C588 227 614 255 652 258 L663 259 L663 260 L410 260 L410 259 L421 258 C459 255 485 227 485 188 L483 188 L483 188 Z " />
<glyph glyph-name="I_sc" unicode="&#x26a;" horiz-adv-x="351" d="M311 0 L311 1 L300 2 C262 5 236 33 236 72 L236 481 C236 520 262 548 300 551 L311 552 L311 553 L46 553 L46 552 L57 551 C95 548 121 520 121 481 L121 72 C121 33 95 5 57 2 L46 1 L46 0 L311 0 L311 0 Z " />
<glyph glyph-name="N_sc" unicode="&#x274;" horiz-adv-x="660" d="M510 481 L510 164 L216 553 L38 553 L38 552 L49 551 C87 548 113 520 113 481 L113 72 C113 33 87 5 49 2 L38 1 L38 0 L223 0 L223 1 L212 2 C174 5 148 33 148 72 L148 453 C268 295 388 138 508 -20 L545 -20 L545 481 C545 520 571 548 609 551 L620 552 L620 553 L435 553 L435 552 L446 551 C484 548 510 520 510 481 L510 481 Z " />
<glyph glyph-name="R_sc" unicode="&#x280;" horiz-adv-x="637" d="M637 0 L637 23 C590 23 589 23 541 84 C469 176 415 244 392 273 C474 295 524 345 524 411 C524 496 435 552 301 552 L37 552 L37 551 L48 550 C86 547 112 519 112 480 L112 71 C112 32 86 4 48 1 L37 0 L37 -1 L302 -1 L302 0 L291 1 C253 4 227 32 227 71 L227 260 L265 260 C290 229 333 174 387 105 C467 3 475 -1 599 -1 L637 0 L637 0 Z M287 289 L228 289 L228 523 L302 524 C363 524 404 479 404 411 C404 338 357 289 287 289 L287 289 Z " />
<glyph glyph-name="Y_sc" unicode="&#x28f;" horiz-adv-x="600" d="M609 552 L609 553 L400 553 L400 552 L421 551 C471 548 483 514 451 465 L337 295 L228 485 C209 522 221 548 259 550 L280 552 L280 553 L-2 553 L-2 552 C35 548 68 525 95 481 L95 481 L241 244 L241 72 C241 33 215 5 177 2 L166 1 L166 0 L431 0 L431 1 L420 2 C382 5 356 33 356 72 L356 279 L356 279 L496 481 L497 481 C528 525 566 547 610 551 L609 552 L609 552 Z " />
<glyph glyph-name="B_sc" unicode="&#x299;" horiz-adv-x="593" d="M386 300 C467 319 517 362 517 420 C517 500 430 553 300 553 L36 553 L36 552 L47 551 C85 548 111 520 111 481 L111 72 C111 33 85 5 47 2 L36 1 L36 0 L321 0 C472 0 573 62 573 155 C573 230 501 284 386 299 L386 300 L386 300 Z M226 305 L226 523 C226 523 278 524 300 524 C361 524 402 482 402 419 C402 351 355 305 285 305 L226 305 L226 305 Z M226 280 L283 280 C384 280 452 230 452 154 C452 78 395 28 309 28 L226 28 L226 280 L226 280 Z " />
<glyph glyph-name="H_sc" unicode="&#x29c;" horiz-adv-x="727" d="M687 0 L687 1 L676 2 C638 5 612 33 612 72 L612 481 C612 520 638 548 676 551 L687 552 L687 553 L422 553 L422 552 L433 551 C471 548 497 520 497 481 L497 307 L233 307 L233 481 C233 520 259 548 297 551 L308 552 L308 553 L43 553 L43 552 L54 551 C92 548 118 520 118 481 L118 72 C118 33 92 5 54 2 L43 1 L43 0 L308 0 L308 1 L297 2 C259 5 233 33 233 72 L233 278 L497 278 L497 72 C497 33 471 5 433 2 L422 1 L422 0 L687 0 L687 0 Z " />
<glyph glyph-name="L_sc" unicode="&#x29f;" horiz-adv-x="598" d="M489 15 C498 62 509 124 517 171 C517 176 517 181 516 180 L497 120 C479 66 432 30 378 30 L233 30 L233 482 C233 521 259 549 297 552 L308 553 L308 554 L43 554 L43 553 L54 552 C92 549 118 521 118 482 L118 73 C118 34 92 6 54 3 L43 2 L43 1 L487 1 L490 16 L489 15 L489 15 Z " />
<glyph glyph-name="circumflex" unicode="&#x2c6;" horiz-adv-x="340" d="M207 712 C202 722 189 744 170 744 C152 744 139 722 134 712 C134 712 46 539 48 541 L60 531 C112 593 147 629 170 649 C214 604 279 531 279 531 L291 541 C291 541 255 612 206 712 L207 712 L207 712 Z M132 676 C129 681 129 683 131 682 L132 676 L132 676 Z " />
<glyph glyph-name="caron" unicode="&#x2c7;" horiz-adv-x="340" d="M280 769 C280 769 215 696 171 651 C148 671 113 707 61 769 L49 759 L135 588 C140 578 153 556 171 556 C190 556 203 578 208 588 C257 688 293 759 293 759 L280 769 L280 769 Z M134 618 C132 617 132 619 135 624 L134 618 L134 618 Z " />
<glyph glyph-name="firsttonechinese" unicode="&#x2c9;" horiz-adv-x="340" d="M20 601 L320 601 L320 665 L20 665 L20 601 L20 601 Z " />
<glyph glyph-name="breve" unicode="&#x2d8;" horiz-adv-x="340" d="M38 710 C72 630 125 576 170 576 C215 576 268 630 302 710 L283 718 C266 678 221 652 170 652 C119 652 74 678 57 718 L38 710 L38 710 Z " />
<glyph glyph-name="dotaccent" unicode="&#x2d9;" horiz-adv-x="340" d="M170 570 C212 570 240 598 240 640 C240 683 212 711 170 711 C128 711 100 683 100 640 C100 598 128 570 170 570 L170 570 Z " />
<glyph glyph-name="ring" unicode="&#x2da;" horiz-adv-x="340" d="M106 628 C106 668 132 694 170 694 C208 694 234 668 234 628 C234 592 205 561 170 561 C135 561 106 592 106 628 L106 628 Z M74 628 C74 578 118 535 170 535 C222 535 266 578 266 628 C266 683 228 720 170 720 C112 720 74 683 74 628 L74 628 Z " />
<glyph glyph-name="A_sc" unicode="&#x1d00;" horiz-adv-x="634" d="M358 194 L412 72 C430 33 415 5 376 3 L335 1 L335 0 L629 0 L629 1 C591 5 561 23 539 66 L311 566 L283 566 L95 72 C79 33 43 4 4 1 L-8 0 L-8 -1 L214 -1 L214 0 L186 2 C142 4 122 33 133 75 L176 193 L358 194 L358 194 Z M346 221 L187 222 L259 419 L346 221 L346 221 Z " />
<glyph glyph-name="C_sc" unicode="&#x1d04;" horiz-adv-x="661" d="M601 54 L593 67 L593 67 L601 54 L601 54 Z M600 54 L600 204 L599 204 C597 194 594 181 592 171 C574 83 492 24 379 24 C255 24 172 125 172 277 C172 429 255 530 379 530 C383 530 459 525 458 521 C525 507 579 452 593 382 C595 372 598 359 600 349 L601 349 L601 500 C541 535 452 558 379 558 C179 558 45 446 45 277 C45 108 179 -5 379 -5 C451 -5 540 19 601 54 L600 54 L600 54 Z " />
<glyph glyph-name="D_sc" unicode="&#x1d05;" horiz-adv-x="687" d="M325 0 C512 0 637 111 637 277 C637 443 502 553 300 553 L36 553 L36 552 L47 551 C85 548 111 520 111 481 L111 72 C111 33 85 5 47 2 L36 1 L36 0 L325 0 L325 0 Z M226 29 L226 524 C248 524 278 525 300 525 C433 525 522 426 522 277 C522 128 443 29 325 29 L226 29 L226 29 Z " />
<glyph glyph-name="E_sc" unicode="&#x1d07;" horiz-adv-x="598" d="M489 15 C497 60 508 119 516 164 L515 164 L503 129 C482 69 428 29 368 29 L233 29 L233 281 L318 281 C369 281 408 252 415 209 L417 196 L418 196 L418 384 L417 384 L415 373 C408 335 369 309 318 309 L233 309 L233 524 C275 524 325 524 374 524 C429 520 471 481 480 424 L486 389 L487 389 L487 552 L43 552 L43 551 L54 550 C92 547 118 519 118 480 L118 71 C118 32 92 4 54 1 L43 0 L43 -1 L487 -1 L490 14 L489 15 L489 15 Z " />
<glyph glyph-name="J_sc" unicode="&#x1d0a;" horiz-adv-x="393" d="M163 481 L163 168 C163 56 155 13 136 13 C117 13 101 31 97 57 C93 85 72 104 46 104 C14 104 -4 86 0 58 C29 58 97 57 97 57 L0 58 C6 17 49 -10 107 -10 C230 -10 278 67 278 265 L278 481 C278 520 304 548 342 551 L353 552 L353 553 L88 553 L88 552 L99 551 C137 548 163 520 163 481 L163 481 Z " />
<glyph glyph-name="K_sc" unicode="&#x1d0b;" horiz-adv-x="614" d="M604 -5 L604 18 C552 18 503 69 413 210 C369 279 335 333 316 362 L421 481 C456 520 504 548 543 551 L558 552 L558 553 L374 553 L374 552 L384 551 C419 548 420 521 389 484 L302 384 C302 384 234 306 227 298 L227 481 C227 520 253 548 291 551 L302 552 L302 553 L37 553 L37 552 L48 551 C86 548 112 520 112 481 L112 72 C112 33 86 5 48 2 L37 1 L37 0 L302 0 L302 1 L291 2 C253 5 227 33 227 72 L227 269 L228 260 L242 275 C260 246 295 192 339 122 C398 30 461 -6 565 -6 L604 -5 L604 -5 Z " />
<glyph glyph-name="M_sc" unicode="&#x1d0d;" horiz-adv-x="823" d="M223 3 C175 5 145 39 147 87 L162 417 C233 277 303 136 374 -4 L402 -4 L609 469 L622 66 C620 31 596 6 560 3 L549 2 L549 1 L814 1 L814 2 L803 3 C765 6 739 32 735 69 L713 483 C711 522 735 550 773 553 L784 553 L784 555 L658 555 L658 554 L606 554 L429 128 L427 131 L222 554 L58 554 L58 553 L69 552 C105 549 129 524 130 489 L111 73 C109 34 82 5 44 2 L33 1 L33 0 L253 0 L253 1 L223 3 L223 3 Z " />
<glyph glyph-name="O_sc" unicode="&#x1d0f;" horiz-adv-x="699" d="M172 277 C172 414 232 530 347 530 C463 530 522 414 522 277 C522 140 463 24 347 24 C232 24 172 140 172 277 L172 277 Z M45 277 C45 125 148 -5 347 -5 C546 -5 649 125 649 277 C649 429 546 558 347 558 C148 558 45 429 45 277 L45 277 Z " />
<glyph glyph-name="P_sc" unicode="&#x1d18;" horiz-adv-x="542" d="M301 0 L301 1 L290 2 C252 5 226 33 226 72 L226 246 L285 246 C427 246 522 308 522 400 C522 492 433 553 299 553 L36 553 L36 552 L47 551 C85 548 111 520 111 481 L111 72 C111 33 85 5 47 2 L36 1 L36 0 L301 0 L301 0 Z M226 275 L226 524 C248 524 277 525 299 525 C360 525 401 475 401 400 C401 325 355 275 285 275 L226 275 L226 275 Z " />
<glyph glyph-name="T_sc" unicode="&#x1d1b;" horiz-adv-x="560" d="M549 539 L548 553 L12 553 L11 539 C6 490 1 424 -4 375 L-3 375 L16 445 C28 493 68 525 116 525 L223 525 L223 72 C223 33 197 5 159 2 L148 1 L148 0 L413 0 L413 1 L402 2 C364 5 338 33 338 72 L338 525 L444 525 C492 525 532 493 544 445 L563 375 L564 375 C559 424 554 490 549 539 L549 539 Z " />
<glyph glyph-name="U_sc" unicode="&#x1d1c;" horiz-adv-x="632" d="M101 481 L101 178 C101 68 162 -5 318 -5 C468 -5 527 58 527 153 L527 471 C527 516 556 548 599 551 L612 552 L612 553 L402 553 L402 552 L417 551 C462 548 492 516 492 471 L492 164 C492 87 448 35 335 35 C249 35 216 83 216 155 L216 481 C216 520 242 548 280 551 L291 552 L291 553 L26 553 L26 552 L37 551 C75 548 101 520 101 481 L101 481 Z " />
<glyph glyph-name="V_sc" unicode="&#x1d20;" horiz-adv-x="625" d="M488 463 L367 124 L209 481 C192 520 205 548 244 550 L276 552 L276 553 L-10 553 L-10 552 C28 548 59 528 80 487 L316 -16 L345 -16 L528 480 C543 518 578 547 617 550 L629 551 L629 552 L399 552 L399 551 L422 550 C475 547 500 512 486 461 L488 463 L488 463 Z " />
<glyph glyph-name="W_sc" unicode="&#x1d21;" horiz-adv-x="878" d="M749 491 L598 -15 L627 -15 L781 481 C793 520 827 549 866 552 L878 553 L878 554 L663 554 L663 553 L701 551 C737 549 756 526 750 492 L749 491 L749 491 Z M599 -14 L647 147 L487 564 L458 564 L323 137 L204 489 C195 524 212 549 249 551 L272 553 L272 554 L-4 554 L-4 553 C34 549 63 529 81 487 L275 -14 L304 -14 L433 393 L599 -14 L599 -14 Z " />
<glyph glyph-name="Z_sc" unicode="&#x1d22;" horiz-adv-x="533" d="M443 15 C452 62 463 125 471 172 C471 177 471 182 470 181 L451 121 C433 67 386 31 332 31 L182 31 L470 554 L88 554 L84 540 C74 500 59 446 48 406 L49 406 L68 446 C91 494 138 526 186 526 L324 526 L36 1 L441 1 L443 15 L443 15 Z " />
<glyph glyph-name="Wgrave" unicode="&#x1e80;" horiz-adv-x="1014" d="M81 588 L311 -15 L343 -15 L496 466 L699 -15 L731 -15 L917 588 C929 627 963 655 1002 658 L1014 659 L1014 660 L795 660 L795 659 L833 657 C869 655 888 631 882 597 L757 178 L562 670 L530 670 L369 164 L219 593 C208 629 225 655 262 657 L285 659 L285 660 L-6 660 L-6 659 L4 658 C35 655 66 626 82 588 L81 588 L81 588 Z M462 861 C462 853 476 836 498 814 C530 773 618 690 618 690 L631 699 C631 699 589 818 557 859 C543 889 532 909 527 909 C508 909 462 875 462 861 L462 861 Z " />
<glyph glyph-name="Wacute" unicode="&#x1e82;" horiz-adv-x="1014" d="M484 690 C484 690 570 774 601 814 C622 837 636 854 636 861 C636 875 591 909 571 909 C567 909 556 889 542 859 C511 819 471 699 471 699 L484 690 L484 690 Z M81 588 L311 -15 L343 -15 L496 466 L699 -15 L731 -15 L917 588 C929 627 963 655 1002 658 L1014 659 L1014 660 L795 660 L795 659 L833 657 C869 655 888 631 882 597 L757 178 L562 670 L530 670 L369 164 L219 593 C208 629 225 655 262 657 L285 659 L285 660 L-6 660 L-6 659 L4 658 C35 655 66 626 82 588 L81 588 L81 588 Z " />
<glyph glyph-name="Wdieresis" unicode="&#x1e84;" horiz-adv-x="1014" d="M645 730 C688 730 716 758 716 800 C716 843 688 871 645 871 C603 871 575 843 575 800 C575 758 603 730 645 730 L645 730 Z M445 730 C487 730 515 758 515 800 C515 843 487 871 445 871 C402 871 374 843 374 800 C374 758 402 730 445 730 L445 730 Z M81 588 L311 -15 L343 -15 L496 466 L699 -15 L731 -15 L917 588 C929 627 963 655 1002 658 L1014 659 L1014 660 L795 660 L795 659 L833 657 C869 655 888 631 882 597 L757 178 L562 670 L530 670 L369 164 L219 593 C208 629 225 655 262 657 L285 659 L285 660 L-6 660 L-6 659 L4 658 C35 655 66 626 82 588 L81 588 L81 588 Z " />
<glyph glyph-name="Etilde" unicode="&#x1ebc;" horiz-adv-x="653" d="M182 755 C182 789 198 811 221 811 C272 811 340 748 391 748 C444 748 480 803 480 885 L461 885 C461 849 443 825 416 825 C365 825 297 887 246 887 C196 887 163 834 163 755 L182 755 L182 755 Z M545 16 C553 61 564 122 572 167 L571 167 L559 132 C538 72 484 32 424 32 L243 32 L243 336 L373 336 C424 336 463 307 470 264 L472 251 L473 251 L473 443 L472 443 L470 432 C463 394 424 368 373 368 L243 368 L243 628 L419 628 C479 628 526 588 536 528 L542 493 L543 493 L543 660 L40 660 L40 659 L51 658 C89 655 115 627 115 588 L115 72 C115 33 89 5 51 2 L40 1 L40 0 L542 0 L545 16 L545 16 Z " />
<glyph glyph-name="Ygrave" unicode="&#x1ef2;" horiz-adv-x="672" d="M248 861 C248 853 262 836 284 814 C316 773 404 690 404 690 L417 699 C417 699 375 818 343 859 C329 889 318 909 313 909 C294 909 248 875 248 861 L248 861 Z M681 659 L681 660 L468 660 L468 659 L489 658 C537 655 550 622 522 575 L378 355 L237 595 C220 630 232 655 268 657 L289 659 L289 660 L-8 660 L-8 659 C28 655 59 635 85 595 L267 289 L267 72 C267 33 241 5 203 2 L192 1 L192 0 L470 0 L470 1 L459 2 C421 5 395 33 395 72 L395 330 C395 330 553 566 568 588 C598 632 637 654 681 658 L681 659 L681 659 Z " />
<glyph glyph-name="quoteleft" unicode="&#x2018;" horiz-adv-x="283" d="M139 342 C186 342 218 374 218 421 C218 477 170 515 111 497 C104 570 143 634 194 653 L188 670 C102 637 44 551 44 454 C44 399 78 342 138 342 L139 342 L139 342 Z " />
<glyph glyph-name="quoteright" unicode="&#x2019;" horiz-adv-x="283" d="M139 665 C92 665 60 633 60 586 C60 530 108 492 167 510 C174 437 135 373 84 354 L90 337 C176 370 234 456 234 553 C234 608 200 665 140 665 L139 665 L139 665 Z " />
<glyph glyph-name="quotedblleft" unicode="&#x201c;" horiz-adv-x="506" d="M362 342 C409 342 441 374 441 421 C441 477 393 515 334 497 C327 570 366 634 417 653 L411 670 C325 637 267 551 267 454 C267 399 301 342 361 342 L362 342 L362 342 Z M138 342 C185 342 217 374 217 421 C217 477 169 515 110 497 C103 570 142 634 193 653 L187 670 C101 637 43 551 43 454 C43 399 77 342 137 342 L138 342 L138 342 Z " />
<glyph glyph-name="quotedblright" unicode="&#x201d;" horiz-adv-x="506" d="M362 665 C315 665 283 633 283 586 C283 530 331 492 390 510 C397 437 358 373 307 354 L313 337 C399 370 457 456 457 553 C457 608 423 665 363 665 L362 665 L362 665 Z M140 665 C93 665 61 633 61 586 C61 530 109 492 168 510 C175 437 136 373 85 354 L91 337 C177 370 235 456 235 553 C235 608 201 665 141 665 L140 665 L140 665 Z " />
<glyph glyph-name="ellipsis" unicode="&#x2026;" horiz-adv-x="645" d="M538 0 C586 0 618 32 618 80 C618 128 586 160 538 160 C490 160 458 128 458 80 C458 32 490 0 538 0 L538 0 Z M323 0 C371 0 403 32 403 80 C403 128 371 160 323 160 C275 160 243 128 243 80 C243 32 275 0 323 0 L323 0 Z M108 0 C156 0 188 32 188 80 C188 128 156 160 108 160 C60 160 28 128 28 80 C28 32 60 0 108 0 L108 0 Z " />
<glyph glyph-name="perthousand" unicode="&#x2030;" horiz-adv-x="1152" d="M942 200 C942 285 953 341 970 341 C1007 341 1032 267 1032 155 C1032 81 1018 32 996 32 C964 32 942 99 942 200 L942 200 Z M830 179 C830 69 892 -5 986 -5 C1078 -5 1140 75 1140 194 C1140 303 1078 375 986 375 C892 375 830 297 830 179 L830 179 Z M143 552 C143 635 154 691 171 691 C208 691 233 617 233 506 C233 432 219 383 197 383 C165 383 143 451 143 552 L143 552 Z M31 530 C31 419 93 345 187 345 C279 345 341 425 341 545 C341 653 279 725 187 725 C93 725 31 647 31 530 L31 530 Z M574 200 C574 285 588 341 610 341 C656 341 686 266 686 154 C686 81 666 32 636 32 C599 32 574 99 574 200 L574 200 Z M461 178 C461 68 527 -5 626 -5 C727 -5 794 75 794 194 C794 303 727 375 626 375 C527 375 461 296 461 178 L461 178 Z M212 -16 L677 704 L626 736 L161 16 L212 -16 L212 -16 Z " />
<glyph glyph-name="guilsinglleft" unicode="&#x2039;" horiz-adv-x="300" d="M134 252 L251 454 L239 466 L20 258 L20 245 L242 37 L255 50 L134 252 L134 252 Z " />
<glyph glyph-name="guilsinglright" unicode="&#x203a;" horiz-adv-x="300" d="M58 37 L280 245 L280 258 L61 466 L49 454 L166 252 L45 50 L58 37 L58 37 Z " />
<glyph glyph-name="fraction" unicode="&#x2044;" horiz-adv-x="482" d="M55 -16 L520 704 L470 736 L5 16 L55 -16 L55 -16 Z " />
<glyph glyph-name="Euro" unicode="&#x20ac;" horiz-adv-x="789" d="M38 223 L115 223 C159 83 293 -5 477 -5 C568 -5 669 18 729 53 L721 68 L721 68 L729 53 L729 207 L728 207 C726 197 723 184 721 174 C706 103 640 47 556 33 C530 29 503 27 477 27 C365 27 282 102 252 223 L516 223 L527 305 L241 305 C240 321 240 338 241 354 L527 354 L539 436 L252 436 C282 557 365 632 477 632 C518 632 561 627 601 618 C660 602 708 550 721 485 C723 475 726 462 728 452 L729 452 L729 606 C669 641 568 664 477 664 C293 664 159 576 115 436 L62 436 L50 354 L100 354 C99 338 99 321 100 305 L50 305 L38 223 L38 223 Z " />
<glyph glyph-name="F_sc" unicode="&#xa730;" horiz-adv-x="513" d="M517 553 L43 553 L43 552 L54 551 C92 548 118 520 118 481 L118 72 C118 33 92 5 54 2 L43 1 L43 0 L318 0 L318 1 L298 3 C259 5 233 33 233 72 L233 277 L308 277 C359 277 398 248 405 205 L407 192 L408 192 L408 380 L407 380 L405 369 C398 331 359 305 308 305 L233 305 L233 524 C283 524 344 524 402 524 C458 520 501 481 510 424 L516 389 L517 389 L517 553 L517 553 Z " />
<glyph glyph-name="S_sc" unicode="&#xa731;" horiz-adv-x="452" d="M264 518 C307 500 341 460 350 418 C354 398 360 372 364 352 L365 352 L365 512 C317 540 263 558 230 558 C117 558 41 489 41 385 C41 321 95 260 176 234 C266 205 326 156 326 112 C326 59 281 24 213 24 C212 24 187 25 187 27 C119 39 63 96 48 169 C46 179 43 191 41 201 L40 201 L40 41 C88 13 157 -5 213 -5 C329 -5 407 61 407 159 C407 226 349 290 261 319 C177 346 121 391 121 431 C121 490 163 530 225 530 C225 530 265 521 264 518 L264 518 Z " />
<glyph glyph-name="X_sc" unicode="&#xf078;" horiz-adv-x="625" d="M116 481 L117 481 C165 407 214 333 261 259 L138 72 L137 72 C111 33 68 5 29 2 L16 1 L16 0 L236 0 L236 1 L210 3 C163 5 151 37 178 83 L275 236 L388 62 C406 28 395 4 359 2 L328 0 L328 -1 L614 -1 L614 0 C576 4 543 27 514 71 L513 71 L351 321 L456 480 C482 519 525 548 564 551 L577 552 L577 553 L356 553 L356 552 L397 550 C436 548 446 520 421 481 L336 345 L241 492 C224 526 235 549 270 551 L301 553 L301 554 L16 554 L16 553 C54 549 87 526 116 482 L116 481 L116 481 Z " />
</font>
</svg>
