<?xml version="1.0" encoding="UTF-8"?>
<svg xmlns="http://www.w3.org/2000/svg" xmlns:xlink="http://www.w3.org/1999/xlink" version="1.2" >
<font id="Wacian Light">
<font-face  font-family="Wacian" units-per-em="1024" ascent="936" descent="-280" font-style="normal" font-weight="300" font-stretch="normal" cap-height="927" x-height="468" underline-position="-125" underline-thickness="50" />
<missing-glyph  horiz-adv-x="100" d="" />
<glyph glyph-name="NULL" d="" />
<glyph glyph-name="CR" unicode="&#xd;" horiz-adv-x="256" d="" />
<glyph glyph-name="space" unicode="&#x20;" horiz-adv-x="250" d="" />
<glyph glyph-name="exclam" unicode="&#x21;" horiz-adv-x="184" d="M96 -5 C118 -5 132 9 132 31 C132 53 118 67 96 67 C74 67 60 53 60 31 C60 9 74 -5 96 -5 L96 -5 Z M124 620 C125 647 113 665 93 665 C73 665 60 647 62 620 C62 477 93 142 93 142 L99 142 C99 142 124 477 124 620 L124 620 Z " />
<glyph glyph-name="quotedbl" unicode="&#x22;" horiz-adv-x="238" d="M134 660 L162 471 L170 471 L198 660 L134 660 L134 660 Z M40 660 L67 471 L76 471 L104 660 L40 660 L40 660 Z " />
<glyph glyph-name="numbersign" unicode="&#x23;" horiz-adv-x="534" d="M390 681 L361 479 L215 479 L244 681 L224 681 L195 479 L64 479 L58 441 L190 441 L158 219 L25 219 L19 181 L153 181 L127 0 L147 0 L173 181 L319 181 L293 0 L313 0 L339 181 L464 181 L470 219 L344 219 L376 441 L509 441 L514 479 L381 479 L410 681 L390 681 L390 681 Z M210 441 L356 441 L324 219 L178 219 L210 441 L210 441 Z " />
<glyph glyph-name="dollar" unicode="&#x24;" horiz-adv-x="505" d="M270 735 L270 663 C248 665 227 665 206 662 L206 734 L190 734 L190 659 C105 640 51 573 51 480 C51 418 105 358 190 322 L190 16 C117 29 65 81 50 154 C48 164 45 178 43 188 L42 188 L42 46 C78 25 132 9 189 1 L189 -75 L205 -75 L205 -1 C226 -3 248 -4 269 -4 L269 -74 L285 -74 L285 -4 C390 2 459 69 459 168 C459 242 390 314 285 349 L285 646 C303 642 322 637 341 630 C374 615 400 582 407 544 C411 522 418 494 422 472 L423 472 L423 614 C383 637 331 654 283 661 L283 735 L270 735 L270 735 Z M203 378 L203 648 C224 652 245 652 267 649 L267 354 C244 361 223 369 204 378 L203 378 L203 378 Z M188 386 C126 419 88 462 88 503 C88 575 126 627 188 645 L188 386 L188 386 Z M204 317 C225 309 248 303 268 295 L268 9 C247 9 225 11 203 14 L204 317 L204 317 Z M283 288 C365 252 417 199 417 146 C417 69 364 16 283 10 L283 288 L283 288 Z " />
<glyph glyph-name="percent" unicode="&#x25;" horiz-adv-x="797" d="M79 542 C79 643 116 710 171 710 C235 710 278 635 278 522 C278 426 240 362 182 362 C120 362 79 434 79 542 L79 542 Z M30 533 C30 420 89 345 178 345 C266 345 325 423 325 539 C325 651 266 725 178 725 C89 725 30 648 30 533 L30 533 Z M532 191 C532 292 569 360 625 360 C693 360 738 284 738 171 C738 75 697 11 636 11 C574 11 532 83 532 191 L532 191 Z M483 181 C483 69 543 -5 632 -5 C724 -5 785 72 785 188 C785 300 724 375 632 375 C543 375 483 297 483 181 L483 181 Z M189 -7 L654 713 L632 727 L167 7 L189 -7 L189 -7 Z " />
<glyph glyph-name="ampersand" unicode="&#x26;" horiz-adv-x="705" d="M275 364 C382 386 453 457 453 545 C453 617 396 665 310 665 C224 665 167 601 167 504 C167 465 189 413 227 353 C119 309 50 234 50 157 C50 60 134 -5 259 -5 C352 -5 429 18 481 57 C570 -12 634 -13 705 -1 L705 7 C651 -2 600 3 510 84 C537 115 552 153 552 196 L552 226 C552 265 578 293 616 296 L627 297 L627 298 L466 298 L466 297 L477 296 C515 293 541 265 541 226 L541 196 C541 155 527 120 501 91 C436 152 326 282 273 362 L275 364 L275 364 Z M204 525 C204 601 244 652 305 652 C369 652 412 607 412 540 C412 455 355 387 268 369 C227 432 203 486 203 525 L204 525 L204 525 Z M467 63 C422 32 359 14 284 14 C170 14 94 78 94 173 C94 241 146 305 228 342 C258 295 297 243 342 189 C389 133 430 92 467 62 L467 63 L467 63 Z " />
<glyph glyph-name="quotesingle" unicode="&#x27;" horiz-adv-x="144" d="M40 660 L67 471 L76 471 L104 660 L40 660 L40 660 Z " />
<glyph glyph-name="parenleft" unicode="&#x28;" horiz-adv-x="202" d="M186 690 C110 600 60 480 60 270 C60 60 110 -60 186 -150 L192 -145 C136 -79 99 33 99 270 C99 507 136 619 192 685 L186 690 L186 690 Z " />
<glyph glyph-name="parenright" unicode="&#x29;" horiz-adv-x="202" d="M10 -150 C86 -60 136 60 136 270 C136 480 86 600 10 690 L4 685 C60 619 97 507 97 270 C97 33 60 -79 4 -145 L10 -150 L10 -150 Z " />
<glyph glyph-name="asterisk" unicode="&#x2a;" horiz-adv-x="268" d="M261 587 C282 598 267 628 245 614 L150 543 L164 661 C166 686 132 686 134 661 L148 544 L53 614 C31 629 17 599 38 588 L147 541 L38 494 C16 483 32 454 53 468 L148 538 L134 421 C132 396 166 396 164 421 L150 539 L245 468 C266 454 282 483 260 494 L152 541 L261 587 L261 587 Z " />
<glyph glyph-name="plus" unicode="&#x2b;" horiz-adv-x="555" d="M263 450 L263 261 L75 261 L75 239 L263 239 L263 50 L287 50 L287 239 L475 239 L475 261 L287 261 L287 450 L263 450 L263 450 Z " />
<glyph glyph-name="comma" unicode="&#x2c;" horiz-adv-x="188" d="M123 57 L123 57 C117 64 108 68 97 68 C75 68 61 54 61 32 C61 10 75 -4 97 -4 C100 -4 104 -1 108 4 C117 -36 100 -76 75 -89 L75 -97 C114 -78 140 -36 140 9 C140 29 134 48 125 58 L123 57 L123 57 Z " />
<glyph glyph-name="hyphen" unicode="&#x2d;" horiz-adv-x="280" d="M20 216 L260 216 L260 254 L20 254 L20 216 L20 216 Z " />
<glyph glyph-name="period" unicode="&#x2e;" horiz-adv-x="221" d="M125 -5 C147 -5 161 9 161 31 C161 53 147 67 125 67 C103 67 89 53 89 31 C89 9 103 -5 125 -5 L125 -5 Z " />
<glyph glyph-name="slash" unicode="&#x2f;" horiz-adv-x="332" d="M0 -145 L22 -145 L332 710 L310 710 L0 -145 L0 -145 Z " />
<glyph glyph-name="zero" unicode="0" horiz-adv-x="599" d="M106 250 C106 396 184 494 300 494 C416 494 493 396 493 250 C493 104 416 6 300 6 C184 6 106 104 106 250 L106 250 Z M50 250 C50 97 150 -5 300 -5 C449 -5 549 97 549 250 C549 403 449 505 300 505 C150 505 50 403 50 250 L50 250 Z " />
<glyph glyph-name="one" unicode="1" horiz-adv-x="310" d="M255 0 L255 1 L244 2 C206 5 180 33 180 72 L180 428 C180 467 206 495 244 498 L255 499 L255 500 L55 500 L55 499 L66 498 C104 495 130 467 130 428 L130 72 C130 33 104 5 66 2 L55 1 L55 0 L255 0 L255 0 Z " />
<glyph glyph-name="two" unicode="2" horiz-adv-x="481" d="M449 50 C451 75 454 103 456 125 L455 125 L453 114 C446 76 416 50 377 50 L103 50 C298 173 424 244 424 349 C424 443 360 505 265 505 C184 505 107 446 71 358 L78 354 C106 422 170 468 240 468 C317 468 368 414 368 332 C368 202 231 145 25 11 L25 0 L445 0 L449 50 L449 50 Z " />
<glyph glyph-name="three" unicode="3" horiz-adv-x="457" d="M178 191 C284 191 354 130 354 38 C354 -99 223 -197 26 -207 L26 -215 C255 -203 407 -101 407 41 C407 142 323 210 196 210 C194 210 192 210 189 210 C296 257 362 320 362 379 C362 455 306 505 222 505 C148 505 63 453 11 376 L16 372 C55 430 127 469 196 469 C265 469 311 426 311 362 C311 301 242 237 136 198 C126 195 116 192 106 188 L106 180 C127 186 155 192 178 192 L178 191 L178 191 Z " />
<glyph glyph-name="four" unicode="4" horiz-adv-x="491" d="M363 505 C309 421 83 99 29 22 C19 8 20 13 20 0 L321 0 L321 -150 L371 -150 L371 0 L481 0 L481 22 L371 22 L371 490 L371 490 L371 505 L363 505 L363 505 Z M47 22 C95 91 243 303 321 417 L321 23 L47 22 L47 22 Z " />
<glyph glyph-name="five" unicode="5" horiz-adv-x="441" d="M409 575 L408 575 L404 564 C388 526 352 500 313 500 L88 500 C88 416 68 221 68 221 L81 221 C81 221 81 224 82 230 C82 225 82 221 82 221 L133 221 C258 221 341 154 341 54 C341 -76 217 -167 32 -173 L32 -182 C248 -174 392 -73 392 71 C392 190 298 270 158 270 L87 270 C92 317 99 389 102 447 L369 447 C384 494 396 533 410 575 L409 575 L409 575 Z " />
<glyph glyph-name="six" unicode="6" horiz-adv-x="570" d="M507 715 C245 706 71 539 71 299 C71 117 160 -5 294 -5 C437 -5 527 83 520 216 C520 343 440 427 321 427 C186 427 112 353 134 242 L145 242 C124 345 191 414 313 414 C405 414 467 334 467 213 C473 91 406 9 299 9 C196 9 127 106 127 252 C127 271 130 297 130 316 C130 543 281 699 507 707 L507 715 L507 715 Z " />
<glyph glyph-name="seven" unicode="7" horiz-adv-x="439" d="M28 471 L26 449 C24 424 21 396 19 374 L20 374 L22 385 C29 423 59 449 98 449 L403 449 L131 -140 L187 -140 C267 72 346 285 428 496 L424 501 L29 501 L27 476 C27 475 27 474 27 473 L28 471 L28 471 Z " />
<glyph glyph-name="eight" unicode="8" horiz-adv-x="540" d="M318 350 C403 368 458 432 458 517 C458 606 385 665 275 665 C165 665 91 597 91 495 C91 412 149 343 239 316 C132 304 64 246 64 164 C64 63 149 -4 277 -4 C405 -4 490 68 490 175 C490 251 423 319 319 351 L318 350 L318 350 Z M312 353 C301 356 289 359 277 361 C191 378 133 440 133 516 C133 599 189 655 273 655 C360 655 418 597 418 510 C418 428 376 367 312 353 L312 353 Z M112 172 C112 248 165 302 248 314 C254 312 260 311 266 310 C372 289 443 228 443 158 C443 67 378 7 280 7 C179 7 111 73 111 172 L112 172 L112 172 Z " />
<glyph glyph-name="nine" unicode="9" horiz-adv-x="570" d="M63 -215 C325 -206 499 -39 499 201 C499 383 410 505 276 505 C133 505 43 417 50 284 C50 157 130 73 249 73 C384 73 458 147 436 258 L425 258 C446 155 379 86 257 86 C165 86 103 166 103 287 C97 409 164 491 271 491 C374 491 443 394 443 248 C443 229 440 203 440 184 C440 -43 289 -199 63 -207 L63 -215 L63 -215 Z " />
<glyph glyph-name="colon" unicode="&#x3a;" horiz-adv-x="221" d="M125 364 C147 364 161 378 161 400 C161 422 147 436 125 436 C103 436 89 422 89 400 C89 378 103 364 125 364 L125 364 Z M125 -5 C147 -5 161 9 161 31 C161 53 147 67 125 67 C103 67 89 53 89 31 C89 9 103 -5 125 -5 L125 -5 Z " />
<glyph glyph-name="semicolon" unicode="&#x3b;" horiz-adv-x="188" d="M96 364 C118 364 132 378 132 400 C132 422 118 436 96 436 C74 436 60 422 60 400 C60 378 74 364 96 364 L96 364 Z M123 57 L123 57 C117 64 108 68 97 68 C75 68 61 54 61 32 C61 10 75 -4 97 -4 C100 -4 104 -1 108 4 C117 -36 100 -76 75 -89 L75 -97 C114 -78 140 -36 140 9 C140 29 134 48 125 58 L123 57 L123 57 Z " />
<glyph glyph-name="less" unicode="&#x3c;" horiz-adv-x="536" d="M461 500 L46 290 C43 288 42 289 40 287 L40 263 C181 193 321 121 461 50 L461 75 L62 275 L461 475 L461 500 L461 500 Z " />
<glyph glyph-name="equal" unicode="&#x3d;" horiz-adv-x="528" d="M78 211 L78 189 L458 189 L458 211 L78 211 L78 211 Z M78 311 L78 289 L458 289 L458 311 L78 311 L78 311 Z " />
<glyph glyph-name="greater" unicode="&#x3e;" horiz-adv-x="530" d="M490 265 L490 285 C486 287 483 288 480 290 L75 500 L75 475 L464 275 L75 75 L75 50 C213 122 350 196 489 266 L490 265 L490 265 Z " />
<glyph glyph-name="question" unicode="&#x3f;" horiz-adv-x="367" d="M140 -5 C162 -5 176 9 176 31 C176 53 162 67 140 67 C118 67 104 53 104 31 C104 9 118 -5 140 -5 L140 -5 Z M152 329 L187 329 C309 329 332 403 332 444 C332 577 249 665 125 665 C75 665 41 638 41 598 C41 590 52 585 69 585 C91 585 119 626 141 626 C248 626 320 556 320 450 C320 420 296 368 170 368 L135 368 C129 368 125 365 125 360 L137 147 L143 147 L152 329 L152 329 Z " />
<glyph glyph-name="at" unicode="&#x40;" horiz-adv-x="1139" d="M1044 0 C977 -143 791 -239 578 -239 C288 -239 94 -40 94 259 C94 558 284 757 570 757 C855 757 1045 591 1045 343 C1045 140 968 4 852 4 C733 4 673 82 702 200 L772 480 L725 480 L702 386 C691 449 643 490 576 490 C410 490 299 373 299 197 C299 87 368 13 471 13 C546 13 613 61 649 137 C653 45 725 -13 844 -13 C989 -13 1085 129 1085 343 C1085 599 879 770 571 770 C262 770 56 566 56 259 C56 -48 265 -252 579 -252 C798 -252 991 -151 1062 0 L1044 0 L1044 0 Z M695 356 L656 200 C632 105 569 41 497 41 C411 41 353 107 353 207 C353 368 442 476 575 476 C647 476 695 428 695 356 L695 356 Z " />
<glyph glyph-name="A" unicode="A" horiz-adv-x="631" d="M540 72 L539 72 L316 675 L302 675 L97 72 L96 72 C83 33 48 5 9 2 L-3 1 L-3 0 L201 0 L201 1 L173 3 C125 5 104 39 120 87 L170 236 L422 236 L481 72 C494 32 479 5 440 3 L397 1 L397 0 L627 0 L627 1 C589 5 558 25 541 71 L540 72 L540 72 Z M417 250 L176 250 L292 599 L417 250 L417 250 Z " />
<glyph glyph-name="B" unicode="B" horiz-adv-x="595" d="M323 357 C315 357 307 357 299 357 L221 355 L182 355 L182 645 L324 645 C409 645 466 591 466 510 C466 425 410 366 323 356 L323 357 L323 357 Z M364 353 C461 371 522 429 522 509 C522 598 443 658 324 658 L51 658 L51 657 L62 656 C100 653 126 625 126 586 L126 70 C126 31 100 3 62 0 L51 -1 L51 -2 L349 -2 C485 -2 575 70 575 178 C575 270 493 335 364 351 L364 353 L364 353 Z M182 344 L282 344 C422 344 516 277 516 177 C516 77 447 11 343 11 L182 11 L182 344 L182 344 Z " />
<glyph glyph-name="C" unicode="C" horiz-adv-x="719" d="M659 57 L655 64 C655 64 658 58 658 57 L659 57 L659 57 Z M658 57 L658 195 L657 195 C655 185 652 171 650 161 C635 88 570 31 486 16 C456 11 426 8 397 8 C232 8 122 136 122 329 C122 522 232 650 397 650 C436 650 478 645 518 636 L518 636 C583 622 635 567 649 498 C651 488 654 474 656 464 L657 464 L657 602 C593 639 488 664 396 664 C194 664 60 530 60 329 C60 128 194 -6 396 -6 C488 -6 593 19 657 56 L658 57 L658 57 Z " />
<glyph glyph-name="D" unicode="D" horiz-adv-x="692" d="M344 0 C523 0 642 132 642 330 C642 528 506 660 303 660 L51 660 L51 659 L62 658 C100 655 126 627 126 588 L126 72 C126 33 100 5 62 2 L51 1 L51 0 L344 0 L344 0 Z M182 14 L182 646 L303 646 C473 646 586 520 586 330 C586 140 489 14 344 14 L182 14 L182 14 Z " />
<glyph glyph-name="E" unicode="E" horiz-adv-x="581" d="M494 149 L493 149 L481 114 C460 54 406 14 346 14 L171 14 L171 345 L301 345 C352 345 391 316 398 273 L400 260 L401 260 L401 434 L400 434 L398 423 C391 385 352 359 301 359 L171 359 L171 646 L339 646 C399 646 446 606 456 546 L462 511 L463 511 L463 660 L40 660 L40 659 L51 658 C89 655 115 627 115 588 L115 72 C115 33 89 5 51 2 L40 1 L40 0 L468 0 C475 46 486 104 494 150 L494 149 L494 149 Z " />
<glyph glyph-name="F" unicode="F" horiz-adv-x="496" d="M493 660 L40 660 L40 659 L51 658 C89 655 115 627 115 588 L115 72 C115 33 89 5 51 2 L40 1 L40 0 L256 0 L256 1 L236 3 C197 5 171 33 171 72 L171 340 L291 340 C342 340 381 311 388 268 L390 255 L391 255 L391 429 L390 429 L388 418 C381 380 342 354 291 354 L171 354 L171 646 L369 646 C429 646 476 606 486 546 L492 511 L493 511 L493 660 L493 660 Z " />
<glyph glyph-name="G" unicode="G" horiz-adv-x="814" d="M594 238 L594 49 C534 25 456 10 387 10 C229 10 123 138 123 331 C123 524 229 652 387 652 C423 652 462 648 499 640 L499 640 C564 626 617 570 631 501 C633 491 636 477 638 467 L639 467 L639 605 C575 642 474 667 387 667 C192 667 62 533 62 332 C62 131 192 -3 387 -3 C477 -3 580 22 644 59 L644 240 C644 279 670 307 708 310 L719 311 L719 312 L519 312 L519 311 L530 310 C568 307 594 279 594 240 L594 238 L594 238 Z " />
<glyph glyph-name="H" unicode="H" horiz-adv-x="769" d="M729 0 L729 1 L718 2 C680 5 654 33 654 72 L654 588 C654 627 680 655 718 658 L729 659 L729 660 L523 660 L523 659 L534 658 C572 655 598 627 598 588 L598 354 L171 354 L171 588 C171 627 197 655 235 658 L246 659 L246 660 L40 660 L40 659 L51 658 C89 655 115 627 115 588 L115 72 C115 33 89 5 51 2 L40 1 L40 0 L246 0 L246 1 L235 2 C197 5 171 33 171 72 L171 340 L598 340 L598 72 C598 33 572 5 534 2 L523 1 L523 0 L729 0 L729 0 Z " />
<glyph glyph-name="I" unicode="I" horiz-adv-x="286" d="M246 0 L246 1 L235 2 C197 5 171 33 171 72 L171 588 C171 627 197 655 235 658 L246 659 L246 660 L40 660 L40 659 L51 658 C89 655 115 627 115 588 L115 72 C115 33 89 5 51 2 L40 1 L40 0 L246 0 L246 0 Z " />
<glyph glyph-name="J" unicode="J" horiz-adv-x="367" d="M196 588 L196 200 C196 57 172 1 111 1 C80 1 54 21 47 50 C44 63 34 72 22 72 C6 72 -3 63 0 50 C9 14 48 -10 97 -10 C209 -10 252 62 252 247 L252 588 C252 627 278 655 316 658 L327 659 L327 660 L121 660 L121 659 L132 658 C170 655 196 627 196 588 L196 588 Z " />
<glyph glyph-name="K" unicode="K" horiz-adv-x="645" d="M635 -5 L635 6 C598 6 539 60 396 210 C329 281 257 357 232 383 L455 588 C498 627 552 655 591 658 L607 659 L607 660 L438 660 L438 659 L448 658 C481 655 478 629 441 593 L223 392 L223 392 L182 354 L182 587 C182 626 208 654 246 657 L257 658 L257 659 L51 659 L51 658 L62 657 C100 654 126 626 126 587 L126 71 C126 32 100 4 62 1 L51 0 L51 -1 L257 -1 L257 0 L246 1 C208 4 182 32 182 71 L182 336 L191 344 C213 321 274 257 356 170 C477 43 549 -7 613 -7 L635 -5 L635 -5 Z M182 353 L182 353 L182 353 Z " />
<glyph glyph-name="L" unicode="L" horiz-adv-x="581" d="M495 156 C495 161 495 166 494 165 L475 105 C457 51 410 15 356 15 L171 15 L171 589 C171 628 197 656 235 659 L246 660 L246 661 L40 661 L40 660 L51 659 C89 656 115 628 115 589 L115 73 C115 34 89 6 51 3 L40 2 L40 1 L468 1 C475 49 487 110 495 158 L495 156 L495 156 Z " />
<glyph glyph-name="M" unicode="M" horiz-adv-x="827" d="M739 72 L715 595 C716 630 740 655 776 658 L787 659 L787 660 L662 660 L429 64 L181 660 L63 660 L63 659 L74 658 C112 655 135 626 135 587 L115 63 C111 28 85 4 49 1 L38 0 L38 -1 L240 -1 L240 0 L210 2 C165 4 135 34 133 78 L152 588 C235 390 319 193 402 -5 L416 -5 L664 616 L684 72 C684 34 661 5 623 2 L612 1 L612 0 L818 0 L818 1 L807 2 C769 5 742 34 739 73 L739 72 L739 72 Z M429 64 L429 65 L429 64 L429 64 Z " />
<glyph glyph-name="N" unicode="N" horiz-adv-x="702" d="M571 588 L571 80 L168 660 L43 660 L43 659 L54 658 C92 655 118 627 118 588 L118 72 C118 33 92 5 54 2 L43 1 L43 0 L210 0 L210 1 L199 2 C161 5 135 33 135 72 L135 609 C279 402 423 195 567 -12 L586 -12 L586 587 C586 626 612 654 650 657 L661 658 L661 659 L495 659 L495 658 L506 657 C544 654 570 626 570 587 L571 588 L571 588 Z " />
<glyph glyph-name="O" unicode="O" horiz-adv-x="759" d="M123 330 C123 503 212 651 386 651 C559 651 648 503 648 330 C648 157 559 9 386 9 C212 9 123 157 123 330 L123 330 Z M62 330 C62 149 172 -5 386 -5 C599 -5 709 149 709 330 C709 511 599 665 386 665 C172 665 62 511 62 330 L62 330 Z " />
<glyph glyph-name="P" unicode="P" horiz-adv-x="570" d="M257 0 L257 1 L246 2 C208 5 182 33 182 72 L182 298 L306 298 C452 298 550 370 550 478 C550 587 465 660 337 660 L51 660 L51 659 L62 658 C100 655 126 627 126 588 L126 72 C126 33 100 5 62 2 L51 1 L51 0 L257 0 L257 0 Z M182 312 L182 646 L337 646 C429 646 491 579 491 478 C491 378 417 311 306 311 C306 311 219 312 182 312 L182 312 Z " />
<glyph glyph-name="Q" unicode="Q" horiz-adv-x="759" d="M801 -51 L796 -47 C773 -74 711 -92 640 -92 C528 -92 447 -57 391 -5 C601 -3 709 150 709 330 C709 511 599 665 386 665 C172 665 62 511 62 330 C62 153 167 2 372 -5 C448 -79 537 -128 634 -128 C695 -128 762 -97 801 -51 L801 -51 Z M123 330 C123 503 212 651 386 651 C559 651 648 503 648 330 C648 157 559 9 386 9 C212 9 123 157 123 330 L123 330 Z " />
<glyph glyph-name="R" unicode="R" horiz-adv-x="630" d="M630 0 L630 11 C603 11 605 11 534 95 C438 209 368 292 345 320 C455 334 526 398 526 489 C526 591 446 659 325 659 L52 659 L52 658 L63 657 C101 654 127 626 127 587 L127 71 C127 32 101 4 63 1 L52 0 L52 -1 L258 -1 L258 0 L247 1 C209 4 183 32 183 71 L183 316 L281 316 C306 287 371 209 459 105 C545 3 551 -1 609 -1 L630 0 L630 0 Z M297 329 L183 330 L183 645 L325 645 C410 645 467 583 467 489 C467 393 399 329 297 329 L297 329 Z " />
<glyph glyph-name="S" unicode="S" horiz-adv-x="505" d="M343 630 C376 615 402 582 409 544 C413 522 420 494 424 472 L425 472 L425 614 C372 645 298 665 240 665 C127 665 51 591 51 481 C51 409 123 340 231 308 C344 274 420 210 420 146 C420 64 360 9 270 9 C238 9 203 13 170 20 C111 37 64 89 51 154 C49 164 46 178 44 188 L43 188 L43 46 C96 15 187 -5 270 -5 C384 -5 460 64 460 168 C460 245 386 319 275 352 C164 385 90 445 90 503 C90 592 149 651 238 651 C268 651 305 643 342 630 L343 630 L343 630 Z " />
<glyph glyph-name="T" unicode="T" horiz-adv-x="620" d="M13 496 L14 496 L32 566 C44 614 84 646 132 646 L282 646 L282 72 C282 33 256 5 218 2 L207 1 L207 0 L413 0 L413 1 L402 2 C364 5 338 33 338 72 L338 646 L488 646 C536 646 576 614 588 566 L606 496 L607 496 C603 545 600 611 593 659 L27 659 C20 611 17 545 13 496 L13 496 Z " />
<glyph glyph-name="U" unicode="U" horiz-adv-x="687" d="M116 588 L116 208 C116 80 183 -5 354 -5 C518 -5 582 68 582 178 L582 578 C582 623 611 655 654 658 L667 659 L667 660 L476 660 L476 659 L491 658 C534 655 563 626 565 584 L564 184 C564 82 507 14 361 14 C224 14 171 88 171 198 L171 588 C171 627 197 655 235 658 L246 659 L246 660 L40 660 L40 659 L51 658 C89 655 115 627 115 588 L116 588 L116 588 Z " />
<glyph glyph-name="V" unicode="V" horiz-adv-x="675" d="M95 588 L95 588 L331 -15 L345 -15 L538 588 C551 627 585 655 624 658 L636 659 L636 660 L425 660 L425 659 L448 658 C502 655 528 619 515 567 L355 62 L152 596 C142 631 158 655 194 657 L227 659 L227 660 L7 660 L7 659 C45 655 76 633 93 589 L95 588 L95 588 Z " />
<glyph glyph-name="W" unicode="W" horiz-adv-x="935" d="M78 588 L273 -15 L287 -15 L451 577 L641 -15 L655 -15 L831 596 C844 631 876 656 912 659 L924 660 L924 661 L728 661 L728 660 L766 658 C802 656 821 632 815 598 L666 74 L477 671 L464 671 L296 69 L138 589 C126 628 144 656 183 658 L206 660 L206 661 L-5 661 L-5 660 L5 659 C36 656 65 627 78 588 L78 588 Z " />
<glyph glyph-name="X" unicode="X" horiz-adv-x="637" d="M474 588 L337 368 L197 588 C172 627 181 655 220 657 L251 659 L251 660 L33 660 L33 659 C70 655 103 634 131 592 L303 322 L153 72 C129 33 88 5 49 2 L36 1 L36 0 L240 0 L240 1 L214 3 C167 5 154 37 179 83 L311 308 L462 71 C487 32 478 4 439 2 L408 0 L408 -1 L626 -1 L626 0 C589 4 556 25 528 67 C467 163 405 259 345 354 L494 587 C519 626 562 654 601 657 L614 658 L614 659 L408 659 L408 658 L449 656 C488 654 497 626 472 587 L474 588 L474 588 Z " />
<glyph glyph-name="Y" unicode="Y" horiz-adv-x="601" d="M610 659 L610 660 L420 660 L420 659 L441 658 C490 655 506 623 484 577 L326 293 L168 596 C154 631 167 655 203 657 L225 659 L225 660 L14 660 L14 659 C51 654 82 632 106 588 L106 588 L279 261 L279 72 C279 33 253 5 215 2 L204 1 L204 0 L410 0 L410 1 L399 2 C361 5 335 33 335 72 L335 285 C392 386 448 488 506 588 C531 632 567 654 610 658 L610 659 L610 659 Z " />
<glyph glyph-name="Z" unicode="Z" horiz-adv-x="592" d="M542 156 C542 161 542 166 541 165 L522 105 C504 51 457 15 403 15 L124 15 L529 661 L119 661 C108 621 94 568 83 527 L84 527 L103 567 C126 615 173 647 221 647 L457 647 L52 1 L515 1 C522 49 534 110 542 158 L542 156 L542 156 Z " />
<glyph glyph-name="bracketleft" unicode="&#x5b;" horiz-adv-x="231" d="M116 649 L221 649 L221 660 L77 660 L77 -120 L221 -120 L221 -109 L116 -109 L116 649 L116 649 Z " />
<glyph glyph-name="backslash" unicode="&#x5c;" horiz-adv-x="224" d="M207 -145 L224 -145 L-43 710 L-60 710 L207 -145 L207 -145 Z " />
<glyph glyph-name="bracketright" unicode="&#x5d;" horiz-adv-x="219" d="M110 649 L110 -109 L5 -109 L5 -120 L149 -120 L149 660 L5 660 L5 649 L110 649 L110 649 Z " />
<glyph glyph-name="asciicircum" unicode="&#x5e;" horiz-adv-x="340" d="M186 731 C184 735 178 745 170 745 C162 745 156 735 154 731 C154 731 58 545 52 538 L57 533 C96 580 144 652 169 690 C205 634 282 533 282 533 L287 538 C287 538 235 629 185 731 L186 731 L186 731 Z " />
<glyph glyph-name="underscore" unicode="&#x5f;" horiz-adv-x="455" d="M5 -50 L5 -78 L450 -78 L450 -50 L5 -50 L5 -50 Z " />
<glyph glyph-name="grave" unicode="&#x60;" horiz-adv-x="340" d="M88 715 C88 710 105 689 131 660 C163 620 244 531 244 531 L249 535 C249 535 180 638 156 680 C133 712 120 735 116 735 C108 735 88 721 88 715 L88 715 Z " />
<glyph glyph-name="a" unicode="a" horiz-adv-x="483" d="M461 37 C447 23 432 14 409 14 C379 14 370 38 370 73 L370 359 C370 447 321 505 248 505 C150 505 78 465 66 406 L116 406 C126 457 174 491 237 491 C286 491 318 443 318 371 L318 251 C287 248 234 242 202 234 C102 209 36 156 36 102 C36 38 82 -5 150 -5 C208 -5 271 23 318 67 C318 21 331 -10 375 -10 C415 -10 442 6 466 30 L461 37 L461 37 Z M318 239 L318 76 C281 46 228 27 176 27 C122 27 86 62 86 115 C86 159 133 199 203 217 C242 227 290 235 319 239 L318 239 L318 239 Z " />
<glyph glyph-name="b" unicode="b" horiz-adv-x="600" d="M307 -5 C450 -5 545 96 545 248 C545 402 459 505 331 505 C278 505 208 486 155 458 L155 720 L145 720 L30 687 L30 686 L41 686 C95 687 105 677 105 622 L105 0 L111 0 C116 14 129 24 144 24 C193 24 246 -5 307 -5 L307 -5 Z M307 9 C216 9 155 59 155 133 L155 450 C192 470 247 483 292 483 C412 483 492 380 492 225 C492 95 418 9 307 9 L307 9 Z " />
<glyph glyph-name="c" unicode="c" horiz-adv-x="475" d="M423 41 L419 47 C403 34 347 25 278 25 C173 25 103 117 103 254 C103 396 178 491 290 491 C338 491 373 456 378 404 C379 389 389 379 403 379 C416 379 425 388 425 401 C420 463 368 505 296 505 C148 505 50 397 50 235 C50 91 125 -5 237 -5 C316 -5 390 13 423 41 L423 41 Z " />
<glyph glyph-name="d" unicode="d" horiz-adv-x="596" d="M486 720 L476 720 L361 687 L361 686 L372 686 C426 687 436 677 436 622 L436 436 C403 476 342 506 274 506 C142 506 54 394 54 226 C54 88 134 -4 255 -4 C324 -4 394 19 435 55 L435 1 L445 1 L560 34 L560 35 L549 35 C495 34 485 44 485 99 L486 720 L486 720 Z M435 63 C410 41 349 26 282 26 C176 26 106 113 106 244 C106 392 172 491 272 491 C345 491 409 455 435 411 L435 63 L435 63 Z " />
<glyph glyph-name="e" unicode="e" horiz-adv-x="482" d="M430 41 L426 47 C410 34 353 25 282 25 C175 25 103 117 103 254 C103 279 105 302 109 324 L432 324 C432 433 365 505 264 505 C136 505 50 397 50 235 C50 91 126 -5 240 -5 C321 -5 397 13 430 41 L430 41 Z M385 366 C385 353 377 344 365 342 L110 334 C129 431 185 492 261 492 C335 492 385 442 385 367 L385 366 L385 366 Z " />
<glyph glyph-name="f" unicode="f" horiz-adv-x="396" d="M255 0 L255 1 L244 2 C206 5 180 33 180 72 L180 481 L315 481 L315 500 L180 500 L180 533 C180 638 255 709 287 709 C319 709 341 689 344 660 C346 633 391 630 391 660 C388 696 352 720 301 720 C200 720 133 650 133 544 C131 544 130 500 130 500 L45 500 L45 481 L130 481 L130 72 C130 33 104 5 66 2 L55 1 L55 0 L255 0 L255 0 Z " />
<glyph glyph-name="g" unicode="g" horiz-adv-x="467" d="M467 500 C421 496 374 494 329 490 C305 500 277 505 246 505 C140 505 69 443 69 350 C69 277 113 223 184 204 C105 202 52 166 52 113 C52 66 93 32 158 23 C79 -3 27 -54 27 -109 C27 -186 86 -237 175 -237 C338 -237 447 -161 447 -48 C447 23 376 71 269 71 C257 71 191 68 191 68 C127 68 85 94 85 133 C85 171 127 196 191 196 L246 196 C352 196 423 258 423 351 C423 402 401 444 364 471 L467 473 L467 500 L467 500 Z M246 207 C168 207 116 265 116 351 C116 437 168 495 246 495 C324 495 376 437 376 351 C376 265 324 207 246 207 L246 207 Z M175 22 C190 21 237 24 255 24 C349 24 411 -15 411 -73 C411 -164 319 -224 180 -224 C108 -224 60 -176 60 -104 C60 -49 105 0 174 21 L175 22 L175 22 Z " />
<glyph glyph-name="h" unicode="h" horiz-adv-x="621" d="M456 69 C455 31 429 4 392 1 L381 0 L381 -1 L581 -1 L581 0 L570 1 C532 4 506 32 506 71 L506 335 C506 436 470 504 379 504 C332 504 249 476 170 435 L170 719 L160 719 L45 686 L45 685 L56 685 C110 686 120 676 120 621 L120 71 C120 32 94 4 56 1 L45 0 L45 -1 L245 -1 L245 0 L234 1 C196 4 170 32 170 71 L170 430 C219 454 286 470 342 470 C424 470 456 414 456 330 C456 330 457 224 457 68 L456 69 L456 69 Z " />
<glyph glyph-name="i" unicode="i" horiz-adv-x="290" d="M176 603 C176 647 109 648 109 603 C109 559 176 560 176 603 L176 603 Z M245 0 L245 1 L234 2 C196 5 170 33 170 72 L170 500 L160 500 L45 467 L45 466 L56 466 C110 467 120 457 120 402 L120 72 C120 33 94 5 56 2 L45 1 L45 0 L245 0 L245 0 Z " />
<glyph glyph-name="j" unicode="j" horiz-adv-x="290" d="M176 603 C176 647 109 648 109 603 C109 559 176 560 176 603 L176 603 Z M120 402 L120 8 C120 -131 93 -174 11 -225 L16 -232 C132 -160 170 -111 170 22 L170 500 L160 500 L45 467 L45 466 L56 466 C110 467 120 457 120 402 L120 402 Z " />
<glyph glyph-name="k" unicode="k" horiz-adv-x="543" d="M440 72 L223 301 L375 428 C422 468 480 497 518 499 L534 500 L534 501 L363 501 L363 500 L373 499 C404 496 402 473 369 440 L179 275 L179 720 L169 720 L54 687 L54 686 L65 686 C119 687 129 677 129 622 L129 72 C129 33 103 5 65 2 L54 1 L54 0 L254 0 L254 1 L243 2 C205 5 179 33 179 72 L179 265 L182 268 L389 58 C415 26 413 4 381 1 L371 0 L371 -1 L582 -1 L582 0 L567 1 C528 4 477 32 440 71 L440 72 L440 72 Z " />
<glyph glyph-name="l" unicode="l" horiz-adv-x="290" d="M245 0 L245 1 L234 2 C196 5 170 33 170 72 L170 720 L160 720 L45 687 L45 686 L56 686 C110 687 120 677 120 622 L120 72 C120 33 94 5 56 2 L45 1 L45 0 L245 0 L245 0 Z " />
<glyph glyph-name="m" unicode="m" horiz-adv-x="976" d="M811 69 C810 31 784 4 747 1 L736 0 L736 -1 L936 -1 L936 0 L925 1 C887 4 861 32 861 71 L861 335 C861 436 803 504 727 504 C684 504 597 470 500 419 C479 472 437 504 386 504 C330 504 249 476 170 435 L170 499 L160 499 L45 466 L45 465 L56 465 C110 466 120 456 120 401 L120 71 C120 32 94 4 56 1 L45 0 L45 -1 L245 -1 L245 0 L234 1 C196 4 170 32 170 71 L170 430 C222 456 287 474 347 474 C414 474 465 416 465 330 C465 330 466 224 466 68 C465 30 439 3 402 0 L391 -1 L391 -2 L591 -2 L591 -1 L580 0 C542 3 516 31 516 70 L516 334 C516 362 512 387 504 409 C572 445 641 468 688 468 C758 468 810 412 810 328 C810 328 811 222 811 66 L811 69 L811 69 Z " />
<glyph glyph-name="n" unicode="n" horiz-adv-x="621" d="M456 69 C455 31 429 4 392 1 L381 0 L381 -1 L581 -1 L581 0 L570 1 C532 4 506 32 506 71 L506 335 C506 436 470 504 379 504 C332 504 249 476 170 435 L170 499 L160 499 L45 466 L45 465 L56 465 C110 466 120 456 120 401 L120 71 C120 32 94 4 56 1 L45 0 L45 -1 L245 -1 L245 0 L234 1 C196 4 170 32 170 71 L170 430 C219 454 286 470 342 470 C424 470 456 414 456 330 C456 330 457 224 457 68 L456 69 L456 69 Z " />
<glyph glyph-name="o" unicode="o" horiz-adv-x="589" d="M106 250 C106 396 182 494 295 494 C408 494 483 396 483 250 C483 104 408 6 295 6 C182 6 106 104 106 250 L106 250 Z M50 250 C50 97 148 -5 295 -5 C441 -5 539 97 539 250 C539 403 441 505 295 505 C148 505 50 403 50 250 L50 250 Z " />
<glyph glyph-name="p" unicode="p" horiz-adv-x="633" d="M245 -230 L245 -229 L234 -228 C196 -225 170 -197 170 -158 L170 50 C205 16 261 -4 328 -4 C478 -4 578 101 578 259 C578 407 495 506 371 506 C296 506 217 473 170 422 L170 501 L160 501 L45 468 L45 467 L56 467 C110 468 120 458 120 403 L120 -157 C120 -196 94 -224 56 -227 L45 -228 L45 -229 L245 -230 L245 -230 Z M170 136 L170 414 C205 449 268 472 332 472 C450 472 529 371 529 220 C529 94 449 10 328 10 C240 10 177 60 170 136 L170 136 Z " />
<glyph glyph-name="q" unicode="q" horiz-adv-x="615" d="M291 505 C155 505 65 393 65 225 C65 87 143 -5 259 -5 C329 -5 403 20 445 57 L445 -158 C445 -197 419 -225 381 -228 L370 -229 L370 -230 L570 -230 L570 -229 L559 -228 C521 -225 495 -197 495 -158 L495 500 L489 500 C484 486 470 476 453 476 C404 476 352 505 291 505 L291 505 Z M445 67 C418 42 355 26 287 26 C185 26 117 113 117 244 C117 392 187 491 291 491 C383 491 445 441 445 367 L445 67 L445 67 Z " />
<glyph glyph-name="r" unicode="r" horiz-adv-x="415" d="M278 468 C309 468 350 446 381 446 C395 446 405 456 405 470 C405 491 381 505 318 505 C269 505 211 472 169 423 L169 500 L159 500 L44 467 L44 466 L55 466 C109 467 119 457 119 402 L119 72 C119 33 93 5 55 2 L44 1 L44 0 L244 0 L244 1 L233 2 C195 5 169 33 169 72 L169 416 C197 447 239 468 277 468 L278 468 L278 468 Z " />
<glyph glyph-name="s" unicode="s" horiz-adv-x="422" d="M262 482 C303 467 336 430 344 390 C345 384 347 376 348 370 L349 370 L349 461 C303 487 249 505 213 505 C124 505 65 454 65 378 C65 326 123 267 211 232 C283 203 331 158 331 118 C331 51 287 6 221 6 C199 6 175 9 151 14 C104 26 66 65 55 112 C53 119 51 128 49 135 L48 135 L48 34 C89 11 157 -5 218 -5 C310 -5 372 51 372 136 C372 185 322 238 246 268 C161 302 104 353 104 395 C104 454 148 494 213 494 C213 494 263 486 262 482 L262 482 Z " />
<glyph glyph-name="t" unicode="t" horiz-adv-x="351" d="M320 500 L155 500 L155 640 L147 640 L127 564 C113 522 73 492 26 487 L26 481 L106 481 L106 111 C106 21 126 -5 196 -5 C257 -5 297 15 332 44 L328 48 C306 29 276 17 221 17 C170 17 155 36 155 102 C155 216 156 481 156 481 L321 481 L320 500 L320 500 Z M130 570 L130 571 L130 571 L130 570 L130 570 Z " />
<glyph glyph-name="u" unicode="u" horiz-adv-x="586" d="M426 428 L426 65 C401 43 356 28 282 28 C188 28 140 81 140 161 L140 500 L15 500 L15 499 L26 498 C64 495 90 467 90 428 L90 156 C90 59 142 -5 243 -5 C325 -5 385 20 426 57 L426 0 L436 0 L551 33 L551 34 L540 34 C486 33 476 43 476 98 L476 500 L351 500 L351 499 L362 498 C400 495 426 467 426 428 L426 428 Z " />
<glyph glyph-name="v" unicode="v" horiz-adv-x="556" d="M382 498 C419 495 434 467 420 428 L285 53 L153 433 C142 470 158 496 194 499 L205 500 L205 501 L-2 501 L-2 500 L10 499 C47 496 82 470 98 433 L263 -10 L271 -10 L436 428 C451 467 487 495 526 498 L538 499 L538 500 L372 500 L372 499 L382 498 L382 498 Z " />
<glyph glyph-name="w" unicode="w" horiz-adv-x="800" d="M650 497 C689 495 705 467 691 428 L556 53 L424 433 C413 470 430 496 467 498 L495 500 L495 501 L288 501 L288 500 C324 496 350 476 368 434 C380 401 393 367 405 334 L303 54 L171 434 C160 471 177 497 214 499 L237 501 L237 502 L30 502 L30 501 C69 497 97 477 115 435 L280 -8 L288 -8 L411 321 L533 -8 L541 -8 L706 430 C721 469 757 497 796 500 L808 501 L808 502 L612 502 L612 501 L650 497 L650 497 Z " />
<glyph glyph-name="x" unicode="x" horiz-adv-x="582" d="M157 428 L158 428 L286 253 L164 72 C138 33 94 4 55 2 L32 0 L32 -1 L253 -1 L253 0 L202 3 C166 5 156 29 176 64 L294 243 L428 60 C448 27 441 4 409 1 L398 0 L398 -1 L583 -1 L583 0 C548 4 515 27 483 71 L482 71 L325 285 L430 431 C458 468 501 494 539 497 L553 498 L553 499 L362 499 L362 498 L392 496 C430 494 438 467 412 429 L318 293 L212 438 C192 471 202 494 237 496 L257 498 L257 499 L47 499 L47 498 C88 494 125 471 158 427 L157 428 L157 428 Z " />
<glyph glyph-name="y" unicode="y" horiz-adv-x="530" d="M410 498 C447 495 462 467 448 428 L313 53 L181 433 C170 470 186 496 222 499 L233 500 L233 501 L26 501 L26 500 L38 499 C75 496 110 470 126 433 L288 -2 C283 -13 273 -37 263 -67 C228 -161 201 -197 166 -197 C166 -197 121 -173 101 -173 C85 -173 75 -181 75 -194 C75 -216 99 -230 135 -230 C194 -230 233 -186 276 -72 C289 -36 299 -10 299 -10 L464 428 C479 467 515 495 554 498 L566 499 L566 500 L400 500 L400 499 L410 498 L410 498 Z " />
<glyph glyph-name="z" unicode="z" horiz-adv-x="483" d="M44 398 L45 398 L52 412 C78 458 127 487 175 488 L370 489 L57 0 L422 0 L423 5 L423 5 C431 49 441 109 449 153 C449 158 449 163 448 162 L429 102 C411 48 364 12 310 12 L123 12 L434 501 L72 501 C62 471 52 430 45 399 L44 398 L44 398 Z " />
<glyph glyph-name="braceleft" unicode="&#x7b;" horiz-adv-x="242" d="M227 -120 L227 -112 L198 -112 C139 -112 99 -65 99 5 L99 175 C99 228 74 264 34 270 C74 276 99 313 99 366 L99 535 C99 605 139 652 198 652 L227 652 L227 660 L187 660 C111 660 60 610 60 535 L60 338 C60 297 39 274 5 274 L5 266 C39 266 60 244 60 203 L60 5 C60 -70 111 -120 187 -120 L227 -120 L227 -120 Z " />
<glyph glyph-name="bar" unicode="&#x7c;" horiz-adv-x="159" d="M60 770 L60 -234 L99 -234 L99 770 L60 770 L60 770 Z " />
<glyph glyph-name="braceright" unicode="&#x7d;" horiz-adv-x="242" d="M5 660 L5 652 L34 652 C93 652 133 605 133 535 L133 365 C133 312 158 276 198 270 C158 264 133 227 133 174 L133 5 C133 -65 93 -112 34 -112 L5 -112 L5 -120 L45 -120 C121 -120 172 -70 172 5 L172 202 C172 243 193 266 227 266 L227 274 C193 274 172 296 172 337 L172 535 C172 610 121 660 45 660 L5 660 L5 660 Z " />
<glyph glyph-name="asciitilde" unicode="&#x7e;" horiz-adv-x="340" d="M28 310 C28 350 46 377 73 377 C127 377 199 314 253 314 C293 314 320 352 320 408 L312 408 C312 371 293 347 264 347 C210 347 138 410 84 410 C46 410 20 370 20 310 L28 310 L28 310 Z " />
<glyph glyph-name="nbspace" unicode="&#xa0;" horiz-adv-x="220" d="" />
<glyph glyph-name="exclamdown" unicode="&#xa1;" horiz-adv-x="184" d="M88 505 C66 505 52 491 52 469 C52 447 66 433 88 433 C110 433 124 447 124 469 C124 491 110 505 88 505 L88 505 Z M60 -120 C59 -147 71 -165 91 -165 C111 -165 124 -147 122 -120 C122 167 91 358 91 358 L85 358 C85 358 60 167 60 -120 L60 -120 Z " />
<glyph glyph-name="cent" unicode="&#xa2;" horiz-adv-x="475" d="M273 575 L273 504 C138 493 50 388 50 235 C50 91 125 -5 237 -5 C249 -5 261 -5 273 -4 L273 -75 L289 -75 L289 -2 C347 4 397 20 423 42 L419 48 C404 36 353 27 289 26 L289 492 C338 492 373 458 378 405 C379 390 389 380 403 380 C416 380 425 389 425 402 C420 467 365 508 289 506 L289 576 L273 575 L273 575 Z M273 26 C171 29 103 120 103 255 C103 390 170 482 273 491 L273 26 L273 26 Z " />
<glyph glyph-name="guillemotleft" unicode="&#xab;" horiz-adv-x="458" d="M187 247 L187 247 C187 247 187 247 188 247 C202 238 407 36 407 36 L413 41 C413 41 275 191 237 249 C262 284 335 383 411 459 L406 464 C271 329 187 253 187 253 L187 247 L187 247 Z M20 247 L20 247 C20 246 20 246 21 246 C37 236 241 35 241 35 L246 40 C246 40 108 190 69 248 C94 282 167 381 244 458 L239 463 C103 327 19 252 19 252 L20 247 L20 247 Z " />
<glyph glyph-name="acute" unicode="&#xb4;" horiz-adv-x="340" d="M92 531 C92 531 171 620 202 660 C227 690 244 712 244 715 C244 721 224 735 215 735 C213 735 198 713 177 680 C152 636 87 535 87 535 L92 531 L92 531 Z " />
<glyph glyph-name="guillemotright" unicode="&#xbb;" horiz-adv-x="458" d="M51 36 C51 36 256 238 270 247 L270 247 L270 247 L270 253 C270 253 186 329 51 464 L46 459 C122 383 195 284 220 249 C182 191 44 41 44 41 L51 36 L51 36 Z M216 36 C217 36 420 237 437 247 L437 247 L437 253 C437 253 353 328 217 464 L212 459 C289 382 362 283 387 249 C348 191 210 41 210 41 L216 36 L216 36 Z " />
<glyph glyph-name="onequarter" unicode="&#xbc;" horiz-adv-x="780" d="M131 -14 L671 656 L649 674 L109 4 L131 -14 L131 -14 Z M443 58 L443 50 L580 50 L580 -2 L623 -2 L623 50 L678 50 L678 69 L623 69 L623 303 L616 303 C615 302 443 58 443 58 L443 58 Z M467 69 C491 103 543 177 580 230 L580 69 L467 69 L467 69 Z M273 415 L273 416 C250 416 235 430 235 451 L235 629 C235 649 248 663 267 664 L273 665 L155 665 L161 664 C180 663 193 649 193 629 L193 451 C193 430 178 416 155 416 L155 415 L273 415 L273 415 Z " />
<glyph glyph-name="onehalf" unicode="&#xbd;" horiz-adv-x="780" d="M131 -14 L671 656 L649 674 L109 4 L131 -14 L131 -14 Z M630 43 L520 43 C604 96 657 130 657 176 C657 222 624 253 575 253 C533 253 493 224 475 180 L481 176 C492 203 521 221 554 221 C588 221 610 197 610 162 C610 96 547 71 453 10 L453 0 L663 0 L665 34 C667 49 669 66 671 79 L670 79 C666 58 655 42 631 42 L630 43 L630 43 Z M274 414 L274 415 C251 415 236 429 236 450 L236 628 C236 648 249 662 268 663 L274 664 L156 664 L162 663 C181 662 194 648 194 628 L194 450 C194 429 179 415 156 415 L156 414 L274 414 L274 414 Z " />
<glyph glyph-name="threequarters" unicode="&#xbe;" horiz-adv-x="780" d="M109 340 C225 346 303 393 303 457 C303 501 275 529 215 532 C258 554 284 581 284 606 C284 643 254 668 210 668 C170 668 126 642 100 604 L106 600 C121 622 154 637 189 637 C220 637 241 619 241 592 C241 564 211 535 164 517 C159 515 153 513 147 511 L147 504 C199 520 258 501 258 455 C258 395 198 352 107 348 L109 340 L109 340 Z M130 -14 L670 656 L648 674 L108 4 L130 -14 L130 -14 Z M442 58 L442 50 L579 50 L579 -2 L622 -2 L622 50 L677 50 L677 69 L622 69 L622 303 L615 303 C614 302 442 58 442 58 L442 58 Z M466 69 C490 103 542 177 579 230 L579 69 L466 69 L466 69 Z " />
<glyph glyph-name="questiondown" unicode="&#xbf;" horiz-adv-x="367" d="M227 505 C205 505 191 491 191 469 C191 447 205 433 227 433 C249 433 263 447 263 469 C263 491 249 505 227 505 L227 505 Z M215 171 L180 171 C58 171 35 97 35 56 C35 -77 118 -165 242 -165 C292 -165 326 -138 326 -98 C326 -90 315 -85 298 -85 C276 -85 248 -126 226 -126 C119 -126 47 -56 47 50 C47 80 71 132 197 132 L232 132 C238 132 242 135 242 140 L230 353 L224 353 L215 171 L215 171 Z " />
<glyph glyph-name="Agrave" unicode="&#xc0;" horiz-adv-x="631" d="M540 72 L539 72 L316 675 L302 675 L97 72 L96 72 C83 33 48 5 9 2 L-3 1 L-3 0 L201 0 L201 1 L173 3 C125 5 104 39 120 87 L170 236 L422 236 L481 72 C494 32 479 5 440 3 L397 1 L397 0 L627 0 L627 1 C589 5 558 25 541 71 L540 72 L540 72 Z M228 874 C228 869 245 848 271 819 C303 779 384 690 384 690 L389 694 C389 694 328 798 296 839 C275 872 260 894 256 894 C248 894 228 880 228 874 L228 874 Z M417 250 L176 250 L292 599 L417 250 L417 250 Z " />
<glyph glyph-name="Aacute" unicode="&#xc1;" horiz-adv-x="631" d="M246 691 C246 691 325 780 356 820 C381 850 398 872 398 875 C398 881 378 895 369 895 C367 895 352 873 331 840 C300 800 241 695 241 695 L246 691 L246 691 Z M540 72 L539 72 L316 675 L302 675 L97 72 L96 72 C83 33 48 5 9 2 L-3 1 L-3 0 L201 0 L201 1 L173 3 C125 5 104 39 120 87 L170 236 L422 236 L481 72 C494 32 479 5 440 3 L397 1 L397 0 L627 0 L627 1 C589 5 558 25 541 71 L540 72 L540 72 Z M417 250 L176 250 L292 599 L417 250 L417 250 Z " />
<glyph glyph-name="Acircumflex" unicode="&#xc2;" horiz-adv-x="631" d="M540 72 L539 72 L316 675 L302 675 L97 72 L96 72 C83 33 48 5 9 2 L-3 1 L-3 0 L201 0 L201 1 L173 3 C125 5 104 39 120 87 L170 236 L422 236 L481 72 C494 32 479 5 440 3 L397 1 L397 0 L627 0 L627 1 C589 5 558 25 541 71 L540 72 L540 72 Z M326 890 C324 894 318 904 310 904 C302 904 296 894 294 890 C294 890 198 704 192 697 L197 692 C236 739 284 811 309 849 C345 793 422 692 422 692 L427 697 C427 697 375 788 325 890 L326 890 L326 890 Z M416 250 L175 250 L291 599 L416 250 L416 250 Z " />
<glyph glyph-name="Atilde" unicode="&#xc3;" horiz-adv-x="631" d="M167 755 C167 795 185 822 212 822 C266 822 338 759 392 759 C432 759 459 797 459 853 L451 853 C451 816 432 792 403 792 C349 792 277 855 223 855 C185 855 159 815 159 755 L167 755 L167 755 Z M540 72 L539 72 L316 675 L302 675 L97 72 L96 72 C83 33 48 5 9 2 L-3 1 L-3 0 L201 0 L201 1 L173 3 C125 5 104 39 120 87 L170 236 L422 236 L481 72 C494 32 479 5 440 3 L397 1 L397 0 L627 0 L627 1 C589 5 558 25 541 71 L540 72 L540 72 Z M417 250 L176 250 L292 599 L417 250 L417 250 Z " />
<glyph glyph-name="Adieresis" unicode="&#xc4;" horiz-adv-x="631" d="M428 761 C428 801 367 800 367 761 C367 721 428 720 428 761 L428 761 Z M251 761 C251 800 190 801 190 761 C190 720 251 721 251 761 L251 761 Z M540 72 L539 72 L316 675 L302 675 L97 72 L96 72 C83 33 48 5 9 2 L-3 1 L-3 0 L201 0 L201 1 L173 3 C125 5 104 39 120 87 L170 236 L422 236 L481 72 C494 32 479 5 440 3 L397 1 L397 0 L627 0 L627 1 C589 5 558 25 541 71 L540 72 L540 72 Z M417 250 L176 250 L292 599 L417 250 L417 250 Z " />
<glyph glyph-name="Aring" unicode="&#xc5;" horiz-adv-x="631" d="M229 788 C229 837 261 869 309 869 C357 869 389 837 389 788 C389 744 352 706 309 706 C266 706 229 744 229 788 L229 788 Z M215 788 C215 738 258 695 309 695 C360 695 403 738 403 788 C403 843 365 880 309 880 C253 880 215 843 215 788 L215 788 Z M540 72 L539 72 L316 675 L302 675 L97 72 L96 72 C83 33 48 5 9 2 L-3 1 L-3 0 L201 0 L201 1 L173 3 C125 5 104 39 120 87 L170 236 L422 236 L481 72 C494 32 479 5 440 3 L397 1 L397 0 L627 0 L627 1 C589 5 558 25 541 71 L540 72 L540 72 Z M417 250 L176 250 L292 599 L417 250 L417 250 Z " />
<glyph glyph-name="Ccedilla" unicode="&#xc7;" horiz-adv-x="719" d="M358 -95 C377 -86 403 -80 422 -80 C460 -80 485 -102 485 -135 C485 -177 456 -205 412 -205 C373 -205 338 -199 326 -191 L323 -196 C344 -210 384 -220 422 -220 C478 -220 516 -186 516 -135 C516 -96 483 -70 433 -70 C410 -70 382 -76 363 -85 L358 -95 L358 -95 Z M358 -95 C385 -35 404 -11 410 -5 C499 -3 598 21 659 57 L655 64 C655 64 658 58 658 57 L658 195 L657 195 C655 185 652 171 650 161 C635 88 570 31 486 16 C456 11 426 8 397 8 C232 8 122 136 122 329 C122 522 232 650 397 650 C436 650 478 645 518 636 L518 636 C583 622 635 567 649 498 C651 488 654 474 656 464 L657 464 L657 602 C593 639 488 664 396 664 C194 664 60 530 60 329 C60 130 192 -3 391 -5 L352 -93 L358 -95 L358 -95 Z " />
<glyph glyph-name="Egrave" unicode="&#xc8;" horiz-adv-x="581" d="M187 875 C187 870 204 849 230 820 C262 780 343 691 343 691 L349 695 C349 695 288 799 256 840 C235 873 220 895 216 895 C207 895 187 881 187 875 L187 875 Z M494 149 L493 149 L481 114 C460 54 406 14 346 14 L171 14 L171 345 L301 345 C352 345 391 316 398 273 L400 260 L401 260 L401 434 L400 434 L398 423 C391 385 352 359 301 359 L171 359 L171 646 L339 646 C399 646 446 606 456 546 L462 511 L463 511 L463 660 L40 660 L40 659 L51 658 C89 655 115 627 115 588 L115 72 C115 33 89 5 51 2 L40 1 L40 0 L468 0 C475 46 486 104 494 150 L494 149 L494 149 Z " />
<glyph glyph-name="Eacute" unicode="&#xc9;" horiz-adv-x="581" d="M254 691 C254 691 333 780 364 820 C389 849 405 871 405 875 C405 881 385 895 377 895 C374 895 359 873 338 840 C307 800 248 695 248 695 L254 691 L254 691 Z M494 149 L493 149 L481 114 C460 54 406 14 346 14 L171 14 L171 345 L301 345 C352 345 391 316 398 273 L400 260 L401 260 L401 434 L400 434 L398 423 C391 385 352 359 301 359 L171 359 L171 646 L339 646 C399 646 446 606 456 546 L462 511 L463 511 L463 660 L40 660 L40 659 L51 658 C89 655 115 627 115 588 L115 72 C115 33 89 5 51 2 L40 1 L40 0 L468 0 C475 46 486 104 494 150 L494 149 L494 149 Z " />
<glyph glyph-name="Ecircumflex" unicode="&#xca;" horiz-adv-x="581" d="M301 891 C299 895 293 905 286 905 C278 905 272 895 270 891 C270 891 174 706 167 698 L173 693 C211 739 260 812 285 850 C321 794 398 693 398 693 L404 698 C404 698 350 790 301 891 L301 891 Z M494 149 L493 149 L481 114 C460 54 406 14 346 14 L171 14 L171 345 L301 345 C352 345 391 316 398 273 L400 260 L401 260 L401 434 L400 434 L398 423 C391 385 352 359 301 359 L171 359 L171 646 L339 646 C399 646 446 606 456 546 L462 511 L463 511 L463 660 L40 660 L40 659 L51 658 C89 655 115 627 115 588 L115 72 C115 33 89 5 51 2 L40 1 L40 0 L468 0 C475 46 486 104 494 150 L494 149 L494 149 Z " />
<glyph glyph-name="Edieresis" unicode="&#xcb;" horiz-adv-x="581" d="M405 761 C405 800 344 801 344 761 C344 720 405 721 405 761 L405 761 Z M227 761 C227 801 166 800 166 761 C166 721 227 720 227 761 L227 761 Z M494 149 L493 149 L481 114 C460 54 406 14 346 14 L171 14 L171 345 L301 345 C352 345 391 316 398 273 L400 260 L401 260 L401 434 L400 434 L398 423 C391 385 352 359 301 359 L171 359 L171 646 L339 646 C399 646 446 606 456 546 L462 511 L463 511 L463 660 L40 660 L40 659 L51 658 C89 655 115 627 115 588 L115 72 C115 33 89 5 51 2 L40 1 L40 0 L468 0 C475 46 486 104 494 150 L494 149 L494 149 Z " />
<glyph glyph-name="Igrave" unicode="&#xcc;" horiz-adv-x="286" d="M61 875 C61 870 78 849 104 820 C136 780 217 691 217 691 L222 695 C222 695 161 799 129 840 C108 873 93 895 89 895 C81 895 61 881 61 875 L61 875 Z M246 0 L246 1 L235 2 C197 5 171 33 171 72 L171 588 C171 627 197 655 235 658 L246 659 L246 660 L40 660 L40 659 L51 658 C89 655 115 627 115 588 L115 72 C115 33 89 5 51 2 L40 1 L40 0 L246 0 L246 0 Z " />
<glyph glyph-name="Iacute" unicode="&#xcd;" horiz-adv-x="286" d="M80 691 C80 691 159 780 190 820 C215 850 232 872 232 875 C232 881 212 895 203 895 C201 895 186 873 165 840 C134 800 75 695 75 695 L80 691 L80 691 Z M246 0 L246 1 L235 2 C197 5 171 33 171 72 L171 588 C171 627 197 655 235 658 L246 659 L246 660 L40 660 L40 659 L51 658 C89 655 115 627 115 588 L115 72 C115 33 89 5 51 2 L40 1 L40 0 L246 0 L246 0 Z " />
<glyph glyph-name="Icircumflex" unicode="&#xce;" horiz-adv-x="286" d="M159 891 C157 895 151 905 143 905 C135 905 129 895 127 891 C127 891 31 705 25 698 L30 693 C69 740 117 812 142 850 C178 794 255 693 255 693 L260 698 C260 698 208 789 158 891 L159 891 L159 891 Z M245 0 L245 1 L234 2 C196 5 170 33 170 72 L170 588 C170 627 196 655 234 658 L245 659 L245 660 L39 660 L39 659 L50 658 C88 655 114 627 114 588 L114 72 C114 33 88 5 50 2 L39 1 L39 0 L245 0 L245 0 Z " />
<glyph glyph-name="Idieresis" unicode="&#xcf;" horiz-adv-x="286" d="M262 761 C262 801 201 800 201 761 C201 721 262 720 262 761 L262 761 Z M85 761 C85 800 24 801 24 761 C24 720 85 721 85 761 L85 761 Z M246 0 L246 1 L235 2 C197 5 171 33 171 72 L171 588 C171 627 197 655 235 658 L246 659 L246 660 L40 660 L40 659 L51 658 C89 655 115 627 115 588 L115 72 C115 33 89 5 51 2 L40 1 L40 0 L246 0 L246 0 Z " />
<glyph glyph-name="Ntilde" unicode="&#xd1;" horiz-adv-x="702" d="M211 755 C211 795 229 822 256 822 C310 822 381 759 435 759 C476 759 503 797 503 853 L494 853 C494 816 475 792 446 792 C392 792 321 855 267 855 C228 855 202 815 202 755 L211 755 L211 755 Z M571 588 L571 80 L168 660 L43 660 L43 659 L54 658 C92 655 118 627 118 588 L118 72 C118 33 92 5 54 2 L43 1 L43 0 L210 0 L210 1 L199 2 C161 5 135 33 135 72 L135 609 C279 402 423 195 567 -12 L586 -12 L586 587 C586 626 612 654 650 657 L661 658 L661 659 L495 659 L495 658 L506 657 C544 654 570 626 570 587 L571 588 L571 588 Z " />
<glyph glyph-name="Ograve" unicode="&#xd2;" horiz-adv-x="759" d="M123 330 C123 503 212 651 386 651 C559 651 648 503 648 330 C648 157 559 9 386 9 C212 9 123 157 123 330 L123 330 Z M62 330 C62 149 172 -5 386 -5 C599 -5 709 149 709 330 C709 511 599 665 386 665 C172 665 62 511 62 330 L62 330 Z M303 875 C303 870 320 849 346 820 C378 780 459 691 459 691 L465 695 C465 695 404 799 372 840 C351 873 336 895 332 895 C323 895 303 881 303 875 L303 875 Z " />
<glyph glyph-name="Oacute" unicode="&#xd3;" horiz-adv-x="759" d="M361 691 C361 691 440 780 471 820 C496 849 512 871 512 875 C512 881 492 895 484 895 C481 895 466 873 445 840 C414 800 355 695 355 695 L361 691 L361 691 Z M123 330 C123 503 212 651 386 651 C559 651 648 503 648 330 C648 157 559 9 386 9 C212 9 123 157 123 330 L123 330 Z M62 330 C62 149 172 -5 386 -5 C599 -5 709 149 709 330 C709 511 599 665 386 665 C172 665 62 511 62 330 L62 330 Z " />
<glyph glyph-name="Ocircumflex" unicode="&#xd4;" horiz-adv-x="759" d="M123 330 C123 503 212 651 386 651 C559 651 648 503 648 330 C648 157 559 9 386 9 C212 9 123 157 123 330 L123 330 Z M62 330 C62 149 172 -5 386 -5 C599 -5 709 149 709 330 C709 511 599 665 386 665 C172 665 62 511 62 330 L62 330 Z M401 891 C399 895 393 905 386 905 C378 905 372 895 370 891 C370 891 274 706 267 698 L273 693 C311 739 360 812 385 850 C421 794 498 693 498 693 L504 698 C504 698 450 790 401 891 L401 891 Z " />
<glyph glyph-name="Otilde" unicode="&#xd5;" horiz-adv-x="759" d="M244 755 C244 795 262 822 289 822 C343 822 414 759 468 759 C509 759 536 797 536 853 L527 853 C527 816 508 792 479 792 C425 792 354 855 300 855 C261 855 235 815 235 755 L244 755 L244 755 Z M123 330 C123 503 212 651 386 651 C559 651 648 503 648 330 C648 157 559 9 386 9 C212 9 123 157 123 330 L123 330 Z M62 330 C62 149 172 -5 386 -5 C599 -5 709 149 709 330 C709 511 599 665 386 665 C172 665 62 511 62 330 L62 330 Z " />
<glyph glyph-name="Odieresis" unicode="&#xd6;" horiz-adv-x="759" d="M505 761 C505 800 444 801 444 761 C444 720 505 721 505 761 L505 761 Z M327 761 C327 801 266 800 266 761 C266 721 327 720 327 761 L327 761 Z M123 330 C123 503 212 651 386 651 C559 651 648 503 648 330 C648 157 559 9 386 9 C212 9 123 157 123 330 L123 330 Z M62 330 C62 149 172 -5 386 -5 C599 -5 709 149 709 330 C709 511 599 665 386 665 C172 665 62 511 62 330 L62 330 Z " />
<glyph glyph-name="Oslash" unicode="&#xd8;" horiz-adv-x="759" d="M71 -14 L160 78 C214 27 290 -5 387 -5 C600 -5 710 149 710 330 C710 420 683 503 630 564 L719 656 L701 674 L612 582 C558 633 483 665 387 665 C173 665 63 511 63 330 C63 240 90 157 143 96 L54 4 L71 -14 L71 -14 Z M584 553 L174 128 C141 184 124 255 124 330 C124 503 213 651 387 651 C475 651 541 613 585 553 L584 553 L584 553 Z M599 531 C632 475 649 404 649 329 C649 156 560 8 387 8 C299 8 233 46 189 106 L599 531 L599 531 Z " />
<glyph glyph-name="Ugrave" unicode="&#xd9;" horiz-adv-x="687" d="M267 875 C267 870 284 849 310 820 C342 780 423 691 423 691 L428 695 C428 695 367 799 335 840 C314 873 299 895 295 895 C287 895 267 881 267 875 L267 875 Z M116 588 L116 208 C116 80 183 -5 354 -5 C518 -5 582 68 582 178 L582 578 C582 623 611 655 654 658 L667 659 L667 660 L476 660 L476 659 L491 658 C534 655 563 626 565 584 L564 184 C564 82 507 14 361 14 C224 14 171 88 171 198 L171 588 C171 627 197 655 235 658 L246 659 L246 660 L40 660 L40 659 L51 658 C89 655 115 627 115 588 L116 588 L116 588 Z " />
<glyph glyph-name="Uacute" unicode="&#xda;" horiz-adv-x="687" d="M347 691 C347 691 426 780 457 820 C482 850 499 872 499 875 C499 881 479 895 470 895 C468 895 453 873 432 840 C401 800 342 695 342 695 L347 691 L347 691 Z M116 588 L116 208 C116 80 183 -5 354 -5 C518 -5 582 68 582 178 L582 578 C582 623 611 655 654 658 L667 659 L667 660 L476 660 L476 659 L491 658 C534 655 563 626 565 584 L564 184 C564 82 507 14 361 14 C224 14 171 88 171 198 L171 588 C171 627 197 655 235 658 L246 659 L246 660 L40 660 L40 659 L51 658 C89 655 115 627 115 588 L116 588 L116 588 Z " />
<glyph glyph-name="Ucircumflex" unicode="&#xdb;" horiz-adv-x="687" d="M365 891 C363 895 357 905 349 905 C341 905 335 895 333 891 C333 891 237 705 231 698 L236 693 C275 740 323 812 348 850 C384 794 461 693 461 693 L466 698 C466 698 414 789 364 891 L365 891 L365 891 Z M115 588 L115 208 C115 80 182 -5 353 -5 C517 -5 581 68 581 178 L581 578 C581 623 610 655 653 658 L666 659 L666 660 L475 660 L475 659 L490 658 C533 655 562 626 564 584 L563 184 C563 82 506 14 360 14 C223 14 170 88 170 198 L170 588 C170 627 196 655 234 658 L245 659 L245 660 L39 660 L39 659 L50 658 C88 655 114 627 114 588 L115 588 L115 588 Z " />
<glyph glyph-name="Udieresis" unicode="&#xdc;" horiz-adv-x="687" d="M468 761 C468 801 407 800 407 761 C407 721 468 720 468 761 L468 761 Z M291 761 C291 800 230 801 230 761 C230 720 291 721 291 761 L291 761 Z M116 588 L116 208 C116 80 183 -5 354 -5 C518 -5 582 68 582 178 L582 578 C582 623 611 655 654 658 L667 659 L667 660 L476 660 L476 659 L491 658 C534 655 563 626 565 584 L564 184 C564 82 507 14 361 14 C224 14 171 88 171 198 L171 588 C171 627 197 655 235 658 L246 659 L246 660 L40 660 L40 659 L51 658 C89 655 115 627 115 588 L116 588 L116 588 Z " />
<glyph glyph-name="Yacute" unicode="&#xdd;" horiz-adv-x="601" d="M305 691 C305 691 384 780 415 820 C440 850 457 872 457 875 C457 881 437 895 428 895 C426 895 411 873 390 840 C359 800 300 695 300 695 L305 691 L305 691 Z M610 659 L610 660 L420 660 L420 659 L441 658 C490 655 506 623 484 577 L326 293 L168 596 C154 631 167 655 203 657 L225 659 L225 660 L14 660 L14 659 C51 654 82 632 106 588 L106 588 L279 261 L279 72 C279 33 253 5 215 2 L204 1 L204 0 L410 0 L410 1 L399 2 C361 5 335 33 335 72 L335 285 C392 386 448 488 506 588 C531 632 567 654 610 658 L610 659 L610 659 Z " />
<glyph glyph-name="agrave" unicode="&#xe0;" horiz-adv-x="483" d="M461 37 C447 23 432 14 409 14 C379 14 370 38 370 73 L370 359 C370 447 321 505 248 505 C150 505 78 465 66 406 L116 406 C126 457 174 491 237 491 C286 491 318 443 318 371 L318 251 C287 248 234 242 202 234 C102 209 36 156 36 102 C36 38 82 -5 150 -5 C208 -5 271 23 318 67 C318 21 331 -10 375 -10 C415 -10 442 6 466 30 L461 37 L461 37 Z M136 715 C136 710 153 689 179 660 C211 620 292 531 292 531 L297 535 C297 535 236 639 204 680 C183 713 168 735 164 735 C156 735 136 721 136 715 L136 715 Z M318 239 L318 76 C281 46 228 27 176 27 C122 27 86 62 86 115 C86 159 133 199 203 217 C242 227 290 235 319 239 L318 239 L318 239 Z " />
<glyph glyph-name="aacute" unicode="&#xe1;" horiz-adv-x="483" d="M186 531 C186 531 265 620 296 660 C321 690 338 712 338 715 C338 721 318 735 309 735 C307 735 292 713 271 680 C240 640 181 535 181 535 L186 531 L186 531 Z M461 37 C447 23 432 14 409 14 C379 14 370 38 370 73 L370 359 C370 447 321 505 248 505 C150 505 78 465 66 406 L116 406 C126 457 174 491 237 491 C286 491 318 443 318 371 L318 251 C287 248 234 242 202 234 C102 209 36 156 36 102 C36 38 82 -5 150 -5 C208 -5 271 23 318 67 C318 21 331 -10 375 -10 C415 -10 442 6 466 30 L461 37 L461 37 Z M318 239 L318 76 C281 46 228 27 176 27 C122 27 86 62 86 115 C86 159 133 199 203 217 C242 227 290 235 319 239 L318 239 L318 239 Z " />
<glyph glyph-name="acircumflex" unicode="&#xe2;" horiz-adv-x="483" d="M461 37 C447 23 432 14 409 14 C379 14 370 38 370 73 L370 359 C370 447 321 505 248 505 C150 505 78 465 66 406 L116 406 C126 457 174 491 237 491 C286 491 318 443 318 371 L318 251 C287 248 234 242 202 234 C102 209 36 156 36 102 C36 38 82 -5 150 -5 C208 -5 271 23 318 67 C318 21 331 -10 375 -10 C415 -10 442 6 466 30 L461 37 L461 37 Z M234 731 C232 735 226 745 218 745 C210 745 204 735 202 731 C202 731 106 545 100 538 L105 533 C144 580 192 652 217 690 C253 634 330 533 330 533 L335 538 C335 538 283 629 233 731 L234 731 L234 731 Z M317 239 L317 76 C280 46 227 27 175 27 C121 27 85 62 85 115 C85 159 132 199 202 217 C241 227 289 235 318 239 L317 239 L317 239 Z " />
<glyph glyph-name="atilde" unicode="&#xe3;" horiz-adv-x="483" d="M76 595 C76 635 94 662 121 662 C175 662 247 599 301 599 C341 599 368 637 368 693 L360 693 C360 656 341 632 312 632 C258 632 186 695 132 695 C94 695 68 655 68 595 L76 595 L76 595 Z M461 37 C447 23 432 14 409 14 C379 14 370 38 370 73 L370 359 C370 447 321 505 248 505 C150 505 78 465 66 406 L116 406 C126 457 174 491 237 491 C286 491 318 443 318 371 L318 251 C287 248 234 242 202 234 C102 209 36 156 36 102 C36 38 82 -5 150 -5 C208 -5 271 23 318 67 C318 21 331 -10 375 -10 C415 -10 442 6 466 30 L461 37 L461 37 Z M318 239 L318 76 C281 46 228 27 176 27 C122 27 86 62 86 115 C86 159 133 199 203 217 C242 227 290 235 319 239 L318 239 L318 239 Z " />
<glyph glyph-name="adieresis" unicode="&#xe4;" horiz-adv-x="483" d="M337 601 C337 641 276 640 276 601 C276 561 337 560 337 601 L337 601 Z M160 601 C160 640 99 641 99 601 C99 560 160 561 160 601 L160 601 Z M461 37 C447 23 432 14 409 14 C379 14 370 38 370 73 L370 359 C370 447 321 505 248 505 C150 505 78 465 66 406 L116 406 C126 457 174 491 237 491 C286 491 318 443 318 371 L318 251 C287 248 234 242 202 234 C102 209 36 156 36 102 C36 38 82 -5 150 -5 C208 -5 271 23 318 67 C318 21 331 -10 375 -10 C415 -10 442 6 466 30 L461 37 L461 37 Z M318 239 L318 76 C281 46 228 27 176 27 C122 27 86 62 86 115 C86 159 133 199 203 217 C242 227 290 235 319 239 L318 239 L318 239 Z " />
<glyph glyph-name="aring" unicode="&#xe5;" horiz-adv-x="483" d="M138 628 C138 677 170 709 218 709 C266 709 298 677 298 628 C298 584 261 546 218 546 C175 546 138 584 138 628 L138 628 Z M124 628 C124 578 167 535 218 535 C269 535 312 578 312 628 C312 683 274 720 218 720 C162 720 124 683 124 628 L124 628 Z M461 37 C447 23 432 14 409 14 C379 14 370 38 370 73 L370 359 C370 447 321 505 248 505 C150 505 78 465 66 406 L116 406 C126 457 174 491 237 491 C286 491 318 443 318 371 L318 251 C287 248 234 242 202 234 C102 209 36 156 36 102 C36 38 82 -5 150 -5 C208 -5 271 23 318 67 C318 21 331 -10 375 -10 C415 -10 442 6 466 30 L461 37 L461 37 Z M318 239 L318 76 C281 46 228 27 176 27 C122 27 86 62 86 115 C86 159 133 199 203 217 C242 227 290 235 319 239 L318 239 L318 239 Z " />
<glyph glyph-name="ccedilla" unicode="&#xe7;" horiz-adv-x="475" d="M197 -95 C216 -86 242 -80 261 -80 C299 -80 324 -102 324 -135 C324 -177 295 -205 251 -205 C212 -205 177 -199 165 -191 L162 -196 C183 -210 223 -220 261 -220 C317 -220 355 -186 355 -135 C355 -96 322 -70 272 -70 C249 -70 221 -76 202 -85 L197 -95 L197 -95 Z M197 -95 C224 -35 243 -11 249 -5 C324 -3 393 15 424 42 L420 48 C404 35 348 26 279 26 C174 26 104 118 104 255 C104 397 179 492 291 492 C339 492 374 457 379 405 C380 390 390 380 404 380 C417 380 426 389 426 402 C421 464 369 506 297 506 C149 506 51 398 51 236 C51 94 124 -1 233 -4 L194 -92 L197 -95 L197 -95 Z " />
<glyph glyph-name="egrave" unicode="&#xe8;" horiz-adv-x="482" d="M430 41 L426 47 C410 34 353 25 282 25 C175 25 103 117 103 254 C103 279 105 302 109 324 L432 324 C432 433 365 505 264 505 C136 505 50 397 50 235 C50 91 126 -5 240 -5 C321 -5 397 13 430 41 L430 41 Z M182 715 C182 710 199 689 225 660 C257 620 338 531 338 531 L343 535 C343 535 282 639 250 680 C229 713 214 735 210 735 C202 735 182 721 182 715 L182 715 Z M385 366 C385 353 377 344 365 342 L110 334 C129 431 185 492 261 492 C335 492 385 442 385 367 L385 366 L385 366 Z " />
<glyph glyph-name="eacute" unicode="&#xe9;" horiz-adv-x="482" d="M232 531 C232 531 311 620 342 660 C367 690 384 712 384 715 C384 721 364 735 355 735 C353 735 338 713 317 680 C286 640 227 535 227 535 L232 531 L232 531 Z M430 41 L426 47 C410 34 353 25 282 25 C175 25 103 117 103 254 C103 279 105 302 109 324 L432 324 C432 433 365 505 264 505 C136 505 50 397 50 235 C50 91 126 -5 240 -5 C321 -5 397 13 430 41 L430 41 Z M385 366 C385 353 377 344 365 342 L110 334 C129 431 185 492 261 492 C335 492 385 442 385 367 L385 366 L385 366 Z " />
<glyph glyph-name="ecircumflex" unicode="&#xea;" horiz-adv-x="482" d="M430 41 L426 47 C410 34 353 25 282 25 C175 25 103 117 103 254 C103 279 105 302 109 324 L432 324 C432 433 365 505 264 505 C136 505 50 397 50 235 C50 91 126 -5 240 -5 C321 -5 397 13 430 41 L430 41 Z M280 731 C278 735 272 745 264 745 C256 745 250 735 248 731 C248 731 152 545 146 538 L151 533 C190 580 238 652 263 690 C299 634 376 533 376 533 L381 538 C381 538 329 629 279 731 L280 731 L280 731 Z M384 366 C384 353 376 344 364 342 L109 334 C128 431 184 492 260 492 C334 492 384 442 384 367 L384 366 L384 366 Z " />
<glyph glyph-name="edieresis" unicode="&#xeb;" horiz-adv-x="482" d="M383 601 C383 641 322 640 322 601 C322 561 383 560 383 601 L383 601 Z M206 601 C206 640 145 641 145 601 C145 560 206 561 206 601 L206 601 Z M430 41 L426 47 C410 34 353 25 282 25 C175 25 103 117 103 254 C103 279 105 302 109 324 L432 324 C432 433 365 505 264 505 C136 505 50 397 50 235 C50 91 126 -5 240 -5 C321 -5 397 13 430 41 L430 41 Z M385 366 C385 353 377 344 365 342 L110 334 C129 431 185 492 261 492 C335 492 385 442 385 367 L385 366 L385 366 Z " />
<glyph glyph-name="igrave" unicode="&#xec;" horiz-adv-x="290" d="M63 715 C63 710 80 689 106 660 C138 620 219 531 219 531 L224 535 C224 535 163 639 131 680 C110 713 95 735 91 735 C83 735 63 721 63 715 L63 715 Z M245 0 L245 1 L234 2 C196 5 170 33 170 72 L170 500 L160 500 L45 467 L45 466 L56 466 C110 467 120 457 120 402 L120 72 C120 33 94 5 56 2 L45 1 L45 0 L245 0 L245 0 Z " />
<glyph glyph-name="iacute" unicode="&#xed;" horiz-adv-x="290" d="M67 531 C67 531 146 620 177 660 C202 690 219 712 219 715 C219 721 199 735 190 735 C188 735 173 713 152 680 C121 640 62 535 62 535 L67 531 L67 531 Z M245 0 L245 1 L234 2 C196 5 170 33 170 72 L170 500 L160 500 L45 467 L45 466 L56 466 C110 467 120 457 120 402 L120 72 C120 33 94 5 56 2 L45 1 L45 0 L245 0 L245 0 Z " />
<glyph glyph-name="icircumflex" unicode="&#xee;" horiz-adv-x="290" d="M161 731 C159 735 153 745 145 745 C137 745 131 735 129 731 C129 731 33 545 27 538 L32 533 C71 580 119 652 144 690 C180 634 257 533 257 533 L262 538 C262 538 210 629 160 731 L161 731 L161 731 Z M244 0 L244 1 L233 2 C195 5 169 33 169 72 L169 500 L159 500 L44 467 L44 466 L55 466 C109 467 119 457 119 402 L119 72 C119 33 93 5 55 2 L44 1 L44 0 L244 0 L244 0 Z " />
<glyph glyph-name="idieresis" unicode="&#xef;" horiz-adv-x="290" d="M264 601 C264 641 203 640 203 601 C203 561 264 560 264 601 L264 601 Z M87 601 C87 640 26 641 26 601 C26 560 87 561 87 601 L87 601 Z M245 0 L245 1 L234 2 C196 5 170 33 170 72 L170 500 L160 500 L45 467 L45 466 L56 466 C110 467 120 457 120 402 L120 72 C120 33 94 5 56 2 L45 1 L45 0 L245 0 L245 0 Z " />
<glyph glyph-name="ntilde" unicode="&#xf1;" horiz-adv-x="621" d="M171 595 C171 635 189 662 216 662 C270 662 342 599 396 599 C436 599 463 637 463 693 L455 693 C455 656 436 632 407 632 C353 632 281 695 227 695 C189 695 163 655 163 595 L171 595 L171 595 Z M456 69 C455 31 429 4 392 1 L381 0 L381 -1 L581 -1 L581 0 L570 1 C532 4 506 32 506 71 L506 335 C506 436 470 504 379 504 C332 504 249 476 170 435 L170 499 L160 499 L45 466 L45 465 L56 465 C110 466 120 456 120 401 L120 71 C120 32 94 4 56 1 L45 0 L45 -1 L245 -1 L245 0 L234 1 C196 4 170 32 170 71 L170 430 C219 454 286 470 342 470 C424 470 456 414 456 330 C456 330 457 224 457 68 L456 69 L456 69 Z " />
<glyph glyph-name="ograve" unicode="&#xf2;" horiz-adv-x="589" d="M106 250 C106 396 182 494 295 494 C408 494 483 396 483 250 C483 104 408 6 295 6 C182 6 106 104 106 250 L106 250 Z M50 250 C50 97 148 -5 295 -5 C441 -5 539 97 539 250 C539 403 441 505 295 505 C148 505 50 403 50 250 L50 250 Z M212 715 C212 710 229 689 255 660 C287 620 368 531 368 531 L374 535 C374 535 313 639 281 680 C260 713 245 735 241 735 C232 735 212 721 212 715 L212 715 Z " />
<glyph glyph-name="oacute" unicode="&#xf3;" horiz-adv-x="589" d="M263 531 C263 531 342 620 373 660 C398 689 414 711 414 715 C414 721 394 735 386 735 C383 735 368 713 347 680 C316 640 257 535 257 535 L263 531 L263 531 Z M106 250 C106 396 182 494 295 494 C408 494 483 396 483 250 C483 104 408 6 295 6 C182 6 106 104 106 250 L106 250 Z M50 250 C50 97 148 -5 295 -5 C441 -5 539 97 539 250 C539 403 441 505 295 505 C148 505 50 403 50 250 L50 250 Z " />
<glyph glyph-name="ocircumflex" unicode="&#xf4;" horiz-adv-x="589" d="M106 250 C106 396 182 494 295 494 C408 494 483 396 483 250 C483 104 408 6 295 6 C182 6 106 104 106 250 L106 250 Z M50 250 C50 97 148 -5 295 -5 C441 -5 539 97 539 250 C539 403 441 505 295 505 C148 505 50 403 50 250 L50 250 Z M310 731 C308 735 302 745 295 745 C287 745 281 735 279 731 C279 731 183 546 176 538 L182 533 C220 579 269 652 294 690 C330 634 407 533 407 533 L413 538 C413 538 359 630 310 731 L310 731 Z " />
<glyph glyph-name="otilde" unicode="&#xf5;" horiz-adv-x="589" d="M153 595 C153 635 171 662 198 662 C252 662 323 599 377 599 C418 599 445 637 445 693 L436 693 C436 656 417 632 388 632 C334 632 263 695 209 695 C170 695 144 655 144 595 L153 595 L153 595 Z M106 250 C106 396 182 494 295 494 C408 494 483 396 483 250 C483 104 408 6 295 6 C182 6 106 104 106 250 L106 250 Z M50 250 C50 97 148 -5 295 -5 C441 -5 539 97 539 250 C539 403 441 505 295 505 C148 505 50 403 50 250 L50 250 Z " />
<glyph glyph-name="odieresis" unicode="&#xf6;" horiz-adv-x="589" d="M414 601 C414 640 353 641 353 601 C353 560 414 561 414 601 L414 601 Z M236 601 C236 641 175 640 175 601 C175 561 236 560 236 601 L236 601 Z M106 250 C106 396 182 494 295 494 C408 494 483 396 483 250 C483 104 408 6 295 6 C182 6 106 104 106 250 L106 250 Z M50 250 C50 97 148 -5 295 -5 C441 -5 539 97 539 250 C539 403 441 505 295 505 C148 505 50 403 50 250 L50 250 Z " />
<glyph glyph-name="oslash" unicode="&#xf8;" horiz-adv-x="589" d="M56 -11 L123 59 C166 18 225 -5 295 -5 C441 -5 539 97 539 250 C539 323 517 384 478 428 L545 498 L533 510 L466 440 C424 481 365 504 295 504 C148 504 50 402 50 249 C50 176 72 115 111 71 L43 1 L56 -11 L56 -11 Z M439 414 L139 101 C117 141 105 192 105 250 C105 396 181 494 294 494 C356 494 406 465 439 415 L439 414 L439 414 Z M448 400 C470 360 482 309 482 251 C482 105 407 7 294 7 C232 7 181 36 148 87 L448 400 L448 400 Z " />
<glyph glyph-name="ugrave" unicode="&#xf9;" horiz-adv-x="586" d="M201 715 C201 710 218 689 244 660 C276 620 357 531 357 531 L362 535 C362 535 301 639 269 680 C248 713 233 735 229 735 C221 735 201 721 201 715 L201 715 Z M426 428 L426 65 C401 43 356 28 282 28 C188 28 140 81 140 161 L140 500 L15 500 L15 499 L26 498 C64 495 90 467 90 428 L90 156 C90 59 142 -5 243 -5 C325 -5 385 20 426 57 L426 0 L436 0 L551 33 L551 34 L540 34 C486 33 476 43 476 98 L476 500 L351 500 L351 499 L362 498 C400 495 426 467 426 428 L426 428 Z " />
<glyph glyph-name="uacute" unicode="&#xfa;" horiz-adv-x="586" d="M251 531 C251 531 330 620 361 660 C386 690 403 712 403 715 C403 721 383 735 374 735 C372 735 357 713 336 680 C305 640 246 535 246 535 L251 531 L251 531 Z M426 428 L426 65 C401 43 356 28 282 28 C188 28 140 81 140 161 L140 500 L15 500 L15 499 L26 498 C64 495 90 467 90 428 L90 156 C90 59 142 -5 243 -5 C325 -5 385 20 426 57 L426 0 L436 0 L551 33 L551 34 L540 34 C486 33 476 43 476 98 L476 500 L351 500 L351 499 L362 498 C400 495 426 467 426 428 L426 428 Z " />
<glyph glyph-name="ucircumflex" unicode="&#xfb;" horiz-adv-x="586" d="M299 731 C297 735 291 745 283 745 C275 745 269 735 267 731 C267 731 171 545 165 538 L170 533 C209 580 257 652 282 690 C318 634 395 533 395 533 L400 538 C400 538 348 629 298 731 L299 731 L299 731 Z M425 428 L425 65 C400 43 355 28 281 28 C187 28 139 81 139 161 L139 500 L14 500 L14 499 L25 498 C63 495 89 467 89 428 L89 156 C89 59 141 -5 242 -5 C324 -5 384 20 425 57 L425 0 L435 0 L550 33 L550 34 L539 34 C485 33 475 43 475 98 L475 500 L350 500 L350 499 L361 498 C399 495 425 467 425 428 L425 428 Z " />
<glyph glyph-name="udieresis" unicode="&#xfc;" horiz-adv-x="586" d="M402 601 C402 641 341 640 341 601 C341 561 402 560 402 601 L402 601 Z M225 601 C225 640 164 641 164 601 C164 560 225 561 225 601 L225 601 Z M426 428 L426 65 C401 43 356 28 282 28 C188 28 140 81 140 161 L140 500 L15 500 L15 499 L26 498 C64 495 90 467 90 428 L90 156 C90 59 142 -5 243 -5 C325 -5 385 20 426 57 L426 0 L436 0 L551 33 L551 34 L540 34 C486 33 476 43 476 98 L476 500 L351 500 L351 499 L362 498 C400 495 426 467 426 428 L426 428 Z " />
<glyph glyph-name="ydieresis" unicode="&#xff;" horiz-adv-x="475" d="M386 601 C386 641 325 640 325 601 C325 561 386 560 386 601 L386 601 Z M209 601 C209 640 148 641 148 601 C148 560 209 561 209 601 L209 601 Z M382 498 C419 495 434 467 420 428 L285 53 L153 433 C142 470 158 496 194 499 L205 500 L205 501 L-2 501 L-2 500 L10 499 C47 496 82 470 98 433 L260 -2 C255 -13 245 -37 235 -67 C200 -161 173 -197 138 -197 C138 -197 93 -173 73 -173 C57 -173 47 -181 47 -194 C47 -216 71 -230 107 -230 C166 -230 205 -186 248 -72 C261 -36 271 -10 271 -10 L436 428 C451 467 487 495 526 498 L538 499 L538 500 L372 500 L372 499 L382 498 L382 498 Z " />
<glyph glyph-name="Amacron" unicode="&#x100;" horiz-adv-x="631" d="M159 770 L459 770 L459 798 L159 798 L159 770 L159 770 Z M540 72 L539 72 L316 675 L302 675 L97 72 L96 72 C83 33 48 5 9 2 L-3 1 L-3 0 L201 0 L201 1 L173 3 C125 5 104 39 120 87 L170 236 L422 236 L481 72 C494 32 479 5 440 3 L397 1 L397 0 L627 0 L627 1 C589 5 558 25 541 71 L540 72 L540 72 Z M417 250 L176 250 L292 599 L417 250 L417 250 Z " />
<glyph glyph-name="amacron" unicode="&#x101;" horiz-adv-x="483" d="M68 610 L368 610 L368 638 L68 638 L68 610 L68 610 Z M461 37 C447 23 432 14 409 14 C379 14 370 38 370 73 L370 359 C370 447 321 505 248 505 C150 505 78 465 66 406 L116 406 C126 457 174 491 237 491 C286 491 318 443 318 371 L318 251 C287 248 234 242 202 234 C102 209 36 156 36 102 C36 38 82 -5 150 -5 C208 -5 271 23 318 67 C318 21 331 -10 375 -10 C415 -10 442 6 466 30 L461 37 L461 37 Z M318 239 L318 76 C281 46 228 27 176 27 C122 27 86 62 86 115 C86 159 133 199 203 217 C242 227 290 235 319 239 L318 239 L318 239 Z " />
<glyph glyph-name="Abreve" unicode="&#x102;" horiz-adv-x="631" d="M194 872 C205 810 251 768 309 768 C368 768 414 809 425 871 L416 873 C408 830 366 801 309 801 C252 801 210 830 202 873 L194 872 L194 872 Z M540 72 L539 72 L316 675 L302 675 L97 72 L96 72 C83 33 48 5 9 2 L-3 1 L-3 0 L201 0 L201 1 L173 3 C125 5 104 39 120 87 L170 236 L422 236 L481 72 C494 32 479 5 440 3 L397 1 L397 0 L627 0 L627 1 C589 5 558 25 541 71 L540 72 L540 72 Z M417 250 L176 250 L292 599 L417 250 L417 250 Z " />
<glyph glyph-name="abreve" unicode="&#x103;" horiz-adv-x="483" d="M103 682 C114 620 160 578 218 578 C277 578 323 619 334 681 L325 683 C317 640 275 611 218 611 C161 611 119 640 111 683 L103 682 L103 682 Z M461 37 C447 23 432 14 409 14 C379 14 370 38 370 73 L370 359 C370 447 321 505 248 505 C150 505 78 465 66 406 L116 406 C126 457 174 491 237 491 C286 491 318 443 318 371 L318 251 C287 248 234 242 202 234 C102 209 36 156 36 102 C36 38 82 -5 150 -5 C208 -5 271 23 318 67 C318 21 331 -10 375 -10 C415 -10 442 6 466 30 L461 37 L461 37 Z M318 239 L318 76 C281 46 228 27 176 27 C122 27 86 62 86 115 C86 159 133 199 203 217 C242 227 290 235 319 239 L318 239 L318 239 Z " />
<glyph glyph-name="Aogonek" unicode="&#x104;" horiz-adv-x="631" d="M540 72 L539 72 L316 675 L302 675 L97 72 L96 72 C83 33 48 5 9 2 L-3 1 L-3 0 L201 0 L201 1 L173 3 C125 5 104 39 120 87 L170 236 L422 236 L481 72 C494 32 479 5 440 3 L397 1 L397 0 L485 0 C437 -29 364 -97 364 -156 C364 -202 405 -233 467 -233 C499 -233 531 -220 548 -200 L544 -195 C532 -209 506 -219 478 -219 C428 -219 395 -192 395 -151 C395 -85 473 -12 507 0 L627 0 L627 1 C589 5 558 25 541 71 L540 72 L540 72 Z M417 250 L176 250 L292 599 L417 250 L417 250 Z " />
<glyph glyph-name="aogonek" unicode="&#x105;" horiz-adv-x="483" d="M423 15 C383 8 370 32 370 73 L370 359 C370 447 321 505 248 505 C150 505 78 465 66 406 L116 406 C126 457 174 491 237 491 C286 491 318 443 318 371 L318 251 C287 248 234 242 202 234 C102 209 36 156 36 102 C36 38 82 -5 150 -5 C208 -5 271 23 318 67 C318 12 338 -17 395 -8 C358 -43 323 -91 323 -135 C323 -193 364 -232 426 -232 C458 -232 490 -219 507 -199 L503 -194 C491 -208 465 -218 437 -218 C387 -218 354 -182 354 -129 C354 -81 388 -31 421 0 C438 7 452 18 465 31 L465 42 C454 38 439 29 423 17 L423 15 L423 15 Z M318 241 L318 78 C281 48 228 29 176 29 C122 29 86 64 86 117 C86 161 133 201 203 219 C242 229 290 237 319 241 L318 241 L318 241 Z " />
<glyph glyph-name="Cacute" unicode="&#x106;" horiz-adv-x="719" d="M350 691 C350 691 429 780 460 820 C485 850 502 872 502 875 C502 881 482 895 473 895 C471 895 456 873 435 840 C404 800 345 695 345 695 L350 691 L350 691 Z M659 57 L655 64 C655 64 658 58 658 57 L659 57 L659 57 Z M658 57 L658 195 L657 195 C655 185 652 171 650 161 C635 88 570 31 486 16 C456 11 426 8 397 8 C232 8 122 136 122 329 C122 522 232 650 397 650 C436 650 478 645 518 636 L518 636 C583 622 635 567 649 498 C651 488 654 474 656 464 L657 464 L657 602 C593 639 488 664 396 664 C194 664 60 530 60 329 C60 128 194 -6 396 -6 C488 -6 593 19 657 56 L658 57 L658 57 Z " />
<glyph glyph-name="cacute" unicode="&#x107;" horiz-adv-x="475" d="M218 531 C218 531 297 620 328 660 C353 690 370 712 370 715 C370 721 350 735 341 735 C339 735 324 713 303 680 C272 640 213 535 213 535 L218 531 L218 531 Z M423 41 L419 47 C403 34 347 25 278 25 C173 25 103 117 103 254 C103 396 178 491 290 491 C338 491 373 456 378 404 C379 389 389 379 403 379 C416 379 425 388 425 401 C420 463 368 505 296 505 C148 505 50 397 50 235 C50 91 125 -5 237 -5 C316 -5 390 13 423 41 L423 41 Z " />
<glyph glyph-name="Ccircumflex" unicode="&#x108;" horiz-adv-x="719" d="M414 891 C412 895 406 905 398 905 C390 905 384 895 382 891 C382 891 286 705 280 698 L285 693 C324 740 372 812 397 850 C433 794 510 693 510 693 L515 698 C515 698 463 789 413 891 L414 891 L414 891 Z M658 57 L654 64 C654 64 657 58 657 57 L658 57 L658 57 Z M657 57 L657 195 L656 195 C654 185 651 171 649 161 C634 88 569 31 485 16 C455 11 425 8 396 8 C231 8 121 136 121 329 C121 522 231 650 396 650 C435 650 477 645 517 636 L517 636 C582 622 634 567 648 498 C650 488 653 474 655 464 L656 464 L656 602 C592 639 487 664 395 664 C193 664 59 530 59 329 C59 128 193 -6 395 -6 C487 -6 592 19 656 56 L657 57 L657 57 Z " />
<glyph glyph-name="Cdot" unicode="&#x10a;" horiz-adv-x="719" d="M429 761 C429 800 367 800 367 761 C367 720 429 720 429 761 L429 761 Z M659 57 L655 64 C655 64 658 58 658 57 L659 57 L659 57 Z M658 57 L658 195 L657 195 C655 185 652 171 650 161 C635 88 570 31 486 16 C456 11 426 8 397 8 C232 8 122 136 122 329 C122 522 232 650 397 650 C436 650 478 645 518 636 L518 636 C583 622 635 567 649 498 C651 488 654 474 656 464 L657 464 L657 602 C593 639 488 664 396 664 C194 664 60 530 60 329 C60 128 194 -6 396 -6 C488 -6 593 19 657 56 L658 57 L658 57 Z " />
<glyph glyph-name="cdot" unicode="&#x10b;" horiz-adv-x="475" d="M327 601 C327 640 265 640 265 601 C265 560 327 560 327 601 L327 601 Z M423 41 L419 47 C403 34 347 25 278 25 C173 25 103 117 103 254 C103 396 178 491 290 491 C338 491 373 456 378 404 C379 389 389 379 403 379 C416 379 425 388 425 401 C420 463 368 505 296 505 C148 505 50 397 50 235 C50 91 125 -5 237 -5 C316 -5 390 13 423 41 L423 41 Z " />
<glyph glyph-name="Ccaron" unicode="&#x10c;" horiz-adv-x="719" d="M511 927 C511 927 434 826 398 770 C373 808 325 880 286 927 L281 922 C287 915 383 729 383 729 C385 725 391 715 399 715 C407 715 413 725 415 729 C465 831 517 922 517 922 L511 927 L511 927 Z M660 57 L656 64 C656 64 659 58 659 57 L660 57 L660 57 Z M659 57 L659 195 L658 195 C656 185 653 171 651 161 C636 88 571 31 487 16 C457 11 427 8 398 8 C233 8 123 136 123 329 C123 522 233 650 398 650 C437 650 479 645 519 636 L519 636 C584 622 636 567 650 498 C652 488 655 474 657 464 L658 464 L658 602 C594 639 489 664 397 664 C195 664 61 530 61 329 C61 128 195 -6 397 -6 C489 -6 594 19 658 56 L659 57 L659 57 Z " />
<glyph glyph-name="ccaron" unicode="&#x10d;" horiz-adv-x="475" d="M409 767 C409 767 332 666 296 610 C271 648 223 720 184 767 L179 762 C185 755 281 569 281 569 C283 565 289 555 297 555 C305 555 311 565 313 569 C363 671 415 762 415 762 L409 767 L409 767 Z M424 41 L420 47 C404 34 348 25 279 25 C174 25 104 117 104 254 C104 396 179 491 291 491 C339 491 374 456 379 404 C380 389 390 379 404 379 C417 379 426 388 426 401 C421 463 369 505 297 505 C149 505 51 397 51 235 C51 91 126 -5 238 -5 C317 -5 391 13 424 41 L424 41 Z " />
<glyph glyph-name="Dcaron" unicode="&#x10e;" horiz-adv-x="692" d="M469 927 C469 927 392 826 356 770 C331 808 283 880 244 927 L239 922 C245 915 341 729 341 729 C343 725 349 715 357 715 C365 715 371 725 373 729 C423 831 475 922 475 922 L469 927 L469 927 Z M345 0 C524 0 643 132 643 330 C643 528 507 660 304 660 L52 660 L52 659 L63 658 C101 655 127 627 127 588 L127 72 C127 33 101 5 63 2 L52 1 L52 0 L345 0 L345 0 Z M183 14 L183 646 L304 646 C474 646 587 520 587 330 C587 140 490 14 345 14 L183 14 L183 14 Z " />
<glyph glyph-name="dcaron" unicode="&#x10f;" horiz-adv-x="596" d="M603 753 C592 753 577 691 568 646 L534 484 L541 481 L599 634 C620 688 634 736 634 741 C634 750 612 753 603 753 L603 753 Z M486 720 L476 720 L361 687 L361 686 L372 686 C426 687 436 677 436 622 L436 436 C403 476 342 506 274 506 C142 506 54 394 54 226 C54 88 134 -4 255 -4 C324 -4 394 19 435 55 L435 1 L445 1 L560 34 L560 35 L549 35 C495 34 485 44 485 99 L486 720 L486 720 Z M435 63 C410 41 349 26 282 26 C176 26 106 113 106 244 C106 392 172 491 272 491 C345 491 409 455 435 411 L435 63 L435 63 Z " />
<glyph glyph-name="Emacron" unicode="&#x112;" horiz-adv-x="581" d="M136 770 L436 770 L436 798 L136 798 L136 770 L136 770 Z M494 149 L493 149 L481 114 C460 54 406 14 346 14 L171 14 L171 345 L301 345 C352 345 391 316 398 273 L400 260 L401 260 L401 434 L400 434 L398 423 C391 385 352 359 301 359 L171 359 L171 646 L339 646 C399 646 446 606 456 546 L462 511 L463 511 L463 660 L40 660 L40 659 L51 658 C89 655 115 627 115 588 L115 72 C115 33 89 5 51 2 L40 1 L40 0 L468 0 C475 46 486 104 494 150 L494 149 L494 149 Z " />
<glyph glyph-name="emacron" unicode="&#x113;" horiz-adv-x="482" d="M114 610 L414 610 L414 638 L114 638 L114 610 L114 610 Z M430 41 L426 47 C410 34 353 25 282 25 C175 25 103 117 103 254 C103 279 105 302 109 324 L432 324 C432 433 365 505 264 505 C136 505 50 397 50 235 C50 91 126 -5 240 -5 C321 -5 397 13 430 41 L430 41 Z M385 366 C385 353 377 344 365 342 L110 334 C129 431 185 492 261 492 C335 492 385 442 385 367 L385 366 L385 366 Z " />
<glyph glyph-name="Ebreve" unicode="&#x114;" horiz-adv-x="581" d="M170 872 C181 810 227 768 286 768 C344 768 390 809 401 871 L392 873 C384 830 342 801 286 801 C229 801 187 830 179 873 L170 872 L170 872 Z M494 149 L493 149 L481 114 C460 54 406 14 346 14 L171 14 L171 345 L301 345 C352 345 391 316 398 273 L400 260 L401 260 L401 434 L400 434 L398 423 C391 385 352 359 301 359 L171 359 L171 646 L339 646 C399 646 446 606 456 546 L462 511 L463 511 L463 660 L40 660 L40 659 L51 658 C89 655 115 627 115 588 L115 72 C115 33 89 5 51 2 L40 1 L40 0 L468 0 C475 46 486 104 494 150 L494 149 L494 149 Z " />
<glyph glyph-name="ebreve" unicode="&#x115;" horiz-adv-x="482" d="M149 712 C160 650 206 608 264 608 C323 608 369 649 380 711 L371 713 C363 670 321 641 264 641 C207 641 165 670 157 713 L149 712 L149 712 Z M430 41 L426 47 C410 34 353 25 282 25 C175 25 103 117 103 254 C103 279 105 302 109 324 L432 324 C432 433 365 505 264 505 C136 505 50 397 50 235 C50 91 126 -5 240 -5 C321 -5 397 13 430 41 L430 41 Z M385 366 C385 353 377 344 365 342 L110 334 C129 431 185 492 261 492 C335 492 385 442 385 367 L385 366 L385 366 Z " />
<glyph glyph-name="Edot" unicode="&#x116;" horiz-adv-x="581" d="M316 761 C316 801 255 800 255 761 C255 721 316 720 316 761 L316 761 Z M494 149 L493 149 L481 114 C460 54 406 14 346 14 L171 14 L171 345 L301 345 C352 345 391 316 398 273 L400 260 L401 260 L401 434 L400 434 L398 423 C391 385 352 359 301 359 L171 359 L171 646 L339 646 C399 646 446 606 456 546 L462 511 L463 511 L463 660 L40 660 L40 659 L51 658 C89 655 115 627 115 588 L115 72 C115 33 89 5 51 2 L40 1 L40 0 L468 0 C475 46 486 104 494 150 L494 149 L494 149 Z " />
<glyph glyph-name="edot" unicode="&#x117;" horiz-adv-x="482" d="M295 601 C295 640 233 640 233 601 C233 560 295 560 295 601 L295 601 Z M430 41 L426 47 C410 34 353 25 282 25 C175 25 103 117 103 254 C103 279 105 302 109 324 L432 324 C432 433 365 505 264 505 C136 505 50 397 50 235 C50 91 126 -5 240 -5 C321 -5 397 13 430 41 L430 41 Z M385 366 C385 353 377 344 365 342 L110 334 C129 431 185 492 261 492 C335 492 385 442 385 367 L385 366 L385 366 Z " />
<glyph glyph-name="Eogonek" unicode="&#x118;" horiz-adv-x="581" d="M494 149 L493 149 L481 114 C460 54 406 14 346 14 L171 14 L171 345 L301 345 C352 345 391 316 398 273 L400 260 L401 260 L401 434 L400 434 L398 423 C391 385 352 359 301 359 L171 359 L171 646 L339 646 C399 646 446 606 456 546 L462 511 L463 511 L463 660 L40 660 L40 659 L51 658 C89 655 115 627 115 588 L115 72 C115 33 89 5 51 2 L40 1 L40 0 L444 0 C396 -29 323 -97 323 -156 C323 -202 364 -233 426 -233 C458 -233 490 -220 507 -200 L503 -195 C491 -209 465 -219 437 -219 C387 -219 354 -192 354 -151 C354 -85 432 -12 466 0 L468 0 C475 46 486 104 494 150 L494 149 L494 149 Z " />
<glyph glyph-name="eogonek" unicode="&#x119;" horiz-adv-x="482" d="M307 -1 C307 1 388 6 430 41 L426 47 C410 34 353 25 282 25 C175 25 103 117 103 254 C103 279 105 302 109 324 L432 324 C432 433 365 505 264 505 C136 505 50 397 50 235 C50 91 126 -5 240 -5 C254 -5 268 -4 281 -3 C233 -33 164 -99 164 -156 C164 -202 205 -232 267 -232 C299 -232 331 -219 348 -199 L344 -194 C332 -208 306 -218 278 -218 C228 -218 195 -191 195 -150 C195 -84 273 -12 307 0 L307 -1 L307 -1 Z M385 367 C385 354 377 345 365 343 L110 335 C129 432 185 493 261 493 C335 493 385 443 385 368 L385 367 L385 367 Z " />
<glyph glyph-name="Ecaron" unicode="&#x11a;" horiz-adv-x="581" d="M398 927 C398 927 321 826 285 770 C260 808 211 881 173 927 L167 922 C174 914 270 729 270 729 C272 725 278 715 286 715 C293 715 299 725 301 729 C350 830 404 922 404 922 L398 927 L398 927 Z M494 149 L493 149 L481 114 C460 54 406 14 346 14 L171 14 L171 345 L301 345 C352 345 391 316 398 273 L400 260 L401 260 L401 434 L400 434 L398 423 C391 385 352 359 301 359 L171 359 L171 646 L339 646 C399 646 446 606 456 546 L462 511 L463 511 L463 660 L40 660 L40 659 L51 658 C89 655 115 627 115 588 L115 72 C115 33 89 5 51 2 L40 1 L40 0 L468 0 C475 46 486 104 494 150 L494 149 L494 149 Z " />
<glyph glyph-name="ecaron" unicode="&#x11b;" horiz-adv-x="482" d="M377 767 C377 767 300 666 264 610 C239 648 191 720 152 767 L147 762 C153 755 249 569 249 569 C251 565 257 555 265 555 C273 555 279 565 281 569 C331 671 383 762 383 762 L377 767 L377 767 Z M431 41 L427 47 C411 34 354 25 283 25 C176 25 104 117 104 254 C104 279 106 302 110 324 L433 324 C433 433 366 505 265 505 C137 505 51 397 51 235 C51 91 127 -5 241 -5 C322 -5 398 13 431 41 L431 41 Z M386 366 C386 353 378 344 366 342 L111 334 C130 431 186 492 262 492 C336 492 386 442 386 367 L386 366 L386 366 Z " />
<glyph glyph-name="Gcircumflex" unicode="&#x11c;" horiz-adv-x="814" d="M403 891 C401 895 395 905 387 905 C379 905 373 895 371 891 C371 891 275 705 269 698 L274 693 C313 740 361 812 386 850 C422 794 499 693 499 693 L504 698 C504 698 452 789 402 891 L403 891 L403 891 Z M593 238 L593 49 C533 25 455 10 386 10 C228 10 122 138 122 331 C122 524 228 652 386 652 C422 652 461 648 498 640 L498 640 C563 626 616 570 630 501 C632 491 635 477 637 467 L638 467 L638 605 C574 642 473 667 386 667 C191 667 61 533 61 332 C61 131 191 -3 386 -3 C476 -3 579 22 643 59 L643 240 C643 279 669 307 707 310 L718 311 L718 312 L518 312 L518 311 L529 310 C567 307 593 279 593 240 L593 238 L593 238 Z " />
<glyph glyph-name="Gbreve" unicode="&#x11e;" horiz-adv-x="814" d="M272 872 C283 810 329 768 387 768 C446 768 492 809 503 871 L494 873 C486 830 444 801 387 801 C330 801 288 830 280 873 L272 872 L272 872 Z M594 238 L594 49 C534 25 456 10 387 10 C229 10 123 138 123 331 C123 524 229 652 387 652 C423 652 462 648 499 640 L499 640 C564 626 617 570 631 501 C633 491 636 477 638 467 L639 467 L639 605 C575 642 474 667 387 667 C192 667 62 533 62 332 C62 131 192 -3 387 -3 C477 -3 580 22 644 59 L644 240 C644 279 670 307 708 310 L719 311 L719 312 L519 312 L519 311 L530 310 C568 307 594 279 594 240 L594 238 L594 238 Z " />
<glyph glyph-name="gbreve" unicode="&#x11f;" horiz-adv-x="467" d="M131 712 C142 650 188 608 246 608 C305 608 351 649 362 711 L353 713 C345 670 303 641 246 641 C189 641 147 670 139 713 L131 712 L131 712 Z M467 500 C421 496 374 494 329 490 C305 500 277 505 246 505 C140 505 69 443 69 350 C69 277 113 223 184 204 C105 202 52 166 52 113 C52 66 93 32 158 23 C79 -3 27 -54 27 -109 C27 -186 86 -237 175 -237 C338 -237 447 -161 447 -48 C447 23 376 71 269 71 C257 71 191 68 191 68 C127 68 85 94 85 133 C85 171 127 196 191 196 L246 196 C352 196 423 258 423 351 C423 402 401 444 364 471 L467 473 L467 500 L467 500 Z M246 207 C168 207 116 265 116 351 C116 437 168 495 246 495 C324 495 376 437 376 351 C376 265 324 207 246 207 L246 207 Z M175 22 C190 21 237 24 255 24 C349 24 411 -15 411 -73 C411 -164 319 -224 180 -224 C108 -224 60 -176 60 -104 C60 -49 105 0 174 21 L175 22 L175 22 Z " />
<glyph glyph-name="Gdot" unicode="&#x120;" horiz-adv-x="814" d="M418 761 C418 800 356 800 356 761 C356 720 418 720 418 761 L418 761 Z M594 238 L594 49 C534 25 456 10 387 10 C229 10 123 138 123 331 C123 524 229 652 387 652 C423 652 462 648 499 640 L499 640 C564 626 617 570 631 501 C633 491 636 477 638 467 L639 467 L639 605 C575 642 474 667 387 667 C192 667 62 533 62 332 C62 131 192 -3 387 -3 C477 -3 580 22 644 59 L644 240 C644 279 670 307 708 310 L719 311 L719 312 L519 312 L519 311 L530 310 C568 307 594 279 594 240 L594 238 L594 238 Z " />
<glyph glyph-name="gdot" unicode="&#x121;" horiz-adv-x="467" d="M277 601 C277 640 215 640 215 601 C215 560 277 560 277 601 L277 601 Z M467 500 C421 496 374 494 329 490 C305 500 277 505 246 505 C140 505 69 443 69 350 C69 277 113 223 184 204 C105 202 52 166 52 113 C52 66 93 32 158 23 C79 -3 27 -54 27 -109 C27 -186 86 -237 175 -237 C338 -237 447 -161 447 -48 C447 23 376 71 269 71 C257 71 191 68 191 68 C127 68 85 94 85 133 C85 171 127 196 191 196 L246 196 C352 196 423 258 423 351 C423 402 401 444 364 471 L467 473 L467 500 L467 500 Z M246 207 C168 207 116 265 116 351 C116 437 168 495 246 495 C324 495 376 437 376 351 C376 265 324 207 246 207 L246 207 Z M175 22 C190 21 237 24 255 24 C349 24 411 -15 411 -73 C411 -164 319 -224 180 -224 C108 -224 60 -176 60 -104 C60 -49 105 0 174 21 L175 22 L175 22 Z " />
<glyph glyph-name="Hcircumflex" unicode="&#x124;" horiz-adv-x="769" d="M400 891 C398 895 392 905 385 905 C377 905 371 895 369 891 C369 891 273 706 266 698 L272 693 C310 739 359 812 384 850 C420 794 497 693 497 693 L503 698 C503 698 449 790 400 891 L400 891 Z M729 0 L729 1 L718 2 C680 5 654 33 654 72 L654 588 C654 627 680 655 718 658 L729 659 L729 660 L523 660 L523 659 L534 658 C572 655 598 627 598 588 L598 354 L171 354 L171 588 C171 627 197 655 235 658 L246 659 L246 660 L40 660 L40 659 L51 658 C89 655 115 627 115 588 L115 72 C115 33 89 5 51 2 L40 1 L40 0 L246 0 L246 1 L235 2 C197 5 171 33 171 72 L171 340 L598 340 L598 72 C598 33 572 5 534 2 L523 1 L523 0 L729 0 L729 0 Z " />
<glyph glyph-name="Itilde" unicode="&#x128;" horiz-adv-x="286" d="M1 755 C1 795 19 822 46 822 C100 822 172 759 226 759 C266 759 293 797 293 853 L285 853 C285 816 266 792 237 792 C183 792 111 855 57 855 C19 855 -7 815 -7 755 L1 755 L1 755 Z M246 0 L246 1 L235 2 C197 5 171 33 171 72 L171 588 C171 627 197 655 235 658 L246 659 L246 660 L40 660 L40 659 L51 658 C89 655 115 627 115 588 L115 72 C115 33 89 5 51 2 L40 1 L40 0 L246 0 L246 0 Z " />
<glyph glyph-name="itilde" unicode="&#x129;" horiz-adv-x="290" d="M3 595 C3 635 21 662 48 662 C102 662 174 599 228 599 C268 599 295 637 295 693 L287 693 C287 656 268 632 239 632 C185 632 113 695 59 695 C21 695 -5 655 -5 595 L3 595 L3 595 Z M245 0 L245 1 L234 2 C196 5 170 33 170 72 L170 500 L160 500 L45 467 L45 466 L56 466 C110 467 120 457 120 402 L120 72 C120 33 94 5 56 2 L45 1 L45 0 L245 0 L245 0 Z " />
<glyph glyph-name="Imacron" unicode="&#x12a;" horiz-adv-x="286" d="M-7 770 L293 770 L293 798 L-7 798 L-7 770 L-7 770 Z M246 0 L246 1 L235 2 C197 5 171 33 171 72 L171 588 C171 627 197 655 235 658 L246 659 L246 660 L40 660 L40 659 L51 658 C89 655 115 627 115 588 L115 72 C115 33 89 5 51 2 L40 1 L40 0 L246 0 L246 0 Z " />
<glyph glyph-name="imacron" unicode="&#x12b;" horiz-adv-x="290" d="M-5 610 L295 610 L295 638 L-5 638 L-5 610 L-5 610 Z M245 0 L245 1 L234 2 C196 5 170 33 170 72 L170 500 L160 500 L45 467 L45 466 L56 466 C110 467 120 457 120 402 L120 72 C120 33 94 5 56 2 L45 1 L45 0 L245 0 L245 0 Z " />
<glyph glyph-name="Ibreve" unicode="&#x12c;" horiz-adv-x="286" d="M28 872 C39 810 85 768 143 768 C202 768 248 809 259 871 L250 873 C242 830 200 801 143 801 C86 801 44 830 36 873 L28 872 L28 872 Z M246 0 L246 1 L235 2 C197 5 171 33 171 72 L171 588 C171 627 197 655 235 658 L246 659 L246 660 L40 660 L40 659 L51 658 C89 655 115 627 115 588 L115 72 C115 33 89 5 51 2 L40 1 L40 0 L246 0 L246 0 Z " />
<glyph glyph-name="ibreve" unicode="&#x12d;" horiz-adv-x="290" d="M30 712 C41 650 87 608 145 608 C204 608 250 649 261 711 L252 713 C244 670 202 641 145 641 C88 641 46 670 38 713 L30 712 L30 712 Z M245 0 L245 1 L234 2 C196 5 170 33 170 72 L170 500 L160 500 L45 467 L45 466 L56 466 C110 467 120 457 120 402 L120 72 C120 33 94 5 56 2 L45 1 L45 0 L245 0 L245 0 Z " />
<glyph glyph-name="Idot" unicode="&#x130;" horiz-adv-x="286" d="M174 761 C174 800 112 800 112 761 C112 720 174 720 174 761 L174 761 Z M246 0 L246 1 L235 2 C197 5 171 33 171 72 L171 588 C171 627 197 655 235 658 L246 659 L246 660 L40 660 L40 659 L51 658 C89 655 115 627 115 588 L115 72 C115 33 89 5 51 2 L40 1 L40 0 L246 0 L246 0 Z " />
<glyph glyph-name="dotlessi" unicode="&#x131;" horiz-adv-x="290" d="M245 0 L245 1 L234 2 C196 5 170 33 170 72 L170 500 L160 500 L45 467 L45 466 L56 466 C110 467 120 457 120 402 L120 72 C120 33 94 5 56 2 L45 1 L45 0 L245 0 L245 0 Z " />
<glyph glyph-name="Jcircumflex" unicode="&#x134;" horiz-adv-x="367" d="M240 891 C238 895 232 905 224 905 C216 905 210 895 208 891 C208 891 112 705 106 698 L111 693 C150 740 198 812 223 850 C259 794 336 693 336 693 L341 698 C341 698 289 789 239 891 L240 891 L240 891 Z M195 588 L195 200 C195 57 171 1 110 1 C79 1 53 21 46 50 C43 63 33 72 21 72 C5 72 -4 63 -1 50 C8 14 47 -10 96 -10 C208 -10 251 62 251 247 L251 588 C251 627 277 655 315 658 L326 659 L326 660 L120 660 L120 659 L131 658 C169 655 195 627 195 588 L195 588 Z " />
<glyph glyph-name="Lacute" unicode="&#x139;" horiz-adv-x="581" d="M118 691 C118 691 197 780 228 820 C253 850 270 872 270 875 C270 881 250 895 241 895 C239 895 224 873 203 840 C172 800 113 695 113 695 L118 691 L118 691 Z M495 156 C495 161 495 166 494 165 L475 105 C457 51 410 15 356 15 L171 15 L171 589 C171 628 197 656 235 659 L246 660 L246 661 L40 661 L40 660 L51 659 C89 656 115 628 115 589 L115 73 C115 34 89 6 51 3 L40 2 L40 1 L468 1 C475 49 487 110 495 158 L495 156 L495 156 Z " />
<glyph glyph-name="Lcaron" unicode="&#x13d;" horiz-adv-x="581" d="M363 693 C352 693 337 631 328 586 L294 424 L301 421 L359 574 C380 628 394 676 394 681 C394 690 372 693 363 693 L363 693 Z M495 156 C495 161 495 166 494 165 L475 105 C457 51 410 15 356 15 L171 15 L171 589 C171 628 197 656 235 659 L246 660 L246 661 L40 661 L40 660 L51 659 C89 656 115 628 115 589 L115 73 C115 34 89 6 51 3 L40 2 L40 1 L468 1 C475 49 487 110 495 158 L495 156 L495 156 Z " />
<glyph glyph-name="lcaron" unicode="&#x13e;" horiz-adv-x="290" d="M287 723 C276 723 261 661 252 616 L218 454 L225 451 L283 604 C304 658 318 706 318 711 C318 720 296 723 287 723 L287 723 Z M245 0 L245 1 L234 2 C196 5 170 33 170 72 L170 720 L160 720 L45 687 L45 686 L56 686 C110 687 120 677 120 622 L120 72 C120 33 94 5 56 2 L45 1 L45 0 L245 0 L245 0 Z " />
<glyph glyph-name="Lslash" unicode="&#x141;" horiz-adv-x="581" d="M495 156 C495 161 495 166 494 165 L475 105 C457 51 410 15 356 15 L171 15 L171 315 L319 373 L319 389 L171 331 L171 589 C171 628 197 656 235 659 L246 660 L246 661 L40 661 L40 660 L51 659 C89 656 115 628 115 589 L115 309 L65 289 L65 273 L115 293 L115 73 C115 34 89 6 51 3 L40 2 L40 1 L468 1 C475 49 487 110 495 158 L495 156 L495 156 Z " />
<glyph glyph-name="lslash" unicode="&#x142;" horiz-adv-x="290" d="M20 302 L120 342 L120 72 C120 33 94 5 56 2 L45 1 L45 0 L245 0 L245 1 L234 2 C196 5 170 33 170 72 L170 362 L270 402 L270 418 L170 378 L170 720 L160 720 L45 687 L45 686 L56 686 C110 687 120 677 120 622 L120 358 L20 318 L20 302 L20 302 Z " />
<glyph glyph-name="Nacute" unicode="&#x143;" horiz-adv-x="702" d="M321 691 C321 691 400 780 431 820 C456 849 472 871 472 875 C472 881 452 895 444 895 C441 895 426 873 405 840 C374 800 315 695 315 695 L321 691 L321 691 Z M571 588 L571 80 L168 660 L43 660 L43 659 L54 658 C92 655 118 627 118 588 L118 72 C118 33 92 5 54 2 L43 1 L43 0 L210 0 L210 1 L199 2 C161 5 135 33 135 72 L135 609 C279 402 423 195 567 -12 L586 -12 L586 587 C586 626 612 654 650 657 L661 658 L661 659 L495 659 L495 658 L506 657 C544 654 570 626 570 587 L571 588 L571 588 Z " />
<glyph glyph-name="nacute" unicode="&#x144;" horiz-adv-x="621" d="M235 531 C235 531 314 620 345 660 C370 690 387 712 387 715 C387 721 367 735 358 735 C356 735 341 713 320 680 C289 640 230 535 230 535 L235 531 L235 531 Z M456 69 C455 31 429 4 392 1 L381 0 L381 -1 L581 -1 L581 0 L570 1 C532 4 506 32 506 71 L506 335 C506 436 470 504 379 504 C332 504 249 476 170 435 L170 499 L160 499 L45 466 L45 465 L56 465 C110 466 120 456 120 401 L120 71 C120 32 94 4 56 1 L45 0 L45 -1 L245 -1 L245 0 L234 1 C196 4 170 32 170 71 L170 430 C219 454 286 470 342 470 C424 470 456 414 456 330 C456 330 457 224 457 68 L456 69 L456 69 Z " />
<glyph glyph-name="Ncaron" unicode="&#x147;" horiz-adv-x="702" d="M465 927 C465 927 388 826 352 770 C327 808 278 881 240 927 L234 922 C241 914 337 729 337 729 C339 725 345 715 353 715 C360 715 366 725 368 729 C417 830 471 922 471 922 L465 927 L465 927 Z M571 588 L571 80 L168 660 L43 660 L43 659 L54 658 C92 655 118 627 118 588 L118 72 C118 33 92 5 54 2 L43 1 L43 0 L210 0 L210 1 L199 2 C161 5 135 33 135 72 L135 609 C279 402 423 195 567 -12 L586 -12 L586 587 C586 626 612 654 650 657 L661 658 L661 659 L495 659 L495 658 L506 657 C544 654 570 626 570 587 L571 588 L571 588 Z " />
<glyph glyph-name="ncaron" unicode="&#x148;" horiz-adv-x="621" d="M426 767 C426 767 349 666 313 610 C288 648 240 720 201 767 L196 762 C202 755 298 569 298 569 C300 565 306 555 314 555 C322 555 328 565 330 569 C380 671 432 762 432 762 L426 767 L426 767 Z M457 69 C456 31 430 4 393 1 L382 0 L382 -1 L582 -1 L582 0 L571 1 C533 4 507 32 507 71 L507 335 C507 436 471 504 380 504 C333 504 250 476 171 435 L171 499 L161 499 L46 466 L46 465 L57 465 C111 466 121 456 121 401 L121 71 C121 32 95 4 57 1 L46 0 L46 -1 L246 -1 L246 0 L235 1 C197 4 171 32 171 71 L171 430 C220 454 287 470 343 470 C425 470 457 414 457 330 C457 330 458 224 458 68 L457 69 L457 69 Z " />
<glyph glyph-name="Omacron" unicode="&#x14c;" horiz-adv-x="759" d="M236 770 L536 770 L536 798 L236 798 L236 770 L236 770 Z M123 330 C123 503 212 651 386 651 C559 651 648 503 648 330 C648 157 559 9 386 9 C212 9 123 157 123 330 L123 330 Z M62 330 C62 149 172 -5 386 -5 C599 -5 709 149 709 330 C709 511 599 665 386 665 C172 665 62 511 62 330 L62 330 Z " />
<glyph glyph-name="omacron" unicode="&#x14d;" horiz-adv-x="589" d="M145 610 L445 610 L445 638 L145 638 L145 610 L145 610 Z M106 250 C106 396 182 494 295 494 C408 494 483 396 483 250 C483 104 408 6 295 6 C182 6 106 104 106 250 L106 250 Z M50 250 C50 97 148 -5 295 -5 C441 -5 539 97 539 250 C539 403 441 505 295 505 C148 505 50 403 50 250 L50 250 Z " />
<glyph glyph-name="Obreve" unicode="&#x14e;" horiz-adv-x="759" d="M270 872 C281 810 327 768 386 768 C444 768 490 809 501 871 L492 873 C484 830 442 801 386 801 C329 801 287 830 279 873 L270 872 L270 872 Z M123 330 C123 503 212 651 386 651 C559 651 648 503 648 330 C648 157 559 9 386 9 C212 9 123 157 123 330 L123 330 Z M62 330 C62 149 172 -5 386 -5 C599 -5 709 149 709 330 C709 511 599 665 386 665 C172 665 62 511 62 330 L62 330 Z " />
<glyph glyph-name="obreve" unicode="&#x14f;" horiz-adv-x="589" d="M179 712 C190 650 236 608 295 608 C353 608 399 649 410 711 L401 713 C393 670 351 641 295 641 C238 641 196 670 188 713 L179 712 L179 712 Z M106 250 C106 396 182 494 295 494 C408 494 483 396 483 250 C483 104 408 6 295 6 C182 6 106 104 106 250 L106 250 Z M50 250 C50 97 148 -5 295 -5 C441 -5 539 97 539 250 C539 403 441 505 295 505 C148 505 50 403 50 250 L50 250 Z " />
<glyph glyph-name="Racute" unicode="&#x154;" horiz-adv-x="630" d="M249 691 C249 691 328 780 359 820 C384 849 400 871 400 875 C400 881 380 895 372 895 C369 895 354 873 333 840 C302 800 243 695 243 695 L249 691 L249 691 Z M630 0 L630 11 C603 11 605 11 534 95 C438 209 368 292 345 320 C455 334 526 398 526 489 C526 591 446 659 325 659 L52 659 L52 658 L63 657 C101 654 127 626 127 587 L127 71 C127 32 101 4 63 1 L52 0 L52 -1 L258 -1 L258 0 L247 1 C209 4 183 32 183 71 L183 316 L281 316 C306 287 371 209 459 105 C545 3 551 -1 609 -1 L630 0 L630 0 Z M297 329 L183 330 L183 645 L325 645 C410 645 467 583 467 489 C467 393 399 329 297 329 L297 329 Z " />
<glyph glyph-name="Rcaron" unicode="&#x158;" horiz-adv-x="630" d="M438 927 C438 927 361 826 325 770 C300 808 251 881 213 927 L207 922 C214 914 310 729 310 729 C312 725 318 715 326 715 C333 715 339 725 341 729 C390 830 444 922 444 922 L438 927 L438 927 Z M630 0 L630 11 C603 11 605 11 534 95 C438 209 368 292 345 320 C455 334 526 398 526 489 C526 591 446 659 325 659 L52 659 L52 658 L63 657 C101 654 127 626 127 587 L127 71 C127 32 101 4 63 1 L52 0 L52 -1 L258 -1 L258 0 L247 1 C209 4 183 32 183 71 L183 316 L281 316 C306 287 371 209 459 105 C545 3 551 -1 609 -1 L630 0 L630 0 Z M297 329 L183 330 L183 645 L325 645 C410 645 467 583 467 489 C467 393 399 329 297 329 L297 329 Z " />
<glyph glyph-name="rcaron" unicode="&#x159;" horiz-adv-x="415" d="M332 767 C332 767 255 666 219 610 C194 648 146 720 107 767 L102 762 C108 755 204 569 204 569 C206 565 212 555 220 555 C228 555 234 565 236 569 C286 671 338 762 338 762 L332 767 L332 767 Z M279 468 C310 468 351 446 382 446 C396 446 406 456 406 470 C406 491 382 505 319 505 C270 505 212 472 170 423 L170 500 L160 500 L45 467 L45 466 L56 466 C110 467 120 457 120 402 L120 72 C120 33 94 5 56 2 L45 1 L45 0 L245 0 L245 1 L234 2 C196 5 170 33 170 72 L170 416 C198 447 240 468 278 468 L279 468 L279 468 Z " />
<glyph glyph-name="Sacute" unicode="&#x15a;" horiz-adv-x="505" d="M190 691 C190 691 269 780 300 820 C325 850 342 872 342 875 C342 881 322 895 313 895 C311 895 296 873 275 840 C244 800 185 695 185 695 L190 691 L190 691 Z M343 630 C376 615 402 582 409 544 C413 522 420 494 424 472 L425 472 L425 614 C372 645 298 665 240 665 C127 665 51 591 51 481 C51 409 123 340 231 308 C344 274 420 210 420 146 C420 64 360 9 270 9 C238 9 203 13 170 20 C111 37 64 89 51 154 C49 164 46 178 44 188 L43 188 L43 46 C96 15 187 -5 270 -5 C384 -5 460 64 460 168 C460 245 386 319 275 352 C164 385 90 445 90 503 C90 592 149 651 238 651 C268 651 305 643 342 630 L343 630 L343 630 Z " />
<glyph glyph-name="sacute" unicode="&#x15b;" horiz-adv-x="422" d="M135 531 C135 531 214 620 245 660 C270 690 287 712 287 715 C287 721 267 735 258 735 C256 735 241 713 220 680 C189 640 130 535 130 535 L135 531 L135 531 Z M262 482 C303 467 336 430 344 390 C345 384 347 376 348 370 L349 370 L349 461 C303 487 249 505 213 505 C124 505 65 454 65 378 C65 326 123 267 211 232 C283 203 331 158 331 118 C331 51 287 6 221 6 C199 6 175 9 151 14 C104 26 66 65 55 112 C53 119 51 128 49 135 L48 135 L48 34 C89 11 157 -5 218 -5 C310 -5 372 51 372 136 C372 185 322 238 246 268 C161 302 104 353 104 395 C104 454 148 494 213 494 C213 494 263 486 262 482 L262 482 Z " />
<glyph glyph-name="Scircumflex" unicode="&#x15c;" horiz-adv-x="505" d="M254 891 C252 895 246 905 238 905 C230 905 224 895 222 891 C222 891 126 705 120 698 L125 693 C164 740 212 812 237 850 C273 794 350 693 350 693 L355 698 C355 698 303 789 253 891 L254 891 L254 891 Z M342 630 C375 615 401 582 408 544 C412 522 419 494 423 472 L424 472 L424 614 C371 645 297 665 239 665 C126 665 50 591 50 481 C50 409 122 340 230 308 C343 274 419 210 419 146 C419 64 359 9 269 9 C237 9 202 13 169 20 C110 37 63 89 50 154 C48 164 45 178 43 188 L42 188 L42 46 C95 15 186 -5 269 -5 C383 -5 459 64 459 168 C459 245 385 319 274 352 C163 385 89 445 89 503 C89 592 148 651 237 651 C267 651 304 643 341 630 L342 630 L342 630 Z " />
<glyph glyph-name="Scedilla" unicode="&#x15e;" horiz-adv-x="505" d="M230 -95 C249 -86 275 -80 294 -80 C332 -80 357 -102 357 -135 C357 -177 328 -205 284 -205 C245 -205 210 -199 198 -191 L195 -196 C216 -210 256 -220 294 -220 C350 -220 388 -186 388 -135 C388 -96 355 -70 305 -70 C282 -70 254 -76 235 -85 L230 -95 L230 -95 Z M230 -95 C257 -35 276 -11 282 -5 C390 -1 461 67 461 168 C461 245 387 319 276 352 C165 385 91 445 91 503 C91 592 150 651 239 651 C269 651 306 643 343 630 C376 615 402 582 409 544 C413 522 420 494 424 472 L425 472 L425 614 C372 645 298 665 240 665 C127 665 51 591 51 481 C51 409 123 340 231 308 C344 274 420 210 420 146 C420 64 360 9 270 9 C238 9 203 13 170 20 C111 37 64 89 51 154 C49 164 46 178 44 188 L43 188 L43 46 C95 16 183 -4 265 -5 L226 -93 L230 -95 L230 -95 Z " />
<glyph glyph-name="scedilla" unicode="&#x15f;" horiz-adv-x="422" d="M178 -95 C197 -86 223 -80 242 -80 C280 -80 305 -102 305 -135 C305 -177 276 -205 232 -205 C193 -205 158 -199 146 -191 L143 -196 C164 -210 204 -220 242 -220 C298 -220 336 -186 336 -135 C336 -96 303 -70 253 -70 C230 -70 202 -76 183 -85 L178 -95 L178 -95 Z M178 -95 C205 -35 224 -11 229 -5 C315 -1 372 54 372 135 C372 184 322 237 246 267 C161 301 104 352 104 394 C104 453 148 493 213 493 C213 493 263 485 262 481 C303 466 336 429 344 389 C345 383 347 375 348 369 L349 369 L349 460 C303 486 249 504 213 504 C124 504 65 453 65 377 C65 325 123 266 211 231 C283 202 331 157 331 117 C331 50 287 5 221 5 C199 5 175 8 151 13 C104 25 66 64 55 111 C53 118 51 127 49 134 L48 134 L48 33 C88 11 153 -5 213 -6 L174 -94 L178 -95 L178 -95 Z " />
<glyph glyph-name="Scaron" unicode="&#x160;" horiz-adv-x="505" d="M351 927 C351 927 274 826 238 770 C213 808 165 880 126 927 L121 922 C127 915 223 729 223 729 C225 725 231 715 239 715 C247 715 253 725 255 729 C305 831 357 922 357 922 L351 927 L351 927 Z M344 630 C377 615 403 582 410 544 C414 522 421 494 425 472 L426 472 L426 614 C373 645 299 665 241 665 C128 665 52 591 52 481 C52 409 124 340 232 308 C345 274 421 210 421 146 C421 64 361 9 271 9 C239 9 204 13 171 20 C112 37 65 89 52 154 C50 164 47 178 45 188 L44 188 L44 46 C97 15 188 -5 271 -5 C385 -5 461 64 461 168 C461 245 387 319 276 352 C165 385 91 445 91 503 C91 592 150 651 239 651 C269 651 306 643 343 630 L344 630 L344 630 Z " />
<glyph glyph-name="scaron" unicode="&#x161;" horiz-adv-x="422" d="M326 767 C326 767 249 666 213 610 C188 648 140 720 101 767 L96 762 C102 755 198 569 198 569 C200 565 206 555 214 555 C222 555 228 565 230 569 C280 671 332 762 332 762 L326 767 L326 767 Z M263 482 C304 467 337 430 345 390 C346 384 348 376 349 370 L350 370 L350 461 C304 487 250 505 214 505 C125 505 66 454 66 378 C66 326 124 267 212 232 C284 203 332 158 332 118 C332 51 288 6 222 6 C200 6 176 9 152 14 C105 26 67 65 56 112 C54 119 52 128 50 135 L49 135 L49 34 C90 11 158 -5 219 -5 C311 -5 373 51 373 136 C373 185 323 238 247 268 C162 302 105 353 105 395 C105 454 149 494 214 494 C214 494 264 486 263 482 L263 482 Z " />
<glyph glyph-name="Tcaron" unicode="&#x164;" horiz-adv-x="620" d="M423 927 C423 927 346 826 310 770 C285 808 237 880 198 927 L193 922 C199 915 295 729 295 729 C297 725 303 715 311 715 C319 715 325 725 327 729 C377 831 429 922 429 922 L423 927 L423 927 Z M14 496 L15 496 L33 566 C45 614 85 646 133 646 L283 646 L283 72 C283 33 257 5 219 2 L208 1 L208 0 L414 0 L414 1 L403 2 C365 5 339 33 339 72 L339 646 L489 646 C537 646 577 614 589 566 L607 496 L608 496 C604 545 601 611 594 659 L28 659 C21 611 18 545 14 496 L14 496 Z " />
<glyph glyph-name="tcaron" unicode="&#x165;" horiz-adv-x="351" d="M320 500 L155 500 L155 640 L147 640 L127 564 C113 522 73 492 26 487 L26 481 L106 481 L106 111 C106 21 126 -5 196 -5 C257 -5 297 15 332 44 L328 48 C306 29 276 17 221 17 C170 17 155 36 155 102 C155 216 156 481 156 481 L321 481 L320 500 L320 500 Z M438 723 C427 723 412 661 403 616 L369 454 L376 451 L434 604 C455 658 469 706 469 711 C469 720 447 723 438 723 L438 723 Z M130 570 L130 571 L130 571 L130 570 L130 570 Z " />
<glyph glyph-name="Utilde" unicode="&#x168;" horiz-adv-x="687" d="M207 755 C207 795 225 822 252 822 C306 822 378 759 432 759 C472 759 499 797 499 853 L491 853 C491 816 472 792 443 792 C389 792 317 855 263 855 C225 855 199 815 199 755 L207 755 L207 755 Z M116 588 L116 208 C116 80 183 -5 354 -5 C518 -5 582 68 582 178 L582 578 C582 623 611 655 654 658 L667 659 L667 660 L476 660 L476 659 L491 658 C534 655 563 626 565 584 L564 184 C564 82 507 14 361 14 C224 14 171 88 171 198 L171 588 C171 627 197 655 235 658 L246 659 L246 660 L40 660 L40 659 L51 658 C89 655 115 627 115 588 L116 588 L116 588 Z " />
<glyph glyph-name="utilde" unicode="&#x169;" horiz-adv-x="586" d="M141 595 C141 635 159 662 186 662 C240 662 312 599 366 599 C406 599 433 637 433 693 L425 693 C425 656 406 632 377 632 C323 632 251 695 197 695 C159 695 133 655 133 595 L141 595 L141 595 Z M426 428 L426 65 C401 43 356 28 282 28 C188 28 140 81 140 161 L140 500 L15 500 L15 499 L26 498 C64 495 90 467 90 428 L90 156 C90 59 142 -5 243 -5 C325 -5 385 20 426 57 L426 0 L436 0 L551 33 L551 34 L540 34 C486 33 476 43 476 98 L476 500 L351 500 L351 499 L362 498 C400 495 426 467 426 428 L426 428 Z " />
<glyph glyph-name="Umacron" unicode="&#x16a;" horiz-adv-x="687" d="M199 770 L499 770 L499 798 L199 798 L199 770 L199 770 Z M116 588 L116 208 C116 80 183 -5 354 -5 C518 -5 582 68 582 178 L582 578 C582 623 611 655 654 658 L667 659 L667 660 L476 660 L476 659 L491 658 C534 655 563 626 565 584 L564 184 C564 82 507 14 361 14 C224 14 171 88 171 198 L171 588 C171 627 197 655 235 658 L246 659 L246 660 L40 660 L40 659 L51 658 C89 655 115 627 115 588 L116 588 L116 588 Z " />
<glyph glyph-name="umacron" unicode="&#x16b;" horiz-adv-x="482" d="M133 610 L433 610 L433 638 L133 638 L133 610 L133 610 Z M426 428 L426 65 C401 43 356 28 282 28 C188 28 140 81 140 161 L140 500 L15 500 L15 499 L26 498 C64 495 90 467 90 428 L90 156 C90 59 142 -5 243 -5 C325 -5 385 20 426 57 L426 0 L436 0 L551 33 L551 34 L540 34 C486 33 476 43 476 98 L476 500 L351 500 L351 499 L362 498 C400 495 426 467 426 428 L426 428 Z " />
<glyph glyph-name="Ubreve" unicode="&#x16c;" horiz-adv-x="687" d="M234 872 C245 810 291 768 349 768 C408 768 454 809 465 871 L456 873 C448 830 406 801 349 801 C292 801 250 830 242 873 L234 872 L234 872 Z M116 588 L116 208 C116 80 183 -5 354 -5 C518 -5 582 68 582 178 L582 578 C582 623 611 655 654 658 L667 659 L667 660 L476 660 L476 659 L491 658 C534 655 563 626 565 584 L564 184 C564 82 507 14 361 14 C224 14 171 88 171 198 L171 588 C171 627 197 655 235 658 L246 659 L246 660 L40 660 L40 659 L51 658 C89 655 115 627 115 588 L116 588 L116 588 Z " />
<glyph glyph-name="ubreve" unicode="&#x16d;" horiz-adv-x="586" d="M168 712 C179 650 225 608 283 608 C342 608 388 649 399 711 L390 713 C382 670 340 641 283 641 C226 641 184 670 176 713 L168 712 L168 712 Z M426 428 L426 65 C401 43 356 28 282 28 C188 28 140 81 140 161 L140 500 L15 500 L15 499 L26 498 C64 495 90 467 90 428 L90 156 C90 59 142 -5 243 -5 C325 -5 385 20 426 57 L426 0 L436 0 L551 33 L551 34 L540 34 C486 33 476 43 476 98 L476 500 L351 500 L351 499 L362 498 C400 495 426 467 426 428 L426 428 Z " />
<glyph glyph-name="Uring" unicode="&#x16e;" horiz-adv-x="687" d="M269 788 C269 837 301 869 349 869 C397 869 429 837 429 788 C429 744 392 706 349 706 C306 706 269 744 269 788 L269 788 Z M255 788 C255 738 298 695 349 695 C400 695 443 738 443 788 C443 843 405 880 349 880 C293 880 255 843 255 788 L255 788 Z M116 588 L116 208 C116 80 183 -5 354 -5 C518 -5 582 68 582 178 L582 578 C582 623 611 655 654 658 L667 659 L667 660 L476 660 L476 659 L491 658 C534 655 563 626 565 584 L564 184 C564 82 507 14 361 14 C224 14 171 88 171 198 L171 588 C171 627 197 655 235 658 L246 659 L246 660 L40 660 L40 659 L51 658 C89 655 115 627 115 588 L116 588 L116 588 Z " />
<glyph glyph-name="uring" unicode="&#x16f;" horiz-adv-x="586" d="M203 628 C203 677 235 709 283 709 C331 709 363 677 363 628 C363 584 326 546 283 546 C240 546 203 584 203 628 L203 628 Z M189 628 C189 578 232 535 283 535 C334 535 377 578 377 628 C377 683 339 720 283 720 C227 720 189 683 189 628 L189 628 Z M426 428 L426 65 C401 43 356 28 282 28 C188 28 140 81 140 161 L140 500 L15 500 L15 499 L26 498 C64 495 90 467 90 428 L90 156 C90 59 142 -5 243 -5 C325 -5 385 20 426 57 L426 0 L436 0 L551 33 L551 34 L540 34 C486 33 476 43 476 98 L476 500 L351 500 L351 499 L362 498 C400 495 426 467 426 428 L426 428 Z " />
<glyph glyph-name="Wcircumflex" unicode="&#x174;" horiz-adv-x="924" d="M78 588 L273 -15 L287 -15 L451 577 L641 -15 L655 -15 L831 596 C844 631 876 656 912 659 L924 660 L924 661 L728 661 L728 660 L766 658 C802 656 821 632 815 598 L666 74 L477 671 L464 671 L296 69 L138 589 C126 628 144 656 183 658 L206 660 L206 661 L-5 661 L-5 660 L5 659 C36 656 65 627 78 588 L78 588 Z M486 891 C484 895 478 905 471 905 C463 905 457 895 455 891 C455 891 359 706 352 698 L358 693 C396 739 445 812 470 850 C506 794 583 693 583 693 L589 698 C589 698 535 790 486 891 L486 891 Z " />
<glyph glyph-name="Ycircumflex" unicode="&#x176;" horiz-adv-x="601" d="M610 659 L610 660 L420 660 L420 659 L441 658 C490 655 506 623 484 577 L326 293 L168 596 C154 631 167 655 203 657 L225 659 L225 660 L14 660 L14 659 C51 654 82 632 106 588 L106 588 L279 261 L279 72 C279 33 253 5 215 2 L204 1 L204 0 L410 0 L410 1 L399 2 C361 5 335 33 335 72 L335 285 C392 386 448 488 506 588 C531 632 567 654 610 658 L610 659 L610 659 Z M323 890 C321 894 315 904 307 904 C299 904 293 894 291 890 C291 890 195 704 189 697 L194 692 C233 739 281 811 306 849 C342 793 419 692 419 692 L424 697 C424 697 372 788 322 890 L323 890 L323 890 Z " />
<glyph glyph-name="Ydieresis" unicode="&#x178;" horiz-adv-x="601" d="M426 761 C426 801 365 800 365 761 C365 721 426 720 426 761 L426 761 Z M249 761 C249 800 188 801 188 761 C188 720 249 721 249 761 L249 761 Z M610 659 L610 660 L420 660 L420 659 L441 658 C490 655 506 623 484 577 L326 293 L168 596 C154 631 167 655 203 657 L225 659 L225 660 L14 660 L14 659 C51 654 82 632 106 588 L106 588 L279 261 L279 72 C279 33 253 5 215 2 L204 1 L204 0 L410 0 L410 1 L399 2 C361 5 335 33 335 72 L335 285 C392 386 448 488 506 588 C531 632 567 654 610 658 L610 659 L610 659 Z " />
<glyph glyph-name="Zacute" unicode="&#x179;" horiz-adv-x="592" d="M329 691 C329 691 408 780 439 820 C464 849 480 871 480 875 C480 881 460 895 452 895 C449 895 434 873 413 840 C382 800 323 695 323 695 L329 691 L329 691 Z M542 156 C542 161 542 166 541 165 L522 105 C504 51 457 15 403 15 L124 15 L529 661 L119 661 C108 621 94 568 83 527 L84 527 L103 567 C126 615 173 647 221 647 L457 647 L52 1 L515 1 C522 49 534 110 542 158 L542 156 L542 156 Z " />
<glyph glyph-name="zacute" unicode="&#x17a;" horiz-adv-x="483" d="M182 531 C182 531 261 620 292 660 C317 689 333 711 333 715 C333 721 313 735 305 735 C302 735 287 713 266 680 C235 640 176 535 176 535 L182 531 L182 531 Z M44 398 L45 398 L52 412 C78 458 127 487 175 488 L370 489 L57 0 L422 0 L423 5 L423 5 C431 49 441 109 449 153 C449 158 449 163 448 162 L429 102 C411 48 364 12 310 12 L123 12 L434 501 L72 501 C62 471 52 430 45 399 L44 398 L44 398 Z " />
<glyph glyph-name="Zdot" unicode="&#x17b;" horiz-adv-x="592" d="M361 761 C361 801 300 800 300 761 C300 721 361 720 361 761 L361 761 Z M542 156 C542 161 542 166 541 165 L522 105 C504 51 457 15 403 15 L124 15 L529 661 L119 661 C108 621 94 568 83 527 L84 527 L103 567 C126 615 173 647 221 647 L457 647 L52 1 L515 1 C522 49 534 110 542 158 L542 156 L542 156 Z " />
<glyph glyph-name="zdot" unicode="&#x17c;" horiz-adv-x="483" d="M289 601 C289 641 228 640 228 601 C228 561 289 560 289 601 L289 601 Z M44 398 L45 398 L52 412 C78 458 127 487 175 488 L370 489 L57 0 L422 0 L423 5 L423 5 C431 49 441 109 449 153 C449 158 449 163 448 162 L429 102 C411 48 364 12 310 12 L123 12 L434 501 L72 501 C62 471 52 430 45 399 L44 398 L44 398 Z " />
<glyph glyph-name="Zcaron" unicode="&#x17d;" horiz-adv-x="592" d="M443 927 C443 927 366 826 330 770 C305 808 256 881 218 927 L212 922 C219 914 315 729 315 729 C317 725 323 715 331 715 C338 715 344 725 346 729 C395 830 449 922 449 922 L443 927 L443 927 Z M542 156 C542 161 542 166 541 165 L522 105 C504 51 457 15 403 15 L124 15 L529 661 L119 661 C108 621 94 568 83 527 L84 527 L103 567 C126 615 173 647 221 647 L457 647 L52 1 L515 1 C522 49 534 110 542 158 L542 156 L542 156 Z " />
<glyph glyph-name="zcaron" unicode="&#x17e;" horiz-adv-x="483" d="M371 767 C371 767 294 666 258 610 C233 648 184 721 146 767 L140 762 C147 754 243 569 243 569 C245 565 251 555 259 555 C266 555 272 565 274 569 C323 670 377 762 377 762 L371 767 L371 767 Z M44 398 L45 398 L52 412 C78 458 127 487 175 488 L370 489 L57 0 L422 0 L423 5 L423 5 C431 49 441 109 449 153 C449 158 449 163 448 162 L429 102 C411 48 364 12 310 12 L123 12 L434 501 L72 501 C62 471 52 430 45 399 L44 398 L44 398 Z " />
<glyph glyph-name="oogonek" unicode="&#x1eb;" horiz-adv-x="699" d="M714 -51 L709 -47 C685 -76 631 -95 575 -95 C490 -95 418 -59 361 -5 C551 -3 649 126 649 277 C649 429 549 558 356 558 C163 558 63 429 63 277 C63 128 159 0 344 -5 C419 -78 497 -127 569 -127 C618 -127 676 -97 714 -51 L714 -51 Z M118 277 C118 422 199 546 356 546 C513 546 594 422 594 277 C594 132 513 8 356 8 C199 8 118 132 118 277 L118 277 Z " />
<glyph glyph-name="Adotabove" unicode="&#x226;" horiz-adv-x="631" d="M340 761 C340 800 278 800 278 761 C278 720 340 720 340 761 L340 761 Z M540 72 L539 72 L316 675 L302 675 L97 72 L96 72 C83 33 48 5 9 2 L-3 1 L-3 0 L201 0 L201 1 L173 3 C125 5 104 39 120 87 L170 236 L422 236 L481 72 C494 32 479 5 440 3 L397 1 L397 0 L627 0 L627 1 C589 5 558 25 541 71 L540 72 L540 72 Z M417 250 L176 250 L292 599 L417 250 L417 250 Z " />
<glyph glyph-name="G_sc" unicode="&#x262;" horiz-adv-x="755" d="M540 188 L540 49 C483 24 413 8 355 8 C213 8 118 116 118 277 C118 438 213 546 355 546 C382 546 413 542 444 535 C508 518 559 462 572 394 C574 384 577 370 579 360 L580 360 L580 496 C516 533 426 558 355 558 C180 558 63 446 63 277 C63 108 180 -5 355 -5 C429 -5 521 20 585 57 L585 188 C585 227 611 255 649 258 L660 259 L660 260 L465 260 L465 259 L476 258 C514 255 540 227 540 188 L540 188 Z " />
<glyph glyph-name="I_sc" unicode="&#x26a;" horiz-adv-x="283" d="M243 0 L243 1 L232 2 C194 5 168 33 168 72 L168 481 C168 520 194 548 232 551 L243 552 L243 553 L43 553 L43 552 L54 551 C92 548 118 520 118 481 L118 72 C118 33 92 5 54 2 L43 1 L43 0 L243 0 L243 0 Z " />
<glyph glyph-name="N_sc" unicode="&#x274;" horiz-adv-x="640" d="M510 481 L510 72 L163 553 L43 553 L43 552 L54 551 C92 548 118 520 118 481 L118 72 C118 33 92 5 54 2 L43 1 L43 0 L208 0 L208 1 L197 2 C159 5 133 33 133 72 L133 510 C258 337 382 163 508 -9 L524 -9 L524 482 C524 521 550 549 588 552 L599 553 L599 554 L434 554 L434 553 L445 552 C483 549 509 521 509 482 L510 481 L510 481 Z M132 534 L132 534 L132 534 Z " />
<glyph glyph-name="R_sc" unicode="&#x280;" horiz-adv-x="579" d="M579 0 L579 10 C552 10 554 10 469 96 C385 180 323 244 300 268 C398 281 460 336 460 413 C460 498 386 554 274 554 L53 554 L53 553 L64 552 C102 549 128 521 128 482 L128 73 C128 34 102 6 64 3 L53 2 L53 1 L253 1 L253 2 L242 3 C204 6 178 34 178 73 L178 266 L243 266 C267 241 324 183 401 106 C502 4 508 0 558 0 L579 0 L579 0 Z M255 278 L178 278 L178 541 L274 541 C354 541 408 489 408 412 C408 332 347 278 255 278 L255 278 Z " />
<glyph glyph-name="Y_sc" unicode="&#x28f;" horiz-adv-x="536" d="M545 552 L545 553 L356 553 L356 552 L377 551 C426 548 442 515 418 468 L290 243 L165 486 C148 522 161 548 198 550 L220 552 L220 553 L16 553 L16 552 C53 547 85 525 109 481 L109 481 L251 221 L251 72 C251 33 225 5 187 2 L176 1 L176 0 L376 0 L376 1 L365 2 C327 5 301 33 301 72 L301 240 C301 240 428 461 440 481 C466 525 502 547 545 551 L545 552 L545 552 Z " />
<glyph glyph-name="B_sc" unicode="&#x299;" horiz-adv-x="530" d="M283 301 C277 301 270 301 263 301 L219 299 L178 300 L178 541 L274 541 C354 541 408 495 408 427 C408 358 359 310 283 301 L283 301 Z M321 298 C406 314 459 362 459 427 C459 503 385 553 275 553 L54 553 L54 552 L65 551 C103 548 129 520 129 481 L129 72 C129 33 103 5 65 2 L54 1 L54 0 L296 0 C425 0 511 61 511 152 C511 229 437 284 321 298 L321 298 Z M179 291 L249 291 C375 291 459 235 459 152 C459 69 392 13 291 13 L179 13 L179 291 L179 291 Z " />
<glyph glyph-name="H_sc" unicode="&#x29c;" horiz-adv-x="709" d="M669 0 L669 1 L658 2 C620 5 594 33 594 72 L594 481 C594 520 620 548 658 551 L669 552 L669 553 L469 553 L469 552 L480 551 C518 548 544 520 544 481 L544 299 L166 299 L166 481 C166 520 192 548 230 551 L241 552 L241 553 L41 553 L41 552 L52 551 C90 548 116 520 116 481 L116 72 C116 33 90 5 52 2 L41 1 L41 0 L241 0 L241 1 L230 2 C192 5 166 33 166 72 L166 287 L544 287 L544 72 C544 33 518 5 480 2 L469 1 L469 0 L669 0 L669 0 Z " />
<glyph glyph-name="L_sc" unicode="&#x29f;" horiz-adv-x="531" d="M419 6 L419 6 C427 51 437 110 445 155 C445 160 445 165 444 164 L425 104 C407 50 360 14 306 14 L166 14 L166 482 C166 521 192 549 230 552 L241 553 L241 554 L41 554 L41 553 L52 552 C90 549 116 521 116 482 L116 73 C116 34 90 6 52 3 L41 2 L41 1 L418 1 L419 6 L419 6 Z " />
<glyph glyph-name="circumflex" unicode="&#x2c6;" horiz-adv-x="340" d="M186 731 C184 735 178 745 170 745 C162 745 156 735 154 731 C154 731 58 545 52 538 L57 533 C96 580 144 652 169 690 C205 634 282 533 282 533 L287 538 C287 538 235 629 185 731 L186 731 L186 731 Z " />
<glyph glyph-name="caron" unicode="&#x2c7;" horiz-adv-x="340" d="M283 767 C283 767 206 666 170 610 C145 648 97 720 58 767 L53 762 C59 755 155 569 155 569 C157 565 163 555 171 555 C179 555 185 565 187 569 C237 671 289 762 289 762 L283 767 L283 767 Z " />
<glyph glyph-name="firsttonechinese" unicode="&#x2c9;" horiz-adv-x="340" d="M20 610 L320 610 L320 638 L20 638 L20 610 L20 610 Z " />
<glyph glyph-name="breve" unicode="&#x2d8;" horiz-adv-x="340" d="M55 712 C66 650 112 608 170 608 C229 608 275 649 286 711 L277 713 C269 670 227 641 170 641 C113 641 71 670 63 713 L55 712 L55 712 Z " />
<glyph glyph-name="dotaccent" unicode="&#x2d9;" horiz-adv-x="340" d="M201 601 C201 640 139 640 139 601 C139 560 201 560 201 601 L201 601 Z " />
<glyph glyph-name="ring" unicode="&#x2da;" horiz-adv-x="340" d="M90 628 C90 677 122 709 170 709 C218 709 250 677 250 628 C250 584 213 546 170 546 C127 546 90 584 90 628 L90 628 Z M76 628 C76 578 119 535 170 535 C221 535 264 578 264 628 C264 683 226 720 170 720 C114 720 76 683 76 628 L76 628 Z " />
<glyph glyph-name="A_sc" unicode="&#x1d00;" horiz-adv-x="565" d="M473 72 L472 72 L283 566 L271 566 L98 72 C84 33 49 5 10 2 L-2 1 L-2 0 L199 0 L199 1 L171 3 C123 5 103 39 119 87 L157 198 L372 198 L423 61 C431 28 414 5 379 3 L336 1 L336 0 L561 0 L561 1 C522 5 492 25 474 71 L473 72 L473 72 Z M368 210 L162 210 L261 499 L368 210 L368 210 Z " />
<glyph glyph-name="C_sc" unicode="&#x1d04;" horiz-adv-x="660" d="M597 63 L597 63 L597 63 Z M600 57 L600 194 L599 194 C597 184 594 170 592 160 C577 87 515 31 435 14 C411 10 387 8 365 8 C216 8 117 116 117 277 C117 438 216 546 365 546 C397 546 433 541 468 533 C529 515 577 461 590 394 C592 384 595 370 597 360 L598 360 L598 496 C534 533 440 558 364 558 C182 558 61 446 61 277 C61 108 182 -5 364 -5 C440 -5 534 20 598 57 L600 57 L600 57 Z " />
<glyph glyph-name="D_sc" unicode="&#x1d05;" horiz-adv-x="628" d="M295 0 C465 0 578 111 578 277 C578 443 453 553 266 553 L53 553 L53 552 L64 551 C102 548 128 520 128 481 L128 72 C128 33 102 5 64 2 L53 1 L53 0 L295 0 L295 0 Z M178 13 L178 541 L266 541 C423 541 528 435 528 277 C528 119 435 13 295 13 L178 13 L178 13 Z " />
<glyph glyph-name="E_sc" unicode="&#x1d07;" horiz-adv-x="531" d="M419 6 L419 6 C426 49 436 105 444 148 L443 148 L431 113 C410 53 356 13 296 13 L166 13 L166 289 L251 289 C302 289 341 260 348 217 L350 204 L351 204 L351 376 L350 376 L348 365 C341 327 302 301 251 301 L166 301 L166 541 L288 541 C348 541 395 501 405 441 L411 406 L412 406 L412 553 L41 553 L41 552 L52 551 C90 548 116 520 116 481 L116 72 C116 33 90 5 52 2 L41 1 L41 0 L418 0 L419 6 L419 6 Z " />
<glyph glyph-name="J_sc" unicode="&#x1d0a;" horiz-adv-x="307" d="M142 481 L142 168 C142 47 126 0 85 0 C67 0 49 20 42 50 C39 62 30 70 20 70 C5 70 -3 62 0 50 C9 14 38 -10 73 -10 C159 -10 192 52 192 210 L192 481 C192 520 218 548 256 551 L267 552 L267 553 L67 553 L67 552 L78 551 C116 548 142 520 142 481 L142 481 Z " />
<glyph glyph-name="K_sc" unicode="&#x1d0b;" horiz-adv-x="579" d="M569 -5 L569 5 C531 5 471 59 329 210 C278 264 239 305 223 322 L392 480 C434 519 488 547 527 550 L543 551 L543 552 L379 552 L379 551 L389 550 C420 547 419 524 388 491 L214 330 L214 330 L178 296 L178 479 C178 518 204 546 242 549 L253 550 L253 551 L53 551 L53 550 L64 549 C102 546 128 518 128 479 L128 70 C128 31 102 3 64 0 L53 -1 L53 -2 L253 -2 L253 -1 L242 0 C204 3 178 31 178 70 L178 279 L186 287 C202 270 241 229 293 174 C416 44 488 -7 549 -7 L569 -5 L569 -5 Z M178 296 L178 296 L178 296 Z " />
<glyph glyph-name="M_sc" unicode="&#x1d0d;" horiz-adv-x="760" d="M208 3 C160 5 130 39 132 87 L150 492 C224 326 298 160 372 -6 L385 -6 L603 513 L623 64 C622 29 598 4 562 1 L551 0 L551 -1 L751 -1 L751 0 L740 1 C702 4 676 30 672 67 L650 481 C648 520 672 548 710 551 L721 551 L721 553 L624 553 L624 552 L601 552 L397 54 L396 56 L177 552 L63 552 L63 551 L74 550 C110 547 134 522 135 487 L116 71 C114 32 87 3 49 0 L38 -1 L38 -2 L238 -2 L238 -1 L208 3 L208 3 Z " />
<glyph glyph-name="O_sc" unicode="&#x1d0f;" horiz-adv-x="699" d="M118 277 C118 422 199 546 356 546 C513 546 594 422 594 277 C594 132 513 8 356 8 C199 8 118 132 118 277 L118 277 Z M63 277 C63 125 163 -5 356 -5 C549 -5 649 125 649 277 C649 429 549 558 356 558 C163 558 63 429 63 277 L63 277 Z " />
<glyph glyph-name="P_sc" unicode="&#x1d18;" horiz-adv-x="507" d="M253 0 L253 1 L242 2 C204 5 178 33 178 72 L178 250 L264 250 C398 250 487 310 487 400 C487 492 407 553 286 553 L53 553 L53 552 L64 551 C102 548 128 520 128 481 L128 72 C128 33 102 5 64 2 L53 1 L53 0 L253 0 L253 0 Z M178 263 L178 541 L286 541 C375 541 435 485 435 400 C435 318 367 263 264 263 L178 263 L178 263 Z " />
<glyph glyph-name="T_sc" unicode="&#x1d1b;" horiz-adv-x="560" d="M533 547 L532 553 L28 553 L27 547 C23 500 18 438 14 391 L15 391 L33 461 C45 509 85 541 133 541 L255 541 L255 72 C255 33 229 5 191 2 L180 1 L180 0 L380 0 L380 1 L369 2 C331 5 305 33 305 72 L305 541 L427 541 C475 541 515 509 527 461 L545 391 L546 391 C542 438 537 500 533 547 L533 547 Z " />
<glyph glyph-name="U_sc" unicode="&#x1d1c;" horiz-adv-x="629" d="M118 481 L118 172 C118 66 176 -5 325 -5 C468 -5 524 56 524 147 L524 471 C524 516 553 548 596 551 L609 552 L609 553 L419 553 L419 552 L434 551 C479 548 509 516 509 471 L509 152 C509 68 459 12 332 12 C214 12 168 72 168 162 L168 481 C168 520 194 548 232 551 L243 552 L243 553 L43 553 L43 552 L54 551 C92 548 118 520 118 481 L118 481 Z " />
<glyph glyph-name="V_sc" unicode="&#x1d20;" horiz-adv-x="566" d="M97 481 L97 481 L300 -15 L312 -15 L473 481 C487 520 521 549 560 552 L572 553 L572 554 L362 554 L362 553 L385 552 C438 549 464 514 452 463 L320 49 L150 485 C137 522 153 548 191 550 L223 552 L223 553 L9 553 L9 552 C48 548 79 526 97 482 L97 481 L97 481 Z " />
<glyph glyph-name="W_sc" unicode="&#x1d21;" horiz-adv-x="798" d="M78 481 L79 481 L241 -15 L253 -15 L411 563 L399 563 L241 -15 L259 53 L129 490 C123 524 142 548 178 550 L201 552 L201 553 L-4 553 L-4 552 L6 551 C37 548 66 520 79 481 L78 481 L78 481 Z M691 489 L548 -15 L561 -15 L706 489 C719 524 751 548 787 551 L799 552 L799 553 L604 553 L604 552 L642 550 C678 548 697 524 691 489 L691 489 Z M548 -15 L568 57 L412 563 L391 486 L548 -15 L548 -15 Z " />
<glyph glyph-name="Z_sc" unicode="&#x1d22;" horiz-adv-x="532" d="M87 421 L88 421 L106 461 C129 509 177 541 225 541 L404 541 L54 0 L457 0 L458 6 L458 6 C466 51 476 110 484 155 C484 160 484 165 483 164 L464 104 C446 50 399 14 345 14 L118 14 L469 554 L122 554 C109 515 97 462 86 422 L87 421 L87 421 Z " />
<glyph glyph-name="Wgrave" unicode="&#x1e80;" horiz-adv-x="924" d="M78 588 L273 -15 L287 -15 L451 577 L641 -15 L655 -15 L831 596 C844 631 876 656 912 659 L924 660 L924 661 L728 661 L728 660 L766 658 C802 656 821 632 815 598 L666 74 L477 671 L464 671 L296 69 L138 589 C126 628 144 656 183 658 L206 660 L206 661 L-5 661 L-5 660 L5 659 C36 656 65 627 78 588 L78 588 Z M388 875 C388 870 405 849 431 820 C463 780 544 691 544 691 L550 695 C550 695 489 799 457 840 C436 873 421 895 417 895 C408 895 388 881 388 875 L388 875 Z " />
<glyph glyph-name="Wacute" unicode="&#x1e82;" horiz-adv-x="924" d="M409 691 C409 691 488 780 519 820 C544 849 560 871 560 875 C560 881 540 895 532 895 C529 895 514 873 493 840 C462 800 403 695 403 695 L409 691 L409 691 Z M78 588 L273 -15 L287 -15 L451 577 L641 -15 L655 -15 L831 596 C844 631 876 656 912 659 L924 660 L924 661 L728 661 L728 660 L766 658 C802 656 821 632 815 598 L666 74 L477 671 L464 671 L296 69 L138 589 C126 628 144 656 183 658 L206 660 L206 661 L-5 661 L-5 660 L5 659 C36 656 65 627 78 588 L78 588 Z " />
<glyph glyph-name="Wdieresis" unicode="&#x1e84;" horiz-adv-x="924" d="M590 761 C590 800 529 801 529 761 C529 720 590 721 590 761 L590 761 Z M412 761 C412 801 351 800 351 761 C351 721 412 720 412 761 L412 761 Z M78 588 L273 -15 L287 -15 L451 577 L641 -15 L655 -15 L831 596 C844 631 876 656 912 659 L924 660 L924 661 L728 661 L728 660 L766 658 C802 656 821 632 815 598 L666 74 L477 671 L464 671 L296 69 L138 589 C126 628 144 656 183 658 L206 660 L206 661 L-5 661 L-5 660 L5 659 C36 656 65 627 78 588 L78 588 Z " />
<glyph glyph-name="Etilde" unicode="&#x1ebc;" horiz-adv-x="581" d="M144 755 C144 795 162 822 189 822 C243 822 314 759 368 759 C409 759 436 797 436 853 L427 853 C427 816 408 792 379 792 C325 792 254 855 200 855 C161 855 135 815 135 755 L144 755 L144 755 Z M494 149 L493 149 L481 114 C460 54 406 14 346 14 L171 14 L171 345 L301 345 C352 345 391 316 398 273 L400 260 L401 260 L401 434 L400 434 L398 423 C391 385 352 359 301 359 L171 359 L171 646 L339 646 C399 646 446 606 456 546 L462 511 L463 511 L463 660 L40 660 L40 659 L51 658 C89 655 115 627 115 588 L115 72 C115 33 89 5 51 2 L40 1 L40 0 L468 0 C475 46 486 104 494 150 L494 149 L494 149 Z " />
<glyph glyph-name="Ygrave" unicode="&#x1ef2;" horiz-adv-x="601" d="M610 659 L610 660 L420 660 L420 659 L441 658 C490 655 506 623 484 577 L326 293 L168 596 C154 631 167 655 203 657 L225 659 L225 660 L14 660 L14 659 C51 654 82 632 106 588 L106 588 L279 261 L279 72 C279 33 253 5 215 2 L204 1 L204 0 L410 0 L410 1 L399 2 C361 5 335 33 335 72 L335 285 C392 386 448 488 506 588 C531 632 567 654 610 658 L610 659 L610 659 Z M225 874 C225 869 242 848 268 819 C300 779 381 690 381 690 L386 694 C386 694 325 798 293 839 C272 872 257 894 253 894 C245 894 225 880 225 874 L225 874 Z " />
<glyph glyph-name="quoteleft" unicode="&#x2018;" horiz-adv-x="188" d="M69 512 L69 512 C75 505 84 501 95 501 C117 501 131 515 131 537 C131 562 110 579 83 571 C78 610 96 646 121 658 L117 666 C79 647 53 605 53 560 C53 540 59 521 68 511 L69 512 L69 512 Z " />
<glyph glyph-name="quoteright" unicode="&#x2019;" horiz-adv-x="188" d="M123 655 L123 655 C117 662 108 666 97 666 C75 666 61 652 61 630 C61 605 82 588 109 596 C114 557 96 521 71 509 L75 501 C113 520 139 562 139 607 C139 627 133 646 124 656 L123 655 L123 655 Z " />
<glyph glyph-name="quotedblleft" unicode="&#x201c;" horiz-adv-x="294" d="M175 512 L175 512 C181 505 190 501 201 501 C223 501 237 515 237 537 C237 562 216 579 189 571 C184 610 202 646 227 658 L223 666 C185 647 159 605 159 560 C159 540 165 521 174 511 L175 512 L175 512 Z M68 511 L68 511 C74 504 83 500 94 500 C116 500 130 514 130 536 C130 561 109 578 82 570 C77 609 95 645 120 657 L116 665 C78 646 52 604 52 559 C52 539 58 520 67 510 L68 511 L68 511 Z " />
<glyph glyph-name="quotedblright" unicode="&#x201d;" horiz-adv-x="294" d="M229 655 L229 655 C223 662 214 666 203 666 C181 666 167 652 167 630 C167 605 188 588 215 596 C220 557 202 521 177 509 L181 501 C219 520 245 562 245 607 C245 627 239 646 230 656 L229 655 L229 655 Z M124 656 L124 656 C118 663 109 667 98 667 C76 667 62 653 62 631 C62 606 83 589 110 597 C115 558 97 522 72 510 L76 502 C114 521 140 563 140 608 C140 628 134 647 125 657 L124 656 L124 656 Z " />
<glyph glyph-name="ellipsis" unicode="&#x2026;" horiz-adv-x="450" d="M375 0 C397 0 411 14 411 36 C411 58 397 72 375 72 C353 72 339 58 339 36 C339 14 353 0 375 0 L375 0 Z M225 0 C247 0 261 14 261 36 C261 58 247 72 225 72 C203 72 189 58 189 36 C189 14 203 0 225 0 L225 0 Z M75 0 C97 0 111 14 111 36 C111 58 97 72 75 72 C53 72 39 58 39 36 C39 14 53 0 75 0 L75 0 Z " />
<glyph glyph-name="perthousand" unicode="&#x2030;" horiz-adv-x="1127" d="M869 191 C869 292 906 360 961 360 C1025 360 1068 284 1068 171 C1068 75 1030 11 972 11 C910 11 869 83 869 191 L869 191 Z M820 182 C820 70 879 -5 968 -5 C1056 -5 1115 72 1115 188 C1115 300 1056 375 968 375 C879 375 820 298 820 182 L820 182 Z M79 542 C79 643 116 710 171 710 C235 710 278 635 278 522 C278 426 240 362 182 362 C120 362 79 434 79 542 L79 542 Z M30 533 C30 420 89 345 178 345 C266 345 325 423 325 539 C325 651 266 725 178 725 C89 725 30 648 30 533 L30 533 Z M532 191 C532 292 569 360 625 360 C693 360 738 284 738 171 C738 75 697 11 636 11 C574 11 532 83 532 191 L532 191 Z M483 181 C483 69 543 -5 632 -5 C724 -5 785 72 785 188 C785 300 724 375 632 375 C543 375 483 297 483 181 L483 181 Z M189 -7 L654 713 L632 727 L167 7 L189 -7 L189 -7 Z " />
<glyph glyph-name="guilsinglleft" unicode="&#x2039;" horiz-adv-x="292" d="M72 251 L246 459 L241 464 L20 254 L20 248 L242 37 L247 42 L72 251 L72 251 Z " />
<glyph glyph-name="guilsinglright" unicode="&#x203a;" horiz-adv-x="292" d="M50 37 L272 248 L272 254 L51 464 L46 459 L220 251 L45 42 L50 37 L50 37 Z " />
<glyph glyph-name="fraction" unicode="&#x2044;" horiz-adv-x="496" d="M41 -7 L506 713 L484 727 L19 7 L41 -7 L41 -7 Z " />
<glyph glyph-name="Euro" unicode="&#x20ac;" horiz-adv-x="757" d="M45 269 L104 269 C129 102 255 -5 436 -5 C528 -5 633 20 697 57 L693 64 C693 64 696 58 696 57 L696 195 L695 195 C693 185 690 171 688 161 C673 88 608 31 524 16 C494 11 464 8 435 8 C288 8 185 109 164 268 L482 268 L487 304 L161 304 C160 320 160 337 161 353 L487 353 L492 389 L164 389 C185 548 288 649 435 649 C474 649 516 644 556 635 L556 635 C621 621 673 566 687 497 C689 487 692 473 694 463 L695 463 L695 601 C631 638 526 663 434 663 C253 663 127 556 102 389 L53 389 L48 353 L99 353 C98 337 98 320 99 304 L48 304 L45 269 L45 269 Z " />
<glyph glyph-name="F_sc" unicode="&#xa730;" horiz-adv-x="446" d="M442 553 L41 553 L41 552 L52 551 C90 548 116 520 116 481 L116 72 C116 33 90 5 52 2 L41 1 L41 0 L251 0 L251 1 L231 3 C192 5 166 33 166 72 L166 285 L241 285 C292 285 331 256 338 213 L340 200 L341 200 L341 372 L340 372 L338 361 C331 323 292 297 241 297 L166 297 L166 541 L318 541 C378 541 425 501 435 441 L441 406 L442 406 L442 553 L442 553 Z " />
<glyph glyph-name="S_sc" unicode="&#xa731;" horiz-adv-x="444" d="M267 533 L267 533 C308 519 341 481 349 439 C353 417 360 389 364 367 L365 367 L365 507 C312 538 251 558 212 558 C116 558 52 496 52 403 C52 343 112 285 202 258 C299 229 363 175 363 121 C363 53 312 8 236 8 C218 8 198 10 177 14 C115 29 66 83 52 152 C50 162 47 176 45 186 L44 186 L44 46 C97 15 174 -5 237 -5 C335 -5 400 53 400 141 C400 205 336 266 239 295 C148 322 88 373 88 423 C88 497 137 546 211 546 C225 546 245 541 268 533 L267 533 L267 533 Z " />
<glyph glyph-name="X_sc" unicode="&#xf078;" horiz-adv-x="574" d="M136 481 L136 481 C182 410 230 339 275 269 L156 72 C132 33 91 4 52 1 L39 0 L39 -1 L239 -1 L239 0 L213 2 C168 4 154 34 176 77 L283 257 L411 63 C431 28 421 3 385 1 L354 -1 L354 -2 L565 -2 L565 -1 C527 3 493 26 464 70 L464 70 L310 304 L435 484 C462 520 504 546 541 549 L555 550 L555 551 L354 551 L354 550 L395 548 C431 546 442 522 423 488 L305 313 L191 486 C171 521 181 546 217 548 L248 550 L248 551 L37 551 L37 550 C75 546 109 523 138 479 L136 481 L136 481 Z " />
</font>
</svg>
