<?xml version="1.0" encoding="UTF-8"?>
<svg xmlns="http://www.w3.org/2000/svg" xmlns:xlink="http://www.w3.org/1999/xlink" version="1.2" >
<font id="Wacian Round">
<font-face  font-family="Wacian" units-per-em="1024" ascent="936" descent="-280" font-style="normal" font-weight="400" font-stretch="normal" cap-height="928" x-height="468" underline-position="-125" underline-thickness="50" />
<missing-glyph  horiz-adv-x="100" d="" />
<glyph glyph-name="NULL" d="" />
<glyph glyph-name="CR" unicode="&#xd;" horiz-adv-x="256" d="" />
<glyph glyph-name="space" unicode="&#x20;" horiz-adv-x="250" d="" />
<glyph glyph-name="exclam" unicode="&#x21;" horiz-adv-x="234" d="M125 -5 C164 -5 190 21 190 60 C190 99 164 125 125 125 C86 125 60 99 60 60 C60 21 86 -5 125 -5 L125 -5 Z M174.251 602.9 C176.891 640.284 155.075 665 119 665 C81.95 665 60.11 640.284 63.6755 602.9 C63.6836 602.816 64.0996 590.792 64.1014 590.707 C66.7156 466.175 119 200 119 200 C119 200 120.974 200 125 200 C128.277 200 130.585 197.279 131.079 200.518 C133.123 213.9 174 483 174 600 C174 600.077 174.246 602.823 174.251 602.9 L174.251 602.9 Z " />
<glyph glyph-name="quotedbl" unicode="&#x22;" horiz-adv-x="340" d="M195.859 603.535 L233.584 407.365 C234.351 403.373 238.435 400 242.5 400 C246.565 400 250.649 403.373 251.416 407.365 L289.141 603.535 C295.027 634.141 273.667 660 242.5 660 C211.333 660 189.973 634.141 195.859 603.535 L195.859 603.535 Z M50.8587 603.535 L88.5836 407.365 C89.3514 403.373 93.4347 400 97.5 400 C101.565 400 105.649 403.373 106.416 407.365 L144.141 603.535 C150.027 634.141 128.667 660 97.5 660 C66.3328 660 44.9729 634.141 50.8587 603.535 L50.8587 603.535 Z " />
<glyph glyph-name="numbersign" unicode="&#x23;" horiz-adv-x="547" d="M388.454 647.686 L373.077 543.126 C369.212 516.844 343.921 495 317.357 495 L294.208 495 C258.598 495 233.306 524.283 238.487 559.514 L251.454 647.686 C252.844 657.141 246.057 665 236.5 665 C226.943 665 217.844 657.141 216.454 647.686 L201.077 543.126 C197.212 516.844 171.921 495 145.357 495 L103.288 495 C83.9691 495 65.9636 479.161 63.5 460 C61.0364 440.839 74.9691 425 94.2881 425 L121 425 C154.856 425 178.897 397.157 173.961 363.662 L162.09 283.109 C158.218 256.838 132.926 235 106.372 235 L62.3553 235 C43.0364 235 24.7321 219.125 22 200 C19.2679 180.875 33.0364 165 52.3553 165 L81 165 C115.927 165 140.645 136.256 135.412 101.722 L122.622 17.3025 C121.191 7.85982 127.95 0 137.5 0 C147.05 0 156.191 7.85982 157.622 17.3025 L172.745 117.117 C176.704 143.249 202 165 228.429 165 L251.504 165 C287.248 165 312.543 135.584 307.188 100.243 L294.622 17.3025 C293.191 7.85982 299.95 0 309.5 0 C319.05 0 328.191 7.85982 329.622 17.3025 L344.745 117.117 C348.704 143.249 374 165 400.429 165 L434.645 165 C453.964 165 472.268 180.875 475 200 C477.732 219.125 463.964 235 444.645 235 L421 235 C388.782 235 365.905 261.496 370.602 293.37 L382.91 376.891 C386.782 403.162 412.074 425 438.628 425 L481.645 425 C500.964 425 519.268 440.875 522 460 C524.732 479.125 510.964 495 491.645 495 L464 495 C429.596 495 405.161 523.292 410.166 557.33 L423.454 647.686 C424.844 657.141 418.057 665 408.5 665 C398.943 665 389.844 657.141 388.454 647.686 L388.454 647.686 Z M266.628 425 L289.772 425 C325.391 425 350.683 395.708 345.49 360.469 L334.09 283.109 C330.218 256.838 304.926 235 278.372 235 L255.228 235 C219.609 235 194.317 264.292 199.51 299.531 L210.91 376.891 C214.782 403.162 240.074 425 266.628 425 L266.628 425 Z " />
<glyph glyph-name="dollar" unicode="&#x24;" horiz-adv-x="511" d="M273 720.466 L273 672.515 C273 667.926 268.319 664.277 263.733 664.44 C252.936 664.824 242.213 664.73 231.82 663.899 C227.592 663.56 223 666.821 223 671.062 L223 720 C223 728.28 216.28 735 208 735 C199.72 735 193 728.28 193 720 L193 696.5 C193 680.557 168.952 651.681 154.362 645.253 C85.905 615.092 44 551.3 44 468 C44 408.5 86.6275 351.89 154.687 315.366 C169.126 307.617 193 275.459 193 259.072 L193 64.0592 C193 39.9643 178.103 27.5736 155.651 36.317 C100.294 57.8737 61.375 103.95 49 165 C47.2667 173.667 44.4067 184.587 42.3729 193.854 C42.2529 194.401 41.4855 193.461 41.4837 192.901 L41.0668 62.8386 C41.0297 51.262 48.001 37.7942 58.4926 32.901 C86.5844 19.7992 122.627 9.249 161.392 2.48044 C176.447 -0.148286 192 -16.4239 192 -31.7069 L192 -61 C192 -69.2796 198.72 -76 207 -76 C215.28 -76 222 -69.2796 222 -61 L222 -13.5147 C222 -8.91741 226.679 -5.27431 231.273 -5.44628 C242.091 -5.85124 252.909 -5.85124 263.727 -5.44628 C268.321 -5.27431 273 -8.91741 273 -13.5147 L273 -61 C273 -69.2796 279.72 -76 288 -76 C296.28 -76 303 -69.2796 303 -61 L303 -39 C303 -22.3376 322.843 1.36531 338.715 6.43555 C417.766 31.6875 466 95.125 466 180 C466 247.375 416.234 310.922 338.141 349.203 C322.513 356.864 303 386.286 303 403.69 L303 623.815 C303 627.202 306.489 629.124 309.75 628.207 C319.5 625.465 329.25 622.063 339 618 C374 602 401 567 409 528 C412.355 511.226 417.468 488.824 421.39 470.235 C421.622 469.138 423.529 469.078 423.533 470.198 L423.935 595.844 C423.97 606.783 414.65 621.319 404.776 626.025 C380.01 637.827 351.98 647.296 324.256 653.606 C313.732 656.001 302 668.496 302 679.29 L302 718.466 C302 726.469 295.485 733.449 287.5 734 C279.515 734.551 273 728.469 273 720.466 L273 720.466 Z M222 401.276 L222 627.441 C222 632.361 226.28 636.522 231.186 636.887 C241.814 637.675 252.186 637.581 262.814 636.345 C267.804 635.765 272 631.391 272 626.369 L272 381.487 C272 376.413 267.468 373.509 262.705 375.256 C251.212 379.47 240.219 384.174 230.002 388.813 C226.171 390.553 222 397.069 222 401.276 L222 401.276 Z M167.641 424.166 C132.419 450.158 112 478.6 112 505 C112 553.675 132.419 592.821 167.641 615.701 C180.832 624.269 192 616.985 192 601.256 L192 437.155 C192 422.633 179.326 415.544 167.641 424.166 L167.641 424.166 Z M230.917 281.921 C242.694 277.718 254.028 273.144 264.917 268.495 C269.034 266.738 273 260.744 273 256.268 L273 26.5147 C273 21.6215 268.707 17.7365 263.814 17.6469 C253.186 17.4523 242.814 17.994 232.186 19.0143 C227.404 19.4732 222.986 23.7555 222.968 28.5586 L222.036 275.513 C222.017 280.549 226.173 283.614 230.917 281.921 L230.917 281.921 Z M330.834 232.994 C371.178 203.711 395 170.175 395 138 C395 90.975 371.178 54.1594 330.834 34.2913 C314.614 26.3036 303 35.3904 303 53.4703 L303 218.068 C303 234.705 317.37 242.766 330.834 232.994 L330.834 232.994 Z " />
<glyph glyph-name="percent" unicode="&#x25;" horiz-adv-x="802" d="M119 548 C119 638 139 698 170 698 C218 698 250 624 250 512 C250 430 226 375 191 375 C148 375 119 444 119 548 L119 548 Z M30 531 C30 419 91 345 183 345 C274 345 334 424 334 543 C334 652 274 725 183 725 C91 725 30 647 30 531 L30 531 Z M557 197 C557 288 581 348 616 348 C670 348 706 273 706 161 C706 79 678 24 636 24 C589 24 557 93 557 197 L557 197 Z M469 180 C469 69 533 -5 628 -5 C725 -5 790 73 790 191 C790 301 725 375 628 375 C533 375 469 297 469 180 L469 180 Z M214.715 6.68723 L654.285 687.313 C661.303 698.178 658.262 712.825 647.5 720 C636.738 727.175 622.303 724.178 615.285 713.313 L175.715 32.6872 C168.697 21.8216 171.738 7.17485 182.5 1.77636e-015 C193.262 -7.17485 207.697 -4.17838 214.715 6.68723 L214.715 6.68723 Z " />
<glyph glyph-name="ampersand" unicode="&#x26;" horiz-adv-x="720" d="M344.425 386.994 C416.205 418.438 461 477.3 461 547 C461 618 401 665 311 665 C221 665 161 599 161 500 C161 467.825 175.293 428.163 200.51 382.699 C208.569 368.171 203.118 346.322 188.538 338.358 C103.65 291.99 51 224.4 51 156 C51 60 133 -4 257 -4 C334.35 -4 400.862 11.1725 451.01 38.4469 C461.773 44.3005 492.584 42.2608 503.029 35.858 C580.283 -11.497 644.444 -11.5364 714.941 0.903937 C718.991 1.61851 721 5.38808 721 9.5 C721 13.4515 717.561 16.3549 713.651 15.7787 C669.531 9.27625 624.236 18.5688 542.046 94.6862 C536.224 100.078 532.943 115.506 536.623 122.537 C548.874 145.942 555 171.95 555 200 L555 230 C555 269 581 297 619 300 L624.5 300.75 C624.91 300.806 624.863 301.5 624.449 301.5 L465.551 301.5 C465.137 301.5 465.09 300.806 465.5 300.75 L471 300 C509 297 535 269 535 230 L535 200 C535 175.833 529.444 153.75 518.912 134.329 C515.159 127.409 508.182 126.865 502.729 132.543 C451.897 185.475 379.753 269.959 329.305 337.867 C316.385 355.26 324.579 378.3 344.425 386.994 L344.425 386.994 Z M228 542 C228 606 258 648 303 648 C355 648 390 606 390 544 C390 482.95 364.136 432.109 321.955 403.831 C302.993 391.12 287.424 397.054 275.721 416.655 C245.34 467.54 228 510.55 228 542 L228 542 Z M432.444 60.3795 C396.905 45.1675 353.675 37 305 37 C202 37 134 99 134 192 C134 239.85 157.822 284.977 198.166 318.398 C214.02 331.532 231.368 329.377 243.062 312.434 C293.775 238.959 373.89 141.935 436.803 85.3744 C445.736 77.344 443.486 65.106 432.444 60.3795 L432.444 60.3795 Z " />
<glyph glyph-name="quotesingle" unicode="&#x27;" horiz-adv-x="195" d="M50.8587 603.535 L88.5836 407.365 C89.3514 403.373 93.4347 400 97.5 400 C101.565 400 105.649 403.373 106.416 407.365 L144.141 603.535 C150.027 634.141 128.667 660 97.5 660 C66.3328 660 44.9729 634.141 50.8587 603.535 L50.8587 603.535 Z " />
<glyph glyph-name="parenleft" unicode="&#x28;" horiz-adv-x="251" d="M222.414 680.838 C124.642 561.574 60 435.75 60 270 C60 104.25 124.643 -21.5737 222.414 -140.838 C225.037 -144.038 232.439 -147.783 235.5 -145 C238.472 -142.298 238.556 -137.122 236.018 -134.008 C171.828 -55.2356 130 58.425 130 270 C130 481.575 171.828 595.236 236.018 674.008 C238.556 677.122 238.472 682.298 235.5 685 C232.439 687.783 225.037 684.038 222.414 680.838 L222.414 680.838 Z " />
<glyph glyph-name="parenright" unicode="&#x29;" horiz-adv-x="251" d="M17.5857 -140.838 C115.358 -21.5738 180 104.25 180 270 C180 435.75 115.358 561.574 17.5857 680.838 C14.9628 684.038 7.56132 687.783 4.5 685 C1.52761 682.298 1.44393 677.122 3.98155 674.008 C68.1725 595.236 110 481.575 110 270 C110 58.425 68.1725 -55.2356 3.98155 -134.008 C1.44393 -137.122 1.52761 -142.298 4.5 -145 C7.56132 -147.783 14.9628 -144.038 17.5857 -140.838 L17.5857 -140.838 Z " />
<glyph glyph-name="asterisk" unicode="&#x2a;" horiz-adv-x="300" d="M267 577 C288 584 295 599 284 618 C274 636 256 638 240 624 L197.5 586 C183.515 573.496 162.695 585.469 166.468 603.846 L178 660 C182 681 171 695 150 695 C129 695 119 681 123 660 L134.5 604 C138.314 585.429 117.368 573.303 103.162 585.857 L60 624 C44 638 26 636 16 618 C5 599 12 584 33 577 L87.5 559 C105.549 553.039 105.615 528.761 87.5995 522.702 L32 504 C12 497 5 481 16 463 C26 444 43 443 60 457 L103.5 495.5 C117.816 508.17 138.971 495.863 135.033 477.156 L123 420 C119 399 129 385 150 385 C171 385 182 399 178 420 L165.922 476.867 C162.004 495.315 182.868 507.489 197 495 L240 457 C257 443 274 444 284 463 C295 481 288 497 268 504 L212.9 522.704 C194.919 528.807 194.985 552.995 213 559 L267 577 L267 577 Z " />
<glyph glyph-name="plus" unicode="&#x2b;" horiz-adv-x="555" d="M253 428 L253 326.32 C253 295.233 227.767 270 196.68 270 L95 270 C83.9606 270 75 261.039 75 250 C75 238.961 83.9606 230 95 230 L196.68 230 C227.767 230 253 204.767 253 173.68 L253 72 C253 59.8567 262.857 50 275 50 C287.143 50 297 59.8567 297 72 L297 173.68 C297 204.767 322.233 230 353.32 230 L455 230 C466.039 230 475 238.961 475 250 C475 261.039 466.039 270 455 270 L353.32 270 C322.233 270 297 295.233 297 326.32 L297 428 C297 440.143 287.143 450 275 450 C262.857 450 253 440.143 253 428 L253 428 Z " />
<glyph glyph-name="comma" unicode="&#x2c;" horiz-adv-x="251" d="M125 125 C86 125 60 99 60 60 C60 21 86 -5 125 -5 C130 -5 135.694 -0.138889 141.505 6.68981 C143.049 8.50523 145.489 8.62905 145.889 6.27934 C155.808 -51.8812 127.137 -107.518 88.3705 -130.555 C85.5831 -132.211 82 -138.258 82 -141.5 C82 -145.276 83.9398 -148.069 87.2796 -146.306 C155.321 -110.399 200 -40.175 200 31 C200 78 174.5 125 124.5 125 L125 125 Z " />
<glyph glyph-name="hyphen" unicode="&#x2d;" horiz-adv-x="280" d="M55 200 L225 200 C244.319 200 260 215.681 260 235 C260 254.319 244.319 270 225 270 L55 270 C35.681 270 20 254.319 20 235 C20 215.681 35.681 200 55 200 L55 200 Z " />
<glyph glyph-name="period" unicode="&#x2e;" horiz-adv-x="250" d="M125 -5 C164 -5 190 21 190 60 C190 99 164 125 125 125 C86 125 60 99 60 60 C60 21 86 -5 125 -5 L125 -5 Z " />
<glyph glyph-name="slash" unicode="&#x2f;" horiz-adv-x="350" d="M20 -145 C30.3783 -145 43.2797 -135.954 46.8172 -126.198 L343.183 691.198 C346.72 700.954 340.378 710 330 710 C319.622 710 306.72 700.954 303.183 691.198 L6.8172 -126.198 C3.27965 -135.954 9.62171 -145 20 -145 L20 -145 Z " />
<glyph glyph-name="zero" unicode="0" horiz-adv-x="610" d="M150 250 C150 391 212 485 305 485 C398 485 460 391 460 250 C460 109 398 15 305 15 C212 15 150 109 150 250 L150 250 Z M50 250 C50 97 152 -5 305 -5 C458 -5 560 97 560 250 C560 403 458 505 305 505 C152 505 50 403 50 250 L50 250 Z " />
<glyph glyph-name="one" unicode="1" horiz-adv-x="350" d="M289.5 1.25 L284 2 C246 5 220 33 220 72 L220 428 C220 467 246 495 284 498 L289.5 498.75 C289.91 498.806 289.863 499.5 289.449 499.5 L60.5509 499.5 C60.1369 499.5 60.0898 498.806 60.5 498.75 L66 498 C104 495 130 467 130 428 L130 72 C130 33 104 5 66 2 L60.5 1.25 C60.0836 1.19321 60.1306 0.489311 60.5509 0.488436 L289.449 0.0115644 C289.857 0.0107151 289.904 1.19492 289.5 1.25 L289.5 1.25 Z " />
<glyph glyph-name="two" unicode="2" horiz-adv-x="485" d="M458.25 159.5 L457 154 C450 116 420 90 381 90 L264.521 90 C235.972 90 223.84 125.947 247.709 141.609 C364.896 218.504 435 277.925 435 353 C435 444 369 505 271 505 C188.125 505 109.053 449.864 72.7106 365.543 C71.2634 362.185 72.4152 357.463 75.5 355.5 C78.3057 353.715 82.9604 356.684 84.4239 359.67 C107.82 407.412 163.3 439 226 439 C291 439 335 392 335 322 C335 192.325 217.123 143.453 38.8328 28.9406 C34.8979 26.4133 25 14.6766 25 10 C25 4.4803 29.4803 0 35 0 L414.896 0 C431.49 0 446.203 14.5018 447.549 31.0406 C451.343 77.6406 454.832 121.041 459.554 161.241 C459.591 161.562 458.322 159.815 458.25 159.5 L458.25 159.5 Z " />
<glyph glyph-name="three" unicode="3" horiz-adv-x="465" d="M159 174 C256 174 320 119 320 36 C320 -92.7 206.876 -186.227 36.2384 -199.165 C32.2043 -199.47 23.2309 -203.463 23.5 -207.5 C23.7817 -211.725 37.2522 -214.232 41.4757 -213.93 C266.702 -197.826 415 -96.475 415 41 C415 120.05 360.09 178.87 271.764 200.265 C257.94 203.613 257.792 227.183 269.841 234.742 C339.162 278.227 380 327.975 380 375 C380 453 321 505 232 505 C152.05 505 65.4456 456.518 12.9687 382.726 C10.835 379.725 11.3939 375.477 14.5 373.5 C17.2984 371.719 22.4093 373.46 24.481 376.051 C54.615 413.73 117.6 439 186 439 C248 439 289 402 289 346 C289 289 236 232 152 195 L109.057 179.54 C105.392 178.221 102 173.395 102 169.5 C102 165.607 106.28 163.33 110.018 164.417 C125.74 168.988 146.308 174 159 174 L159 174 Z " />
<glyph glyph-name="four" unicode="4" horiz-adv-x="491" d="M10 7.5 C10 3.36022 13.3602 0 17.5 0 L224.68 0 C255.767 0 281 -25.233 281 -56.32 L281 -105 C281 -129.839 301.161 -150 326 -150 C350.839 -150 371 -129.839 371 -105 L371 -55 C371 -24.6417 395.642 0 426 0 L461 0 C472.039 0 481 8.9606 481 20 C481 31.0394 472.039 40 461 40 L426 40 C395.642 40 371 64.6416 371 95 L371 497.5 C371 501.64 367.64 505 363.5 505 L356 505 C353 503 10 15 10 15 C10 15 10 20.589 10 7.5 L10 7.5 Z M84.786 75.0651 C127.899 135.995 190.416 224.095 246.269 302.665 C258.104 319.313 281 308.106 281 287.68 L281 95.5754 C281 64.3478 255.652 39.1147 224.425 39.256 L101.617 39.8117 C82.7792 39.8969 73.905 59.6875 84.786 75.0651 L84.786 75.0651 Z " />
<glyph glyph-name="five" unicode="5" horiz-adv-x="451" d="M412.25 569.5 L410 564 C394 526 358 500 319 500 L131.5 500 C106.903 500 84.8101 475.567 83.785 450.992 C79.45 347.06 65 191 65 191 C65 191 70.7129 191 76.5 191 L78.9446 191 C83.9123 191 88.4514 195.063 89 200 L89.0468 200.421 C89.0805 200.724 88.553 200.8 88.5 200.5 C87.6846 195.88 90.9396 192 95.6313 192 L116 192 C232 192 309 136 309 51 C309 -68.925 202.53 -153.677 41.4941 -163.401 C36.9169 -163.677 29.2307 -167.922 29.5 -172.5 C29.7822 -177.298 41.7119 -180.501 46.5101 -180.221 C259.308 -167.772 400 -65.275 400 80 C400 201 304 281 161 281 L115.105 281 C104.669 281 96.7608 288.154 97.7966 298.539 C100.481 325.454 103.098 354.876 105.338 383.728 C106.23 395.208 116.539 406 128.054 406 L326.902 406 C343.741 406 364.118 421.611 369.362 437.612 C384.942 485.152 399.562 529.812 413.222 571.592 C413.296 571.817 412.34 569.719 412.25 569.5 L412.25 569.5 Z " />
<glyph glyph-name="six" unicode="6" horiz-adv-x="570" d="M476.516 714.028 C225.409 697.553 60 531.925 60 295 C60 115 152 -5 291 -5 C435 -5 527 83 520 216 C520 344 440 430 319 430 C261.25 430 213.709 402.775 182.555 355.625 C178.261 349.126 165.5 347.556 165.975 355.33 C177.951 551.44 299.405 686.115 482.057 699.206 C486.046 699.492 496.766 703.51 496.5 707.5 C496.215 711.771 480.788 714.308 476.516 714.028 L476.516 714.028 Z M304 405 C377 405 425 327 425 211 C431 96 381 20 301 20 C218 20 162 96 162 210 C165 327 222 405 304 405 L304 405 Z " />
<glyph glyph-name="seven" unicode="7" horiz-adv-x="442" d="M16.75 338.5 L18 344 C25 382 55 408 94 408 L298.614 408 C343.4 408 368.906 367.066 349.172 326.863 L142.032 -95.116 C131.116 -117.356 145.225 -140 170 -140 L179.59 -140 C200.736 -140 224.154 -127.721 230.915 -107.685 C300 97.0255 368.233 302.588 437.464 507.152 C438.306 509.64 430.113 493.426 428.5 495.5 C426.975 497.461 421.783 500 419.299 500 L60.104 500 C43.5025 500 28.7905 485.42 27.4508 468.873 C23.6573 422.017 20.1678 377.834 15.4463 336.834 C15.4085 336.506 16.6768 338.178 16.75 338.5 L16.75 338.5 Z " />
<glyph glyph-name="eight" unicode="8" horiz-adv-x="540" d="M375.304 370.792 C426.691 403.417 458 457.125 458 519 C458 607 383 665 270 665 C157 665 82 595 82 491 C82 434.9 112.628 380.161 163.216 339.137 C173.469 330.822 173.051 308.99 160.702 304.325 C94.7375 279.405 55 228.15 55 161 C55 61 142 -5 273 -5 C403 -5 490 68 490 178 C490 233.125 445.594 290.547 372.859 334.857 C361.219 341.949 363.797 363.487 375.304 370.792 L375.304 370.792 Z M321.939 361.942 C309.694 367.714 296.714 372.857 283 378 C208 405 158 464 158 526 C158 598 201 646 266 646 C337 646 384 589 384 504 C384 440.35 365.048 388.884 333.144 363.319 C329.935 360.748 325.658 360.188 321.939 361.942 L321.939 361.942 Z M141 177 C141 236.85 166.27 283.162 207.379 304.792 C210.145 306.247 217.532 306.246 220.358 304.911 C230.266 300.235 240.294 296.118 251 292 C345 258 407 200 407 148 C407 68 355 15 278 15 C196 15 141 80 141 177 L141 177 Z " />
<glyph glyph-name="nine" unicode="9" horiz-adv-x="570" d="M93.4837 -214.028 C344.591 -197.553 510 -31.925 510 205 C510 385 418 505 279 505 C135 505 43 417 50 284 C50 156 130 70 251 70 C308.75 70 356.291 97.225 387.445 144.375 C391.739 150.874 404.5 152.444 404.025 144.669 C392.049 -51.4397 270.595 -186.115 87.9428 -199.206 C83.9538 -199.492 73.234 -203.51 73.5 -207.5 C73.7847 -211.771 89.2125 -214.308 93.4837 -214.028 L93.4837 -214.028 Z M266 95 C193 95 145 173 145 289 C139 404 189 480 269 480 C352 480 408 404 408 290 C405 173 348 95 266 95 L266 95 Z " />
<glyph glyph-name="colon" unicode="&#x3a;" horiz-adv-x="250" d="M125 395 C164 395 190 421 190 460 C190 499 164 525 125 525 C86 525 60 499 60 460 C60 421 86 395 125 395 L125 395 Z M125 -5 C164 -5 190 21 190 60 C190 99 164 125 125 125 C86 125 60 99 60 60 C60 21 86 -5 125 -5 L125 -5 Z " />
<glyph glyph-name="semicolon" unicode="&#x3b;" horiz-adv-x="251" d="M125 395 C164 395 190 421 190 460 C190 499 164 525 125 525 C86 525 60 499 60 460 C60 421 86 395 125 395 L125 395 Z M125 125 C86 125 60 99 60 60 C60 21 86 -5 125 -5 C130 -5 135.694 -0.138889 141.505 6.68981 C143.049 8.50523 145.489 8.62905 145.889 6.27934 C155.808 -51.8812 127.137 -107.518 88.3705 -130.555 C85.5831 -132.211 82 -138.258 82 -141.5 C82 -145.276 83.9398 -148.069 87.2796 -146.306 C155.321 -110.399 200 -40.175 200 31 C200 78 174.5 125 124.5 125 L125 125 Z " />
<glyph glyph-name="less" unicode="&#x3c;" horiz-adv-x="540" d="M444.712 490.271 L50 301 L45 298.5 C42.5315 297.266 40 293.17 40 290.41 L40 259.59 C40 256.83 42.5315 252.734 45 251.5 L50 249 L444.712 59.7285 C454.809 54.8866 465 61.3016 465 72.5 C465 83.7504 454.809 99.7645 444.618 104.529 L189.125 223.981 C142.905 245.59 142.905 304.41 189.125 326.019 L444.618 445.471 C454.809 450.235 465 466.25 465 477.5 C465 488.698 454.809 495.113 444.712 490.271 L444.712 490.271 Z " />
<glyph glyph-name="equal" unicode="&#x3d;" horiz-adv-x="534" d="M84 200 C84 188.961 92.9606 180 104 180 L444 180 C455.039 180 464 188.961 464 200 C464 211.039 455.039 220 444 220 L104 220 C92.9606 220 84 211.039 84 200 L84 200 Z M84 300 C84 288.961 92.9606 280 104 280 L444 280 C455.039 280 464 288.961 464 300 C464 311.039 455.039 320 444 320 L104 320 C92.9606 320 84 311.039 84 300 L84 300 Z " />
<glyph glyph-name="greater" unicode="&#x3e;" horiz-adv-x="530" d="M490 275 L490 290.41 C490 293.17 487.468 297.266 485 298.5 L480 301 L95.1939 490.078 C85.1899 494.993 75 488.646 75 477.5 C75 466.298 85.1906 450.122 95.2944 445.285 L344.886 325.799 C390.51 303.958 390.51 246.042 344.886 224.201 L95.2944 104.715 C85.1906 99.8785 75 83.7019 75 72.5 C75 61.3653 85.7153 55.2794 95.7072 60.1929 C219.993 121.31 345.007 181.738 469.293 243.665 C478.593 248.299 490 264.609 490 275 L490 275 Z " />
<glyph glyph-name="question" unicode="&#x3f;" horiz-adv-x="371" d="M140 -5 C179 -5 205 21 205 60 C205 99 179 125 140 125 C101 125 75 99 75 60 C75 21 101 -5 140 -5 L140 -5 Z M121 665 C71 665 38 641 38 605 C38 582 54 566 77 566 C99 566 128 595 150 595 C249 595 315 532 315 437 C315 414 291 374 163 374 L128 374 C119 374 113 368 114 360 L133.232 210.951 C133.653 207.693 136.715 205 140 205 C143.284 205 146.35 207.693 146.773 210.95 L156.744 287.646 C157.979 297.145 166.921 305 176.5 305 L194 305 C313 305 336 383 336 427 C336 570 250 665 121 665 L121 665 Z " />
<glyph glyph-name="at" unicode="&#x40;" horiz-adv-x="1164" d="M1036.84 -10.5593 C967.136 -146.641 794 -236 599 -236 C315 -236 126 -38 126 259 C126 556 308 754 582 754 C856 754 1039 590 1039 343 C1039 142 966 8 857 8 C765 8 723 85 752 200 L811.692 438.769 C817.212 460.848 802.258 480 779.5 480 L775.685 480 C754.986 480 732.583 462.565 727.5 442.5 L724.718 431.517 C722.892 424.31 710.173 424.136 706.297 430.479 C683.649 467.539 641.45 490 587 490 C408 490 288 370 288 191 C288 81 359 8 466 8 C533.65 8 594.494 35.225 636.178 81.2523 C643.439 89.2702 664.554 87.6255 668.162 77.4275 C690.4 14.57 750.75 -23 840 -23 C1001 -23 1108 123 1108 343 C1108 605 897 779 581 779 C265 779 55 571 55 259 C55 -53 272 -261 598 -261 C803.725 -261 988.536 -162.135 1065.31 -11.6748 C1068.68 -5.06079 1063.93 0 1056.5 0 C1049.67 0 1039.96 -4.48397 1036.84 -10.5593 L1036.84 -10.5593 Z M703.318 349.274 L666 200 C645 114 583 57 511 57 C436 57 386 118 386 209 C386 363 465 465 584 465 C655.175 465 702.584 423.172 704.91 360.835 C704.956 359.606 703.617 350.467 703.318 349.274 L703.318 349.274 Z " />
<glyph glyph-name="A" unicode="A" horiz-adv-x="679" d="M426.141 198.545 L479.817 63.9656 C479.941 63.6554 481.549 58.8688 481.626 58.5439 C489.138 26.8631 472.1 4.95 437 3 L416.5 1.75 C415.811 1.70801 415.848 0.5 416.538 0.5 L654.895 0.5 C655.983 0.5 655.928 3.69845 654.877 3.98042 C626.126 11.6947 603.5 30.35 587 65 L339.773 663.447 C337.338 669.341 328.877 675 322.5 675 C316.003 675 307.98 669.347 305.793 663.229 L92 65 C76 30 42 5 5 2 L-1 1.25 C-1.41078 1.19865 -1.36728 0.5 -0.953307 0.5 L196.944 0.5 C197.634 0.5 197.687 1.68864 197 1.75 L183 3 C136 5 115 37 130 83 L168.92 196.018 C175.746 215.84 201.206 234 222.171 234 L373.829 234 C393.399 234 418.891 216.722 426.141 198.545 L426.141 198.545 Z M317.977 259 L269.013 259 C227.786 259 202.326 294.719 215.774 333.691 L239 401 C256.65 452.148 323.531 453.7 343.535 403.426 L370.306 336.141 C386.048 296.578 360.556 259 317.977 259 L317.977 259 Z " />
<glyph glyph-name="B" unicode="B" horiz-adv-x="630" d="M448.006 369.063 C514.843 395.801 555 443.775 555 504 C555 597 467 659 335 659 L45.5509 658.509 C45.1318 658.509 45.0847 657.807 45.5 657.75 L51 657 C89 654 115 626 115 587 L115 71 C115 32 89 4 51 1 L45.5 0.25 C45.0851 0.193425 45.1322 -0.508019 45.5509 -0.508673 L360 -1 C510 -1 610 72 610 182 C610 260.75 547.984 320.742 447.4 345.898 C439.076 347.98 440.039 365.876 448.006 369.063 L448.006 369.063 Z M215 408 L215 577.68 C215 608.767 240.233 634 271.32 634 L335 634 C407 634 455 582 455 504 C455 418 397 360 311 360 L263 360 C236.505 360 215 381.505 215 408 L215 408 Z M258.5 339 L302 339 C424 339 505 276 505 182 C505 87 443 24 350 24 L271.32 24 C240.233 24 215 49.233 215 80.32 L215 295.5 C215 319.511 234.489 339 258.5 339 L258.5 339 Z " />
<glyph glyph-name="C" unicode="C" horiz-adv-x="708" d="M640 169 C625 95 556 37 468 25 C444 22 420 20 397 20 C254 20 159 144 159 330 C159 516 254 640 397 640 C434 640 473 635 510 627 C574 612 625 559 639 491 C640.733 482.333 643.593 471.413 645.627 462.146 C645.747 461.599 646.515 462.539 646.517 463.099 L646.889 573.256 C646.953 591.947 634.203 613.453 617.086 620.964 C556.247 647.66 472.65 665 397 665 C188 665 49 531 49 330 C49 129 188 -5 397 -5 C483.775 -5 581.007 17.815 642.353 51.3958 C645.783 53.2735 645.47 56.6223 643.5 60 L643.38 60.2056 C643.26 60.4115 642.893 60.2132 643 60 C643.736 58.5289 645.983 59.0635 645.977 60.7082 L645.517 196.901 C645.515 197.462 644.785 198.405 644.676 197.854 C642.842 188.587 640.733 177.667 639 169 L640 169 Z " />
<glyph glyph-name="D" unicode="D" horiz-adv-x="725" d="M359 0 C549 0 675 132 675 330 C675 528 534 660 323 660 L45.5509 659.51 C45.1316 659.509 45.0845 658.807 45.5 658.75 L51 658 C89 655 115 627 115 588 L115 72 C115 33 89 5 51 2 L45.5 1.25 C45.0851 1.19342 45.1322 0.491956 45.5509 0.4913 L359 0 L359 0 Z M215 81.32 L215 581 C215 610.806 239.194 635 269 635 L323 635 C474 635 575 513 575 330 C575 147 489 25 359 25 L271.32 25 C240.233 25 215 50.233 215 81.32 L215 81.32 Z " />
<glyph glyph-name="E" unicode="E" horiz-adv-x="625" d="M516 12 C522.125 50.5 530.93 101.25 538.395 142.813 C538.689 144.452 535.81 144.069 535.25 142.5 L529 125 C508 65 454 25 394 25 L271.32 25 C240.233 25 215 50.233 215 81.32 L215 283.68 C215 314.767 240.233 340 271.32 340 L345 340 C396 340 435 311 442 268 L443.25 261.5 C443.38 260.822 444.5 260.929 444.5 261.619 L444.5 434.36 C444.5 435.05 443.403 435.173 443.25 434.5 L442 429 C435 391 396 365 345 365 L271.32 365 C240.233 365 215 390.233 215 421.32 L215 578.68 C215 609.767 240.233 635 271.32 635 L388 635 C448 635 495 595 505 535 L508.25 517.5 C508.583 515.707 511.55 515.975 511.556 517.799 L511.823 603.444 C511.921 634.661 486.661 659.973 455.444 659.94 L45.5509 659.506 C45.1337 659.505 45.0866 658.806 45.5 658.75 L51 658 C89 655 115 627 115 588 L115 72 C115 33 89 5 51 2 L45.5 1.25 C45.0866 1.19363 45.1337 0.494585 45.5509 0.494145 L507.917 0.00641641 C511.23 0.00292232 514.455 2.73267 515 6 L516 12 L516 12 Z " />
<glyph glyph-name="F" unicode="F" horiz-adv-x="540" d="M485.447 659.944 L45.5509 659.506 C45.1339 659.505 45.0868 658.806 45.5 658.75 L51 658 C89 655 115 627 115 588 L115 72 C115 33 89 5 51 2 L45.5 1.25 C45.0898 1.19407 45.1369 0.5 45.5509 0.5 L289.922 0.5 C290.612 0.5 290.685 1.66442 290 1.75 L280 3 C241 5 215 33 215 72 L215 278.68 C215 309.767 240.233 335 271.32 335 L335 335 C386 335 425 306 432 263 L433.25 256.5 C433.38 255.822 434.5 255.929 434.5 256.619 L434.5 429.36 C434.5 430.05 433.403 430.173 433.25 429.5 L432 424 C425 386 386 360 335 360 L271.32 360 C240.233 360 215 385.233 215 416.32 L215 578.68 C215 609.767 240.233 635 271.32 635 L418 635 C478 635 525 595 535 535 L538.25 517.5 C538.583 515.707 541.55 515.975 541.556 517.799 L541.823 603.448 C541.921 634.663 516.662 659.975 485.447 659.944 L485.447 659.944 Z " />
<glyph glyph-name="G" unicode="G" horiz-adv-x="804" d="M544 238 L544 69.6223 C544 55.1524 531.732 40.2115 517.696 36.6923 C475.553 26.1256 430.075 20 388 20 C251 20 160 144 160 330 C160 516 251 640 388 640 C421 640 457 636 492 628 C555 613 606 559 620 492 C621.733 483.333 624.593 472.413 626.627 463.146 C626.747 462.599 627.515 463.539 627.517 464.099 L627.889 574.256 C627.952 592.776 615.264 614.42 598.349 621.964 C538.492 648.66 458.55 666 388 666 C185 666 50 532 50 331 C50 130 185 -4 388 -4 C460.25 -4 542.615 13.34 603.775 40.6505 C620.586 48.1576 634 70.0122 634 88.4238 L634 239 C634 278 660 306 698 309 L703.5 309.75 C703.91 309.806 703.863 310.5 703.449 310.5 L474.551 310.5 C474.137 310.5 474.09 309.806 474.5 309.75 L480 309 C518 306 544 277.5 544 238.5 L544 238 Z " />
<glyph glyph-name="H" unicode="H" horiz-adv-x="780" d="M734.5 1.25 L729 2 C691 5 665 33 665 72 L665 588 C665 627 691 655 729 658 L734.5 658.75 C734.91 658.806 734.863 659.5 734.449 659.5 L495.551 659.5 C495.137 659.5 495.09 658.806 495.5 658.75 L501 658 C539 655 565 627 565 588 L565 416.32 C565 385.233 539.767 360 508.68 360 L271.32 360 C240.233 360 215 385.233 215 416.32 L215 588 C215 627 241 655 279 658 L284.5 658.75 C284.91 658.806 284.863 659.5 284.449 659.5 L45.5509 659.5 C45.1369 659.5 45.0898 658.806 45.5 658.75 L51 658 C89 655 115 627 115 588 L115 72 C115 33 89 5 51 2 L45.5 1.25 C45.0898 1.19407 45.1369 0.5 45.5509 0.5 L284.449 0.5 C284.863 0.5 284.91 1.19407 284.5 1.25 L279 2 C241 5 215 33 215 72 L215 278.68 C215 309.767 240.233 335 271.32 335 L508.68 335 C539.767 335 565 309.767 565 278.68 L565 72 C565 33 539 5 501 2 L495.5 1.25 C495.084 1.19325 495.131 0.489738 495.551 0.488898 L734.449 0.0111018 C734.857 0.010286 734.904 1.19489 734.5 1.25 L734.5 1.25 Z " />
<glyph glyph-name="I" unicode="I" horiz-adv-x="330" d="M284.5 1.25 L279 2 C241 5 215 33 215 72 L215 588 C215 627 241 655 279 658 L284.5 658.75 C284.91 658.806 284.863 659.5 284.449 659.5 L45.5509 659.5 C45.1369 659.5 45.0898 658.806 45.5 658.75 L51 658 C89 655 115 627 115 588 L115 72 C115 33 89 5 51 2 L45.5 1.25 C45.0838 1.19325 45.1308 0.489738 45.5509 0.488898 L284.449 0.0111018 C284.857 0.010286 284.904 1.19489 284.5 1.25 L284.5 1.25 Z " />
<glyph glyph-name="J" unicode="J" horiz-adv-x="400" d="M185 588 L185 200 C185 63 171 10 135 10 C111 10 91 26 85 50 C79 74 61 90 40 90 C10 90 -6 74 0 50 C9 14 53 -10 110 -10 C236 -10 285 72 285 284 L285 588 C285 627 311 655 349 658 L354.5 658.75 C354.91 658.806 354.863 659.5 354.449 659.5 L115.551 659.5 C115.137 659.5 115.09 658.806 115.5 658.75 L121 658 C159 655 185 627 185 588 L185 588 Z " />
<glyph glyph-name="K" unicode="K" horiz-adv-x="670" d="M660 5 C660 9.64136 653.484 15.1554 648.902 15.894 C602.879 23.3119 550.825 77.725 450 210 C389.65 289.9 341.582 353.183 313.167 390.636 C306.331 399.646 306.565 414.714 314.472 422.801 L476 588 C515 627 566 655 605 658 L612.5 658.75 C612.912 658.791 612.877 659.5 612.463 659.5 L440.056 659.5 C439.642 659.5 439.591 658.811 440 658.75 L445 658 C477 655 479 631 450 597 L286 426 C286 426 234.97 372.54 220.39 357.474 C219.231 356.276 217 356.576 217 358.243 L217 587 C217 626 243 654 281 657 L286.5 657.75 C286.91 657.806 286.863 658.5 286.449 658.5 L47.5509 658.5 C47.1369 658.5 47.0898 657.806 47.5 657.75 L53 657 C91 654 117 626 117 587 L117 71 C117 32 91 4 53 1 L47.5 0.25 C47.0898 0.194066 47.1369 -0.5 47.5509 -0.5 L286.449 -0.5 C286.863 -0.5 286.91 0.194066 286.5 0.25 L281 1 C243 4 217 32 217 71 L217 311.101 C217 314.964 221.268 325.268 224 328 C227.817 331.817 233.668 331.443 236.917 327.132 C263.346 292.071 315.4 223.875 382 136 C460 33 529 -7 627 -7 L650.018 -5.60495 C655.518 -5.27165 660 -0.509591 660 5 L660 5 Z " />
<glyph glyph-name="L" unicode="L" horiz-adv-x="625" d="M516 12 C523.8 56.85 534.452 116.91 542.394 163.447 C542.511 164.129 542.576 170.813 542.5 171.5 C542.388 172.507 540.939 172.649 540.633 171.684 L523 116 C505 62 458 26 404 26 L271.32 26 C240.233 26 215 51.233 215 82.32 L215 589 C215 628 241 656 279 659 L284.5 659.75 C284.91 659.806 284.863 660.5 284.449 660.5 L45.5509 660.5 C45.1369 660.5 45.0898 659.806 45.5 659.75 L51 659 C89 656 115 628 115 589 L115 73 C115 34 89 6 51 3 L45.5 2.25 C45.0866 2.19363 45.1337 1.49458 45.5509 1.49414 L508.41 1.0059 C511.446 1.00269 514.457 3.51256 515 6.5 L516 12 L516 12 Z " />
<glyph glyph-name="M" unicode="M" horiz-adv-x="870" d="M782 72 L758 595 C759 630 783 655 819 658 L824.5 658.75 C824.919 658.807 824.872 659.516 824.449 659.517 L703.385 659.884 C683.665 659.943 658.123 642.648 650.857 624.315 L498.946 241.022 C479.411 191.731 416.085 190.69 394.941 239.313 L226.777 626.018 C219.287 643.244 193.728 659.94 174.944 659.878 L65.5509 659.518 C65.1269 659.517 65.0799 658.807 65.5 658.75 L71 658 C109 655 132 626 132 587 L112 63 C108 28 82 4 46 1 L40.5 0.25 C40.0898 0.194066 40.1369 -0.5 40.5509 -0.5 L234.948 -0.5 C235.638 -0.5 235.688 0.692702 235 0.75 L220 2 C175 4 145 34 143 78 L156.323 435.376 C157.224 459.546 192.584 461.634 202.52 439.581 C261.222 309.29 319.833 179.341 377.971 48.972 C388.249 25.9252 416.264 31.2664 425.5 54.75 C425.5 54.75 425.5 54.75 425.5 54.75 L406.575 6.63262 C404.225 0.657309 408.079 -5 414.5 -5 C420.885 -5 429.318 0.658903 431.738 6.56745 L569.549 343.058 C591.475 396.592 673.2 381.822 675 324 L683 67 C682 31 658 5 622 2 L616.5 1.25 C616.09 1.19407 616.137 0.5 616.551 0.5 L855.449 0.5 C855.863 0.5 855.91 1.19407 855.5 1.25 L850 2 C812 5 785 33.5 782 72.5 L782 72 Z " />
<glyph glyph-name="N" unicode="N" horiz-adv-x="716" d="M571 588 L571 320.357 C571 263.937 501.485 241.738 468.785 287.714 L220.903 636.234 C213.284 646.947 187.983 659.951 174.836 659.911 L45.5509 659.517 C45.1276 659.516 45.0806 658.807 45.5 658.75 L51 658 C89 655 115 627 115 588 L115 72 C115 33 89 5 51 2 L45.5 1.25 C45.0898 1.19407 45.1369 0.5 45.5509 0.5 L214.449 0.5 C214.863 0.5 214.91 1.19407 214.5 1.25 L209 2 C171 5 145 33 145 72 L145 395.545 C145 451.911 214.312 474.16 247.118 428.324 L558.397 -6.58261 C562.707 -12.605 577.094 -20 584.5 -20 C593.608 -20 601 -12.6075 601 -3.5 L601 588 C601 627 627 655 665 658 L670.5 658.75 C670.91 658.806 670.863 659.5 670.449 659.5 L501.551 659.5 C501.137 659.5 501.09 658.806 501.5 658.75 L507 658 C545 655 571 627 571 588 L571 588 Z M145 619 L145 619 L145 619 Z " />
<glyph glyph-name="O" unicode="O" horiz-adv-x="760" d="M160 330 C160 497 235 640 380 640 C525 640 600 497 600 330 C600 163 525 20 380 20 C235 20 160 163 160 330 L160 330 Z M50 330 C50 149 162 -5 380 -5 C598 -5 710 149 710 330 C710 511 598 665 380 665 C162 665 50 511 50 330 L50 330 Z " />
<glyph glyph-name="P" unicode="P" horiz-adv-x="594" d="M284.5 1.25 L279 2 C241 5 215 33 215 72 L215 244 C215 272.15 237.85 295 266 295 L317 295 C471 295 574 368 574 478 C574 587 481 660 342 660 L45.5509 659.509 C45.1319 659.508 45.0848 658.807 45.5 658.75 L51 658 C89 655 115 627 115 588 L115 72 C115 33 89 5 51 2 L45.5 1.25 C45.0838 1.19325 45.1308 0.489738 45.5509 0.488898 L284.449 0.0111018 C284.857 0.010286 284.904 1.19489 284.5 1.25 L284.5 1.25 Z M215 371 L215 578.68 C215 609.767 240.233 635 271.32 635 L342 635 C418 635 469 572 469 478 C469 383 408 320 317 320 L266 320 C237.85 320 215 342.85 215 371 L215 371 Z " />
<glyph glyph-name="Q" unicode="Q" horiz-adv-x="760" d="M798.5 -48 C796.61 -46.3197 792.276 -45.9903 790.244 -47.4971 C771.443 -61.4438 711.85 -70 636 -70 C535.7 -70 464.3 -51.9375 415.045 -21.9537 C405.119 -15.9119 410.311 -4.28051 421.877 -3.16262 C612.53 15.265 710 160.9 710 330 C710 511 598 665 380 665 C162 665 50 511 50 330 C50 160.35 147.914 14.4656 339.109 -3.84487 C345.273 -4.43525 361.934 -12.4794 366.517 -16.6444 C446.21 -89.07 533.8 -136 625 -136 C688.375 -136 757.454 -104.154 799.796 -56.2188 C802.052 -53.6654 801.046 -50.2635 798.5 -48 L798.5 -48 Z M160 329 C160 496 235 639 380 639 C525 639 600 496 600 329 C600 162 525 19 380 19 C235 19 160 162 160 329 L160 329 Z " />
<glyph glyph-name="R" unicode="R" horiz-adv-x="666" d="M666 10 C666 15.3788 660.488 19.9567 655.111 20.094 C625.51 20.85 621.1 27.6 577 87 C501.75 191.125 443.344 269.219 413.17 309.223 C407.177 317.168 413.708 326.838 423.207 329.81 C507.807 356.274 560 414.225 560 491 C560 593 470 661 335 661 L45.5509 660.509 C45.1318 660.509 45.0847 659.807 45.5 659.75 L51 659 C89 656 115 628 115 589 L115 73 C115 34 89 6 51 3 L45.5 2.25 C45.0898 2.19407 45.1369 1.5 45.5509 1.5 L284.449 1.5 C284.863 1.5 284.91 2.19407 284.5 2.25 L279 3 C241 6 215 34 215 73 L215 278 C215 298.423 231.577 315 252 315 L266.098 315 C276.314 315 296.915 304.154 302.935 295.9 C332.56 255.283 380.5 189.45 440 107 C514 5 521 1 631 1 L656.004 0.285598 C661.519 0.128021 666 4.48255 666 10 L666 10 Z M311 340 L263 340 C236.505 340 215 361.505 215 388 L215 579.68 C215 610.767 240.233 636 271.32 636 L335 636 C407 636 455 578 455 491 C455 400 397 340 311 340 L311 340 Z " />
<glyph glyph-name="S" unicode="S" horiz-adv-x="511" d="M339 620 C374 604 401 569 409 530 C412.355 513.226 417.468 490.824 421.39 472.235 C421.622 471.138 423.529 471.078 423.533 472.198 L423.91 589.782 C423.96 605.375 414.87 623.413 400.718 629.959 C354.637 651.272 297.9 665 252 665 C127 665 43 586 43 468 C43 393 111 323 212 291 C321 257 394 196 394 140 C394 68 338 20 254 20 C227 20 198 24 169 31 C109 49 62 101 49 166 C47.2667 174.667 44.4067 185.587 42.3729 194.854 C42.2529 195.401 41.4855 194.461 41.4837 193.901 L41.0904 71.2178 C41.0381 54.8762 50.3067 37.4444 65.3416 31.0412 C115.387 9.7275 187 -4 255 -4 C382 -4 466 70 466 182 C466 262 396 337 291 370 C184 403 113 459 113 509 C113 588 167 641 248 641 C272 641 305 633.5 339 620.5 L339 620 Z " />
<glyph glyph-name="T" unicode="T" horiz-adv-x="620" d="M605 648 L604.5 654 C604.225 657.3 601.291 660 597.979 660 L22.0208 660 C18.709 660 15.775 657.3 15.5 654 L15 648 C13.15 648 4.02719 518.801 1.87772 489.923 C1.83475 489.346 2.89047 490.261 3.03839 490.821 L20 555 C32 603 72 635 120 635 L203.68 635 C234.767 635 260 609.767 260 578.68 L260 72 C260 33 234 5 196 2 L190.5 1.25 C190.09 1.19407 190.137 0.5 190.551 0.5 L429.449 0.5 C429.863 0.5 429.91 1.19407 429.5 1.25 L424 2 C386 5 360 33 360 72 L360 578.68 C360 609.767 385.233 635 416.32 635 L500 635 C548 635 588 603 600 555 L612.219 508.766 C612.829 506.457 616.755 506.255 616.558 508.635 C612.843 553.621 608.385 606.538 605 648 L605 648 Z " />
<glyph glyph-name="U" unicode="U" horiz-adv-x="680" d="M105 588 L105 215 C105 83 172 -5 345 -5 C511 -5 575 71 575 185 L575 578 C575 623 604 655 647 658 L653.5 658.75 C653.911 658.797 653.871 659.5 653.457 659.5 L462.537 659.5 C462.123 659.5 462.088 658.791 462.5 658.75 L470 658 C515 655 545 623 545 578 L545 195 C545 96 493 30 360 30 C248 30 205 96 205 196 L205 588 C205 627 231 655 269 658 L274.5 658.75 C274.91 658.806 274.863 659.5 274.449 659.5 L35.5509 659.5 C35.1369 659.5 35.0898 658.806 35.5 658.75 L41 658 C79 655 105 627 105 588 L105 588 Z " />
<glyph glyph-name="V" unicode="V" horiz-adv-x="716" d="M541 568 L437.04 259.539 C419.624 207.866 352.415 205.634 331.61 256.038 L195 587 C180 625 194 654 233 656 L249 657.25 C249.688 657.304 249.641 658.5 248.951 658.5 L15.105 658.5 C14.019 658.5 14.0785 655.159 15.1231 654.863 C43.8744 646.697 66.5 626.825 83 593 L339.069 -3.51362 C341.57 -9.33964 350.16 -15 356.5 -15 C363.02 -15 370.955 -9.34906 373.087 -3.18698 L579 592 C594 629 628 655 666 658 L672 658.75 C672.411 658.801 672.367 659.5 671.953 659.5 L464.524 659.5 C464.11 659.5 464.087 658.777 464.5 658.75 L476 658 C530 655 554.5 619.5 541.5 567.5 L541 568 Z " />
<glyph glyph-name="W" unicode="W" horiz-adv-x="991" d="M856 594 L680.525 -3.0073 C678.658 -9.35826 682.88 -15 689.5 -15 C696.106 -15 703.702 -9.35679 705.61 -3.03258 L885.288 592.638 C885.346 592.833 887.003 597.419 887.084 597.606 C901.603 631.236 932.925 655.075 969 658 L975 658.75 C975.411 658.801 975.367 659.5 974.953 659.5 L790.041 659.5 C789.351 659.5 789.312 658.295 790 658.25 L809 657 C846 655 865 630 856 594 L856 594 Z M699.5 62 L716.827 121.298 C718.516 127.077 717.757 150.674 715.7 156.333 L533.27 658.252 C531.055 664.346 522.985 670 516.5 670 C509.895 670 502.295 664.357 500.384 658.034 L300.616 -3.03441 C298.705 -9.35669 302.895 -15 309.5 -15 C316.104 -15 323.708 -9.3566 325.621 -3.03604 L431.957 348.276 C448.106 401.63 518.872 404 538.554 351.846 L648.675 60.0531 C658.077 35.1419 692.032 36.4426 699.5 62 L699.5 62 Z M79 594 L271.676 55.7455 C279.955 32.6158 311.471 33.4602 318.5 57 L334.944 112.07 C336.538 117.408 336.219 140.492 334.478 145.784 L189 588 C177 627 193 656 232 658 L243.5 659.25 C244.186 659.325 244.122 660.5 243.432 660.5 L14.105 660.5 C13.0197 660.5 13.0645 657.123 14.107 656.822 C42.7825 648.537 64.975 628.325 79 594.5 L79 594 Z " />
<glyph glyph-name="X" unicode="X" horiz-adv-x="664" d="M554.5 72 L384.507 345.251 C375.344 359.981 375.343 390.02 384.506 404.75 L498.5 588 C522.5 627 565 655 604 658 L610.5 658.75 C610.911 658.797 610.871 659.5 610.457 659.5 L414.538 659.5 C413.848 659.5 413.811 658.292 414.5 658.25 L435 657 C471 655 483 631 466 596 L397.362 479.434 C374.235 440.157 324.888 439.628 300.923 478.4 L228.686 595.272 C228.525 595.533 225.974 600.248 225.851 600.529 C211.565 633.137 222.875 655.05 257 657 L272.5 658.25 C273.188 658.305 273.14 659.5 272.45 659.5 L38.6078 659.5 C37.5246 659.5 38.0511 655.918 39.0874 655.603 C68.5259 646.647 95.225 624.3 117.5 588 C169.192 504 222.163 420 274.052 336 C283.093 321.363 277.751 300.067 268.692 285.44 L136.5 72 C112.5 33 70 5 31 2 L24.5 1.25 C24.0888 1.20255 24.1291 0.5 24.5431 0.5 L225.94 0.5 C226.63 0.5 226.687 1.68396 226 1.75 L213 3 C165 5 152 39 181 87 L255.535 211.632 C278.813 250.556 327.835 250.95 351.735 212.406 L443.288 64.7604 C443.454 64.494 446.024 59.7579 446.149 59.4708 C460.435 26.8631 449.125 4.95 415 3 L399.5 1.75 C398.812 1.69454 398.86 0.5 399.55 0.5 L633.392 0.5 C634.475 0.5 633.989 4.08054 632.953 4.39692 C603.634 13.3528 577.275 35.7 555 72 L554.5 72 Z " />
<glyph glyph-name="Y" unicode="Y" horiz-adv-x="645" d="M631.909 659.5 L460.527 659.5 C460.113 659.5 460.087 658.779 460.5 658.75 L471 658 C516.825 655.075 532.23 626.483 512.581 584.274 C512.491 584.081 509.793 579.044 509.681 578.862 L408.162 414.308 C383.936 375.04 333.775 376.049 311.147 416.258 L210 596 C194 631 207 655 243 657 L253.5 658.25 C254.185 658.332 254.116 659.5 253.426 659.5 L18.6682 659.5 C17.3144 659.5 17.7456 655.655 19.0361 655.246 C48.305 645.967 74.375 624.3 95 588 L264.55 292.006 C266.594 288.437 272 268.124 272 264.012 L272 72 C272 33 246 5 208 2 L202.5 1.25 C202.09 1.19407 202.137 0.5 202.551 0.5 L441.449 0.5 C441.863 0.5 441.91 1.19407 441.5 1.25 L436 2 C398 5 372 33 372 72 L372 298.818 C372 303.559 378.033 324.631 380.55 328.65 C434.702 415.1 488.9 501.55 544 588 C567.1 624.3 596.666 645.967 631.013 654.684 C632.069 654.952 632.998 659.5 631.909 659.5 L631.909 659.5 Z " />
<glyph glyph-name="Z" unicode="Z" horiz-adv-x="593" d="M507 13 C514.8 57.85 525.452 117.91 533.394 164.447 C533.511 165.129 533.576 171.813 533.5 172.5 C533.388 173.507 531.939 173.649 531.633 172.684 L514 117 C496 63 449 27 395 27 L264.144 27 C217.611 27 192.147 70.9214 215.269 111.304 L481.731 576.696 C504.853 617.079 479.389 661 432.856 661 L102.185 661 C98.8728 661 95.3032 658.213 94.5 655 L93 649 C83.4103 614.128 71.9204 569.376 61.8435 531.971 C61.2953 529.936 65.6658 532.75 66.5894 534.645 L77 556 C100 604 147 636 195 636 L305.064 636 C351.547 636 377.013 592.169 353.992 551.787 L88.0079 85.2127 C64.987 44.8308 90.4529 1 136.936 1 L497.815 1 C501.127 1 504.697 3.78706 505.5 7 L507 13 L507 13 Z " />
<glyph glyph-name="bracketleft" unicode="&#x5b;" horiz-adv-x="255" d="M192.5 640 L235 640 C240.52 640 245 644.48 245 650 C245 655.52 240.52 660 235 660 L126.32 660 C95.233 660 70 634.767 70 603.68 L70 -63.68 C70 -94.767 95.233 -120 126.32 -120 L235 -120 C240.52 -120 245 -115.52 245 -110 C245 -104.48 240.52 -100 235 -100 L192.5 -100 C163.522 -100 140 -76.4784 140 -47.5 L140 587.5 C140 616.478 163.522 640 192.5 640 L192.5 640 Z " />
<glyph glyph-name="backslash" unicode="&#x5c;" horiz-adv-x="252" d="M236.5 -145 C244.628 -145 249.698 -137.996 247.161 -130.275 L-24.1605 695.275 C-26.6982 702.996 -36.3722 710 -44.5 710 C-52.6278 710 -57.6982 702.996 -55.1605 695.275 L216.161 -130.275 C218.698 -137.996 228.372 -145 236.5 -145 L236.5 -145 Z " />
<glyph glyph-name="bracketright" unicode="&#x5d;" horiz-adv-x="250" d="M110 587.5 L110 -47.5 C110 -76.4784 86.4784 -100 57.5 -100 L15 -100 C9.4803 -100 5 -104.48 5 -110 C5 -115.52 9.4803 -120 15 -120 L123.68 -120 C154.767 -120 180 -94.767 180 -63.68 L180 603.68 C180 634.767 154.767 660 123.68 660 L15 660 C9.4803 660 5 655.52 5 650 C5 644.48 9.4803 640 15 640 L57.5 640 C86.4784 640 110 616.478 110 587.5 L110 587.5 Z " />
<glyph glyph-name="asciicircum" unicode="&#x5e;" horiz-adv-x="340" d="M199 719 C195 727 184 745 170 745 C155 745 145 728 141 720 C141 720 49 541 49 540 L54 536 C56.7555 533.796 60.5122 533.78 62.8006 536.466 C104.338 585.225 136.994 621.766 159.644 647.213 C165.962 654.311 177.82 652.175 184.043 644.995 C225.11 597.61 281 532 281 532 C281 532 283.154 533.723 286 536 C288.717 538.173 292.592 537.099 290.918 540.149 C288.797 544.012 245.8 622.475 199 719 L199 719 Z M141 691 L141 691 L141 691 Z " />
<glyph glyph-name="underscore" unicode="&#x5f;" horiz-adv-x="455" d="M5 -75 C5 -88.7993 16.2007 -100 30 -100 L425 -100 C438.799 -100 450 -88.7993 450 -75 C450 -61.2007 438.799 -50 425 -50 L30 -50 C16.2007 -50 5 -61.2007 5 -75 L5 -75 Z " />
<glyph glyph-name="grave" unicode="&#x60;" horiz-adv-x="340" d="M87 706 C87 700 103 681 126 656 C158 616 242 530 242 530 C242 530 243.989 531.447 247.5 534 C250.505 536.185 254.623 534.92 252.891 538.207 C250.072 543.556 193.425 651.05 171 692 C152 722 142 744 138 744 C123 744 87 717 87 706 L87 706 Z " />
<glyph glyph-name="a" unicode="a" horiz-adv-x="500" d="M472.468 44.1561 C463.146 37.0945 450.826 33 431 33 C400 33 391 59 391 97 L391 355 C391 445 337 505 257 505 C165.2 505 93.63 473.21 66.2409 423.141 C55.3992 403.321 67.0432 395 89.6341 395 L120.014 395 C130.732 395 149.421 410.231 153.548 420.122 C168.876 456.859 199.875 480 237 480 C273 480 297 438 297 375 L297 274.142 C297 266.445 290.967 259.145 283.351 258.03 C258.512 254.396 231.211 250.053 211 245 C106 219 36 162 36 104 C36 39 83 -5 153 -5 C197.1 -5 245.25 12.01 286.515 40.927 C292.983 45.4599 302.144 40.3329 304.842 32.9095 C314.385 6.65437 333.525 -9 369 -9 C421.725 -9 455.626 7.25688 482.576 31.8561 C485.891 34.8823 486.674 40.3259 483.5 43.5 L483 44 C480.617 46.3825 475.154 46.1905 472.468 44.1561 L472.468 44.1561 Z M297 224.742 L297 88 L297 82 C297 78.8268 293.508 74.3934 290.584 73.1606 C263.744 61.845 231.3 55 198 55 C154 55 124 85 124 129 C124 169 158 204 210 217 C236.231 223.769 262.82 229.822 284.92 234.554 C291.426 235.947 297 231.396 297 224.742 L297 224.742 Z " />
<glyph glyph-name="b" unicode="b" horiz-adv-x="601" d="M305 -5 C450 -5 546 97 546 250 C546 403 466 505 347 505 C299.4 505 246.02 493.44 205.284 475.233 C195.324 470.782 185 478.278 185 489.187 L185 711 C185 715.968 180.968 720 176 720 L175.338 720 C174.004 720 160.296 717.971 159.02 717.584 L25.2695 677.095 C24.3012 676.802 24.4894 675.296 25.5 675.25 L31 675 C85 676 95 666 95 611 L95 5 C95 2.24015 97.2402 0 100 0 C101.877 0 106.808 3.12865 107.917 4.64365 C118.526 19.1445 140.531 29 165 29 C207 29 250 -5 305 -5 L305 -5 Z M305 20 C233 20 185 76 185 160 L185 440.821 C185 446.5 188.225 451.881 193.557 453.837 C212.167 460.665 244 465 278 465 C382 465 451 363 451 210 C451 96 393 20 305 20 L305 20 Z " />
<glyph glyph-name="c" unicode="c" horiz-adv-x="504" d="M449 69 C447.151 71.3107 441.586 71.4051 439.023 69.926 C418.53 58.1 375.6 50 327 50 C218 50 145 136 145 266 C145 394 204 480 292 480 C334 480 365 450 369 404 C371 378 389 360 414 360 C437.226 360 452.959 374.984 453.95 397.703 C453.973 398.22 453.521 404.172 453.449 404.685 C444.984 465.074 385.85 505 302 505 C151 505 50 395 50 231 C50 89 131 -5 252 -5 C321.225 -5 399.956 21.6175 449.266 60.9496 C452.094 63.2058 451.26 66.1747 449 69 L449 69 Z " />
<glyph glyph-name="d" unicode="d" horiz-adv-x="606" d="M487 720 L486.338 720 C485.004 720 471.296 717.971 470.02 717.584 L336.27 677.095 C335.301 676.802 335.489 675.296 336.5 675.25 L342 675 C396 676 406 666 406 611 L406 477.225 C406 469.179 395.035 465.649 388.498 470.339 C359.158 491.387 321.6 505 282 505 C145 505 54 391 54 221 C54 85 132 -5 248 -5 C294.75 -5 345.113 10.895 384.348 37.1579 C392.908 42.8869 404 36.2994 404 26 L404 9 C404 4.03227 408.032 0 413 0 L413.662 0 C414.996 0 428.704 2.02942 429.98 2.41576 L563.73 42.9048 C564.699 43.1979 564.511 44.7041 563.5 44.75 L558 45 C504 44 494 54 494 109 L495.971 711 C495.987 715.968 491.968 720 487 720 L487 720 Z M394.781 61.7768 C374.498 54.335 338.5 50 296 50 C206 50 146 132 146 256 C146 390 198 480 277 480 C324.25 480 366.906 458.563 393.58 429.086 C398.972 423.127 404 406.399 404 398.362 L404 75.8615 C404 69.6225 400.638 63.9257 394.781 61.7768 L394.781 61.7768 Z " />
<glyph glyph-name="e" unicode="e" horiz-adv-x="510" d="M455 69 C453.166 71.2921 447.518 71.3754 444.966 69.926 C424.14 58.1 379.5 50 330 50 C218 50 148.875 135.75 144.732 259.686 C143.659 291.793 165.283 315 197.409 315 L402.68 315 C441.182 315 461.67 333.764 452.486 371.155 C432.317 453.272 366.75 505 276 505 C140 505 49 395 49 231 C49 89 131 -5 254 -5 C325.175 -5 405.381 21.6175 454.763 60.9496 C457.595 63.2054 457.262 66.1727 455 69 L455 69 Z M333 345 L194.507 335.215 C167.308 333.293 151.181 350.142 159.562 376.089 C180.271 440.204 219.85 479 271 479 C333 479 375 443 375 390 C375 364 358.5 346.5 333.5 344.5 L333 345 Z " />
<glyph glyph-name="f" unicode="f" horiz-adv-x="455" d="M279.5 1.25 L274 2 C236 5 210 33 210 72 L210 408.68 C210 439.767 235.233 465 266.32 465 L327.5 465 C337.159 465 345 472.841 345 482.5 C345 492.159 337.159 500 327.5 500 L226.5 500 C217.392 500 210 507.392 210 516.5 L210 533 C210 633 281 700 311 700 C341 700 363 684 365 660 C367 636 385 620 410 620 C434 620 450 636 450 660 C447 696 401 720 336 720 C209 720 125 653 125 553 C122 553 120 500 120 500 C120 500 108.682 500 93.4811 500 L62.5 500 C52.8405 500 45 492.159 45 482.5 C45 472.841 52.8405 465 62.5 465 L82.5 465 C103.199 465 120 448.199 120 427.5 L120 72 C120 33 94 5 56 2 L50.5 1.25 C50.0836 1.19321 50.1306 0.489311 50.5509 0.488436 L279.449 0.0115644 C279.857 0.0107151 279.904 1.19492 279.5 1.25 L279.5 1.25 Z " />
<glyph glyph-name="g" unicode="g" horiz-adv-x="474" d="M449.684 496.316 C417.165 491.502 384.315 487.018 351.876 482.124 C347.935 481.53 326.31 486.129 322.668 487.746 C297.597 498.874 268 505 235 505 C130 505 60 442 60 348 C60 291.075 85.1831 245.721 127.688 218.675 C133.648 214.883 134.892 200.508 128.087 198.612 C76.79 184.318 45 147.3 45 98 C45 58.4 70.8637 27.6481 113.607 10.798 C121.082 7.85123 123.473 -5.4141 116.182 -8.78906 C56.75 -36.2969 20 -79.5 20 -125 C20 -195 82 -241 174 -241 C342 -241 454 -159 454 -36 C454 37 382 85 275 85 C258 85 190 82 190 82 C139 82 105 102 105 133 C105 167 135 190 180 190 L235 190 C341 190 411 253 411 348 C411 380.175 402.832 408.947 387.621 432.631 C383.881 438.454 387.101 447.417 394.015 447.702 L449.521 449.991 C463.021 450.547 474 461.988 474 475.5 L474 477.229 C474 489.571 461.892 498.123 449.684 496.316 L449.684 496.316 Z M235 211 C181 211 145 266 145 349 C145 431 181 486 235 486 C290 486 326 431 326 349 C326 266 290 211 235 211 L235 211 Z M178.201 -2.0245 C199.345 -3.10592 221.514 -1 250 -1 C333 -1 389 -33 389 -81 C389 -162 307 -216 184 -216 C122 -216 80 -175 80 -114 C80 -66.825 109.091 -25.2116 154.611 -5.7802 C157.514 -4.54082 175.048 -1.86326 178.201 -2.0245 L178.201 -2.0245 Z " />
<glyph glyph-name="h" unicode="h" horiz-adv-x="631" d="M426 69 C425 31 399 4 362 1 L356.5 0.25 C356.09 0.194066 356.137 -0.5 356.551 -0.5 L585.449 -0.5 C585.863 -0.5 585.91 0.194066 585.5 0.25 L580 1 C542 4 516 32 516 71 L516 336 C516 437 483 504 399 504 C364.35 504 307.92 486.304 248.24 458.211 C230.573 449.895 210 460.856 210 480.382 L210 710 C210 714.968 205.968 719 201 719 L200.338 719 C199.004 719 185.296 716.971 184.02 716.584 L50.2695 676.095 C49.3012 675.802 49.4894 674.296 50.5 674.25 L56 674 C110 675 120 665 120 610 L120 71 C120 32 94 4 56 1 L50.5 0.25 C50.0898 0.194066 50.1369 -0.5 50.5509 -0.5 L279.449 -0.5 C279.863 -0.5 279.91 0.194066 279.5 0.25 L274 1 C236 4 210 32 210 71 L210 414.243 C210 422.281 215.202 429.858 222.993 431.837 C249.867 438.665 289.35 443 331 443 C399 443 426 396 426 326 C426 326 426.5 222 426.5 68 L426 69 Z " />
<glyph glyph-name="i" unicode="i" horiz-adv-x="330" d="M160 570 C196 570 220 594 220 630 C220 666 196 690 160 690 C124 690 100 666 100 630 C100 594 124 570 160 570 L160 570 Z M279.5 1.25 L274 2 C236 5 210 33 210 72 L210 491 C210 495.968 205.968 500 201 500 L200.338 500 C199.004 500 185.296 497.971 184.02 497.584 L50.2695 457.095 C49.3012 456.802 49.4894 455.296 50.5 455.25 L56 455 C110 456 120 446 120 391 L120 72 C120 33 94 5 56 2 L50.5 1.25 C50.0836 1.19321 50.1306 0.489311 50.5509 0.488436 L279.449 0.0115644 C279.857 0.0107151 279.904 1.19492 279.5 1.25 L279.5 1.25 Z " />
<glyph glyph-name="j" unicode="j" horiz-adv-x="330" d="M160 570 C196 570 220 594 220 630 C220 666 196 690 160 690 C124 690 100 666 100 630 C100 594 124 570 160 570 L160 570 Z M120 395 C120 259 120 2 119 3 C119 -126.675 93.3331 -170.794 16.0473 -220.188 C12.735 -222.305 11.8195 -226.729 14 -230 C16.2208 -233.331 25.3054 -231.45 28.6939 -229.318 C165.37 -143.308 211 -90 211 27 C210 29 210 477 210 477 L210 491 C210 495.968 205.968 500 201 500 L200.338 500 C199.004 500 185.296 497.971 184.02 497.584 L50.2695 457.095 C49.3012 456.802 49.4894 455.296 50.5 455.25 L56 455 C109 456 120 447 120 395 L120 395 Z " />
<glyph glyph-name="k" unicode="k" horiz-adv-x="568" d="M478 72 L315.336 284.134 C298.109 306.601 301.066 340.695 321.905 359.859 L396 428 C439 467 493 496 532 498 L540 498.75 C540.412 498.789 540.379 499.5 539.965 499.5 L364.056 499.5 C363.642 499.5 363.591 498.811 364 498.75 L369 498 C404 495 401 467 362 428 L285.5 351.5 C255.642 321.642 209 340.962 209 383.187 L209 711 C209 715.968 204.968 720 200 720 L199.338 720 C198.004 720 184.296 717.971 183.02 717.584 L49.2695 677.095 C48.3012 676.802 48.4894 675.296 49.5 675.25 L55 675 C109 676 119 666 119 611 L119 72 C119 33 93 5 55 2 L49.5 1.25 C49.0898 1.19407 49.1369 0.5 49.5509 0.5 L278.449 0.5 C278.863 0.5 278.91 1.19407 278.5 1.25 L273 2 C235 5 209 33 209 72 L209 252.757 C209 254.413 210.829 258.829 212 260 C213.644 261.644 216.184 261.492 217.62 259.663 L372 63 C395 29 389 5 356 2 L351 1.25 C350.591 1.18859 350.642 0.5 351.056 0.5 L599.96 0.5 C600.374 0.5 600.412 1.2059 600 1.25 L593 2 C554 5 508 33 478 72 L478 72 Z " />
<glyph glyph-name="l" unicode="l" horiz-adv-x="330" d="M279.5 1.25 L274 2 C236 5 210 33 210 72 L210 711 C210 715.968 205.968 720 201 720 L200.338 720 C199.004 720 185.296 717.971 184.02 717.584 L50.2695 677.095 C49.3012 676.802 49.4894 675.296 50.5 675.25 L56 675 C110 676 120 666 120 611 L120 72 C120 33 94 5 56 2 L50.5 1.25 C50.0836 1.19321 50.1306 0.489311 50.5509 0.488436 L279.449 0.0115644 C279.857 0.0107151 279.904 1.19492 279.5 1.25 L279.5 1.25 Z " />
<glyph glyph-name="m" unicode="m" horiz-adv-x="956" d="M751 69 C750 31 724 4 687 1 L681.5 0.25 C681.09 0.194066 681.137 -0.5 681.551 -0.5 L910.449 -0.5 C910.863 -0.5 910.91 0.194066 910.5 0.25 L905 1 C867 4 841 32 841 71 L841 336 C841 437 788 504 717 504 C681 504 613.41 478.08 536.1 437.904 C525.242 432.261 504.234 437.938 497.819 448.359 C476.136 483.581 442.95 504 405 504 C361.25 504 299.891 484.094 236.33 452.99 C223.494 446.709 209 454.709 209 469 L209 490 C209 494.968 204.968 499 200 499 L199.338 499 C198.004 499 184.296 496.971 183.02 496.584 L49.2695 456.095 C48.3012 455.802 48.4894 454.296 49.5 454.25 L55 454 C109 455 119 445 119 390 L119 71 C119 32 93 4 55 1 L49.5 0.25 C49.0898 0.194066 49.1369 -0.5 49.5509 -0.5 L278.449 -0.5 C278.863 -0.5 278.91 0.194066 278.5 0.25 L273 1 C235 4 209 32 209 71 L209 413.768 C209 422.541 214.318 431.38 222.653 434.116 C250.38 443.22 288.8 449 333 449 C390 449 433 400 433 327 C433 327 434 222 434 68 C433 30 407 3 370 0 L364.5 -0.75 C364.09 -0.805934 364.137 -1.5 364.551 -1.5 L593.449 -1.5 C593.863 -1.5 593.91 -0.805934 593.5 -0.75 L588 0 C550 3 524 31 524 70 L524 335 C524 358.758 521.12 380.355 515.972 399.793 C514.365 405.858 518.999 413.139 524.688 415.784 C560.58 432.47 603.6 443 645 443 C704 443 748 396 748 326 C748 326 750 222 750 68 L751 69 Z " />
<glyph glyph-name="n" unicode="n" horiz-adv-x="631" d="M426 69 C425 31 399 4 362 1 L356.5 0.25 C356.09 0.194066 356.137 -0.5 356.551 -0.5 L585.449 -0.5 C585.863 -0.5 585.91 0.194066 585.5 0.25 L580 1 C542 4 516 32 516 71 L516 336 C516 437 483 504 399 504 C362.25 504 301 484.094 237.357 452.99 C224.522 446.717 210 454.714 210 469 L210 490 C210 494.968 205.968 499 201 499 L200.338 499 C199.004 499 185.296 496.971 184.02 496.584 L50.2695 456.095 C49.3012 455.802 49.4894 454.296 50.5 454.25 L56 454 C110 455 120 445 120 390 L120 71 C120 32 94 4 56 1 L50.5 0.25 C50.0898 0.194066 50.1369 -0.5 50.5509 -0.5 L279.449 -0.5 C279.863 -0.5 279.91 0.194066 279.5 0.25 L274 1 C236 4 210 32 210 71 L210 414.243 C210 422.281 215.202 429.858 222.993 431.837 C249.867 438.665 289.35 443 331 443 C399 443 426 396 426 326 C426 326 426.5 222 426.5 68 L426 69 Z " />
<glyph glyph-name="o" unicode="o" horiz-adv-x="600" d="M150 250 C150 391 210 485 300 485 C390 485 450 391 450 250 C450 109 390 15 300 15 C210 15 150 109 150 250 L150 250 Z M50 250 C50 97 150 -5 300 -5 C450 -5 550 97 550 250 C550 403 450 505 300 505 C150 505 50 403 50 250 L50 250 Z " />
<glyph glyph-name="p" unicode="p" horiz-adv-x="643" d="M279.5 -228.75 L274 -228 C236 -225 210 -197 210 -158 L210 5.96057 C210 14.4965 220.417 19.2321 228.222 15.7761 C258.234 2.48687 294.575 -5 335 -5 C487 -5 588 103 588 265 C588 409 510 505 394 505 C338.725 505 280.728 483.901 236.291 450.125 C226.83 442.933 210 447.998 210 459.882 L210 491 C210 495.968 205.968 500 201 500 L200.338 500 C199.004 500 185.296 497.971 184.02 497.584 L50.2695 457.095 C49.3012 456.802 49.4894 455.296 50.5 455.25 L56 455 C110 456 120 446 120 391 L120 -158 C120 -197 94 -225 56 -228 L50.5 -228.75 C50.0836 -228.807 50.1306 -229.511 50.5509 -229.512 L279.449 -229.988 C279.857 -229.989 279.904 -228.805 279.5 -228.75 L279.5 -228.75 Z M210 135 L210 394.675 C210 403.844 214.676 415.133 222.475 419.954 C248.245 435.885 285.9 446 325 446 C429 446 499 346 499 197 C499 91 433 21 335 21 C266 21 216 66.5 210 135.5 L210 135 Z " />
<glyph glyph-name="q" unicode="q" horiz-adv-x="615" d="M564.5 -228.75 L559 -228 C521 -225 495 -197 495 -158 L495 495 C495 497.76 492.76 500 490 500 C488.099 500 483.033 496.598 481.92 495.057 C471.57 480.72 451.5 471 429 471 C386 471 343 505 284 505 C147 505 55 391 55 221 C55 85 128 -5 238 -5 C285.85 -5 337.784 11.335 379.202 38.3898 C388.712 44.6021 404 39.2906 404 27.9311 L404 -158 C404 -197 378 -225 340 -228 L334.5 -228.75 C334.084 -228.807 334.131 -229.511 334.551 -229.512 L564.449 -229.988 C564.857 -229.989 564.904 -228.805 564.5 -228.75 L564.5 -228.75 Z M393.752 67.051 C371.297 56.5025 331.9 50 286 50 C203 50 147 132 147 256 C147 390 201 480 283 480 C356 480 404 424 404 340 L404 84.8004 C404 77.391 400.459 70.2014 393.752 67.051 L393.752 67.051 Z " />
<glyph glyph-name="r" unicode="r" horiz-adv-x="429" d="M270 438 C302 438 344 403 376 403 C402 403 419 420 419 446 C419 481 397 505 342 505 C308.175 505 266.863 484.581 230.979 451.605 C223.212 444.467 209 448.931 209 459.48 L209 491 C209 495.968 204.968 500 200 500 L199.338 500 C198.004 500 184.296 497.971 183.02 497.584 L49.2695 457.095 C48.3012 456.802 48.4894 455.296 49.5 455.25 L55 455 C109 456 119 446 119 391 L119 72 C119 33 93 5 55 2 L49.5 1.25 C49.0898 1.19407 49.1369 0.5 49.5509 0.5 L278.449 0.5 C278.863 0.5 278.91 1.19407 278.5 1.25 L273 2 C235 5 209 33 209 72 L209 405.37 C209 411.19 212.958 419.496 217.82 422.696 C232.744 432.521 251.293 438 269.5 438 L270 438 Z " />
<glyph glyph-name="s" unicode="s" horiz-adv-x="422" d="M348.623 386.318 L348.879 439.131 C348.945 452.621 338.058 470.382 325.916 476.261 C289.051 494.11 250.4 505 224 505 C123 505 56 450 56 368 C56 315 112 255 195 218 C256 191 297 149 297 113 C297 54 259 15 203 15 C202 15 158 19 159 21 C108 33 66 73 53 122 L49.75 133 C49.2341 134.746 46.4573 134.351 46.4492 132.53 L46.0952 52.523 C46.0405 40.1471 52.8687 26.7149 64.1654 21.6602 C101.143 5.115 152.1 -5 198 -5 C302 -5 372 56 372 147 C372 198 327 252 259 282 C179 318 125 365 125 399 C125 451 165 485 224 485 C231 485 246 480 265 471 C305.425 451.2 330.196 422.892 342.119 385.515 C342.798 383.386 348.612 384.083 348.623 386.318 L348.623 386.318 Z " />
<glyph glyph-name="t" unicode="t" horiz-adv-x="352" d="M25 470 C25 467.24 27.2402 465 30 465 L60 465 C79.319 465 95 449.319 95 430 L95 113 C95 21 116 -5 191 -5 C251.8 -5 292.745 13.05 326.696 39.7189 C329.06 41.5764 330.48 45.7369 328.5 48 C326.813 49.9279 323.178 50.478 321.022 49.094 C307.9 40.67 283.6 35 235 35 C195 35 184 49 184 97 C184 207 185 465 185 465 C185 465 210.015 465 241.102 465 L302.5 465 C312.159 465 320 472.841 320 482.5 C320 492.159 312.159 500 302.5 500 L241.32 500 C210.233 500 185 525.233 185 556.32 L185 632.5 C185 636.64 181.64 640 177.5 640 C173.771 640 168.624 636.773 167.113 633.363 C130.08 549.788 75.6517 485.211 28.6914 475.641 C26.196 475.132 25 472.547 25 470 L25 470 Z " />
<glyph glyph-name="u" unicode="u" horiz-adv-x="596" d="M396 428 L396 85.3078 C396 79.2172 393.146 72.4849 387.838 69.4976 C370.572 59.78 342.65 54 301 54 C221 54 180 98 180 164 L180.831 443.341 C180.924 474.614 155.614 499.923 124.341 499.828 L21.5509 499.517 C21.1277 499.516 21.0807 498.807 21.5 498.75 L27 498 C65 495 91 467 91 428 L91 155 C91 59 139 -5 231 -5 C286.275 -5 333.382 12.6962 372.884 41.3506 C382.211 48.1164 397 42.7905 397 31.2679 L397 9 C397 4.03227 401.032 0 406 0 L406.662 0 C407.996 0 421.704 2.02942 422.98 2.41576 L556.73 42.9048 C557.699 43.1979 557.511 44.7041 556.5 44.75 L551 45 C497 44 487 54 487 109 L487 443.509 C487 474.69 461.69 499.923 430.509 499.829 L327.551 499.517 C327.128 499.516 327.081 498.807 327.5 498.75 L333 498 C371 495 396.5 467 396.5 428 L396 428 Z " />
<glyph glyph-name="v" unicode="v" horiz-adv-x="594" d="M90 428 L272.082 -3.09101 C273.566 -6.60405 278.686 -10 282.5 -10 C286.328 -10 291.399 -6.60453 292.858 -3.06573 L470.5 428 C486.5 467 524 495 562 498 L568 498.75 C568.411 498.801 568.367 499.5 567.953 499.5 L400.551 499.5 C400.137 499.5 400.09 498.806 400.5 498.75 L406 498 C439.15 495.075 454.238 472.187 446.63 439.531 C446.565 439.25 445.03 434.464 444.927 434.194 L370.668 240.07 C351.38 189.648 285.603 189.252 265.709 239.438 L188.155 435.087 C188.04 435.377 186.443 440.153 186.37 440.456 C178.762 472.137 193.85 494.075 227 497 L232.5 497.75 C232.91 497.806 232.863 498.5 232.449 498.5 L-7.95331 498.5 C-8.36728 498.5 -8.41078 497.801 -8 497.75 L-2 497 C37 494 72.5 466 90.5 427 L90 428 Z " />
<glyph glyph-name="w" unicode="w" horiz-adv-x="884" d="M108 428 L290.082 -3.09101 C291.566 -6.60405 296.686 -10 300.5 -10 C304.345 -10 309.354 -6.60527 310.778 -3.03365 L395.155 208.519 C414.869 257.946 478.67 258.578 499.357 209.55 L589.084 -3.08999 C590.567 -6.60407 595.686 -10 599.5 -10 C603.328 -10 608.399 -6.60453 609.858 -3.06573 L787.5 428 C803.5 467 841 495 879 498 L885 498.75 C885.411 498.801 885.367 499.5 884.953 499.5 L700.542 499.5 C699.852 499.5 699.812 498.297 700.5 498.25 L719 497 C755.075 495.05 772.138 472.186 764.626 439.531 C764.559 439.238 763.034 434.475 762.927 434.194 L688.668 240.07 C669.38 189.648 603.603 189.252 583.709 239.438 L506.232 434.891 C506.102 435.22 504.453 440.185 504.374 440.529 C496.862 473.137 513.9 495.05 549 497 L562.5 498.25 C563.187 498.314 563.132 499.5 562.442 499.5 L342.173 499.5 C340.822 499.5 340.961 495.676 342.241 495.246 C369.844 485.967 392.325 464.3 408 428 L428.02 381.057 C431.478 372.948 431.923 346.871 428.743 338.649 L387.5 232 C369.011 184.191 306.569 184.028 287.831 231.739 L208 435 C197 470 213 495 250 497 L261 498.25 C261.686 498.328 261.619 499.5 260.929 499.5 L39.6023 499.5 C38.5185 499.5 38.6394 495.953 39.678 495.644 C69.3228 486.807 92.825 464.8 108.5 428.5 L108 428 Z " />
<glyph glyph-name="x" unicode="x" horiz-adv-x="583" d="M140.5 428 L244.932 270.729 C255.724 254.475 255.465 223.701 244.399 207.632 L151 72 C123 34 79 5 40 3 L28.5 1.75 C27.8141 1.67544 27.8778 0.5 28.5677 0.5 L225.44 0.5 C226.406 0.5 226.464 2.18387 225.5 2.25 L200 4 C161 6 153 33 179 72 L230.81 149.453 C254.81 185.332 300.932 185.161 324.665 149.104 L380.524 64.2419 C380.649 64.0528 383.199 59.6716 383.299 59.4689 C399.535 26.8131 390.175 3.925 358 1 L352.5 0.25 C352.09 0.194066 352.137 -0.5 352.551 -0.5 L563.386 -0.5 C564.468 -0.5 563.89 3.06883 562.86 3.39692 C534.732 12.3528 508.425 34.7 484.5 71 L355.282 266.32 C343.633 283.927 344.811 315.228 357.75 331.911 L431.5 427 C461.5 466 508 494 547 497 L554 497.75 C554.412 497.794 554.374 498.5 553.96 498.5 L372.052 498.5 C371.362 498.5 371.312 497.307 372 497.25 L387 496 C425 494 433 467 408 430 L366 372 C344.287 342.015 304.868 342.816 284.391 373.658 L244.547 433.671 C244.408 433.88 241.815 438.306 241.704 438.531 C225.566 471.186 236.9 494.05 272 496 L282.5 497.25 C283.185 497.332 283.116 498.5 282.426 498.5 L54.0998 498.5 C53.0132 498.5 53.6099 494.934 54.657 494.644 C86.5453 485.807 115.575 463.8 139.5 427.5 L140.5 428 Z " />
<glyph glyph-name="y" unicode="y" horiz-adv-x="568" d="M118 428 L293.956 11.2101 C295.203 8.25694 294.9 -0.214387 293.498 -3.09686 C286.41 -17.6676 276.485 -39.3939 268 -64 C240 -131.375 217.359 -162.766 188.689 -169.561 C182.388 -171.054 181.799 -173.621 175.898 -170.954 C173.269 -169.766 120.4 -146 97 -146 C69 -146 51 -161 51 -184 C51 -212 79 -230 121 -230 C197 -230 244 -186 291 -72 C303 -37 317 -10 317 -10 C317 -10 306.094 -36.4635 317.939 -7.72149 L497.5 428 C513.5 467 551 495 589 498 L595 498.75 C595.411 498.801 595.367 499.5 594.953 499.5 L427.551 499.5 C427.137 499.5 427.09 498.806 427.5 498.75 L433 498 C466.15 495.075 481.238 472.187 473.63 439.531 C473.565 439.25 472.03 434.464 471.927 434.194 L397.668 240.07 C378.38 189.648 312.603 189.252 292.709 239.438 L215.155 435.087 C215.04 435.377 213.443 440.153 213.37 440.456 C205.762 472.137 220.85 494.075 254 497 L259.5 497.75 C259.91 497.806 259.863 498.5 259.449 498.5 L19.0467 498.5 C18.6327 498.5 18.5892 497.801 19 497.75 L25 497 C64 494 100 466 118 427 L118 428 Z " />
<glyph glyph-name="z" unicode="z" horiz-adv-x="484" d="M440.5 166.5 C440.388 167.507 438.939 167.649 438.633 166.684 L421 111 C403 57 356 21 302 21 L232 21 C198.384 21 179.938 52.655 196.511 81.9016 L386.351 416.914 C409.233 457.294 383.765 501 337.351 501 L76.2202 501 C73.4603 501 70.293 498.643 69.5 496 L68 491 L43.5783 397.921 C43.2513 396.675 45.0813 395.899 45.75 397 L50 404 C75 450 123 479 171 480 L244.5 480.5 C279.628 480.739 299.029 447.644 281.662 417.109 L92.8681 85.1636 C69.9011 44.7822 95.3681 1 141.824 1 L386.995 1 C400.701 1 413.935 10.4145 416.527 23.8735 C424.864 67.1571 433.336 116.975 440.822 158.727 C440.947 159.424 440.578 165.796 440.5 166.5 L440.5 166.5 Z " />
<glyph glyph-name="braceleft" unicode="&#x7b;" horiz-adv-x="250" d="M235 -112.5 C235 -108.36 231.64 -105 227.5 -105 L215 -105 C164 -105 130 -58 130 12 L130 153 C130 204.975 108.901 244.699 74.5631 262.625 C70.6355 264.676 70.6355 277.324 74.5631 279.375 C108.901 297.301 130 337.025 130 389 L130 529 C130 599 164 646 215 646 L227.5 646 C231.64 646 235 649.36 235 653.5 C235 657.64 231.64 661 227.5 661 L195 661 C114 661 60 608 60 529 L60 339 C60 302 42.0319 281.257 12.4272 278.354 C8.70936 277.989 5 274.236 5 270.5 C5 266.763 8.70781 263.011 12.4273 262.647 C42.0319 259.754 60 239.15 60 204 L60 13 C60 -66 114 -119 195 -119 L227.502 -119.813 C231.64 -119.916 235 -116.638 235 -112.5 L235 -112.5 Z " />
<glyph glyph-name="bar" unicode="&#x7c;" horiz-adv-x="190" d="M60 735 L60 -199 C60 -218.319 75.681 -234 95 -234 C114.319 -234 130 -218.319 130 -199 L130 735 C130 754.319 114.319 770 95 770 C75.681 770 60 754.319 60 735 L60 735 Z " />
<glyph glyph-name="braceright" unicode="&#x7d;" horiz-adv-x="250" d="M5 652.5 C5 648.36 8.36022 645 12.5 645 L25 645 C76 645 110 598 110 528 L110 387 C110 335.025 131.099 295.301 165.437 277.375 C169.364 275.324 169.364 262.676 165.437 260.625 C131.099 242.699 110 202.975 110 151 L110 11 C110 -59 76 -106 25 -106 L12.5 -106 C8.36022 -106 5 -109.36 5 -113.5 C5 -117.64 8.36022 -121 12.5 -121 L45 -121 C126 -121 180 -68 180 11 L180 201 C180 238 197.968 258.743 227.573 261.646 C231.291 262.011 235 265.764 235 269.5 C235 273.237 231.292 276.989 227.573 277.353 C197.968 280.246 180 300.85 180 336 L180 527 C180 606 126 659 45 659 L12.4977 659.813 C8.36047 659.916 5 656.638 5 652.5 L5 652.5 Z " />
<glyph glyph-name="asciitilde" unicode="&#x7e;" horiz-adv-x="340" d="M30.2808 318.089 C32.5148 349.55 47.9231 370 71 370 C123 370 192 308 244 308 C291.775 308 323.389 353.63 324.94 422.645 C325.035 426.877 321.733 428 317.5 428 C313.673 428 309.989 423.715 309.7 419.899 C307.244 387.535 289.9 367 264 367 C212 367 143 430 91 430 C46.15 430 16.51 384.37 15.056 315.355 C14.967 311.129 18.273 310 22.5 310 C26.3466 310 30.0084 314.252 30.2808 318.089 L30.2808 318.089 Z " />
<glyph glyph-name="nbspace" unicode="&#xa0;" horiz-adv-x="220" d="" />
<glyph glyph-name="exclamdown" unicode="&#xa1;" horiz-adv-x="234" d="M109 505 C70 505 44 479 44 440 C44 401 70 375 109 375 C148 375 174 401 174 440 C174 479 148 505 109 505 L109 505 Z M59.7486 -102.9 C57.1094 -140.284 78.925 -165 115 -165 C152.05 -165 173.89 -140.284 170.325 -102.9 C170.314 -102.792 169.9 -82.2601 169.899 -82.1512 C167.284 147.9 115 300 115 300 C115 300 113.64 300 109 300 C105.782 300 103.741 302.813 102.921 299.701 C100.877 291.95 60 134 60 -100 C60 -100.077 59.754 -102.823 59.7486 -102.9 L59.7486 -102.9 Z " />
<glyph glyph-name="cent" unicode="&#xa2;" horiz-adv-x="504" d="M272 559.492 L272 539.5 C272 523.162 249.046 501.15 233.222 497.085 C121.28 468.33 50 368.7 50 231 C50 96.9 120.47 5.73 232.979 -4.602 C249.565 -6.12513 272 -23.8443 272 -40.5 L272 -61 C272 -69.2796 278.72 -76 287 -76 C295.28 -76 302 -69.2796 302 -61 L302 -30.8531 C302 -16.7147 318.103 0.652319 331.823 4.06561 C375.547 14.9432 417.274 34.0944 448.16 58.2609 C451.045 60.5184 452.289 65.1393 450 68 C448.149 70.3135 443.658 71.1306 441.101 69.6343 C421.398 58.1052 373.481 47.5671 328.536 48.2608 C311.434 48.5247 303 60.6174 303 77.7218 L303 459.392 C303 471.868 309.683 478.072 321.355 473.667 C348.426 463.452 366.7 437.65 370 403 C372 377 390 359 415 359 C438.226 359 453.959 373.984 454.95 396.703 C454.973 397.22 454.521 403.172 454.449 403.685 C447.286 454.783 403.846 491.231 339.851 501.236 C323.712 503.759 303 522.665 303 539 L303 558.492 C303 567.047 296.051 574.224 287.5 574.5 C278.949 574.776 272 568.047 272 559.492 L272 559.492 Z M234.822 74.3461 C179.351 108.869 146 176.725 146 265 C146 362.35 180.031 435.197 235.179 464.451 C259.07 477.124 273 465.08 273 438.035 L273 97.8044 C273 72.3801 256.407 60.9123 234.822 74.3461 L234.822 74.3461 Z " />
<glyph glyph-name="guillemotleft" unicode="&#xab;" horiz-adv-x="460" d="M410 39.5 C412.752 41.9764 417.134 41.341 414.817 44.228 C410.57 49.5191 333.494 145.824 287.425 222.605 C279.878 235.183 280.574 261.261 287.969 273.928 C319.398 327.761 370.768 411.78 409.513 452.426 C411.879 454.908 410.924 458.076 408.5 460.5 C406.019 462.981 396.601 457.608 394.117 455.13 C266.852 328.198 187 255 187 255 C187 255 187 256.274 187 250 C187 248.234 189.255 243.385 190.615 242.259 C221.841 216.402 405.5 35 405.5 35 C405.5 35 407.073 36.8657 410 39.5 L410 39.5 Z M122.969 273.928 C154.398 327.761 205.768 411.78 244.513 452.426 C246.879 454.908 245.924 458.076 243.5 460.5 C241.02 462.98 231.528 457.536 229.044 455.059 C100.853 327.247 21 255 21 255 C21 255 21 256.219 21 250 C21 248.215 23.5034 243.248 24.8893 242.124 C57.6975 215.5 240.05 35 241 35 L245.5 39.5 C247.966 41.9656 251.999 41.5086 249.817 44.228 C245.57 49.5191 168.494 145.824 122.425 222.605 C114.878 235.183 115.574 261.261 122.969 273.928 L122.969 273.928 Z " />
<glyph glyph-name="acute" unicode="&#xb4;" horiz-adv-x="340" d="M95.1517 530.159 C99.0681 534.271 177.775 617 208 656 C231 682 246 701 246 706 C246 717 210 744 195 744 C192 744 179 723 163 692 C138 648 84 538 84 538 C84 538 85.8897 536.626 89.5 534 C92.511 531.81 92.5839 527.463 95.1517 530.159 L95.1517 530.159 Z " />
<glyph glyph-name="guillemotright" unicode="&#xbb;" horiz-adv-x="460" d="M55.3764 35.3707 C64.5842 44.4398 239.933 217.083 270.382 242.259 C271.744 243.386 274 248.232 274 250 C274 252.03 275.338 253.771 273.843 255.144 C269.769 258.885 186.675 335.325 57 465 C54.5161 467.484 54.9839 462.984 52.5 460.5 C50.0756 458.076 49.1209 454.908 51.4866 452.426 C90.2317 411.78 141.602 327.761 173.031 273.928 C180.426 261.261 181.122 235.183 173.575 222.605 C126.19 143.63 46 44 46 44 C46 44 47.7331 42.2669 50.5 39.5 C52.9833 37.0167 52.8742 32.9063 55.3764 35.3707 L55.3764 35.3707 Z M221.376 35.3671 C230.573 44.3471 405.729 215.318 436.991 241.988 C438.358 243.155 440.83 248.203 440.875 250 C440.927 252.087 442.39 253.74 440.843 255.142 C436.769 258.836 353.65 334.35 223 465 C220.516 467.484 220.984 462.984 218.5 460.5 C216.076 458.076 215.121 454.908 217.487 452.426 C256.232 411.78 307.602 327.761 339.031 273.928 C346.426 261.261 347.122 235.183 339.575 222.605 C292.19 143.63 212 44 212 44 C212 44 213.733 42.2669 216.5 39.5 C218.983 37.0167 218.863 32.9136 221.376 35.3671 L221.376 35.3671 Z " />
<glyph glyph-name="onequarter" unicode="&#xbc;" horiz-adv-x="780" d="M156.072 -1.05821 L663.928 629.058 C672.799 640.065 671.039 656.169 660 665 C648.961 673.831 632.799 672.065 623.928 661.058 L116.072 30.9418 C107.201 19.9346 108.961 3.83146 120 -5 C131.039 -13.8315 147.201 -12.0654 156.072 -1.05821 L156.072 -1.05821 Z M445 56.5 C445 52.9122 447.912 50 451.5 50 L530 50 C544.351 50 556 38.3512 556 24 C556 9.64878 567.649 -2 582 -2 L607 -2 C621.351 -2 633 9.64878 633 24 C633 38.3512 644.649 50 659 50 L671 50 C680.383 50 688 57.6165 688 67 C688 76.3835 680.383 84 671 84 L660.5 84 C645.321 84 633 96.3208 633 111.5 L633 296.5 C633 300.088 630.088 303 626.5 303 L624.031 303 C621.1 303 619.689 302.945 617.784 300.718 C596.62 275.99 445 63 445 63 C445 63 445 67.7266 445 56.5 L445 56.5 Z M507.651 111.131 L527.869 139.043 C536.654 151.172 555 145.225 555 130.25 L555 117.5 C555 99.009 539.991 84 521.5 84 C506.525 84 498.867 99.0026 507.651 111.131 L507.651 111.131 Z M304.484 416.842 C288.121 420.886 278 433.75 278 451 L278 629 C278 648.2 289.981 661.87 307.749 663.818 C307.796 663.823 312.954 664.492 313 664.5 C313.272 664.545 313.235 665 312.959 665 L167.041 665 C166.765 665 166.728 664.545 167 664.5 C167.046 664.492 172.204 663.823 172.251 663.818 C190.019 661.87 202 648.2 202 629 L202 451 C202 433.75 191.879 420.886 175.516 416.842 C175.496 416.837 175.479 415.462 175.5 415.462 L304.5 415.038 C304.521 415.038 304.504 416.837 304.484 416.842 L304.484 416.842 Z " />
<glyph glyph-name="onehalf" unicode="&#xbd;" horiz-adv-x="780" d="M156.072 -1.05821 L663.928 629.058 C672.799 640.065 671.039 656.169 660 665 C648.961 673.831 632.799 672.065 623.928 661.058 L116.072 30.9418 C107.201 19.9346 108.961 3.83146 120 -5 C131.039 -13.8315 147.201 -12.0654 156.072 -1.05821 L156.072 -1.05821 Z M643 77 L613 77 C603.953 77 600.498 88.7132 607.893 93.9256 C651.712 124.813 677 150.1 677 179 C677 223 642 253 590 253 C548.2 253 508.205 224.12 487.162 180.078 C485.708 177.035 486.108 171.735 489 170 C491.342 168.595 494.944 169.321 496.382 171.644 C505.356 186.145 526.625 196 552 196 C576 196 591 179 591 153 C591 85.725 542.518 67.8825 468.726 20.6895 C465.423 18.5769 463.194 12.7918 463.375 8.875 C463.582 4.39578 467.4 0.736919 471.884 0.720847 L653.941 0.0683118 C664.431 0.0307123 673.674 8.54221 674.5 19 L676 38 C677.697 57.5152 679.754 82.0698 681.56 103.112 C681.61 103.699 679.812 103.845 679.611 103.291 C673.994 87.7959 662.714 77 643 77 L643 77 Z M305.484 416.842 C289.121 420.886 279 433.75 279 451 L279 629 C279 648.2 290.981 661.87 308.749 663.818 C308.796 663.823 313.954 664.492 314 664.5 C314.272 664.545 314.235 665 313.959 665 L168.041 665 C167.765 665 167.728 664.545 168 664.5 C168.046 664.492 173.204 663.823 173.251 663.818 C191.019 661.87 203 648.2 203 629 L203 451 C203 433.75 192.879 420.886 176.516 416.842 C176.496 416.837 176.479 415.462 176.5 415.462 L305.5 415.038 C305.521 415.038 305.504 416.837 305.484 416.842 L305.484 416.842 Z " />
<glyph glyph-name="threequarters" unicode="&#xbe;" horiz-adv-x="780" d="M131.072 340.598 C247.999 349.311 325 394.6 325 457 C325 487.525 310.026 510.563 278.956 522.745 C272.274 525.365 269.227 536.964 274.928 541.324 C300.707 561.039 315 582.2 315 602 C315 641 283 668 235 668 C195.025 668 148.396 638.531 116.43 593.495 C114.536 590.826 116.194 588.684 119 587 C121.366 585.581 125.219 585.927 127.023 588.014 C139.722 602.711 166.595 612 196 612 C222 612 239 598 239 577 C239 549 216 522 179 506 L167.166 502.055 C163.937 500.979 161 496.904 161 493.5 L161 492.22 C161 489.484 163.039 487.618 165.668 488.374 C174.29 490.852 183.077 493 189 493 C222 493 245 477 245 453 C245 398.4 197.469 359.01 126.505 353.367 C123.007 353.089 121.231 349.998 121.5 346.5 C121.781 342.85 127.422 340.326 131.072 340.598 L131.072 340.598 Z M156.072 -1.05821 L663.928 629.058 C672.799 640.065 671.039 656.169 660 665 C648.961 673.831 632.799 672.065 623.928 661.058 L116.072 30.9418 C107.201 19.9346 108.961 3.83146 120 -5 C131.039 -13.8315 147.201 -12.0654 156.072 -1.05821 L156.072 -1.05821 Z M445 56.5 C445 52.9122 447.912 50 451.5 50 L530 50 C544.351 50 556 38.3512 556 24 C556 9.64878 567.649 -2 582 -2 L607 -2 C621.351 -2 633 9.64878 633 24 C633 38.3512 644.649 50 659 50 L671 50 C680.383 50 688 57.6165 688 67 C688 76.3835 680.383 84 671 84 L660.5 84 C645.321 84 633 96.3208 633 111.5 L633 296.5 C633 300.088 630.088 303 626.5 303 L624.031 303 C621.1 303 619.689 302.945 617.784 300.718 C596.62 275.99 445 63 445 63 C445 63 445 67.7266 445 56.5 L445 56.5 Z M507.651 111.131 L527.869 139.043 C536.654 151.172 555 145.225 555 130.25 L555 117.5 C555 99.009 539.991 84 521.5 84 C506.525 84 498.867 99.0026 507.651 111.131 L507.651 111.131 Z " />
<glyph glyph-name="questiondown" unicode="&#xbf;" horiz-adv-x="371" d="M231 505 C192 505 166 479 166 440 C166 401 192 375 231 375 C270 375 296 401 296 440 C296 479 270 505 231 505 L231 505 Z M250 -165 C300 -165 333 -141 333 -105 C333 -82 317 -66 294 -66 C272 -66 243 -95 221 -95 C122 -95 56 -32 56 63 C56 86 80 126 208 126 L243 126 C252 126 258 132 257 140 L237.768 289.049 C237.347 292.307 234.285 295 231 295 C227.716 295 224.65 292.307 224.227 289.05 L214.256 212.354 C213.021 202.855 204.079 195 194.5 195 L177 195 C58 195 35 117 35 73 C35 -70 121 -165 250 -165 L250 -165 Z " />
<glyph glyph-name="Agrave" unicode="&#xc0;" horiz-adv-x="679" d="M239 866 C239 860 255 841 278 816 C310 775 395 690 395 690 C395 690 396.917 691.533 400 694 C402.666 696.133 406.262 695.076 404.909 698.211 C402.621 703.514 357.599 807.461 326.431 848.864 C326.178 849.2 321.242 857.32 321.048 857.693 C306.527 885.543 295.688 904 291 904 C275 904 239 877 239 866 L239 866 Z M426.141 198.545 L479.817 63.9656 C479.941 63.6554 481.549 58.8688 481.626 58.5439 C489.138 26.8631 472.1 4.95 437 3 L416.5 1.75 C415.811 1.70801 415.848 0.5 416.538 0.5 L654.895 0.5 C655.983 0.5 655.928 3.69845 654.877 3.98042 C626.126 11.6947 603.5 30.35 587 65 L339.773 663.447 C337.338 669.341 328.877 675 322.5 675 C316.003 675 307.98 669.347 305.793 663.229 L92 65 C76 30 42 5 5 2 L-1 1.25 C-1.41078 1.19865 -1.36728 0.5 -0.953307 0.5 L196.944 0.5 C197.634 0.5 197.687 1.68864 197 1.75 L183 3 C136 5 115 37 130 83 L168.92 196.018 C175.746 215.84 201.206 234 222.171 234 L373.829 234 C393.399 234 418.891 216.722 426.141 198.545 L426.141 198.545 Z M317.977 259 L269.013 259 C227.786 259 202.326 294.719 215.774 333.691 L239 401 C256.65 452.148 323.531 453.7 343.535 403.426 L370.306 336.141 C386.048 296.578 360.556 259 317.977 259 L317.977 259 Z " />
<glyph glyph-name="Aacute" unicode="&#xc1;" horiz-adv-x="679" d="M261.154 690.159 C265.118 694.271 344.775 777 375 816 C398 842 413 861 413 866 C413 877 377 904 361 904 C357.25 904 346.469 885.543 331.952 857.693 C331.792 857.386 326.85 849.144 326.646 848.864 C295.679 806.371 251 698 251 698 C251 698 252.321 696.944 256 694 C258.75 691.8 258.71 687.624 261.154 690.159 L261.154 690.159 Z M426.141 198.545 L479.817 63.9656 C479.941 63.6554 481.549 58.8688 481.626 58.5439 C489.138 26.8631 472.1 4.95 437 3 L416.5 1.75 C415.811 1.70801 415.848 0.5 416.538 0.5 L654.895 0.5 C655.983 0.5 655.928 3.69845 654.877 3.98042 C626.126 11.6947 603.5 30.35 587 65 L339.773 663.447 C337.338 669.341 328.877 675 322.5 675 C316.003 675 307.98 669.347 305.793 663.229 L92 65 C76 30 42 5 5 2 L-1 1.25 C-1.41078 1.19865 -1.36728 0.5 -0.953307 0.5 L196.944 0.5 C197.634 0.5 197.687 1.68864 197 1.75 L183 3 C136 5 115 37 130 83 L168.92 196.018 C175.746 215.84 201.206 234 222.171 234 L373.829 234 C393.399 234 418.891 216.722 426.141 198.545 L426.141 198.545 Z M317.977 259 L269.013 259 C227.786 259 202.326 294.719 215.774 333.691 L239 401 C256.65 452.148 323.531 453.7 343.535 403.426 L370.306 336.141 C386.048 296.578 360.556 259 317.977 259 L317.977 259 Z " />
<glyph glyph-name="Acircumflex" unicode="&#xc2;" horiz-adv-x="679" d="M351 879 C347 887 336 905 323 905 C308 905 298 888 294 880 C294 880 202 701 202 700 L206.5 696 C208.981 693.795 212.648 693.94 214.801 696.466 C256.338 745.225 288.994 781.766 311.644 807.213 C317.986 814.338 329.768 812.396 336.071 805.238 C377.3 758.42 434 692 434 692 C434 692 436.065 693.836 438.5 696 C440.92 698.151 444.476 697.311 442.918 700.149 C440.798 704.012 397.8 782.475 351 879 L351 879 Z M294 851 L294 851 L294 851 Z M426.141 197.545 L479.817 62.9656 C479.941 62.6554 481.549 57.8688 481.626 57.5439 C489.138 25.8631 472.1 3.95 437 2 L416.5 0.75 C415.811 0.708007 415.848 -0.5 416.538 -0.5 L654.895 -0.5 C655.983 -0.5 655.928 2.69845 654.877 2.98042 C626.126 10.6947 603.5 29.35 587 64 L339.773 662.447 C337.338 668.341 328.877 674 322.5 674 C316.003 674 307.98 668.347 305.793 662.229 L92 64 C76 29 42 4 5 1 L-1 0.25 C-1.41078 0.198652 -1.36728 -0.5 -0.953307 -0.5 L196.944 -0.5 C197.634 -0.5 197.687 0.68864 197 0.75 L183 2 C136 4 115 36 130 82 L168.92 195.018 C175.746 214.84 201.206 233 222.171 233 L373.829 233 C393.399 233 418.891 215.722 426.141 197.545 L426.141 197.545 Z M317.977 258 L269.013 258 C227.786 258 202.326 293.719 215.774 332.691 L239 400 C256.65 451.148 323.531 452.7 343.535 402.426 L370.306 335.141 C386.048 295.578 360.556 258 317.977 258 L317.977 258 Z " />
<glyph glyph-name="Atilde" unicode="&#xc3;" horiz-adv-x="679" d="M182.283 762.892 C184.595 794.465 200.875 815 224 815 C276 815 345 753 397 753 C444.775 753 476.389 798.63 477.94 867.645 C478.035 871.877 474.733 873 470.5 873 C466.673 873 462.989 868.715 462.7 864.899 C460.244 832.535 442.9 812 417 812 C365 812 295 875 243 875 C198.15 875 168.51 829.37 167.056 760.355 C166.967 756.129 170.273 755 174.5 755 C178.337 755 182.003 759.065 182.283 762.892 L182.283 762.892 Z M426.141 198.545 L479.817 63.9656 C479.941 63.6554 481.549 58.8688 481.626 58.5439 C489.138 26.8631 472.1 4.95 437 3 L416.5 1.75 C415.811 1.70801 415.848 0.5 416.538 0.5 L654.895 0.5 C655.983 0.5 655.928 3.69845 654.877 3.98042 C626.126 11.6947 603.5 30.35 587 65 L339.773 663.447 C337.338 669.341 328.877 675 322.5 675 C316.003 675 307.98 669.347 305.793 663.229 L92 65 C76 30 42 5 5 2 L-1 1.25 C-1.41078 1.19865 -1.36728 0.5 -0.953307 0.5 L196.944 0.5 C197.634 0.5 197.687 1.68864 197 1.75 L183 3 C136 5 115 37 130 83 L168.92 196.018 C175.746 215.84 201.206 234 222.171 234 L373.829 234 C393.399 234 418.891 216.722 426.141 198.545 L426.141 198.545 Z M317.977 259 L269.013 259 C227.786 259 202.326 294.719 215.774 333.691 L239 401 C256.65 452.148 323.531 453.7 343.535 403.426 L370.306 336.141 C386.048 296.578 360.556 259 317.977 259 L317.977 259 Z " />
<glyph glyph-name="Adieresis" unicode="&#xc4;" horiz-adv-x="679" d="M418 730 C451 730 473 752 473 785 C473 818 451 840 418 840 C385 840 363 818 363 785 C363 752 385 730 418 730 L418 730 Z M227 730 C260 730 282 752 282 785 C282 818 260 840 227 840 C194 840 172 818 172 785 C172 752 194 730 227 730 L227 730 Z M426.141 198.545 L479.817 63.9656 C479.941 63.6554 481.549 58.8688 481.626 58.5439 C489.138 26.8631 472.1 4.95 437 3 L416.5 1.75 C415.811 1.70801 415.848 0.5 416.538 0.5 L654.895 0.5 C655.983 0.5 655.928 3.69845 654.877 3.98042 C626.126 11.6947 603.5 30.35 587 65 L339.773 663.447 C337.338 669.341 328.877 675 322.5 675 C316.003 675 307.98 669.347 305.793 663.229 L92 65 C76 30 42 5 5 2 L-1 1.25 C-1.41078 1.19865 -1.36728 0.5 -0.953307 0.5 L196.944 0.5 C197.634 0.5 197.687 1.68864 197 1.75 L183 3 C136 5 115 37 130 83 L168.92 196.018 C175.746 215.84 201.206 234 222.171 234 L373.829 234 C393.399 234 418.891 216.722 426.141 198.545 L426.141 198.545 Z M317.977 259 L269.013 259 C227.786 259 202.326 294.719 215.774 333.691 L239 401 C256.65 452.148 323.531 453.7 343.535 403.426 L370.306 336.141 C386.048 296.578 360.556 259 317.977 259 L317.977 259 Z " />
<glyph glyph-name="Aring" unicode="&#xc5;" horiz-adv-x="679" d="M252 788 C252 831 280 860 323 860 C365 860 393 831 393 788 C393 749 361 715 323 715 C285 715 252 749 252 788 L252 788 Z M227 788 C227 738 271 695 323 695 C374 695 418 738 418 788 C418 843 380 880 323 880 C265 880 227 843 227 788 L227 788 Z M426.141 198.545 L479.817 63.9656 C479.941 63.6554 481.549 58.8688 481.626 58.5439 C489.138 26.8631 472.1 4.95 437 3 L416.5 1.75 C415.811 1.70801 415.848 0.5 416.538 0.5 L654.895 0.5 C655.983 0.5 655.928 3.69845 654.877 3.98042 C626.126 11.6947 603.5 30.35 587 65 L339.773 663.447 C337.338 669.341 328.877 675 322.5 675 C316.003 675 307.98 669.347 305.793 663.229 L92 65 C76 30 42 5 5 2 L-1 1.25 C-1.41078 1.19865 -1.36728 0.5 -0.953307 0.5 L196.944 0.5 C197.634 0.5 197.687 1.68864 197 1.75 L183 3 C136 5 115 37 130 83 L168.92 196.018 C175.746 215.84 201.206 234 222.171 234 L373.829 234 C393.399 234 418.891 216.722 426.141 198.545 L426.141 198.545 Z M317.977 259 L269.013 259 C227.786 259 202.326 294.719 215.774 333.691 L239 401 C256.65 452.148 323.531 453.7 343.535 403.426 L370.306 336.141 C386.048 296.578 360.556 259 317.977 259 L317.977 259 Z " />
<glyph glyph-name="Ccedilla" unicode="&#xc7;" horiz-adv-x="708" d="M640 169 C625 95 556 37 468 25 C444 22 420 20 397 20 C254 20 159 144 159 330 C159 516 254 640 397 640 C434 640 473 635 510 627 C574 612 625 559 639 491 C640.733 482.333 643.593 471.413 645.627 462.146 C645.747 461.599 646.515 462.539 646.517 463.099 L646.889 573.256 C646.953 591.947 634.203 613.453 617.086 620.964 C556.247 647.66 472.65 665 397 665 C188 665 49 531 49 330 C49 146.85 164.509 19.3156 343.292 -1.95013 C365.468 -4.5879 378.026 -27.5729 369 -48 L351.166 -88.3604 C350.526 -89.8089 351.241 -91.3948 352.75 -91.875 C353.782 -92.2033 356.594 -92.1728 357.561 -91.6858 C374.211 -83.2992 394.64 -78 410 -78 C442 -78 464 -100 464 -133 C464 -169 435 -193 392 -193 C363.765 -193 338.644 -189.107 326.254 -182.696 C323.931 -181.494 320.894 -183.042 320 -185.5 C318.843 -188.682 320.2 -192.799 322.987 -194.722 C344.533 -209.588 378.55 -219 410 -219 C475 -219 519 -185 519 -133 C519 -89 484 -60 431 -60 C411.71 -60 388.902 -64.2206 372.017 -70.8919 C369.199 -72.0052 366.691 -67.5949 368.089 -64.9068 C385.315 -31.7746 399.358 -15.2496 408.356 -6.95325 C410.029 -5.41082 417.115 -2.84404 419.387 -2.73766 C500.445 1.05641 586.872 22.6748 642.66 53.5439 C646.08 55.4361 645.469 58.6242 643.5 62 L643.38 62.2056 C643.26 62.4115 642.893 62.2132 643 62 C643.736 60.5289 645.983 61.0635 645.977 62.7082 L645.517 198.901 C645.515 199.463 644.782 200.357 644.676 199.806 C642.842 190.338 640.733 178.667 639 170 L640 169 Z " />
<glyph glyph-name="Egrave" unicode="&#xc8;" horiz-adv-x="625" d="M208 866 C208 860 224 841 247 816 C279 775 364 690 364 690 C364 690 365.917 691.533 369 694 C371.666 696.133 375.262 695.076 373.909 698.211 C371.621 703.514 326.599 807.461 295.431 848.864 C295.178 849.2 290.242 857.32 290.048 857.693 C275.527 885.543 264.688 904 260 904 C244 904 208 877 208 866 L208 866 Z M516 12 C522.125 50.5 530.93 101.25 538.395 142.813 C538.689 144.452 535.81 144.069 535.25 142.5 L529 125 C508 65 454 25 394 25 L271.32 25 C240.233 25 215 50.233 215 81.32 L215 283.68 C215 314.767 240.233 340 271.32 340 L345 340 C396 340 435 311 442 268 L443.25 261.5 C443.38 260.822 444.5 260.929 444.5 261.619 L444.5 434.36 C444.5 435.05 443.403 435.173 443.25 434.5 L442 429 C435 391 396 365 345 365 L271.32 365 C240.233 365 215 390.233 215 421.32 L215 578.68 C215 609.767 240.233 635 271.32 635 L388 635 C448 635 495 595 505 535 L508.25 517.5 C508.583 515.707 511.55 515.975 511.556 517.799 L511.823 603.444 C511.921 634.661 486.661 659.973 455.444 659.94 L45.5509 659.506 C45.1337 659.505 45.0866 658.806 45.5 658.75 L51 658 C89 655 115 627 115 588 L115 72 C115 33 89 5 51 2 L45.5 1.25 C45.0866 1.19363 45.1337 0.494585 45.5509 0.494145 L507.917 0.00641641 C511.23 0.00292232 514.455 2.73267 515 6 L516 12 L516 12 Z " />
<glyph glyph-name="Eacute" unicode="&#xc9;" horiz-adv-x="625" d="M277.154 690.159 C281.118 694.271 360.775 777 391 816 C414 842 429 861 429 866 C429 877 393 904 377 904 C373.25 904 362.469 885.543 347.952 857.693 C347.792 857.386 342.85 849.144 342.646 848.864 C311.679 806.371 267 698 267 698 C267 698 268.321 696.944 272 694 C274.75 691.8 274.71 687.624 277.154 690.159 L277.154 690.159 Z M516 12 C522.125 50.5 530.93 101.25 538.395 142.813 C538.689 144.452 535.81 144.069 535.25 142.5 L529 125 C508 65 454 25 394 25 L271.32 25 C240.233 25 215 50.233 215 81.32 L215 283.68 C215 314.767 240.233 340 271.32 340 L345 340 C396 340 435 311 442 268 L443.25 261.5 C443.38 260.822 444.5 260.929 444.5 261.619 L444.5 434.36 C444.5 435.05 443.403 435.173 443.25 434.5 L442 429 C435 391 396 365 345 365 L271.32 365 C240.233 365 215 390.233 215 421.32 L215 578.68 C215 609.767 240.233 635 271.32 635 L388 635 C448 635 495 595 505 535 L508.25 517.5 C508.583 515.707 511.55 515.975 511.556 517.799 L511.823 603.444 C511.921 634.661 486.661 659.973 455.444 659.94 L45.5509 659.506 C45.1337 659.505 45.0866 658.806 45.5 658.75 L51 658 C89 655 115 627 115 588 L115 72 C115 33 89 5 51 2 L45.5 1.25 C45.0866 1.19363 45.1337 0.494585 45.5509 0.494145 L507.917 0.00641641 C511.23 0.00292232 514.455 2.73267 515 6 L516 12 L516 12 Z " />
<glyph glyph-name="Ecircumflex" unicode="&#xca;" horiz-adv-x="625" d="M336 879 C332 887 321 905 308 905 C293 905 283 888 279 880 C279 880 187 701 187 700 L191.5 696 C193.981 693.795 197.648 693.94 199.801 696.466 C241.338 745.225 273.994 781.766 296.644 807.213 C302.986 814.338 314.768 812.396 321.071 805.238 C362.3 758.42 419 692 419 692 C419 692 421.065 693.836 423.5 696 C425.92 698.151 429.476 697.311 427.918 700.149 C425.798 704.012 382.8 782.475 336 879 L336 879 Z M279 851 L279 851 L279 851 Z M516 11 C522.125 49.5 530.93 100.25 538.395 141.813 C538.689 143.452 535.81 143.069 535.25 141.5 L529 124 C508 64 454 24 394 24 L271.32 24 C240.233 24 215 49.233 215 80.32 L215 282.68 C215 313.767 240.233 339 271.32 339 L345 339 C396 339 435 310 442 267 L443.25 260.5 C443.38 259.822 444.5 259.929 444.5 260.619 L444.5 433.36 C444.5 434.05 443.403 434.173 443.25 433.5 L442 428 C435 390 396 364 345 364 L271.32 364 C240.233 364 215 389.233 215 420.32 L215 577.68 C215 608.767 240.233 634 271.32 634 L388 634 C448 634 495 594 505 534 L508.25 516.5 C508.583 514.707 511.55 514.975 511.556 516.799 L511.823 602.444 C511.921 633.661 486.661 658.973 455.444 658.94 L45.5509 658.506 C45.1337 658.505 45.0866 657.806 45.5 657.75 L51 657 C89 654 115 626 115 587 L115 71 C115 32 89 4 51 1 L45.5 0.25 C45.0866 0.193634 45.1337 -0.505415 45.5509 -0.505855 L507.917 -0.993584 C511.23 -0.997078 514.455 1.73267 515 5 L516 11 L516 11 Z " />
<glyph glyph-name="Edieresis" unicode="&#xcb;" horiz-adv-x="625" d="M403 730 C436 730 458 752 458 785 C458 818 436 840 403 840 C370 840 348 818 348 785 C348 752 370 730 403 730 L403 730 Z M212 730 C245 730 267 752 267 785 C267 818 245 840 212 840 C179 840 157 818 157 785 C157 752 179 730 212 730 L212 730 Z M516 12 C522.125 50.5 530.93 101.25 538.395 142.813 C538.689 144.452 535.81 144.069 535.25 142.5 L529 125 C508 65 454 25 394 25 L271.32 25 C240.233 25 215 50.233 215 81.32 L215 283.68 C215 314.767 240.233 340 271.32 340 L345 340 C396 340 435 311 442 268 L443.25 261.5 C443.38 260.822 444.5 260.929 444.5 261.619 L444.5 434.36 C444.5 435.05 443.403 435.173 443.25 434.5 L442 429 C435 391 396 365 345 365 L271.32 365 C240.233 365 215 390.233 215 421.32 L215 578.68 C215 609.767 240.233 635 271.32 635 L388 635 C448 635 495 595 505 535 L508.25 517.5 C508.583 515.707 511.55 515.975 511.556 517.799 L511.823 603.444 C511.921 634.661 486.661 659.973 455.444 659.94 L45.5509 659.506 C45.1337 659.505 45.0866 658.806 45.5 658.75 L51 658 C89 655 115 627 115 588 L115 72 C115 33 89 5 51 2 L45.5 1.25 C45.0866 1.19363 45.1337 0.494585 45.5509 0.494145 L507.917 0.00641641 C511.23 0.00292232 514.455 2.73267 515 6 L516 12 L516 12 Z " />
<glyph glyph-name="Igrave" unicode="&#xcc;" horiz-adv-x="330" d="M82 866 C82 860 98 841 121 816 C153 776 237 690 237 690 C237 690 238.989 691.447 242.5 694 C245.473 696.162 249.399 694.85 247.907 698.209 C245.573 703.467 199.647 806.533 168.433 848.793 C168.218 849.083 163.205 857.373 163.037 857.693 C148.41 885.543 136.75 904 133 904 C118 904 82 877 82 866 L82 866 Z M284.5 1.25 L279 2 C241 5 215 33 215 72 L215 588 C215 627 241 655 279 658 L284.5 658.75 C284.91 658.806 284.863 659.5 284.449 659.5 L45.5509 659.5 C45.1369 659.5 45.0898 658.806 45.5 658.75 L51 658 C89 655 115 627 115 588 L115 72 C115 33 89 5 51 2 L45.5 1.25 C45.0838 1.19325 45.1308 0.489738 45.5509 0.488898 L284.449 0.0111018 C284.857 0.010286 284.904 1.19489 284.5 1.25 L284.5 1.25 Z " />
<glyph glyph-name="Iacute" unicode="&#xcd;" horiz-adv-x="330" d="M105.152 690.159 C109.068 694.271 187.775 777 218 816 C241 842 256 861 256 866 C256 877 220 904 205 904 C202.188 904 190.586 885.543 175.963 857.693 C175.807 857.396 170.842 849.135 170.644 848.864 C139.63 806.371 94 698 94 698 C94 698 95.6702 696.785 99.5 694 C102.511 691.81 102.584 687.463 105.152 690.159 L105.152 690.159 Z M284.5 1.25 L279 2 C241 5 215 33 215 72 L215 588 C215 627 241 655 279 658 L284.5 658.75 C284.91 658.806 284.863 659.5 284.449 659.5 L45.5509 659.5 C45.1369 659.5 45.0898 658.806 45.5 658.75 L51 658 C89 655 115 627 115 588 L115 72 C115 33 89 5 51 2 L45.5 1.25 C45.0838 1.19325 45.1308 0.489738 45.5509 0.488898 L284.449 0.0111018 C284.857 0.010286 284.904 1.19489 284.5 1.25 L284.5 1.25 Z " />
<glyph glyph-name="Icircumflex" unicode="&#xce;" horiz-adv-x="330" d="M194 879 C190 887 179 905 165 905 C150 905 140 888 136 880 C136 880 44 701 44 700 L49 696 C51.7555 693.796 55.5122 693.78 57.8006 696.466 C99.3383 745.225 131.994 781.766 154.644 807.213 C160.962 814.311 172.82 812.175 179.043 804.995 C220.11 757.61 276 692 276 692 C276 692 278.154 693.723 281 696 C283.717 698.173 287.592 697.099 285.918 700.149 C283.797 704.012 240.8 782.475 194 879 L194 879 Z M136 851 L136 851 L136 851 Z M284.5 0.25 L279 1 C241 4 215 32 215 71 L215 587 C215 626 241 654 279 657 L284.5 657.75 C284.91 657.806 284.863 658.5 284.449 658.5 L45.5509 658.5 C45.1369 658.5 45.0898 657.806 45.5 657.75 L51 657 C89 654 115 626 115 587 L115 71 C115 32 89 4 51 1 L45.5 0.25 C45.0838 0.193246 45.1308 -0.510262 45.5509 -0.511102 L284.449 -0.988898 C284.857 -0.989714 284.904 0.194887 284.5 0.25 L284.5 0.25 Z " />
<glyph glyph-name="Idieresis" unicode="&#xcf;" horiz-adv-x="330" d="M261 730 C294 730 316 752 316 785 C316 818 294 840 261 840 C228 840 206 818 206 785 C206 752 228 730 261 730 L261 730 Z M69 730 C102 730 124 752 124 785 C124 818 102 840 69 840 C36 840 14 818 14 785 C14 752 36 730 69 730 L69 730 Z M284.5 1.25 L279 2 C241 5 215 33 215 72 L215 588 C215 627 241 655 279 658 L284.5 658.75 C284.91 658.806 284.863 659.5 284.449 659.5 L45.5509 659.5 C45.1369 659.5 45.0898 658.806 45.5 658.75 L51 658 C89 655 115 627 115 588 L115 72 C115 33 89 5 51 2 L45.5 1.25 C45.0838 1.19325 45.1308 0.489738 45.5509 0.488898 L284.449 0.0111018 C284.857 0.010286 284.904 1.19489 284.5 1.25 L284.5 1.25 Z " />
<glyph glyph-name="Ntilde" unicode="&#xd1;" horiz-adv-x="716" d="M218.281 763.089 C220.515 794.55 235.923 815 259 815 C311 815 380 753 432 753 C479.775 753 511.389 798.63 512.94 867.645 C513.035 871.877 509.733 873 505.5 873 C501.673 873 497.989 868.715 497.7 864.899 C495.244 832.535 477.9 812 452 812 C400 812 331 875 279 875 C234.15 875 204.51 829.37 203.056 760.355 C202.967 756.129 206.273 755 210.5 755 C214.347 755 218.008 759.252 218.281 763.089 L218.281 763.089 Z M571 588 L571 320.357 C571 263.937 501.485 241.738 468.785 287.714 L220.903 636.234 C213.284 646.947 187.983 659.951 174.836 659.911 L45.5509 659.517 C45.1276 659.516 45.0806 658.807 45.5 658.75 L51 658 C89 655 115 627 115 588 L115 72 C115 33 89 5 51 2 L45.5 1.25 C45.0898 1.19407 45.1369 0.5 45.5509 0.5 L214.449 0.5 C214.863 0.5 214.91 1.19407 214.5 1.25 L209 2 C171 5 145 33 145 72 L145 395.545 C145 451.911 214.312 474.16 247.118 428.324 L558.397 -6.58261 C562.707 -12.605 577.094 -20 584.5 -20 C593.608 -20 601 -12.6075 601 -3.5 L601 588 C601 627 627 655 665 658 L670.5 658.75 C670.91 658.806 670.863 659.5 670.449 659.5 L501.551 659.5 C501.137 659.5 501.09 658.806 501.5 658.75 L507 658 C545 655 571 627 571 588 L571 588 Z M145 619 L145 619 L145 619 Z " />
<glyph glyph-name="Ograve" unicode="&#xd2;" horiz-adv-x="760" d="M160 330 C160 497 235 640 380 640 C525 640 600 497 600 330 C600 163 525 20 380 20 C235 20 160 163 160 330 L160 330 Z M50 330 C50 149 162 -5 380 -5 C598 -5 710 149 710 330 C710 511 598 665 380 665 C162 665 50 511 50 330 L50 330 Z M297 866 C297 860 313 841 336 816 C368 776 452 690 452 690 C452 690 453.989 691.447 457.5 694 C460.473 696.162 464.399 694.85 462.907 698.209 C460.573 703.467 414.647 806.533 383.433 848.793 C383.218 849.083 378.205 857.373 378.037 857.693 C363.41 885.543 351.75 904 348 904 C333 904 297 877 297 866 L297 866 Z " />
<glyph glyph-name="Oacute" unicode="&#xd3;" horiz-adv-x="760" d="M357.152 690.159 C361.068 694.271 439.775 777 470 816 C493 842 508 861 508 866 C508 877 472 904 457 904 C454.188 904 442.586 885.543 427.963 857.693 C427.807 857.396 422.842 849.135 422.644 848.864 C391.63 806.371 346 698 346 698 C346 698 347.67 696.785 351.5 694 C354.511 691.81 354.584 687.463 357.152 690.159 L357.152 690.159 Z M160 330 C160 497 235 640 380 640 C525 640 600 497 600 330 C600 163 525 20 380 20 C235 20 160 163 160 330 L160 330 Z M50 330 C50 149 162 -5 380 -5 C598 -5 710 149 710 330 C710 511 598 665 380 665 C162 665 50 511 50 330 L50 330 Z " />
<glyph glyph-name="Ocircumflex" unicode="&#xd4;" horiz-adv-x="760" d="M160 330 C160 497 235 640 380 640 C525 640 600 497 600 330 C600 163 525 20 380 20 C235 20 160 163 160 330 L160 330 Z M50 330 C50 149 162 -5 380 -5 C598 -5 710 149 710 330 C710 511 598 665 380 665 C162 665 50 511 50 330 L50 330 Z M409 879 C405 887 394 905 380 905 C365 905 355 888 351 880 C351 880 259 701 259 700 L264 696 C266.755 693.796 270.512 693.78 272.801 696.466 C314.338 745.225 346.994 781.766 369.644 807.213 C375.962 814.311 387.82 812.175 394.043 804.995 C435.11 757.61 491 692 491 692 C491 692 493.154 693.723 496 696 C498.717 698.173 502.592 697.099 500.918 700.149 C498.797 704.012 455.8 782.475 409 879 L409 879 Z M351 851 L351 851 L351 851 Z " />
<glyph glyph-name="Otilde" unicode="&#xd5;" horiz-adv-x="760" d="M240.281 763.089 C242.515 794.55 257.923 815 281 815 C333 815 402 753 454 753 C501.775 753 533.389 798.63 534.94 867.645 C535.035 871.877 531.733 873 527.5 873 C523.673 873 519.989 868.715 519.7 864.899 C517.244 832.535 499.9 812 474 812 C422 812 353 875 301 875 C256.15 875 226.51 829.37 225.056 760.355 C224.967 756.129 228.273 755 232.5 755 C236.347 755 240.008 759.252 240.281 763.089 L240.281 763.089 Z M160 330 C160 497 235 640 380 640 C525 640 600 497 600 330 C600 163 525 20 380 20 C235 20 160 163 160 330 L160 330 Z M50 330 C50 149 162 -5 380 -5 C598 -5 710 149 710 330 C710 511 598 665 380 665 C162 665 50 511 50 330 L50 330 Z " />
<glyph glyph-name="Odieresis" unicode="&#xd6;" horiz-adv-x="760" d="M476 730 C509 730 531 752 531 785 C531 818 509 840 476 840 C443 840 421 818 421 785 C421 752 443 730 476 730 L476 730 Z M284 730 C317 730 339 752 339 785 C339 818 317 840 284 840 C251 840 229 818 229 785 C229 752 251 730 284 730 L284 730 Z M160 330 C160 497 235 640 380 640 C525 640 600 497 600 330 C600 163 525 20 380 20 C235 20 160 163 160 330 L160 330 Z M50 330 C50 149 162 -5 380 -5 C598 -5 710 149 710 330 C710 511 598 665 380 665 C162 665 50 511 50 330 L50 330 Z " />
<glyph glyph-name="Oslash" unicode="&#xd8;" horiz-adv-x="760" d="M81.9123 -4.91281 L131.828 45.5515 C143.731 57.5848 173.133 57.3469 187.269 48.0377 C237.832 14.7381 302.45 -5 380 -5 C598 -5 710 149 710 330 C710 400.95 692.984 467.816 658.953 522.738 C649.391 538.17 649.614 570.936 662.312 583.912 L710.175 632.827 C718.909 641.754 718.831 656.169 710 665 C701.169 673.831 686.871 673.792 678.088 664.913 L628.172 614.449 C616.269 602.415 586.867 602.653 572.731 611.962 C522.168 645.262 457.55 665 380 665 C162 665 50 511 50 330 C50 259.05 67.0156 192.184 101.047 137.262 C110.609 121.83 110.386 89.0644 97.6884 76.0881 L49.8252 27.173 C41.0907 18.2465 41.169 3.831 50 -5 C58.8314 -13.8314 73.1293 -13.7923 81.9123 -4.91281 L81.9123 -4.91281 Z M525.346 509.993 L205.127 185.376 C195.507 175.624 181.954 179.812 177.938 192.908 C165.126 234.692 159 281.325 159 330 C159 497 234 640 379 640 C442.525 640 492.778 612.094 529.197 566.952 C543.821 548.825 541.702 526.574 525.346 509.993 L525.346 509.993 Z M580.062 467.092 C592.874 425.308 599 378.675 599 330 C599 163 524 20 379 20 C315.475 20 265.563 47.9056 229.262 93.0481 C214.695 111.164 217.316 133.47 233.619 150.042 L552.899 474.599 C562.498 484.358 576.048 480.179 580.062 467.092 L580.062 467.092 Z " />
<glyph glyph-name="Ugrave" unicode="&#xd9;" horiz-adv-x="680" d="M257 866 C257 860 273 841 296 816 C328 776 412 690 412 690 C412 690 413.989 691.447 417.5 694 C420.473 696.162 424.399 694.85 422.907 698.209 C420.573 703.467 374.647 806.533 343.433 848.793 C343.218 849.083 338.205 857.373 338.037 857.693 C323.41 885.543 311.75 904 308 904 C293 904 257 877 257 866 L257 866 Z M105 588 L105 215 C105 83 172 -5 345 -5 C511 -5 575 71 575 185 L575 578 C575 623 604 655 647 658 L653.5 658.75 C653.911 658.797 653.871 659.5 653.457 659.5 L462.537 659.5 C462.123 659.5 462.088 658.791 462.5 658.75 L470 658 C515 655 545 623 545 578 L545 195 C545 96 493 30 360 30 C248 30 205 96 205 196 L205 588 C205 627 231 655 269 658 L274.5 658.75 C274.91 658.806 274.863 659.5 274.449 659.5 L35.5509 659.5 C35.1369 659.5 35.0898 658.806 35.5 658.75 L41 658 C79 655 105 627 105 588 L105 588 Z " />
<glyph glyph-name="Uacute" unicode="&#xda;" horiz-adv-x="680" d="M340.152 690.159 C344.068 694.271 422.775 777 453 816 C476 842 491 861 491 866 C491 877 455 904 440 904 C437.188 904 425.586 885.543 410.963 857.693 C410.807 857.396 405.842 849.135 405.644 848.864 C374.63 806.371 329 698 329 698 C329 698 330.67 696.785 334.5 694 C337.511 691.81 337.584 687.463 340.152 690.159 L340.152 690.159 Z M105 588 L105 215 C105 83 172 -5 345 -5 C511 -5 575 71 575 185 L575 578 C575 623 604 655 647 658 L653.5 658.75 C653.911 658.797 653.871 659.5 653.457 659.5 L462.537 659.5 C462.123 659.5 462.088 658.791 462.5 658.75 L470 658 C515 655 545 623 545 578 L545 195 C545 96 493 30 360 30 C248 30 205 96 205 196 L205 588 C205 627 231 655 269 658 L274.5 658.75 C274.91 658.806 274.863 659.5 274.449 659.5 L35.5509 659.5 C35.1369 659.5 35.0898 658.806 35.5 658.75 L41 658 C79 655 105 627 105 588 L105 588 Z " />
<glyph glyph-name="Ucircumflex" unicode="&#xdb;" horiz-adv-x="680" d="M369 879 C365 887 354 905 340 905 C325 905 315 888 311 880 C311 880 219 701 219 700 L224 696 C226.755 693.796 230.512 693.78 232.801 696.466 C274.338 745.225 306.994 781.766 329.644 807.213 C335.962 814.311 347.82 812.175 354.043 804.995 C395.11 757.61 451 692 451 692 C451 692 453.154 693.723 456 696 C458.717 698.173 462.592 697.099 460.918 700.149 C458.797 704.012 415.8 782.475 369 879 L369 879 Z M311 851 L311 851 L311 851 Z M105 587 L105 214 C105 82 172 -6 345 -6 C511 -6 575 70 575 184 L575 577 C575 622 604 654 647 657 L653.5 657.75 C653.911 657.797 653.871 658.5 653.457 658.5 L462.537 658.5 C462.123 658.5 462.088 657.791 462.5 657.75 L470 657 C515 654 545 622 545 577 L545 194 C545 95 493 29 360 29 C248 29 205 95 205 195 L205 587 C205 626 231 654 269 657 L274.5 657.75 C274.91 657.806 274.863 658.5 274.449 658.5 L35.5509 658.5 C35.1369 658.5 35.0898 657.806 35.5 657.75 L41 657 C79 654 105 626 105 587 L105 587 Z " />
<glyph glyph-name="Udieresis" unicode="&#xdc;" horiz-adv-x="680" d="M436 730 C469 730 491 752 491 785 C491 818 469 840 436 840 C403 840 381 818 381 785 C381 752 403 730 436 730 L436 730 Z M244 730 C277 730 299 752 299 785 C299 818 277 840 244 840 C211 840 189 818 189 785 C189 752 211 730 244 730 L244 730 Z M105 588 L105 215 C105 83 172 -5 345 -5 C511 -5 575 71 575 185 L575 578 C575 623 604 655 647 658 L653.5 658.75 C653.911 658.797 653.871 659.5 653.457 659.5 L462.537 659.5 C462.123 659.5 462.088 658.791 462.5 658.75 L470 658 C515 655 545 623 545 578 L545 195 C545 96 493 30 360 30 C248 30 205 96 205 196 L205 588 C205 627 231 655 269 658 L274.5 658.75 C274.91 658.806 274.863 659.5 274.449 659.5 L35.5509 659.5 C35.1369 659.5 35.0898 658.806 35.5 658.75 L41 658 C79 655 105 627 105 588 L105 588 Z " />
<glyph glyph-name="Yacute" unicode="&#xdd;" horiz-adv-x="645" d="M323.152 690.159 C327.068 694.271 405.775 777 436 816 C459 842 474 861 474 866 C474 877 438 904 423 904 C420.188 904 408.586 885.543 393.963 857.693 C393.807 857.396 388.842 849.135 388.644 848.864 C357.63 806.371 312 698 312 698 C312 698 313.67 696.785 317.5 694 C320.511 691.81 320.584 687.463 323.152 690.159 L323.152 690.159 Z M631.909 659.5 L460.527 659.5 C460.113 659.5 460.087 658.779 460.5 658.75 L471 658 C516.825 655.075 532.23 626.483 512.581 584.274 C512.491 584.081 509.793 579.044 509.681 578.862 L408.162 414.308 C383.936 375.04 333.775 376.049 311.147 416.258 L210 596 C194 631 207 655 243 657 L253.5 658.25 C254.185 658.332 254.116 659.5 253.426 659.5 L18.6682 659.5 C17.3144 659.5 17.7456 655.655 19.0361 655.246 C48.305 645.967 74.375 624.3 95 588 L264.55 292.006 C266.594 288.437 272 268.124 272 264.012 L272 72 C272 33 246 5 208 2 L202.5 1.25 C202.09 1.19407 202.137 0.5 202.551 0.5 L441.449 0.5 C441.863 0.5 441.91 1.19407 441.5 1.25 L436 2 C398 5 372 33 372 72 L372 298.818 C372 303.559 378.033 324.631 380.55 328.65 C434.702 415.1 488.9 501.55 544 588 C567.1 624.3 596.666 645.967 631.013 654.684 C632.069 654.952 632.998 659.5 631.909 659.5 L631.909 659.5 Z " />
<glyph glyph-name="agrave" unicode="&#xe0;" horiz-adv-x="500" d="M472.468 44.1561 C463.146 37.0945 450.826 33 431 33 C400 33 391 59 391 97 L391 355 C391 445 337 505 257 505 C165.2 505 93.63 473.21 66.2409 423.141 C55.3992 403.321 67.0432 395 89.6341 395 L120.014 395 C130.732 395 149.421 410.231 153.548 420.122 C168.876 456.859 199.875 480 237 480 C273 480 297 438 297 375 L297 274.142 C297 266.445 290.967 259.145 283.351 258.03 C258.512 254.396 231.211 250.053 211 245 C106 219 36 162 36 104 C36 39 83 -5 153 -5 C197.1 -5 245.25 12.01 286.515 40.927 C292.983 45.4599 302.144 40.3329 304.842 32.9095 C314.385 6.65437 333.525 -9 369 -9 C421.725 -9 455.626 7.25688 482.576 31.8561 C485.891 34.8823 486.674 40.3259 483.5 43.5 L483 44 C480.617 46.3825 475.154 46.1905 472.468 44.1561 L472.468 44.1561 Z M140 707 C140 701 156 682 179 657 C211 616 296 531 296 531 C296 531 297.917 532.533 301 535 C303.666 537.133 307.262 536.076 305.909 539.211 C303.621 544.514 258.599 648.461 227.431 689.864 C227.178 690.2 222.242 698.32 222.048 698.693 C207.527 726.543 196.688 745 192 745 C176 745 140 718 140 707 L140 707 Z M297 224.742 L297 88 L297 82 C297 78.8268 293.508 74.3934 290.584 73.1606 C263.744 61.845 231.3 55 198 55 C154 55 124 85 124 129 C124 169 158 204 210 217 C236.231 223.769 262.82 229.822 284.92 234.554 C291.426 235.947 297 231.396 297 224.742 L297 224.742 Z " />
<glyph glyph-name="aacute" unicode="&#xe1;" horiz-adv-x="500" d="M193.154 530.159 C197.118 534.271 276.775 617 307 656 C330 682 345 701 345 706 C345 717 309 744 293 744 C289.25 744 278.469 725.543 263.952 697.693 C263.792 697.386 258.85 689.144 258.646 688.864 C227.679 646.371 183 538 183 538 C183 538 184.321 536.944 188 534 C190.75 531.8 190.71 527.624 193.154 530.159 L193.154 530.159 Z M472.468 44.1561 C463.146 37.0945 450.826 33 431 33 C400 33 391 59 391 97 L391 355 C391 445 337 505 257 505 C165.2 505 93.63 473.21 66.2409 423.141 C55.3992 403.321 67.0432 395 89.6341 395 L120.014 395 C130.732 395 149.421 410.231 153.548 420.122 C168.876 456.859 199.875 480 237 480 C273 480 297 438 297 375 L297 274.142 C297 266.445 290.967 259.145 283.351 258.03 C258.512 254.396 231.211 250.053 211 245 C106 219 36 162 36 104 C36 39 83 -5 153 -5 C197.1 -5 245.25 12.01 286.515 40.927 C292.983 45.4599 302.144 40.3329 304.842 32.9095 C314.385 6.65437 333.525 -9 369 -9 C421.725 -9 455.626 7.25688 482.576 31.8561 C485.891 34.8823 486.674 40.3259 483.5 43.5 L483 44 C480.617 46.3825 475.154 46.1905 472.468 44.1561 L472.468 44.1561 Z M297 224.742 L297 88 L297 82 C297 78.8268 293.508 74.3934 290.584 73.1606 C263.744 61.845 231.3 55 198 55 C154 55 124 85 124 129 C124 169 158 204 210 217 C236.231 223.769 262.82 229.822 284.92 234.554 C291.426 235.947 297 231.396 297 224.742 L297 224.742 Z " />
<glyph glyph-name="acircumflex" unicode="&#xe2;" horiz-adv-x="500" d="M472.468 44.1561 C463.146 37.0945 450.826 33 431 33 C400 33 391 59 391 97 L391 355 C391 445 337 505 257 505 C165.2 505 93.63 473.21 66.2409 423.141 C55.3992 403.321 67.0432 395 89.6341 395 L120.014 395 C130.732 395 149.421 410.231 153.548 420.122 C168.876 456.859 199.875 480 237 480 C273 480 297 438 297 375 L297 274.142 C297 266.445 290.967 259.145 283.351 258.03 C258.512 254.396 231.211 250.053 211 245 C106 219 36 162 36 104 C36 39 83 -5 153 -5 C197.1 -5 245.25 12.01 286.515 40.927 C292.983 45.4599 302.144 40.3329 304.842 32.9095 C314.385 6.65437 333.525 -9 369 -9 C421.725 -9 455.626 7.25688 482.576 31.8561 C485.891 34.8823 486.674 40.3259 483.5 43.5 L483 44 C480.617 46.3825 475.154 46.1905 472.468 44.1561 L472.468 44.1561 Z M252 720 C248 728 237 746 224 746 C209 746 199 729 195 721 C195 721 103 542 103 541 L107.5 537 C109.981 534.795 113.648 534.94 115.801 537.466 C157.338 586.225 189.994 622.766 212.644 648.213 C218.986 655.338 230.768 653.396 237.071 646.238 C278.3 599.42 335 533 335 533 C335 533 337.065 534.836 339.5 537 C341.92 539.151 345.476 538.311 343.918 541.149 C341.798 545.012 298.8 623.475 252 720 L252 720 Z M195 692 L195 692 L195 692 Z M297 224.742 L297 88 L297 82 C297 78.8268 293.508 74.3934 290.584 73.1606 C263.744 61.845 231.3 55 198 55 C154 55 124 85 124 129 C124 169 158 204 210 217 C236.231 223.769 262.82 229.822 284.92 234.554 C291.426 235.947 297 231.396 297 224.742 L297 224.742 Z " />
<glyph glyph-name="atilde" unicode="&#xe3;" horiz-adv-x="500" d="M83.2831 602.892 C85.595 634.465 101.875 655 125 655 C177 655 246 593 298 593 C345.775 593 377.389 638.63 378.94 707.645 C379.035 711.877 375.733 713 371.5 713 C367.673 713 363.989 708.715 363.7 704.899 C361.244 672.535 343.9 652 318 652 C266 652 196 715 144 715 C99.15 715 69.51 669.37 68.056 600.355 C67.967 596.129 71.273 595 75.5 595 C79.3374 595 83.0028 599.065 83.2831 602.892 L83.2831 602.892 Z M472.468 44.1561 C463.146 37.0945 450.826 33 431 33 C400 33 391 59 391 97 L391 355 C391 445 337 505 257 505 C165.2 505 93.63 473.21 66.2409 423.141 C55.3992 403.321 67.0432 395 89.6341 395 L120.014 395 C130.732 395 149.421 410.231 153.548 420.122 C168.876 456.859 199.875 480 237 480 C273 480 297 438 297 375 L297 274.142 C297 266.445 290.967 259.145 283.351 258.03 C258.512 254.396 231.211 250.053 211 245 C106 219 36 162 36 104 C36 39 83 -5 153 -5 C197.1 -5 245.25 12.01 286.515 40.927 C292.983 45.4599 302.144 40.3329 304.842 32.9095 C314.385 6.65437 333.525 -9 369 -9 C421.725 -9 455.626 7.25688 482.576 31.8561 C485.891 34.8823 486.674 40.3259 483.5 43.5 L483 44 C480.617 46.3825 475.154 46.1905 472.468 44.1561 L472.468 44.1561 Z M297 224.742 L297 88 L297 82 C297 78.8268 293.508 74.3934 290.584 73.1606 C263.744 61.845 231.3 55 198 55 C154 55 124 85 124 129 C124 169 158 204 210 217 C236.231 223.769 262.82 229.822 284.92 234.554 C291.426 235.947 297 231.396 297 224.742 L297 224.742 Z " />
<glyph glyph-name="adieresis" unicode="&#xe4;" horiz-adv-x="500" d="M319 570 C352 570 374 592 374 625 C374 658 352 680 319 680 C286 680 264 658 264 625 C264 592 286 570 319 570 L319 570 Z M128 570 C161 570 183 592 183 625 C183 658 161 680 128 680 C95 680 73 658 73 625 C73 592 95 570 128 570 L128 570 Z M472.468 44.1561 C463.146 37.0945 450.826 33 431 33 C400 33 391 59 391 97 L391 355 C391 445 337 505 257 505 C165.2 505 93.63 473.21 66.2409 423.141 C55.3992 403.321 67.0432 395 89.6341 395 L120.014 395 C130.732 395 149.421 410.231 153.548 420.122 C168.876 456.859 199.875 480 237 480 C273 480 297 438 297 375 L297 274.142 C297 266.445 290.967 259.145 283.351 258.03 C258.512 254.396 231.211 250.053 211 245 C106 219 36 162 36 104 C36 39 83 -5 153 -5 C197.1 -5 245.25 12.01 286.515 40.927 C292.983 45.4599 302.144 40.3329 304.842 32.9095 C314.385 6.65437 333.525 -9 369 -9 C421.725 -9 455.626 7.25688 482.576 31.8561 C485.891 34.8823 486.674 40.3259 483.5 43.5 L483 44 C480.617 46.3825 475.154 46.1905 472.468 44.1561 L472.468 44.1561 Z M297 224.742 L297 88 L297 82 C297 78.8268 293.508 74.3934 290.584 73.1606 C263.744 61.845 231.3 55 198 55 C154 55 124 85 124 129 C124 169 158 204 210 217 C236.231 223.769 262.82 229.822 284.92 234.554 C291.426 235.947 297 231.396 297 224.742 L297 224.742 Z " />
<glyph glyph-name="aring" unicode="&#xe5;" horiz-adv-x="500" d="M153 628 C153 671 181 700 224 700 C266 700 294 671 294 628 C294 589 262 555 224 555 C186 555 153 589 153 628 L153 628 Z M128 628 C128 578 172 535 224 535 C275 535 319 578 319 628 C319 683 281 720 224 720 C166 720 128 683 128 628 L128 628 Z M472.468 44.1561 C463.146 37.0945 450.826 33 431 33 C400 33 391 59 391 97 L391 355 C391 445 337 505 257 505 C165.2 505 93.63 473.21 66.2409 423.141 C55.3992 403.321 67.0432 395 89.6341 395 L120.014 395 C130.732 395 149.421 410.231 153.548 420.122 C168.876 456.859 199.875 480 237 480 C273 480 297 438 297 375 L297 274.142 C297 266.445 290.967 259.145 283.351 258.03 C258.512 254.396 231.211 250.053 211 245 C106 219 36 162 36 104 C36 39 83 -5 153 -5 C197.1 -5 245.25 12.01 286.515 40.927 C292.983 45.4599 302.144 40.3329 304.842 32.9095 C314.385 6.65437 333.525 -9 369 -9 C421.725 -9 455.626 7.25688 482.576 31.8561 C485.891 34.8823 486.674 40.3259 483.5 43.5 L483 44 C480.617 46.3825 475.154 46.1905 472.468 44.1561 L472.468 44.1561 Z M297 224.742 L297 88 L297 82 C297 78.8268 293.508 74.3934 290.584 73.1606 C263.744 61.845 231.3 55 198 55 C154 55 124 85 124 129 C124 169 158 204 210 217 C236.231 223.769 262.82 229.822 284.92 234.554 C291.426 235.947 297 231.396 297 224.742 L297 224.742 Z " />
<glyph glyph-name="ccedilla" unicode="&#xe7;" horiz-adv-x="504" d="M212 -92 L211 -94 C211 -93 211 -92 211 -91 L212 -92 L212 -92 Z M223.089 -64.9072 C240.315 -31.7793 254.358 -15.3038 263.356 -7.56738 C264.981 -6.16992 270.897 -3.82054 273.034 -3.65706 C336.902 1.22831 404.561 26.6004 448.575 62.1708 C451.384 64.4407 450.256 67.18 448 70 C446.151 72.3107 440.586 72.4051 438.023 70.926 C417.53 59.1 374.6 51 326 51 C217 51 144 137 144 267 C144 395 203 481 291 481 C333 481 364 451 368 405 C370 379 388 361 413 361 C436.226 361 451.959 375.984 452.95 398.703 C452.973 399.22 452.521 405.172 452.449 405.685 C443.984 466.074 384.85 506 301 506 C150 506 49 396 49 232 C49 113.85 104.632 28.935 192.561 3.66238 C211.715 -1.84299 231.055 -28.7706 223 -47 L205.356 -86.932 C204.608 -88.6235 205.346 -90.673 207 -91.5 C208.295 -92.1473 210.771 -92.5857 212.063 -91.9346 C228.75 -83.5296 249.64 -78 265 -78 C297 -78 319 -100 319 -133 C319 -169 290 -193 247 -193 C218.765 -193 193.644 -189.107 181.254 -182.696 C178.931 -181.494 175.894 -183.042 175 -185.5 C173.843 -188.682 175.2 -192.799 177.987 -194.722 C199.533 -209.588 233.55 -219 265 -219 C330 -219 374 -185 374 -133 C374 -89 339 -60 286 -60 C266.71 -60 243.902 -64.2206 227.017 -70.8919 C224.199 -72.0052 221.691 -67.5953 223.089 -64.9072 L223.089 -64.9072 Z " />
<glyph glyph-name="egrave" unicode="&#xe8;" horiz-adv-x="510" d="M455 69 C453.166 71.2921 447.518 71.3754 444.966 69.926 C424.14 58.1 379.5 50 330 50 C218 50 148.875 135.75 144.732 259.686 C143.659 291.793 165.283 315 197.409 315 L402.68 315 C441.182 315 461.67 333.764 452.486 371.155 C432.317 453.272 366.75 505 276 505 C140 505 49 395 49 231 C49 89 131 -5 254 -5 C325.175 -5 405.381 21.6175 454.763 60.9496 C457.595 63.2054 457.262 66.1727 455 69 L455 69 Z M193 706 C193 700 209 681 232 656 C264 616 348 530 348 530 C348 530 349.989 531.447 353.5 534 C356.473 536.162 360.399 534.85 358.907 538.209 C356.573 543.467 310.647 646.533 279.433 688.793 C279.218 689.083 274.205 697.373 274.037 697.693 C259.41 725.543 247.75 744 244 744 C229 744 193 717 193 706 L193 706 Z M333 345 L194.507 335.215 C167.308 333.293 151.181 350.142 159.562 376.089 C180.271 440.204 219.85 479 271 479 C333 479 375 443 375 390 C375 364 358.5 346.5 333.5 344.5 L333 345 Z " />
<glyph glyph-name="eacute" unicode="&#xe9;" horiz-adv-x="510" d="M247.152 530.159 C251.068 534.271 329.775 617 360 656 C383 682 398 701 398 706 C398 717 362 744 347 744 C344.188 744 332.586 725.543 317.963 697.693 C317.807 697.396 312.842 689.135 312.644 688.864 C281.63 646.371 236 538 236 538 C236 538 237.67 536.785 241.5 534 C244.511 531.81 244.584 527.463 247.152 530.159 L247.152 530.159 Z M455 69 C453.166 71.2921 447.518 71.3754 444.966 69.926 C424.14 58.1 379.5 50 330 50 C218 50 148.875 135.75 144.732 259.686 C143.659 291.793 165.283 315 197.409 315 L402.68 315 C441.182 315 461.67 333.764 452.486 371.155 C432.317 453.272 366.75 505 276 505 C140 505 49 395 49 231 C49 89 131 -5 254 -5 C325.175 -5 405.381 21.6175 454.763 60.9496 C457.595 63.2054 457.262 66.1727 455 69 L455 69 Z M333 345 L194.507 335.215 C167.308 333.293 151.181 350.142 159.562 376.089 C180.271 440.204 219.85 479 271 479 C333 479 375 443 375 390 C375 364 358.5 346.5 333.5 344.5 L333 345 Z " />
<glyph glyph-name="ecircumflex" unicode="&#xea;" horiz-adv-x="510" d="M455 69 C453.166 71.2921 447.518 71.3754 444.966 69.926 C424.14 58.1 379.5 50 330 50 C218 50 148.875 135.75 144.732 259.686 C143.659 291.793 165.283 315 197.409 315 L402.68 315 C441.182 315 461.67 333.764 452.486 371.155 C432.317 453.272 366.75 505 276 505 C140 505 49 395 49 231 C49 89 131 -5 254 -5 C325.175 -5 405.381 21.6175 454.763 60.9496 C457.595 63.2054 457.262 66.1727 455 69 L455 69 Z M305 719 C301 727 290 745 276 745 C261 745 251 728 247 720 C247 720 155 541 155 540 L160 536 C162.755 533.796 166.512 533.78 168.801 536.466 C210.338 585.225 242.994 621.766 265.644 647.213 C271.962 654.311 283.82 652.175 290.043 644.995 C331.11 597.61 387 532 387 532 C387 532 389.154 533.723 392 536 C394.717 538.173 398.592 537.099 396.918 540.149 C394.798 544.012 351.8 622.475 305 719 L305 719 Z M247 691 L247 691 L247 691 Z M333 345 L194.507 335.215 C167.308 333.293 151.181 350.142 159.562 376.089 C180.271 440.204 219.85 479 271 479 C333 479 375 443 375 390 C375 364 358.5 346.5 333.5 344.5 L333 345 Z " />
<glyph glyph-name="edieresis" unicode="&#xeb;" horiz-adv-x="510" d="M373 570 C406 570 428 592 428 625 C428 658 406 680 373 680 C340 680 318 658 318 625 C318 592 340 570 373 570 L373 570 Z M181 570 C214 570 236 592 236 625 C236 658 214 680 181 680 C148 680 126 658 126 625 C126 592 148 570 181 570 L181 570 Z M455 69 C453.166 71.2921 447.518 71.3754 444.966 69.926 C424.14 58.1 379.5 50 330 50 C218 50 148.875 135.75 144.732 259.686 C143.659 291.793 165.283 315 197.409 315 L402.68 315 C441.182 315 461.67 333.764 452.486 371.155 C432.317 453.272 366.75 505 276 505 C140 505 49 395 49 231 C49 89 131 -5 254 -5 C325.175 -5 405.381 21.6175 454.763 60.9496 C457.595 63.2054 457.262 66.1727 455 69 L455 69 Z M333 345 L194.507 335.215 C167.308 333.293 151.181 350.142 159.562 376.089 C180.271 440.204 219.85 479 271 479 C333 479 375 443 375 390 C375 364 358.5 346.5 333.5 344.5 L333 345 Z " />
<glyph glyph-name="igrave" unicode="&#xec;" horiz-adv-x="330" d="M82 706 C82 700 98 681 121 656 C153 616 237 530 237 530 C237 530 238.989 531.447 242.5 534 C245.473 536.162 249.399 534.85 247.907 538.209 C245.573 543.467 199.647 646.533 168.433 688.793 C168.218 689.083 163.205 697.373 163.037 697.693 C148.41 725.543 136.75 744 133 744 C118 744 82 717 82 706 L82 706 Z M279.5 1.25 L274 2 C236 5 210 33 210 72 L210 491 C210 495.968 205.968 500 201 500 L200.338 500 C199.004 500 185.296 497.971 184.02 497.584 L50.2695 457.095 C49.3012 456.802 49.4894 455.296 50.5 455.25 L56 455 C110 456 120 446 120 391 L120 72 C120 33 94 5 56 2 L50.5 1.25 C50.0836 1.19321 50.1306 0.489311 50.5509 0.488436 L279.449 0.0115644 C279.857 0.0107151 279.904 1.19492 279.5 1.25 L279.5 1.25 Z " />
<glyph glyph-name="iacute" unicode="&#xed;" horiz-adv-x="330" d="M90.1517 530.159 C94.0681 534.271 172.775 617 203 656 C226 682 241 701 241 706 C241 717 205 744 190 744 C187.188 744 175.586 725.543 160.963 697.693 C160.807 697.396 155.842 689.135 155.644 688.864 C124.63 646.371 79 538 79 538 C79 538 80.6702 536.785 84.5 534 C87.511 531.81 87.5839 527.463 90.1517 530.159 L90.1517 530.159 Z M279.5 1.25 L274 2 C236 5 210 33 210 72 L210 491 C210 495.968 205.968 500 201 500 L200.338 500 C199.004 500 185.296 497.971 184.02 497.584 L50.2695 457.095 C49.3012 456.802 49.4894 455.296 50.5 455.25 L56 455 C110 456 120 446 120 391 L120 72 C120 33 94 5 56 2 L50.5 1.25 C50.0836 1.19321 50.1306 0.489311 50.5509 0.488436 L279.449 0.0115644 C279.857 0.0107151 279.904 1.19492 279.5 1.25 L279.5 1.25 Z " />
<glyph glyph-name="icircumflex" unicode="&#xee;" horiz-adv-x="330" d="M194 719 C190 727 179 745 165 745 C150 745 140 728 136 720 C136 720 44 541 44 540 L49 536 C51.7555 533.796 55.5122 533.78 57.8006 536.466 C99.3383 585.225 131.994 621.766 154.644 647.213 C160.962 654.311 172.82 652.175 179.043 644.995 C220.11 597.61 276 532 276 532 C276 532 278.154 533.723 281 536 C283.717 538.173 287.592 537.099 285.918 540.149 C283.797 544.012 240.8 622.475 194 719 L194 719 Z M136 691 L136 691 L136 691 Z M279.5 0.25 L274 1 C236 4 210 32 210 71 L210 490 C210 494.968 205.968 499 201 499 L200.338 499 C199.004 499 185.296 496.971 184.02 496.584 L50.2695 456.095 C49.3012 455.802 49.4894 454.296 50.5 454.25 L56 454 C110 455 120 445 120 390 L120 71 C120 32 94 4 56 1 L50.5 0.25 C50.0836 0.193212 50.1306 -0.510689 50.5509 -0.511564 L279.449 -0.988436 C279.857 -0.989285 279.904 0.194921 279.5 0.25 L279.5 0.25 Z " />
<glyph glyph-name="idieresis" unicode="&#xef;" horiz-adv-x="330" d="M261 570 C294 570 316 592 316 625 C316 658 294 680 261 680 C228 680 206 658 206 625 C206 592 228 570 261 570 L261 570 Z M69 570 C102 570 124 592 124 625 C124 658 102 680 69 680 C36 680 14 658 14 625 C14 592 36 570 69 570 L69 570 Z M279.5 1.25 L274 2 C236 5 210 33 210 72 L210 491 C210 495.968 205.968 500 201 500 L200.338 500 C199.004 500 185.296 497.971 184.02 497.584 L50.2695 457.095 C49.3012 456.802 49.4894 455.296 50.5 455.25 L56 455 C110 456 120 446 120 391 L120 72 C120 33 94 5 56 2 L50.5 1.25 C50.0836 1.19321 50.1306 0.489311 50.5509 0.488436 L279.449 0.0115644 C279.857 0.0107151 279.904 1.19492 279.5 1.25 L279.5 1.25 Z " />
<glyph glyph-name="ntilde" unicode="&#xf1;" horiz-adv-x="631" d="M178.281 603.089 C180.515 634.55 195.923 655 219 655 C271 655 340 593 392 593 C439.775 593 471.389 638.63 472.94 707.645 C473.035 711.877 469.733 713 465.5 713 C461.673 713 457.989 708.715 457.7 704.899 C455.244 672.535 437.9 652 412 652 C360 652 291 715 239 715 C194.15 715 164.51 669.37 163.056 600.355 C162.967 596.129 166.273 595 170.5 595 C174.347 595 178.008 599.252 178.281 603.089 L178.281 603.089 Z M426 69 C425 31 399 4 362 1 L356.5 0.25 C356.09 0.194066 356.137 -0.5 356.551 -0.5 L585.449 -0.5 C585.863 -0.5 585.91 0.194066 585.5 0.25 L580 1 C542 4 516 32 516 71 L516 336 C516 437 483 504 399 504 C362.25 504 301 484.094 237.357 452.99 C224.522 446.717 210 454.714 210 469 L210 490 C210 494.968 205.968 499 201 499 L200.338 499 C199.004 499 185.296 496.971 184.02 496.584 L50.2695 456.095 C49.3012 455.802 49.4894 454.296 50.5 454.25 L56 454 C110 455 120 445 120 390 L120 71 C120 32 94 4 56 1 L50.5 0.25 C50.0898 0.194066 50.1369 -0.5 50.5509 -0.5 L279.449 -0.5 C279.863 -0.5 279.91 0.194066 279.5 0.25 L274 1 C236 4 210 32 210 71 L210 414.243 C210 422.281 215.202 429.858 222.993 431.837 C249.867 438.665 289.35 443 331 443 C399 443 426 396 426 326 C426 326 426.5 222 426.5 68 L426 69 Z " />
<glyph glyph-name="ograve" unicode="&#xf2;" horiz-adv-x="600" d="M150 250 C150 391 210 485 300 485 C390 485 450 391 450 250 C450 109 390 15 300 15 C210 15 150 109 150 250 L150 250 Z M50 250 C50 97 150 -5 300 -5 C450 -5 550 97 550 250 C550 403 450 505 300 505 C150 505 50 403 50 250 L50 250 Z M217 706 C217 700 233 681 256 656 C288 616 372 530 372 530 C372 530 373.989 531.447 377.5 534 C380.473 536.162 384.399 534.85 382.907 538.209 C380.573 543.467 334.647 646.533 303.433 688.793 C303.218 689.083 298.205 697.373 298.037 697.693 C283.41 725.543 271.75 744 268 744 C253 744 217 717 217 706 L217 706 Z " />
<glyph glyph-name="oacute" unicode="&#xf3;" horiz-adv-x="600" d="M270.152 530.159 C274.068 534.271 352.775 617 383 656 C406 682 421 701 421 706 C421 717 385 744 370 744 C367.188 744 355.586 725.543 340.963 697.693 C340.807 697.396 335.842 689.135 335.644 688.864 C304.63 646.371 259 538 259 538 C259 538 260.67 536.785 264.5 534 C267.511 531.81 267.584 527.463 270.152 530.159 L270.152 530.159 Z M150 250 C150 391 210 485 300 485 C390 485 450 391 450 250 C450 109 390 15 300 15 C210 15 150 109 150 250 L150 250 Z M50 250 C50 97 150 -5 300 -5 C450 -5 550 97 550 250 C550 403 450 505 300 505 C150 505 50 403 50 250 L50 250 Z " />
<glyph glyph-name="ocircumflex" unicode="&#xf4;" horiz-adv-x="600" d="M150 250 C150 391 210 485 300 485 C390 485 450 391 450 250 C450 109 390 15 300 15 C210 15 150 109 150 250 L150 250 Z M50 250 C50 97 150 -5 300 -5 C450 -5 550 97 550 250 C550 403 450 505 300 505 C150 505 50 403 50 250 L50 250 Z M329 719 C325 727 314 745 300 745 C285 745 275 728 271 720 C271 720 179 541 179 540 L184 536 C186.755 533.796 190.512 533.78 192.801 536.466 C234.338 585.225 266.994 621.766 289.644 647.213 C295.962 654.311 307.82 652.175 314.043 644.995 C355.11 597.61 411 532 411 532 C411 532 413.154 533.723 416 536 C418.717 538.173 422.592 537.099 420.918 540.149 C418.797 544.012 375.8 622.475 329 719 L329 719 Z M271 691 L271 691 L271 691 Z " />
<glyph glyph-name="otilde" unicode="&#xf5;" horiz-adv-x="600" d="M160.281 603.089 C162.515 634.55 177.923 655 201 655 C253 655 322 593 374 593 C421.775 593 453.389 638.63 454.94 707.645 C455.035 711.877 451.733 713 447.5 713 C443.673 713 439.989 708.715 439.7 704.899 C437.244 672.535 419.9 652 394 652 C342 652 273 715 221 715 C176.15 715 146.51 669.37 145.056 600.355 C144.967 596.129 148.273 595 152.5 595 C156.347 595 160.008 599.252 160.281 603.089 L160.281 603.089 Z M150 250 C150 391 210 485 300 485 C390 485 450 391 450 250 C450 109 390 15 300 15 C210 15 150 109 150 250 L150 250 Z M50 250 C50 97 150 -5 300 -5 C450 -5 550 97 550 250 C550 403 450 505 300 505 C150 505 50 403 50 250 L50 250 Z " />
<glyph glyph-name="odieresis" unicode="&#xf6;" horiz-adv-x="600" d="M396 570 C429 570 451 592 451 625 C451 658 429 680 396 680 C363 680 341 658 341 625 C341 592 363 570 396 570 L396 570 Z M204 570 C237 570 259 592 259 625 C259 658 237 680 204 680 C171 680 149 658 149 625 C149 592 171 570 204 570 L204 570 Z M150 250 C150 391 210 485 300 485 C390 485 450 391 450 250 C450 109 390 15 300 15 C210 15 150 109 150 250 L150 250 Z M50 250 C50 97 150 -5 300 -5 C450 -5 550 97 550 250 C550 403 450 505 300 505 C150 505 50 403 50 250 L50 250 Z " />
<glyph glyph-name="oslash" unicode="&#xf8;" horiz-adv-x="600" d="M71.9206 -4.92115 L109.858 33.566 C119.353 43.1982 142.661 43.1101 153.932 35.6333 C193.637 9.29312 243.075 -5 300 -5 C450 -5 550 97 550 250 C550 307.75 535.707 358.013 509.928 398.543 C502.687 409.927 502.63 433.938 512.033 443.614 L550.158 482.844 C556.142 489.001 556.071 498.929 550 505 C543.928 511.072 534.107 511.036 528.079 504.921 L490.142 466.434 C480.647 456.802 457.339 456.89 446.068 464.367 C406.363 490.707 356.925 505 300 505 C150 505 50 403 50 250 C50 192.25 64.2931 141.987 90.0718 101.457 C97.3125 90.0725 97.3698 66.0617 87.9669 56.3863 L49.8418 17.156 C43.858 10.9989 43.9289 1.07105 50 -5 C56.0715 -11.0715 65.8929 -11.0362 71.9206 -4.92115 L71.9206 -4.92115 Z M400.383 373.961 L178.073 147.309 C172.039 141.157 163.168 144.494 161.128 152.866 C154.084 181.772 150 214.525 150 250 C150 391 210 485 300 485 C343.725 485 380.644 462.539 406.826 423.233 C417.668 406.956 414.078 387.924 400.383 373.961 L400.383 373.961 Z M438.872 346.134 C445.916 317.227 450 284.475 450 249 C450 108 390 14 300 14 C256.275 14 219.356 36.4606 193.174 75.7667 C182.332 92.044 185.922 111.076 199.617 125.039 L421.927 351.691 C427.961 357.843 436.832 354.506 438.872 346.134 L438.872 346.134 Z " />
<glyph glyph-name="ugrave" unicode="&#xf9;" horiz-adv-x="596" d="M205 706 C205 700 221 681 244 656 C276 616 360 530 360 530 C360 530 361.989 531.447 365.5 534 C368.473 536.162 372.399 534.85 370.907 538.209 C368.573 543.467 322.647 646.533 291.433 688.793 C291.218 689.083 286.205 697.373 286.037 697.693 C271.41 725.543 259.75 744 256 744 C241 744 205 717 205 706 L205 706 Z M396 428 L396 85.3078 C396 79.2172 393.146 72.4849 387.838 69.4976 C370.572 59.78 342.65 54 301 54 C221 54 180 98 180 164 L180.831 443.341 C180.924 474.614 155.614 499.923 124.341 499.828 L21.5509 499.517 C21.1277 499.516 21.0807 498.807 21.5 498.75 L27 498 C65 495 91 467 91 428 L91 155 C91 59 139 -5 231 -5 C286.275 -5 333.382 12.6962 372.884 41.3506 C382.211 48.1164 397 42.7905 397 31.2679 L397 9 C397 4.03227 401.032 0 406 0 L406.662 0 C407.996 0 421.704 2.02942 422.98 2.41576 L556.73 42.9048 C557.699 43.1979 557.511 44.7041 556.5 44.75 L551 45 C497 44 487 54 487 109 L487 443.509 C487 474.69 461.69 499.923 430.509 499.829 L327.551 499.517 C327.128 499.516 327.081 498.807 327.5 498.75 L333 498 C371 495 396.5 467 396.5 428 L396 428 Z " />
<glyph glyph-name="uacute" unicode="&#xfa;" horiz-adv-x="596" d="M258.152 530.159 C262.068 534.271 340.775 617 371 656 C394 682 409 701 409 706 C409 717 373 744 358 744 C355.188 744 343.586 725.543 328.963 697.693 C328.807 697.396 323.842 689.135 323.644 688.864 C292.63 646.371 247 538 247 538 C247 538 248.67 536.785 252.5 534 C255.511 531.81 255.584 527.463 258.152 530.159 L258.152 530.159 Z M396 428 L396 85.3078 C396 79.2172 393.146 72.4849 387.838 69.4976 C370.572 59.78 342.65 54 301 54 C221 54 180 98 180 164 L180.831 443.341 C180.924 474.614 155.614 499.923 124.341 499.828 L21.5509 499.517 C21.1277 499.516 21.0807 498.807 21.5 498.75 L27 498 C65 495 91 467 91 428 L91 155 C91 59 139 -5 231 -5 C286.275 -5 333.382 12.6962 372.884 41.3506 C382.211 48.1164 397 42.7905 397 31.2679 L397 9 C397 4.03227 401.032 0 406 0 L406.662 0 C407.996 0 421.704 2.02942 422.98 2.41576 L556.73 42.9048 C557.699 43.1979 557.511 44.7041 556.5 44.75 L551 45 C497 44 487 54 487 109 L487 443.509 C487 474.69 461.69 499.923 430.509 499.829 L327.551 499.517 C327.128 499.516 327.081 498.807 327.5 498.75 L333 498 C371 495 396.5 467 396.5 428 L396 428 Z " />
<glyph glyph-name="ucircumflex" unicode="&#xfb;" horiz-adv-x="596" d="M317 719 C313 727 302 745 288 745 C273 745 263 728 259 720 C259 720 167 541 167 540 L172 536 C174.755 533.796 178.512 533.78 180.801 536.466 C222.338 585.225 254.994 621.766 277.644 647.213 C283.962 654.311 295.82 652.175 302.043 644.995 C343.11 597.61 399 532 399 532 C399 532 401.154 533.723 404 536 C406.717 538.173 410.592 537.099 408.918 540.149 C406.797 544.012 363.8 622.475 317 719 L317 719 Z M259 691 L259 691 L259 691 Z M396 427 L396 84.3078 C396 78.2172 393.146 71.4849 387.838 68.4976 C370.572 58.78 342.65 53 301 53 C221 53 180 97 180 163 L180.831 442.341 C180.924 473.614 155.614 498.923 124.341 498.828 L21.5509 498.517 C21.1277 498.516 21.0807 497.807 21.5 497.75 L27 497 C65 494 91 466 91 427 L91 154 C91 58 139 -6 231 -6 C286.275 -6 333.382 11.6962 372.884 40.3506 C382.211 47.1164 397 41.7905 397 30.2679 L397 8 C397 3.03227 401.032 -1 406 -1 L406.662 -1 C407.996 -1 421.704 1.02942 422.98 1.41576 L556.73 41.9048 C557.699 42.1979 557.511 43.7041 556.5 43.75 L551 44 C497 43 487 53 487 108 L487 442.509 C487 473.69 461.69 498.923 430.509 498.829 L327.551 498.517 C327.128 498.516 327.081 497.807 327.5 497.75 L333 497 C371 494 396.5 466 396.5 427 L396 427 Z " />
<glyph glyph-name="udieresis" unicode="&#xfc;" horiz-adv-x="596" d="M384 570 C417 570 439 592 439 625 C439 658 417 680 384 680 C351 680 329 658 329 625 C329 592 351 570 384 570 L384 570 Z M192 570 C225 570 247 592 247 625 C247 658 225 680 192 680 C159 680 137 658 137 625 C137 592 159 570 192 570 L192 570 Z M396 428 L396 85.3078 C396 79.2172 393.146 72.4849 387.838 69.4976 C370.572 59.78 342.65 54 301 54 C221 54 180 98 180 164 L180.831 443.341 C180.924 474.614 155.614 499.923 124.341 499.828 L21.5509 499.517 C21.1277 499.516 21.0807 498.807 21.5 498.75 L27 498 C65 495 91 467 91 428 L91 155 C91 59 139 -5 231 -5 C286.275 -5 333.382 12.6962 372.884 41.3506 C382.211 48.1164 397 42.7905 397 31.2679 L397 9 C397 4.03227 401.032 0 406 0 L406.662 0 C407.996 0 421.704 2.02942 422.98 2.41576 L556.73 42.9048 C557.699 43.1979 557.511 44.7041 556.5 44.75 L551 45 C497 44 487 54 487 109 L487 443.509 C487 474.69 461.69 499.923 430.509 499.829 L327.551 499.517 C327.128 499.516 327.081 498.807 327.5 498.75 L333 498 C371 495 396.5 467 396.5 428 L396 428 Z " />
<glyph glyph-name="ydieresis" unicode="&#xff;" horiz-adv-x="513" d="M376 570 C409 570 431 592 431 625 C431 658 409 680 376 680 C343 680 321 658 321 625 C321 592 343 570 376 570 L376 570 Z M184 570 C217 570 239 592 239 625 C239 658 217 680 184 680 C151 680 129 658 129 625 C129 592 151 570 184 570 L184 570 Z M90 428 L265.956 11.2101 C267.203 8.25694 266.9 -0.214387 265.498 -3.09686 C258.41 -17.6676 248.485 -39.3939 240 -64 C212 -131.375 189.359 -162.766 160.689 -169.561 C154.388 -171.054 153.799 -173.621 147.898 -170.954 C145.269 -169.766 92.4 -146 69 -146 C41 -146 23 -161 23 -184 C23 -212 51 -230 93 -230 C169 -230 216 -186 263 -72 C275 -37 289 -10 289 -10 C289 -10 278.094 -36.4635 289.939 -7.72149 L469.5 428 C485.5 467 523 495 561 498 L567 498.75 C567.411 498.801 567.367 499.5 566.953 499.5 L399.551 499.5 C399.137 499.5 399.09 498.806 399.5 498.75 L405 498 C438.15 495.075 453.238 472.187 445.63 439.531 C445.565 439.25 444.03 434.464 443.927 434.194 L369.668 240.07 C350.38 189.648 284.603 189.252 264.709 239.438 L187.155 435.087 C187.04 435.377 185.443 440.153 185.37 440.456 C177.762 472.137 192.85 494.075 226 497 L231.5 497.75 C231.91 497.806 231.863 498.5 231.449 498.5 L-8.95331 498.5 C-9.36728 498.5 -9.41078 497.801 -9 497.75 L-3 497 C36 494 72 466 90 427 L90 428 Z " />
<glyph glyph-name="Amacron" unicode="&#x100;" horiz-adv-x="679" d="M198 765 L448 765 C461.799 765 473 776.201 473 790 C473 803.799 461.799 815 448 815 L198 815 C184.201 815 173 803.799 173 790 C173 776.201 184.201 765 198 765 L198 765 Z M426.141 198.545 L479.817 63.9656 C479.941 63.6554 481.549 58.8688 481.626 58.5439 C489.138 26.8631 472.1 4.95 437 3 L416.5 1.75 C415.811 1.70801 415.848 0.5 416.538 0.5 L654.895 0.5 C655.983 0.5 655.928 3.69845 654.877 3.98042 C626.126 11.6947 603.5 30.35 587 65 L339.773 663.447 C337.338 669.341 328.877 675 322.5 675 C316.003 675 307.98 669.347 305.793 663.229 L92 65 C76 30 42 5 5 2 L-1 1.25 C-1.41078 1.19865 -1.36728 0.5 -0.953307 0.5 L196.944 0.5 C197.634 0.5 197.687 1.68864 197 1.75 L183 3 C136 5 115 37 130 83 L168.92 196.018 C175.746 215.84 201.206 234 222.171 234 L373.829 234 C393.399 234 418.891 216.722 426.141 198.545 L426.141 198.545 Z M317.977 259 L269.013 259 C227.786 259 202.326 294.719 215.774 333.691 L239 401 C256.65 452.148 323.531 453.7 343.535 403.426 L370.306 336.141 C386.048 296.578 360.556 259 317.977 259 L317.977 259 Z " />
<glyph glyph-name="amacron" unicode="&#x101;" horiz-adv-x="500" d="M99 605 L349 605 C362.799 605 374 616.201 374 630 C374 643.799 362.799 655 349 655 L99 655 C85.2007 655 74 643.799 74 630 C74 616.201 85.2007 605 99 605 L99 605 Z M472.468 44.1561 C463.146 37.0945 450.826 33 431 33 C400 33 391 59 391 97 L391 355 C391 445 337 505 257 505 C165.2 505 93.63 473.21 66.2409 423.141 C55.3992 403.321 67.0432 395 89.6341 395 L120.014 395 C130.732 395 149.421 410.231 153.548 420.122 C168.876 456.859 199.875 480 237 480 C273 480 297 438 297 375 L297 274.142 C297 266.445 290.967 259.145 283.351 258.03 C258.512 254.396 231.211 250.053 211 245 C106 219 36 162 36 104 C36 39 83 -5 153 -5 C197.1 -5 245.25 12.01 286.515 40.927 C292.983 45.4599 302.144 40.3329 304.842 32.9095 C314.385 6.65437 333.525 -9 369 -9 C421.725 -9 455.626 7.25688 482.576 31.8561 C485.891 34.8823 486.674 40.3259 483.5 43.5 L483 44 C480.617 46.3825 475.154 46.1905 472.468 44.1561 L472.468 44.1561 Z M297 224.742 L297 88 L297 82 C297 78.8268 293.508 74.3934 290.584 73.1606 C263.744 61.845 231.3 55 198 55 C154 55 124 85 124 129 C124 169 158 204 210 217 C236.231 223.769 262.82 229.822 284.92 234.554 C291.426 235.947 297 231.396 297 224.742 L297 224.742 Z " />
<glyph glyph-name="Abreve" unicode="&#x102;" horiz-adv-x="679" d="M198.848 865.497 C223.501 794.581 272.3 748 323 748 C372.725 748 421.499 794.581 446.152 865.497 C447.615 869.706 444.727 872.091 440.5 873.5 C436.68 874.773 432.334 873.689 430.82 869.957 C415.577 832.367 373.35 808 323 808 C272.65 808 229.52 832.368 214.187 869.957 C212.669 873.677 208.312 874.771 204.5 873.5 C200.273 872.091 197.385 869.706 198.848 865.497 L198.848 865.497 Z M426.141 198.545 L479.817 63.9656 C479.941 63.6554 481.549 58.8688 481.626 58.5439 C489.138 26.8631 472.1 4.95 437 3 L416.5 1.75 C415.811 1.70801 415.848 0.5 416.538 0.5 L654.895 0.5 C655.983 0.5 655.928 3.69845 654.877 3.98042 C626.126 11.6947 603.5 30.35 587 65 L339.773 663.447 C337.338 669.341 328.877 675 322.5 675 C316.003 675 307.98 669.347 305.793 663.229 L92 65 C76 30 42 5 5 2 L-1 1.25 C-1.41078 1.19865 -1.36728 0.5 -0.953307 0.5 L196.944 0.5 C197.634 0.5 197.687 1.68864 197 1.75 L183 3 C136 5 115 37 130 83 L168.92 196.018 C175.746 215.84 201.206 234 222.171 234 L373.829 234 C393.399 234 418.891 216.722 426.141 198.545 L426.141 198.545 Z M317.977 259 L269.013 259 C227.786 259 202.326 294.719 215.774 333.691 L239 401 C256.65 452.148 323.531 453.7 343.535 403.426 L370.306 336.141 C386.048 296.578 360.556 259 317.977 259 L317.977 259 Z " />
<glyph glyph-name="abreve" unicode="&#x103;" horiz-adv-x="500" d="M99.8484 675.497 C124.501 604.581 173.3 558 224 558 C273.725 558 322.499 604.581 347.152 675.497 C348.615 679.706 345.727 682.091 341.5 683.5 C337.68 684.773 333.334 683.689 331.82 679.957 C316.577 642.367 274.35 618 224 618 C173.65 618 130.52 642.368 115.187 679.957 C113.669 683.677 109.312 684.771 105.5 683.5 C101.273 682.091 98.3853 679.706 99.8484 675.497 L99.8484 675.497 Z M472.468 44.1561 C463.146 37.0945 450.826 33 431 33 C400 33 391 59 391 97 L391 355 C391 445 337 505 257 505 C165.2 505 93.63 473.21 66.2409 423.141 C55.3992 403.321 67.0432 395 89.6341 395 L120.014 395 C130.732 395 149.421 410.231 153.548 420.122 C168.876 456.859 199.875 480 237 480 C273 480 297 438 297 375 L297 274.142 C297 266.445 290.967 259.145 283.351 258.03 C258.512 254.396 231.211 250.053 211 245 C106 219 36 162 36 104 C36 39 83 -5 153 -5 C197.1 -5 245.25 12.01 286.515 40.927 C292.983 45.4599 302.144 40.3329 304.842 32.9095 C314.385 6.65437 333.525 -9 369 -9 C421.725 -9 455.626 7.25688 482.576 31.8561 C485.891 34.8823 486.674 40.3259 483.5 43.5 L483 44 C480.617 46.3825 475.154 46.1905 472.468 44.1561 L472.468 44.1561 Z M297 224.742 L297 88 L297 82 C297 78.8268 293.508 74.3934 290.584 73.1606 C263.744 61.845 231.3 55 198 55 C154 55 124 85 124 129 C124 169 158 204 210 217 C236.231 223.769 262.82 229.822 284.92 234.554 C291.426 235.947 297 231.396 297 224.742 L297 224.742 Z " />
<glyph glyph-name="Aogonek" unicode="&#x104;" horiz-adv-x="679" d="M442.296 -17.3149 C394.575 -53.5525 344 -108.25 344 -155 C344 -203 394 -235 469 -235 C500.45 -235 531.9 -223.877 549.104 -207.171 C551.27 -205.067 551.635 -201.635 549.5 -199.5 C548.058 -198.058 543.923 -198.065 542.219 -199.186 C532.56 -205.541 512.138 -210 488 -210 C435 -210 399 -184 399 -145 C399 -85.8 462.316 -22.3219 497.14 -3.63572 C500.357 -1.90943 511.476 0.0191588 515.127 0.0299606 L654.895 0.443477 C656.013 0.446785 655.957 3.6906 654.877 3.98042 C626.126 11.6947 603.5 30.35 587 65 L339.773 663.447 C337.338 669.341 328.877 675 322.5 675 C316.003 675 307.98 669.347 305.793 663.229 L92 65 C76 30 42 5 5 2 L-1 1.25 C-1.41078 1.19865 -1.36728 0.5 -0.953307 0.5 L196.944 0.5 C197.634 0.5 197.687 1.68864 197 1.75 L183 3 C136 5 115 37 130 83 L168.92 196.018 C175.746 215.84 201.206 234 222.171 234 L372.829 234 C392.399 234 417.891 216.722 425.141 198.545 L478.817 63.9656 C478.941 63.6554 480.549 58.8688 480.626 58.5439 C488.138 26.8631 471.1 4.95 436 3 L415.5 1.75 C414.733 1.70323 414.769 0.362715 415.538 0.357378 L435.517 0.218634 C444.765 0.154408 449.662 -11.7216 442.296 -17.3149 L442.296 -17.3149 Z M317.977 259 L269.013 259 C227.786 259 202.326 294.719 215.774 333.691 L239 401 C256.65 452.148 323.531 453.7 343.535 403.426 L370.306 336.141 C386.048 296.578 360.556 259 317.977 259 L317.977 259 Z " />
<glyph glyph-name="aogonek" unicode="&#x105;" horiz-adv-x="500" d="M474.838 46.3009 C470.412 43.0602 465.171 41.0787 459.412 38.2824 C458.939 38.0527 452.113 35.2231 451.602 35.096 C408.111 24.265 391 49.225 391 97 L391 355 C391 445 337 505 257 505 C165.2 505 93.63 473.21 66.2409 423.141 C55.3992 403.321 67.0432 395 89.6341 395 L120.014 395 C130.732 395 149.421 410.231 153.548 420.122 C168.876 456.859 199.875 480 237 480 C273 480 297 438 297 375 L297 274.142 C297 266.445 290.967 259.145 283.351 258.03 C258.512 254.396 231.211 250.053 211 245 C106 219 36 162 36 104 C36 39 83 -5 153 -5 C194.65 -5 239.912 10.1725 279.576 36.2186 C287.383 41.3454 302.624 37.1375 306.248 28.5295 C316.553 4.05492 336.522 -8.1143 367.529 -9.35133 C375.511 -9.66976 379.519 -22.6377 374.019 -28.431 C342.183 -61.9662 317 -101.525 317 -137 C317 -196 367 -235 442 -235 C473.45 -235 504.9 -223.877 522.104 -207.171 C524.27 -205.067 524.635 -201.635 522.5 -199.5 C521.058 -198.058 516.923 -198.065 515.219 -199.186 C505.56 -205.541 485.138 -210 461 -210 C408 -210 372 -177 372 -127 C372 -78.55 408.1 -28.295 440.861 1.47325 C441.549 2.09848 451.419 8.69916 452.238 9.13867 C463.771 15.3255 473.924 22.9549 483.407 31.6713 C486.845 34.831 487.442 40.3448 484 43.5 L481.127 46.1331 C479.677 47.4627 476.425 47.4633 474.838 46.3009 L474.838 46.3009 Z M298 224.742 L298 88 L298 82 C298 78.8268 294.508 74.3934 291.584 73.1606 C264.744 61.845 232.3 55 199 55 C155 55 125 85 125 129 C125 169 159 204 211 217 C237.231 223.769 263.82 229.822 285.92 234.554 C292.426 235.947 298 231.396 298 224.742 L298 224.742 Z " />
<glyph glyph-name="Cacute" unicode="&#x106;" horiz-adv-x="708" d="M353.152 690.159 C357.068 694.271 435.775 777 466 816 C489 842 504 861 504 866 C504 877 468 904 453 904 C450.188 904 438.586 885.543 423.963 857.693 C423.807 857.396 418.842 849.135 418.644 848.864 C387.63 806.371 342 698 342 698 C342 698 343.67 696.785 347.5 694 C350.511 691.81 350.584 687.463 353.152 690.159 L353.152 690.159 Z M640 169 C625 95 556 37 468 25 C444 22 420 20 397 20 C254 20 159 144 159 330 C159 516 254 640 397 640 C434 640 473 635 510 627 C574 612 625 559 639 491 C640.733 482.333 643.593 471.413 645.627 462.146 C645.747 461.599 646.515 462.539 646.517 463.099 L646.889 573.256 C646.953 591.947 634.203 613.453 617.086 620.964 C556.247 647.66 472.65 665 397 665 C188 665 49 531 49 330 C49 129 188 -5 397 -5 C483.775 -5 581.007 17.815 642.353 51.3958 C645.783 53.2735 645.47 56.6223 643.5 60 L643.38 60.2056 C643.26 60.4115 642.893 60.2132 643 60 C643.736 58.5289 645.983 59.0635 645.977 60.7082 L645.517 196.901 C645.515 197.462 644.785 198.405 644.676 197.854 C642.842 188.587 640.733 177.667 639 169 L640 169 Z " />
<glyph glyph-name="cacute" unicode="&#x107;" horiz-adv-x="504" d="M227.152 530.159 C231.068 534.271 309.775 617 340 656 C363 682 378 701 378 706 C378 717 342 744 327 744 C324.188 744 312.586 725.543 297.963 697.693 C297.807 697.396 292.842 689.135 292.644 688.864 C261.63 646.371 216 538 216 538 C216 538 217.67 536.785 221.5 534 C224.511 531.81 224.584 527.463 227.152 530.159 L227.152 530.159 Z M449 69 C447.151 71.3107 441.586 71.4051 439.023 69.926 C418.53 58.1 375.6 50 327 50 C218 50 145 136 145 266 C145 394 204 480 292 480 C334 480 365 450 369 404 C371 378 389 360 414 360 C437.226 360 452.959 374.984 453.95 397.703 C453.973 398.22 453.521 404.172 453.449 404.685 C444.984 465.074 385.85 505 302 505 C151 505 50 395 50 231 C50 89 131 -5 252 -5 C321.225 -5 399.956 21.6175 449.266 60.9496 C452.094 63.2058 451.26 66.1747 449 69 L449 69 Z " />
<glyph glyph-name="Ccircumflex" unicode="&#x108;" horiz-adv-x="708" d="M640 169 C625 95 556 37 468 25 C444 22 420 20 397 20 C254 20 159 144 159 330 C159 516 254 640 397 640 C434 640 473 635 510 627 C574 612 625 559 639 491 C640.733 482.333 643.593 471.413 645.627 462.146 C645.747 461.599 646.515 462.539 646.517 463.099 L646.889 573.256 C646.953 591.947 634.203 613.453 617.086 620.964 C556.247 647.66 472.65 665 397 665 C188 665 49 531 49 330 C49 129 188 -5 397 -5 C483.775 -5 581.007 17.815 642.353 51.3958 C645.783 53.2735 645.47 56.6223 643.5 60 L643.38 60.2056 C643.26 60.4115 642.893 60.2132 643 60 C643.736 58.5289 645.983 59.0635 645.977 60.7082 L645.517 196.901 C645.515 197.462 644.785 198.405 644.676 197.854 C642.842 188.587 640.733 177.667 639 169 L640 169 Z M425 879 C421 887 410 905 396 905 C381 905 371 888 367 880 C367 880 275 701 275 700 L280 696 C282.755 693.796 286.512 693.78 288.801 696.466 C330.338 745.225 362.994 781.766 385.644 807.213 C391.962 814.311 403.82 812.175 410.043 804.995 C451.11 757.61 507 692 507 692 C507 692 509.154 693.723 512 696 C514.717 698.173 518.592 697.099 516.918 700.149 C514.798 704.012 471.8 782.475 425 879 L425 879 Z M367 851 L367 851 L367 851 Z " />
<glyph glyph-name="Cdot" unicode="&#x10a;" horiz-adv-x="708" d="M398 730 C431 730 453 752 453 785 C453 818 431 840 398 840 C365 840 343 818 343 785 C343 752 365 730 398 730 L398 730 Z M640 169 C625 95 556 37 468 25 C444 22 420 20 397 20 C254 20 159 144 159 330 C159 516 254 640 397 640 C434 640 473 635 510 627 C574 612 625 559 639 491 C640.733 482.333 643.593 471.413 645.627 462.146 C645.747 461.599 646.515 462.539 646.517 463.099 L646.889 573.256 C646.953 591.947 634.203 613.453 617.086 620.964 C556.247 647.66 472.65 665 397 665 C188 665 49 531 49 330 C49 129 188 -5 397 -5 C483.775 -5 581.007 17.815 642.353 51.3958 C645.783 53.2735 645.47 56.6223 643.5 60 L643.38 60.2056 C643.26 60.4115 642.893 60.2132 643 60 C643.736 58.5289 645.983 59.0635 645.977 60.7082 L645.517 196.901 C645.515 197.462 644.785 198.405 644.676 197.854 C642.842 188.587 640.733 177.667 639 169 L640 169 Z " />
<glyph glyph-name="cdot" unicode="&#x10b;" horiz-adv-x="504" d="M302 570 C335 570 357 592 357 625 C357 658 335 680 302 680 C269 680 247 658 247 625 C247 592 269 570 302 570 L302 570 Z M449 69 C447.151 71.3107 441.586 71.4051 439.023 69.926 C418.53 58.1 375.6 50 327 50 C218 50 145 136 145 266 C145 394 204 480 292 480 C334 480 365 450 369 404 C371 378 389 360 414 360 C437.226 360 452.959 374.984 453.95 397.703 C453.973 398.22 453.521 404.172 453.449 404.685 C444.984 465.074 385.85 505 302 505 C151 505 50 395 50 231 C50 89 131 -5 252 -5 C321.225 -5 399.956 21.6175 449.266 60.9496 C452.094 63.2058 451.26 66.1747 449 69 L449 69 Z " />
<glyph glyph-name="Ccaron" unicode="&#x10c;" horiz-adv-x="708" d="M508.872 927.85 C505.906 924.369 451.969 861.074 412.043 815.005 C405.82 807.825 393.962 805.689 387.644 812.787 C364.994 838.234 332.338 874.775 290.801 923.534 C288.512 926.22 284.755 926.204 282 924 L277 920 C277 919 369 740 369 740 C373 732 383 715 398 715 C412 715 423 733 427 741 C475 840 519 920 519 920 C519 920 517.28 921.376 514 924 C511.242 926.207 511.163 930.539 508.872 927.85 L508.872 927.85 Z M640 169 C625 95 556 37 468 25 C444 22 420 20 397 20 C254 20 159 144 159 330 C159 516 254 640 397 640 C434 640 473 635 510 627 C574 612 625 559 639 491 C640.733 482.333 643.593 471.413 645.627 462.146 C645.747 461.599 646.515 462.539 646.517 463.099 L646.889 573.256 C646.953 591.947 634.203 613.453 617.086 620.964 C556.247 647.66 472.65 665 397 665 C188 665 49 531 49 330 C49 129 188 -5 397 -5 C483.775 -5 581.007 17.815 642.353 51.3958 C645.783 53.2735 645.47 56.6223 643.5 60 L643.38 60.2056 C643.26 60.4115 642.893 60.2132 643 60 C643.736 58.5289 645.983 59.0635 645.977 60.7082 L645.517 196.901 C645.515 197.462 644.785 198.405 644.676 197.854 C642.842 188.587 640.733 177.667 639 169 L640 169 Z M367 768 L367 768 L367 768 Z " />
<glyph glyph-name="ccaron" unicode="&#x10d;" horiz-adv-x="504" d="M412.872 767.85 C409.906 764.369 355.969 701.074 316.043 655.005 C309.82 647.825 297.962 645.689 291.644 652.787 C268.994 678.234 236.338 714.775 194.801 763.534 C192.512 766.22 188.755 766.204 186 764 L181 760 C181 759 273 580 273 580 C277 572 287 555 302 555 C316 555 327 573 331 581 C379 680 423 760 423 760 C423 760 421.28 761.376 418 764 C415.242 766.207 415.163 770.539 412.872 767.85 L412.872 767.85 Z M449 69 C447.151 71.3107 441.586 71.4051 439.023 69.926 C418.53 58.1 375.6 50 327 50 C218 50 145 136 145 266 C145 394 204 480 292 480 C334 480 365 450 369 404 C371 378 389 360 414 360 C437.226 360 452.959 374.984 453.95 397.703 C453.973 398.22 453.521 404.172 453.449 404.685 C444.984 465.074 385.85 505 302 505 C151 505 50 395 50 231 C50 89 131 -5 252 -5 C321.225 -5 399.956 21.6175 449.266 60.9496 C452.094 63.2058 451.26 66.1747 449 69 L449 69 Z M273 608 L273 608 L273 608 Z " />
<glyph glyph-name="Dcaron" unicode="&#x10e;" horiz-adv-x="725" d="M455.872 927.85 C452.906 924.369 398.969 861.074 359.043 815.005 C352.82 807.825 340.962 805.689 334.644 812.787 C311.994 838.234 279.338 874.775 237.801 923.534 C235.512 926.22 231.755 926.204 229 924 L224 920 C224 919 316 740 316 740 C320 732 330 715 345 715 C359 715 370 733 374 741 C422 840 466 920 466 920 C466 920 464.28 921.376 461 924 C458.242 926.207 458.163 930.539 455.872 927.85 L455.872 927.85 Z M316 768 L316 768 L316 768 Z M359 -1 C549 -1 675 131 675 329 C675 527 534 659 323 659 L45.5509 658.51 C45.1316 658.509 45.0845 657.807 45.5 657.75 L51 657 C89 654 115 626 115 587 L115 71 C115 32 89 4 51 1 L45.5 0.25 C45.0851 0.193423 45.1322 -0.508044 45.5509 -0.5087 L359 -1 L359 -1 Z M215 80.32 L215 580 C215 609.806 239.194 634 269 634 L323 634 C474 634 575 512 575 329 C575 146 489 24 359 24 L271.32 24 C240.233 24 215 49.233 215 80.32 L215 80.32 Z " />
<glyph glyph-name="dcaron" unicode="&#x10f;" horiz-adv-x="606" d="M613 752 C595 752 580 689 572 644 L544.101 486.228 C543.5 482.827 545.724 479.092 549 478 C552.281 476.906 556.268 478.57 557.798 481.672 L628 624 C653 674 670 725 670 732 C670 746 630 752 613 752 L613 752 Z M487 720 L486.338 720 C485.004 720 471.296 717.971 470.02 717.584 L336.27 677.095 C335.301 676.802 335.489 675.296 336.5 675.25 L342 675 C396 676 406 666 406 611 L406 477.225 C406 469.179 395.035 465.649 388.498 470.339 C359.158 491.387 321.6 505 282 505 C145 505 54 391 54 221 C54 85 132 -5 248 -5 C294.75 -5 345.113 10.895 384.348 37.1579 C392.908 42.8869 404 36.2994 404 26 L404 9 C404 4.03227 408.032 0 413 0 L413.662 0 C414.996 0 428.704 2.02942 429.98 2.41576 L563.73 42.9048 C564.699 43.1979 564.511 44.7041 563.5 44.75 L558 45 C504 44 494 54 494 109 L495.971 711 C495.987 715.968 491.968 720 487 720 L487 720 Z M394.781 61.7768 C374.498 54.335 338.5 50 296 50 C206 50 146 132 146 256 C146 390 198 480 277 480 C324.25 480 366.906 458.563 393.58 429.086 C398.972 423.127 404 406.399 404 398.362 L404 75.8615 C404 69.6225 400.638 63.9257 394.781 61.7768 L394.781 61.7768 Z " />
<glyph glyph-name="Emacron" unicode="&#x112;" horiz-adv-x="625" d="M183 765 L433 765 C446.799 765 458 776.201 458 790 C458 803.799 446.799 815 433 815 L183 815 C169.201 815 158 803.799 158 790 C158 776.201 169.201 765 183 765 L183 765 Z M516 12 C522.125 50.5 530.93 101.25 538.395 142.813 C538.689 144.452 535.81 144.069 535.25 142.5 L529 125 C508 65 454 25 394 25 L271.32 25 C240.233 25 215 50.233 215 81.32 L215 283.68 C215 314.767 240.233 340 271.32 340 L345 340 C396 340 435 311 442 268 L443.25 261.5 C443.38 260.822 444.5 260.929 444.5 261.619 L444.5 434.36 C444.5 435.05 443.403 435.173 443.25 434.5 L442 429 C435 391 396 365 345 365 L271.32 365 C240.233 365 215 390.233 215 421.32 L215 578.68 C215 609.767 240.233 635 271.32 635 L388 635 C448 635 495 595 505 535 L508.25 517.5 C508.583 515.707 511.55 515.975 511.556 517.799 L511.823 603.444 C511.921 634.661 486.661 659.973 455.444 659.94 L45.5509 659.506 C45.1337 659.505 45.0866 658.806 45.5 658.75 L51 658 C89 655 115 627 115 588 L115 72 C115 33 89 5 51 2 L45.5 1.25 C45.0866 1.19363 45.1337 0.494585 45.5509 0.494145 L507.917 0.00641641 C511.23 0.00292232 514.455 2.73267 515 6 L516 12 L516 12 Z " />
<glyph glyph-name="emacron" unicode="&#x113;" horiz-adv-x="510" d="M152 605 L402 605 C415.799 605 427 616.201 427 630 C427 643.799 415.799 655 402 655 L152 655 C138.201 655 127 643.799 127 630 C127 616.201 138.201 605 152 605 L152 605 Z M455 69 C453.166 71.2921 447.518 71.3754 444.966 69.926 C424.14 58.1 379.5 50 330 50 C218 50 148.875 135.75 144.732 259.686 C143.659 291.793 165.283 315 197.409 315 L402.68 315 C441.182 315 461.67 333.764 452.486 371.155 C432.317 453.272 366.75 505 276 505 C140 505 49 395 49 231 C49 89 131 -5 254 -5 C325.175 -5 405.381 21.6175 454.763 60.9496 C457.595 63.2054 457.262 66.1727 455 69 L455 69 Z M333 345 L194.507 335.215 C167.308 333.293 151.181 350.142 159.562 376.089 C180.271 440.204 219.85 479 271 479 C333 479 375 443 375 390 C375 364 358.5 346.5 333.5 344.5 L333 345 Z " />
<glyph glyph-name="Ebreve" unicode="&#x114;" horiz-adv-x="625" d="M183.848 865.497 C208.501 794.581 257.3 748 308 748 C357.725 748 406.499 794.581 431.152 865.497 C432.615 869.706 429.727 872.091 425.5 873.5 C421.68 874.773 417.334 873.689 415.82 869.957 C400.577 832.367 358.35 808 308 808 C257.65 808 214.52 832.368 199.187 869.957 C197.669 873.677 193.312 874.771 189.5 873.5 C185.273 872.091 182.385 869.706 183.848 865.497 L183.848 865.497 Z M516 12 C522.125 50.5 530.93 101.25 538.395 142.813 C538.689 144.452 535.81 144.069 535.25 142.5 L529 125 C508 65 454 25 394 25 L271.32 25 C240.233 25 215 50.233 215 81.32 L215 283.68 C215 314.767 240.233 340 271.32 340 L345 340 C396 340 435 311 442 268 L443.25 261.5 C443.38 260.822 444.5 260.929 444.5 261.619 L444.5 434.36 C444.5 435.05 443.403 435.173 443.25 434.5 L442 429 C435 391 396 365 345 365 L271.32 365 C240.233 365 215 390.233 215 421.32 L215 578.68 C215 609.767 240.233 635 271.32 635 L388 635 C448 635 495 595 505 535 L508.25 517.5 C508.583 515.707 511.55 515.975 511.556 517.799 L511.823 603.444 C511.921 634.661 486.661 659.973 455.444 659.94 L45.5509 659.506 C45.1337 659.505 45.0866 658.806 45.5 658.75 L51 658 C89 655 115 627 115 588 L115 72 C115 33 89 5 51 2 L45.5 1.25 C45.0866 1.19363 45.1337 0.494585 45.5509 0.494145 L507.917 0.00641641 C511.23 0.00292232 514.455 2.73267 515 6 L516 12 L516 12 Z " />
<glyph glyph-name="ebreve" unicode="&#x115;" horiz-adv-x="510" d="M152.848 705.497 C177.501 634.581 226.3 588 277 588 C327.7 588 376.499 634.581 401.152 705.497 C402.615 709.706 399.727 712.091 395.5 713.5 C391.688 714.771 387.331 713.677 385.813 709.957 C370.48 672.367 327.35 648 277 648 C226.65 648 183.52 672.368 168.187 709.957 C166.669 713.677 162.312 714.771 158.5 713.5 C154.273 712.091 151.385 709.706 152.848 705.497 L152.848 705.497 Z M455 69 C453.166 71.2921 447.518 71.3754 444.966 69.926 C424.14 58.1 379.5 50 330 50 C218 50 148.875 135.75 144.732 259.686 C143.659 291.793 165.283 315 197.409 315 L402.68 315 C441.182 315 461.67 333.764 452.486 371.155 C432.317 453.272 366.75 505 276 505 C140 505 49 395 49 231 C49 89 131 -5 254 -5 C325.175 -5 405.381 21.6175 454.763 60.9496 C457.595 63.2054 457.262 66.1727 455 69 L455 69 Z M333 345 L194.507 335.215 C167.308 333.293 151.181 350.142 159.562 376.089 C180.271 440.204 219.85 479 271 479 C333 479 375 443 375 390 C375 364 358.5 346.5 333.5 344.5 L333 345 Z " />
<glyph glyph-name="Edot" unicode="&#x116;" horiz-adv-x="625" d="M308 730 C341 730 363 752 363 785 C363 818 341 840 308 840 C275 840 253 818 253 785 C253 752 275 730 308 730 L308 730 Z M516 12 C522.125 50.5 530.93 101.25 538.395 142.813 C538.689 144.452 535.81 144.069 535.25 142.5 L529 125 C508 65 454 25 394 25 L271.32 25 C240.233 25 215 50.233 215 81.32 L215 283.68 C215 314.767 240.233 340 271.32 340 L345 340 C396 340 435 311 442 268 L443.25 261.5 C443.38 260.822 444.5 260.929 444.5 261.619 L444.5 434.36 C444.5 435.05 443.403 435.173 443.25 434.5 L442 429 C435 391 396 365 345 365 L271.32 365 C240.233 365 215 390.233 215 421.32 L215 578.68 C215 609.767 240.233 635 271.32 635 L388 635 C448 635 495 595 505 535 L508.25 517.5 C508.583 515.707 511.55 515.975 511.556 517.799 L511.823 603.444 C511.921 634.661 486.661 659.973 455.444 659.94 L45.5509 659.506 C45.1337 659.505 45.0866 658.806 45.5 658.75 L51 658 C89 655 115 627 115 588 L115 72 C115 33 89 5 51 2 L45.5 1.25 C45.0866 1.19363 45.1337 0.494585 45.5509 0.494145 L507.917 0.00641641 C511.23 0.00292232 514.455 2.73267 515 6 L516 12 L516 12 Z " />
<glyph glyph-name="edot" unicode="&#x117;" horiz-adv-x="510" d="M277 570 C310 570 332 592 332 625 C332 658 310 680 277 680 C244 680 222 658 222 625 C222 592 244 570 277 570 L277 570 Z M455 69 C453.166 71.2921 447.518 71.3754 444.966 69.926 C424.14 58.1 379.5 50 330 50 C218 50 148.875 135.75 144.732 259.686 C143.659 291.793 165.283 315 197.409 315 L402.68 315 C441.182 315 461.67 333.764 452.486 371.155 C432.317 453.272 366.75 505 276 505 C140 505 49 395 49 231 C49 89 131 -5 254 -5 C325.175 -5 405.381 21.6175 454.763 60.9496 C457.595 63.2054 457.262 66.1727 455 69 L455 69 Z M333 345 L194.507 335.215 C167.308 333.293 151.181 350.142 159.562 376.089 C180.271 440.204 219.85 479 271 479 C333 479 375 443 375 390 C375 364 358.5 346.5 333.5 344.5 L333 345 Z " />
<glyph glyph-name="Eogonek" unicode="&#x118;" horiz-adv-x="625" d="M516.531 15.3295 C522.627 53.3925 531.143 102.438 538.395 142.813 C538.689 144.452 535.81 144.069 535.25 142.5 L529 125 C508 65 454 25 394 25 L271.32 25 C240.233 25 215 50.233 215 81.32 L215 283.68 C215 314.767 240.233 340 271.32 340 L345 340 C396 340 435 311 442 268 L443.25 261.5 C443.38 260.822 444.5 260.929 444.5 261.619 L444.5 434.36 C444.5 435.05 443.403 435.173 443.25 434.5 L442 429 C435 391 396 365 345 365 L271.32 365 C240.233 365 215 390.233 215 421.32 L215 578.68 C215 609.767 240.233 635 271.32 635 L388 635 C448 635 495 595 505 535 L508.25 517.5 C508.583 515.707 511.55 515.975 511.556 517.799 L511.823 603.444 C511.921 634.661 486.661 659.973 455.444 659.94 L45.5509 659.506 C45.1337 659.505 45.0866 658.806 45.5 658.75 L51 658 C89 655 115 627 115 588 L115 72 C115 33 89 5 51 2 L45.5 1.25 C45.0863 1.19359 45.1334 0.494059 45.5509 0.493575 L440.516 0.0364399 C449.685 0.0258279 454.598 -11.7699 447.296 -17.3149 C399.575 -53.5525 349 -108.25 349 -155 C349 -203 399 -235 474 -235 C505.45 -235 536.9 -223.877 554.104 -207.171 C556.27 -205.067 556.635 -201.635 554.5 -199.5 C553.058 -198.058 548.923 -198.065 547.219 -199.186 C537.56 -205.541 517.138 -210 493 -210 C440 -210 404 -184 404 -145 C404 -84.2 472.59 -18.8875 506.885 -2.21975 C508.865 -1.2573 513.304 3.91119 514 6 L514.536 7.6094 C514.667 8.00009 516.466 14.9228 516.531 15.3295 L516.531 15.3295 Z " />
<glyph glyph-name="eogonek" unicode="&#x119;" horiz-adv-x="510" d="M334 345 L195.507 335.215 C168.308 333.293 152.181 350.142 160.562 376.089 C181.271 440.204 220.85 479 272 479 C334 479 376 443 376 390 C376 364 359.5 346.5 334.5 344.5 L334 345 Z M198.409 314 L403.68 314 C442.182 314 462.67 332.764 453.486 370.155 C433.317 452.272 367.75 504 277 504 C141 504 50 394 50 230 C50 82 135.563 -10.3844 269.489 -5.20611 C277.108 -4.91155 286.158 -15.0743 280.365 -20.0304 C237.737 -56.4975 198 -105.5 198 -148 C198 -201 248 -236 323 -236 C354.45 -236 385.9 -224.877 403.104 -208.171 C405.27 -206.067 405.635 -202.635 403.5 -200.5 C402.058 -199.058 397.923 -199.065 396.219 -200.186 C386.56 -206.541 366.138 -211 342 -211 C289 -211 253 -182 253 -138 C253 -74.625 320.494 -7.4475 354.455 8.8478 C354.733 8.9808 359.626 10.8184 359.919 10.9112 C395.852 22.2876 429.09 38.7549 454.883 58.7302 C457.747 60.9483 457.263 64.1713 455 67 C453.166 69.2921 447.518 69.3754 444.966 67.926 C424.14 56.1 379.5 48 330 48 C218 48 149.258 134.133 145.211 258.164 C144.164 290.248 166.308 314 198.409 314 L198.409 314 Z " />
<glyph glyph-name="Ecaron" unicode="&#x11a;" horiz-adv-x="625" d="M418.87 927.848 C415.862 924.325 361.155 860.279 321.071 814.762 C314.768 807.604 302.986 805.662 296.644 812.787 C273.994 838.234 241.338 874.775 199.801 923.534 C197.648 926.06 193.981 926.205 191.5 924 L187 920 C187 919 279 740 279 740 C283 732 293 715 308 715 C321 715 332 733 336 741 C384 840 428 920 428 920 C428 920 426.613 921.233 423.5 924 C421.017 926.207 421.028 930.374 418.87 927.848 L418.87 927.848 Z M279 768 L279 768 L279 768 Z M516 11 C522.125 49.5 530.93 100.25 538.395 141.813 C538.689 143.452 535.81 143.069 535.25 141.5 L529 124 C508 64 454 24 394 24 L271.32 24 C240.233 24 215 49.233 215 80.32 L215 282.68 C215 313.767 240.233 339 271.32 339 L345 339 C396 339 435 310 442 267 L443.25 260.5 C443.38 259.822 444.5 259.929 444.5 260.619 L444.5 433.36 C444.5 434.05 443.403 434.173 443.25 433.5 L442 428 C435 390 396 364 345 364 L271.32 364 C240.233 364 215 389.233 215 420.32 L215 577.68 C215 608.767 240.233 634 271.32 634 L388 634 C448 634 495 594 505 534 L508.25 516.5 C508.583 514.707 511.55 514.975 511.556 516.799 L511.823 602.444 C511.921 633.661 486.661 658.973 455.444 658.94 L45.5509 658.506 C45.1337 658.505 45.0866 657.806 45.5 657.75 L51 657 C89 654 115 626 115 587 L115 71 C115 32 89 4 51 1 L45.5 0.25 C45.0866 0.193634 45.1337 -0.505415 45.5509 -0.505855 L507.917 -0.993584 C511.23 -0.997078 514.455 1.73267 515 5 L516 11 L516 11 Z " />
<glyph glyph-name="ecaron" unicode="&#x11b;" horiz-adv-x="510" d="M387.872 767.85 C384.906 764.369 330.969 701.074 291.043 655.005 C284.82 647.825 272.962 645.689 266.644 652.787 C243.994 678.234 211.338 714.775 169.801 763.534 C167.512 766.22 163.755 766.204 161 764 L156 760 C156 759 248 580 248 580 C252 572 262 555 277 555 C291 555 302 573 306 581 C354 680 398 760 398 760 C398 760 396.28 761.376 393 764 C390.242 766.207 390.163 770.539 387.872 767.85 L387.872 767.85 Z M455 69 C453.166 71.2921 447.518 71.3754 444.966 69.926 C424.14 58.1 379.5 50 330 50 C218 50 148.875 135.75 144.732 259.686 C143.659 291.793 165.283 315 197.409 315 L402.68 315 C441.182 315 461.67 333.764 452.486 371.155 C432.317 453.272 366.75 505 276 505 C140 505 49 395 49 231 C49 89 131 -5 254 -5 C325.175 -5 405.381 21.6175 454.763 60.9496 C457.595 63.2054 457.262 66.1727 455 69 L455 69 Z M247 608 L247 608 L247 608 Z M333 344 L194.507 334.215 C167.308 332.293 151.181 349.142 159.562 375.089 C180.271 439.204 219.85 478 271 478 C333 478 375 442 375 389 C375 363 358.5 345.5 333.5 343.5 L333 344 Z " />
<glyph glyph-name="Gcircumflex" unicode="&#x11c;" horiz-adv-x="804" d="M417 879 C413 887 402 905 388 905 C373 905 363 888 359 880 C359 880 267 701 267 700 L272 696 C274.755 693.796 278.512 693.78 280.801 696.466 C322.338 745.225 354.994 781.766 377.644 807.213 C383.962 814.311 395.82 812.175 402.043 804.995 C443.11 757.61 499 692 499 692 C499 692 501.154 693.723 504 696 C506.717 698.173 510.592 697.099 508.918 700.149 C506.797 704.012 463.8 782.475 417 879 L417 879 Z M359 851 L359 851 L359 851 Z M544 237 L544 68.6223 C544 54.1524 531.732 39.2115 517.696 35.6923 C475.553 25.1256 430.075 19 388 19 C251 19 160 143 160 329 C160 515 251 639 388 639 C421 639 457 635 492 627 C555 612 606 558 620 491 C621.733 482.333 624.593 471.413 626.627 462.146 C626.747 461.599 627.515 462.539 627.517 463.099 L627.889 573.256 C627.952 591.776 615.264 613.42 598.349 620.964 C538.492 647.66 458.55 665 388 665 C185 665 50 531 50 330 C50 129 185 -5 388 -5 C460.25 -5 542.615 12.34 603.775 39.6505 C620.586 47.1576 634 69.0122 634 87.4238 L634 238 C634 277 660 305 698 308 L703.5 308.75 C703.91 308.806 703.863 309.5 703.449 309.5 L474.551 309.5 C474.137 309.5 474.09 308.806 474.5 308.75 L480 308 C518 305 544 276.5 544 237.5 L544 237 Z " />
<glyph glyph-name="Gbreve" unicode="&#x11e;" horiz-adv-x="804" d="M263.848 865.497 C288.501 794.581 337.3 748 388 748 C438.7 748 487.499 794.581 512.152 865.497 C513.615 869.706 510.727 872.091 506.5 873.5 C502.688 874.771 498.331 873.677 496.813 869.957 C481.48 832.367 438.35 808 388 808 C337.65 808 294.52 832.368 279.187 869.957 C277.669 873.677 273.312 874.771 269.5 873.5 C265.273 872.091 262.385 869.706 263.848 865.497 L263.848 865.497 Z M544 238 L544 69.6223 C544 55.1524 531.732 40.2115 517.696 36.6923 C475.553 26.1256 430.075 20 388 20 C251 20 160 144 160 330 C160 516 251 640 388 640 C421 640 457 636 492 628 C555 613 606 559 620 492 C621.733 483.333 624.593 472.413 626.627 463.146 C626.747 462.599 627.515 463.539 627.517 464.099 L627.889 574.256 C627.952 592.776 615.264 614.42 598.349 621.964 C538.492 648.66 458.55 666 388 666 C185 666 50 532 50 331 C50 130 185 -4 388 -4 C460.25 -4 542.615 13.34 603.775 40.6505 C620.586 48.1576 634 70.0122 634 88.4238 L634 239 C634 278 660 306 698 309 L703.5 309.75 C703.91 309.806 703.863 310.5 703.449 310.5 L474.551 310.5 C474.137 310.5 474.09 309.806 474.5 309.75 L480 309 C518 306 544 277.5 544 238.5 L544 238 Z " />
<glyph glyph-name="gbreve" unicode="&#x11f;" horiz-adv-x="474" d="M110.848 705.497 C135.501 634.581 184.3 588 235 588 C285.7 588 334.499 634.581 359.152 705.497 C360.615 709.706 357.727 712.091 353.5 713.5 C349.688 714.771 345.331 713.677 343.813 709.957 C328.48 672.367 285.35 648 235 648 C184.65 648 141.52 672.368 126.187 709.957 C124.669 713.677 120.312 714.771 116.5 713.5 C112.273 712.091 109.385 709.706 110.848 705.497 L110.848 705.497 Z M449.684 496.316 C417.165 491.502 384.315 487.018 351.876 482.124 C347.935 481.53 326.31 486.129 322.668 487.746 C297.597 498.874 268 505 235 505 C130 505 60 442 60 348 C60 291.075 85.1831 245.721 127.688 218.675 C133.648 214.883 134.892 200.508 128.087 198.612 C76.79 184.318 45 147.3 45 98 C45 58.4 70.8637 27.6481 113.607 10.798 C121.082 7.85123 123.473 -5.4141 116.182 -8.78906 C56.75 -36.2969 20 -79.5 20 -125 C20 -195 82 -241 174 -241 C342 -241 454 -159 454 -36 C454 37 382 85 275 85 C258 85 190 82 190 82 C139 82 105 102 105 133 C105 167 135 190 180 190 L235 190 C341 190 411 253 411 348 C411 380.175 402.832 408.947 387.621 432.631 C383.881 438.454 387.101 447.417 394.015 447.702 L449.521 449.991 C463.021 450.547 474 461.988 474 475.5 L474 477.229 C474 489.571 461.892 498.123 449.684 496.316 L449.684 496.316 Z M235 211 C181 211 145 266 145 349 C145 431 181 486 235 486 C290 486 326 431 326 349 C326 266 290 211 235 211 L235 211 Z M178.201 -2.0245 C199.345 -3.10592 221.514 -1 250 -1 C333 -1 389 -33 389 -81 C389 -162 307 -216 184 -216 C122 -216 80 -175 80 -114 C80 -66.825 109.091 -25.2116 154.611 -5.7802 C157.514 -4.54082 175.048 -1.86326 178.201 -2.0245 L178.201 -2.0245 Z " />
<glyph glyph-name="Gdot" unicode="&#x120;" horiz-adv-x="804" d="M388 730 C421 730 443 752 443 785 C443 818 421 840 388 840 C355 840 333 818 333 785 C333 752 355 730 388 730 L388 730 Z M544 238 L544 69.6223 C544 55.1524 531.732 40.2115 517.696 36.6923 C475.553 26.1256 430.075 20 388 20 C251 20 160 144 160 330 C160 516 251 640 388 640 C421 640 457 636 492 628 C555 613 606 559 620 492 C621.733 483.333 624.593 472.413 626.627 463.146 C626.747 462.599 627.515 463.539 627.517 464.099 L627.889 574.256 C627.952 592.776 615.264 614.42 598.349 621.964 C538.492 648.66 458.55 666 388 666 C185 666 50 532 50 331 C50 130 185 -4 388 -4 C460.25 -4 542.615 13.34 603.775 40.6505 C620.586 48.1576 634 70.0122 634 88.4238 L634 239 C634 278 660 306 698 309 L703.5 309.75 C703.91 309.806 703.863 310.5 703.449 310.5 L474.551 310.5 C474.137 310.5 474.09 309.806 474.5 309.75 L480 309 C518 306 544 277.5 544 238.5 L544 238 Z " />
<glyph glyph-name="gdot" unicode="&#x121;" horiz-adv-x="474" d="M235 570 C268 570 290 592 290 625 C290 658 268 680 235 680 C202 680 180 658 180 625 C180 592 202 570 235 570 L235 570 Z M449.684 496.316 C417.165 491.502 384.315 487.018 351.876 482.124 C347.935 481.53 326.31 486.129 322.668 487.746 C297.597 498.874 268 505 235 505 C130 505 60 442 60 348 C60 291.075 85.1831 245.721 127.688 218.675 C133.648 214.883 134.892 200.508 128.087 198.612 C76.79 184.318 45 147.3 45 98 C45 58.4 70.8637 27.6481 113.607 10.798 C121.082 7.85123 123.473 -5.4141 116.182 -8.78906 C56.75 -36.2969 20 -79.5 20 -125 C20 -195 82 -241 174 -241 C342 -241 454 -159 454 -36 C454 37 382 85 275 85 C258 85 190 82 190 82 C139 82 105 102 105 133 C105 167 135 190 180 190 L235 190 C341 190 411 253 411 348 C411 380.175 402.832 408.947 387.621 432.631 C383.881 438.454 387.101 447.417 394.015 447.702 L449.521 449.991 C463.021 450.547 474 461.988 474 475.5 L474 477.229 C474 489.571 461.892 498.123 449.684 496.316 L449.684 496.316 Z M235 211 C181 211 145 266 145 349 C145 431 181 486 235 486 C290 486 326 431 326 349 C326 266 290 211 235 211 L235 211 Z M178.201 -2.0245 C199.345 -3.10592 221.514 -1 250 -1 C333 -1 389 -33 389 -81 C389 -162 307 -216 184 -216 C122 -216 80 -175 80 -114 C80 -66.825 109.091 -25.2116 154.611 -5.7802 C157.514 -4.54082 175.048 -1.86326 178.201 -2.0245 L178.201 -2.0245 Z " />
<glyph glyph-name="Hcircumflex" unicode="&#x124;" horiz-adv-x="780" d="M419 879 C415 887 404 905 390 905 C375 905 365 888 361 880 C361 880 269 701 269 700 L274 696 C276.755 693.796 280.512 693.78 282.801 696.466 C324.338 745.225 356.994 781.766 379.644 807.213 C385.962 814.311 397.82 812.175 404.043 804.995 C445.11 757.61 501 692 501 692 C501 692 503.154 693.723 506 696 C508.717 698.173 512.592 697.099 510.918 700.149 C508.797 704.012 465.8 782.475 419 879 L419 879 Z M361 851 L361 851 L361 851 Z M734.5 0.25 L729 1 C691 4 665 32 665 71 L665 587 C665 626 691 654 729 657 L734.5 657.75 C734.91 657.806 734.863 658.5 734.449 658.5 L495.551 658.5 C495.137 658.5 495.09 657.806 495.5 657.75 L501 657 C539 654 565 626 565 587 L565 415.32 C565 384.233 539.767 359 508.68 359 L271.32 359 C240.233 359 215 384.233 215 415.32 L215 587 C215 626 241 654 279 657 L284.5 657.75 C284.91 657.806 284.863 658.5 284.449 658.5 L45.5509 658.5 C45.1369 658.5 45.0898 657.806 45.5 657.75 L51 657 C89 654 115 626 115 587 L115 71 C115 32 89 4 51 1 L45.5 0.25 C45.0898 0.194066 45.1369 -0.5 45.5509 -0.5 L284.449 -0.5 C284.863 -0.5 284.91 0.194066 284.5 0.25 L279 1 C241 4 215 32 215 71 L215 277.68 C215 308.767 240.233 334 271.32 334 L508.68 334 C539.767 334 565 308.767 565 277.68 L565 71 C565 32 539 4 501 1 L495.5 0.25 C495.084 0.193246 495.131 -0.510262 495.551 -0.511102 L734.449 -0.988898 C734.857 -0.989714 734.904 0.194887 734.5 0.25 L734.5 0.25 Z " />
<glyph glyph-name="Itilde" unicode="&#x128;" horiz-adv-x="330" d="M25.2808 763.089 C27.5148 794.55 42.9231 815 66 815 C118 815 187 753 239 753 C286.775 753 318.389 798.63 319.94 867.645 C320.035 871.877 316.733 873 312.5 873 C308.673 873 304.989 868.715 304.7 864.899 C302.244 832.535 284.9 812 259 812 C207 812 138 875 86 875 C41.15 875 11.51 829.37 10.056 760.355 C9.967 756.129 13.273 755 17.5 755 C21.3466 755 25.0084 759.252 25.2808 763.089 L25.2808 763.089 Z M284.5 1.25 L279 2 C241 5 215 33 215 72 L215 588 C215 627 241 655 279 658 L284.5 658.75 C284.91 658.806 284.863 659.5 284.449 659.5 L45.5509 659.5 C45.1369 659.5 45.0898 658.806 45.5 658.75 L51 658 C89 655 115 627 115 588 L115 72 C115 33 89 5 51 2 L45.5 1.25 C45.0838 1.19325 45.1308 0.489738 45.5509 0.488898 L284.449 0.0111018 C284.857 0.010286 284.904 1.19489 284.5 1.25 L284.5 1.25 Z " />
<glyph glyph-name="itilde" unicode="&#x129;" horiz-adv-x="330" d="M25.2808 603.089 C27.5148 634.55 42.9231 655 66 655 C118 655 187 593 239 593 C286.775 593 318.389 638.63 319.94 707.645 C320.035 711.877 316.733 713 312.5 713 C308.673 713 304.989 708.715 304.7 704.899 C302.244 672.535 284.9 652 259 652 C207 652 138 715 86 715 C41.15 715 11.51 669.37 10.056 600.355 C9.967 596.129 13.273 595 17.5 595 C21.3466 595 25.0084 599.252 25.2808 603.089 L25.2808 603.089 Z M279.5 1.25 L274 2 C236 5 210 33 210 72 L210 491 C210 495.968 205.968 500 201 500 L200.338 500 C199.004 500 185.296 497.971 184.02 497.584 L50.2695 457.095 C49.3012 456.802 49.4894 455.296 50.5 455.25 L56 455 C110 456 120 446 120 391 L120 72 C120 33 94 5 56 2 L50.5 1.25 C50.0836 1.19321 50.1306 0.489311 50.5509 0.488436 L279.449 0.0115644 C279.857 0.0107151 279.904 1.19492 279.5 1.25 L279.5 1.25 Z " />
<glyph glyph-name="Imacron" unicode="&#x12a;" horiz-adv-x="330" d="M40 765 L290 765 C303.799 765 315 776.201 315 790 C315 803.799 303.799 815 290 815 L40 815 C26.2007 815 15 803.799 15 790 C15 776.201 26.2007 765 40 765 L40 765 Z M284.5 1.25 L279 2 C241 5 215 33 215 72 L215 588 C215 627 241 655 279 658 L284.5 658.75 C284.91 658.806 284.863 659.5 284.449 659.5 L45.5509 659.5 C45.1369 659.5 45.0898 658.806 45.5 658.75 L51 658 C89 655 115 627 115 588 L115 72 C115 33 89 5 51 2 L45.5 1.25 C45.0838 1.19325 45.1308 0.489738 45.5509 0.488898 L284.449 0.0111018 C284.857 0.010286 284.904 1.19489 284.5 1.25 L284.5 1.25 Z " />
<glyph glyph-name="imacron" unicode="&#x12b;" horiz-adv-x="330" d="M40 605 L290 605 C303.799 605 315 616.201 315 630 C315 643.799 303.799 655 290 655 L40 655 C26.2007 655 15 643.799 15 630 C15 616.201 26.2007 605 40 605 L40 605 Z M279.5 1.25 L274 2 C236 5 210 33 210 72 L210 491 C210 495.968 205.968 500 201 500 L200.338 500 C199.004 500 185.296 497.971 184.02 497.584 L50.2695 457.095 C49.3012 456.802 49.4894 455.296 50.5 455.25 L56 455 C110 456 120 446 120 391 L120 72 C120 33 94 5 56 2 L50.5 1.25 C50.0836 1.19321 50.1306 0.489311 50.5509 0.488436 L279.449 0.0115644 C279.857 0.0107151 279.904 1.19492 279.5 1.25 L279.5 1.25 Z " />
<glyph glyph-name="Ibreve" unicode="&#x12c;" horiz-adv-x="330" d="M40.8484 865.497 C65.5012 794.581 114.3 748 165 748 C215.7 748 264.499 794.581 289.152 865.497 C290.615 869.706 287.727 872.091 283.5 873.5 C279.688 874.771 275.331 873.677 273.813 869.957 C258.48 832.367 215.35 808 165 808 C114.65 808 71.52 832.368 56.187 869.957 C54.6693 873.677 50.3121 874.771 46.5 873.5 C42.273 872.091 39.3853 869.706 40.8484 865.497 L40.8484 865.497 Z M284.5 1.25 L279 2 C241 5 215 33 215 72 L215 588 C215 627 241 655 279 658 L284.5 658.75 C284.91 658.806 284.863 659.5 284.449 659.5 L45.5509 659.5 C45.1369 659.5 45.0898 658.806 45.5 658.75 L51 658 C89 655 115 627 115 588 L115 72 C115 33 89 5 51 2 L45.5 1.25 C45.0838 1.19325 45.1308 0.489738 45.5509 0.488898 L284.449 0.0111018 C284.857 0.010286 284.904 1.19489 284.5 1.25 L284.5 1.25 Z " />
<glyph glyph-name="ibreve" unicode="&#x12d;" horiz-adv-x="330" d="M40.8484 705.497 C65.5012 634.581 114.3 588 165 588 C215.7 588 264.499 634.581 289.152 705.497 C290.615 709.706 287.727 712.091 283.5 713.5 C279.688 714.771 275.331 713.677 273.813 709.957 C258.48 672.367 215.35 648 165 648 C114.65 648 71.52 672.368 56.187 709.957 C54.6693 713.677 50.3121 714.771 46.5 713.5 C42.273 712.091 39.3853 709.706 40.8484 705.497 L40.8484 705.497 Z M279.5 1.25 L274 2 C236 5 210 33 210 72 L210 491 C210 495.968 205.968 500 201 500 L200.338 500 C199.004 500 185.296 497.971 184.02 497.584 L50.2695 457.095 C49.3012 456.802 49.4894 455.296 50.5 455.25 L56 455 C110 456 120 446 120 391 L120 72 C120 33 94 5 56 2 L50.5 1.25 C50.0836 1.19321 50.1306 0.489311 50.5509 0.488436 L279.449 0.0115644 C279.857 0.0107151 279.904 1.19492 279.5 1.25 L279.5 1.25 Z " />
<glyph glyph-name="Idot" unicode="&#x130;" horiz-adv-x="330" d="M165 730 C198 730 220 752 220 785 C220 818 198 840 165 840 C132 840 110 818 110 785 C110 752 132 730 165 730 L165 730 Z M284.5 1.25 L279 2 C241 5 215 33 215 72 L215 588 C215 627 241 655 279 658 L284.5 658.75 C284.91 658.806 284.863 659.5 284.449 659.5 L45.5509 659.5 C45.1369 659.5 45.0898 658.806 45.5 658.75 L51 658 C89 655 115 627 115 588 L115 72 C115 33 89 5 51 2 L45.5 1.25 C45.0838 1.19325 45.1308 0.489738 45.5509 0.488898 L284.449 0.0111018 C284.857 0.010286 284.904 1.19489 284.5 1.25 L284.5 1.25 Z " />
<glyph glyph-name="dotlessi" unicode="&#x131;" horiz-adv-x="330" d="M279.5 1.25 L274 2 C236 5 210 33 210 72 L210 491 C210 495.968 205.968 500 201 500 L200.338 500 C199.004 500 185.296 497.971 184.02 497.584 L50.2695 457.095 C49.3012 456.802 49.4894 455.296 50.5 455.25 L56 455 C110 456 120 446 120 391 L120 72 C120 33 94 5 56 2 L50.5 1.25 C50.0836 1.19321 50.1306 0.489311 50.5509 0.488436 L279.449 0.0115644 C279.857 0.0107151 279.904 1.19492 279.5 1.25 L279.5 1.25 Z " />
<glyph glyph-name="Jcircumflex" unicode="&#x134;" horiz-adv-x="400" d="M264 879 C260 887 249 905 235 905 C220 905 210 888 206 880 C206 880 114 701 114 700 L119 696 C121.755 693.796 125.512 693.78 127.801 696.466 C169.338 745.225 201.994 781.766 224.644 807.213 C230.962 814.311 242.82 812.175 249.043 804.995 C290.11 757.61 346 692 346 692 C346 692 348.154 693.723 351 696 C353.717 698.173 357.592 697.099 355.918 700.149 C353.797 704.012 310.8 782.475 264 879 L264 879 Z M206 851 L206 851 L206 851 Z M185 587 L185 199 C185 62 171 9 135 9 C111 9 91 25 85 49 C79 73 61 89 40 89 C10 89 -6 73 0 49 C9 13 53 -11 110 -11 C236 -11 285 71 285 283 L285 587 C285 626 311 654 349 657 L354.5 657.75 C354.91 657.806 354.863 658.5 354.449 658.5 L115.551 658.5 C115.137 658.5 115.09 657.806 115.5 657.75 L121 657 C159 654 185 626 185 587 L185 587 Z " />
<glyph glyph-name="Lacute" unicode="&#x139;" horiz-adv-x="625" d="M142.152 690.159 C146.068 694.271 224.775 777 255 816 C278 842 293 861 293 866 C293 877 257 904 242 904 C239.188 904 227.586 885.543 212.963 857.693 C212.807 857.396 207.842 849.135 207.644 848.864 C176.63 806.371 131 698 131 698 C131 698 132.67 696.785 136.5 694 C139.511 691.81 139.584 687.463 142.152 690.159 L142.152 690.159 Z M516 12 C523.8 56.85 534.452 116.91 542.394 163.447 C542.511 164.129 542.576 170.813 542.5 171.5 C542.388 172.507 540.939 172.649 540.633 171.684 L523 116 C505 62 458 26 404 26 L271.32 26 C240.233 26 215 51.233 215 82.32 L215 589 C215 628 241 656 279 659 L284.5 659.75 C284.91 659.806 284.863 660.5 284.449 660.5 L45.5509 660.5 C45.1369 660.5 45.0898 659.806 45.5 659.75 L51 659 C89 656 115 628 115 589 L115 73 C115 34 89 6 51 3 L45.5 2.25 C45.0866 2.19363 45.1337 1.49458 45.5509 1.49414 L508.41 1.0059 C511.446 1.00269 514.457 3.51256 515 6.5 L516 12 L516 12 Z " />
<glyph glyph-name="Lcaron" unicode="&#x13d;" horiz-adv-x="625" d="M407 692 C389 692 374 629 366 584 L338.101 426.228 C337.5 422.827 339.724 419.092 343 418 C346.281 416.906 350.268 418.57 351.798 421.672 L422 564 C447 614 464 665 464 672 C464 686 424 692 407 692 L407 692 Z M516 12 C523.8 56.85 534.452 116.91 542.394 163.447 C542.511 164.129 542.576 170.813 542.5 171.5 C542.388 172.507 540.939 172.649 540.633 171.684 L523 116 C505 62 458 26 404 26 L271.32 26 C240.233 26 215 51.233 215 82.32 L215 589 C215 628 241 656 279 659 L284.5 659.75 C284.91 659.806 284.863 660.5 284.449 660.5 L45.5509 660.5 C45.1369 660.5 45.0898 659.806 45.5 659.75 L51 659 C89 656 115 628 115 589 L115 73 C115 34 89 6 51 3 L45.5 2.25 C45.0866 2.19363 45.1337 1.49458 45.5509 1.49414 L508.41 1.0059 C511.446 1.00269 514.457 3.51256 515 6.5 L516 12 L516 12 Z " />
<glyph glyph-name="lcaron" unicode="&#x13e;" horiz-adv-x="330" d="M327 722 C309 722 294 659 286 614 L258.101 456.228 C257.5 452.827 259.724 449.092 263 448 C266.281 446.906 270.268 448.57 271.798 451.672 L342 594 C367 644 384 695 384 702 C384 716 344 722 327 722 L327 722 Z M279.5 1.25 L274 2 C236 5 210 33 210 72 L210 711 C210 715.968 205.968 720 201 720 L200.338 720 C199.004 720 185.296 717.971 184.02 717.584 L50.2695 677.095 C49.3012 676.802 49.4894 675.296 50.5 675.25 L56 675 C110 676 120 666 120 611 L120 72 C120 33 94 5 56 2 L50.5 1.25 C50.0836 1.19321 50.1306 0.489311 50.5509 0.488436 L279.449 0.0115644 C279.857 0.0107151 279.904 1.19492 279.5 1.25 L279.5 1.25 Z " />
<glyph glyph-name="Lslash" unicode="&#x141;" horiz-adv-x="625" d="M79.675 269.989 L90 273.5 C103.065 277.942 115 269.394 115 255.595 L115 72 C115 33 89 5 51 2 L45.5 1.25 C45.0866 1.19363 45.1337 0.494585 45.5509 0.494145 L507.917 0.00641641 C511.23 0.00292232 514.455 2.73267 515 6 L516 12 C523.8 56.85 534.452 116.91 542.394 163.447 C542.511 164.129 542.576 170.813 542.5 171.5 C542.388 172.507 540.939 172.649 540.633 171.684 L523 116 C505 62 458 26 404 26 L271.32 26 C240.233 26 215 51.233 215 82.32 L215 275.58 C215 296.717 233.269 322.172 253.294 328.937 L348.789 361.199 C356.22 363.71 363 373.156 363 381 C363 388.844 356.22 393.71 348.789 391.199 L289 371 C250.303 357.927 215 383.263 215 424.109 L215 589 C215 628 241 656 279 659 L284.5 659.75 C284.91 659.806 284.863 660.5 284.449 660.5 L45.5509 660.5 C45.1369 660.5 45.0898 659.806 45.5 659.75 L51 659 C89 656 115 628 115 589 L115 339.405 C115 325.606 103.065 308.942 90 304.5 L79.675 300.989 C72.006 298.382 65 288.6 65 280.5 C65 272.4 72.006 267.382 79.675 269.989 L79.675 269.989 Z " />
<glyph glyph-name="lslash" unicode="&#x142;" horiz-adv-x="330" d="M34.2016 299.829 L70 312 C96.1295 320.884 120 303.788 120 276.189 L120 72 C120 33 94 5 56 2 L50.5 1.25 C50.0898 1.19407 50.1369 0.5 50.5509 0.5 L279.449 0.5 C279.863 0.5 279.91 1.19407 279.5 1.25 L274 2 C236 5 210 33 210 72 L210 320.663 C210 341.742 228.232 367.199 248.19 373.985 L295.798 390.171 C303.22 392.695 310 402.161 310 410 C310 417.839 303.22 422.695 295.798 420.171 L260 408 C233.87 399.116 210 416.212 210 443.811 L210 711 C210 715.968 205.968 720 201 720 L200.338 720 C199.004 720 185.296 717.971 184.02 717.584 L50.2695 677.095 C49.3012 676.802 49.4894 675.296 50.5 675.25 L56 675 C110 676 120 666 120 611 L120 399.337 C120 378.258 101.768 352.801 81.8096 346.015 L34.2016 329.829 C26.78 327.305 20 317.839 20 310 C20 302.161 26.78 297.305 34.2016 299.829 L34.2016 299.829 Z " />
<glyph glyph-name="Nacute" unicode="&#x143;" horiz-adv-x="716" d="M328.152 690.159 C332.068 694.271 410.775 777 441 816 C464 842 479 861 479 866 C479 877 443 904 428 904 C425.188 904 413.586 885.543 398.963 857.693 C398.807 857.396 393.842 849.135 393.644 848.864 C362.63 806.371 317 698 317 698 C317 698 318.67 696.785 322.5 694 C325.511 691.81 325.584 687.463 328.152 690.159 L328.152 690.159 Z M571 588 L571 320.357 C571 263.937 501.485 241.738 468.785 287.714 L220.903 636.234 C213.284 646.947 187.983 659.951 174.836 659.911 L45.5509 659.517 C45.1276 659.516 45.0806 658.807 45.5 658.75 L51 658 C89 655 115 627 115 588 L115 72 C115 33 89 5 51 2 L45.5 1.25 C45.0898 1.19407 45.1369 0.5 45.5509 0.5 L214.449 0.5 C214.863 0.5 214.91 1.19407 214.5 1.25 L209 2 C171 5 145 33 145 72 L145 395.545 C145 451.911 214.312 474.16 247.118 428.324 L558.397 -6.58261 C562.707 -12.605 577.094 -20 584.5 -20 C593.608 -20 601 -12.6075 601 -3.5 L601 588 C601 627 627 655 665 658 L670.5 658.75 C670.91 658.806 670.863 659.5 670.449 659.5 L501.551 659.5 C501.137 659.5 501.09 658.806 501.5 658.75 L507 658 C545 655 571 627 571 588 L571 588 Z M145 619 L145 619 L145 619 Z " />
<glyph glyph-name="nacute" unicode="&#x144;" horiz-adv-x="631" d="M243.152 530.159 C247.068 534.271 325.775 617 356 656 C379 682 394 701 394 706 C394 717 358 744 343 744 C340.188 744 328.586 725.543 313.963 697.693 C313.807 697.396 308.842 689.135 308.644 688.864 C277.63 646.371 232 538 232 538 C232 538 233.67 536.785 237.5 534 C240.511 531.81 240.584 527.463 243.152 530.159 L243.152 530.159 Z M426 69 C425 31 399 4 362 1 L356.5 0.25 C356.09 0.194066 356.137 -0.5 356.551 -0.5 L585.449 -0.5 C585.863 -0.5 585.91 0.194066 585.5 0.25 L580 1 C542 4 516 32 516 71 L516 336 C516 437 483 504 399 504 C362.25 504 301 484.094 237.357 452.99 C224.522 446.717 210 454.714 210 469 L210 490 C210 494.968 205.968 499 201 499 L200.338 499 C199.004 499 185.296 496.971 184.02 496.584 L50.2695 456.095 C49.3012 455.802 49.4894 454.296 50.5 454.25 L56 454 C110 455 120 445 120 390 L120 71 C120 32 94 4 56 1 L50.5 0.25 C50.0898 0.194066 50.1369 -0.5 50.5509 -0.5 L279.449 -0.5 C279.863 -0.5 279.91 0.194066 279.5 0.25 L274 1 C236 4 210 32 210 71 L210 414.243 C210 422.281 215.202 429.858 222.993 431.837 C249.867 438.665 289.35 443 331 443 C399 443 426 396 426 326 C426 326 426.5 222 426.5 68 L426 69 Z " />
<glyph glyph-name="Ncaron" unicode="&#x147;" horiz-adv-x="716" d="M468.872 927.85 C465.906 924.369 411.969 861.074 372.043 815.005 C365.82 807.825 353.962 805.689 347.644 812.787 C324.994 838.234 292.338 874.775 250.801 923.534 C248.512 926.22 244.755 926.204 242 924 L237 920 C237 919 329 740 329 740 C333 732 343 715 358 715 C372 715 383 733 387 741 C435 840 479 920 479 920 C479 920 477.28 921.376 474 924 C471.242 926.207 471.163 930.539 468.872 927.85 L468.872 927.85 Z M329 768 L329 768 L329 768 Z M571 587 L571 319.357 C571 262.937 501.485 240.738 468.785 286.714 L220.903 635.234 C213.284 645.947 187.983 658.951 174.836 658.911 L45.5509 658.517 C45.1276 658.516 45.0806 657.807 45.5 657.75 L51 657 C89 654 115 626 115 587 L115 71 C115 32 89 4 51 1 L45.5 0.25 C45.0898 0.194066 45.1369 -0.5 45.5509 -0.5 L214.449 -0.5 C214.863 -0.5 214.91 0.194066 214.5 0.25 L209 1 C171 4 145 32 145 71 L145 394.545 C145 450.911 214.312 473.16 247.118 427.324 L558.397 -7.58261 C562.707 -13.605 577.094 -21 584.5 -21 C593.608 -21 601 -13.6075 601 -4.5 L601 587 C601 626 627 654 665 657 L670.5 657.75 C670.91 657.806 670.863 658.5 670.449 658.5 L501.551 658.5 C501.137 658.5 501.09 657.806 501.5 657.75 L507 657 C545 654 571 626 571 587 L571 587 Z M145 618 L145 618 L145 618 Z " />
<glyph glyph-name="ncaron" unicode="&#x148;" horiz-adv-x="631" d="M428.872 767.85 C425.906 764.369 371.969 701.074 332.043 655.005 C325.82 647.825 313.962 645.689 307.644 652.787 C284.994 678.234 252.338 714.775 210.801 763.534 C208.512 766.22 204.755 766.204 202 764 L197 760 C197 759 289 580 289 580 C293 572 303 555 318 555 C332 555 343 573 347 581 C395 680 439 760 439 760 C439 760 437.28 761.376 434 764 C431.242 766.207 431.163 770.539 428.872 767.85 L428.872 767.85 Z M289 608 L289 608 L289 608 Z M426 68 C425 30 399 3 362 0 L356.5 -0.75 C356.09 -0.805934 356.137 -1.5 356.551 -1.5 L585.449 -1.5 C585.863 -1.5 585.91 -0.805934 585.5 -0.75 L580 0 C542 3 516 31 516 70 L516 335 C516 436 483 503 399 503 C362.25 503 301 483.094 237.357 451.99 C224.522 445.717 210 453.714 210 468 L210 489 C210 493.968 205.968 498 201 498 L200.338 498 C199.004 498 185.296 495.971 184.02 495.584 L50.2695 455.095 C49.3012 454.802 49.4894 453.296 50.5 453.25 L56 453 C110 454 120 444 120 389 L120 70 C120 31 94 3 56 0 L50.5 -0.75 C50.0898 -0.805934 50.1369 -1.5 50.5509 -1.5 L279.449 -1.5 C279.863 -1.5 279.91 -0.805934 279.5 -0.75 L274 0 C236 3 210 31 210 70 L210 413.243 C210 421.281 215.202 428.858 222.993 430.837 C249.867 437.665 289.35 442 331 442 C399 442 426 395 426 325 C426 325 426.5 221 426.5 67 L426 68 Z " />
<glyph glyph-name="Omacron" unicode="&#x14c;" horiz-adv-x="760" d="M255 765 L505 765 C518.799 765 530 776.201 530 790 C530 803.799 518.799 815 505 815 L255 815 C241.201 815 230 803.799 230 790 C230 776.201 241.201 765 255 765 L255 765 Z M160 330 C160 497 235 640 380 640 C525 640 600 497 600 330 C600 163 525 20 380 20 C235 20 160 163 160 330 L160 330 Z M50 330 C50 149 162 -5 380 -5 C598 -5 710 149 710 330 C710 511 598 665 380 665 C162 665 50 511 50 330 L50 330 Z " />
<glyph glyph-name="omacron" unicode="&#x14d;" horiz-adv-x="600" d="M175 605 L425 605 C438.799 605 450 616.201 450 630 C450 643.799 438.799 655 425 655 L175 655 C161.201 655 150 643.799 150 630 C150 616.201 161.201 605 175 605 L175 605 Z M150 250 C150 391 210 485 300 485 C390 485 450 391 450 250 C450 109 390 15 300 15 C210 15 150 109 150 250 L150 250 Z M50 250 C50 97 150 -5 300 -5 C450 -5 550 97 550 250 C550 403 450 505 300 505 C150 505 50 403 50 250 L50 250 Z " />
<glyph glyph-name="Obreve" unicode="&#x14e;" horiz-adv-x="760" d="M255.848 865.497 C280.501 794.581 329.3 748 380 748 C430.7 748 479.499 794.581 504.152 865.497 C505.615 869.706 502.727 872.091 498.5 873.5 C494.688 874.771 490.331 873.677 488.813 869.957 C473.48 832.367 430.35 808 380 808 C329.65 808 286.52 832.368 271.187 869.957 C269.669 873.677 265.312 874.771 261.5 873.5 C257.273 872.091 254.385 869.706 255.848 865.497 L255.848 865.497 Z M160 330 C160 497 235 640 380 640 C525 640 600 497 600 330 C600 163 525 20 380 20 C235 20 160 163 160 330 L160 330 Z M50 330 C50 149 162 -5 380 -5 C598 -5 710 149 710 330 C710 511 598 665 380 665 C162 665 50 511 50 330 L50 330 Z " />
<glyph glyph-name="obreve" unicode="&#x14f;" horiz-adv-x="600" d="M175.848 705.497 C200.501 634.581 249.3 588 300 588 C350.7 588 399.499 634.581 424.152 705.497 C425.615 709.706 422.727 712.091 418.5 713.5 C414.688 714.771 410.331 713.677 408.813 709.957 C393.48 672.367 350.35 648 300 648 C249.65 648 206.52 672.368 191.187 709.957 C189.669 713.677 185.312 714.771 181.5 713.5 C177.273 712.091 174.385 709.706 175.848 705.497 L175.848 705.497 Z M150 250 C150 391 210 485 300 485 C390 485 450 391 450 250 C450 109 390 15 300 15 C210 15 150 109 150 250 L150 250 Z M50 250 C50 97 150 -5 300 -5 C450 -5 550 97 550 250 C550 403 450 505 300 505 C150 505 50 403 50 250 L50 250 Z " />
<glyph glyph-name="Racute" unicode="&#x154;" horiz-adv-x="666" d="M261.154 690.159 C265.118 694.271 344.775 777 375 816 C398 842 413 861 413 866 C413 877 377 904 361 904 C357.25 904 346.469 885.543 331.952 857.693 C331.792 857.386 326.85 849.144 326.646 848.864 C295.679 806.371 251 698 251 698 C251 698 252.321 696.944 256 694 C258.75 691.8 258.71 687.624 261.154 690.159 L261.154 690.159 Z M666 10 C666 15.3788 660.488 19.9567 655.111 20.094 C625.51 20.85 621.1 27.6 577 87 C501.75 191.125 443.344 269.219 413.17 309.223 C407.177 317.168 413.708 326.838 423.207 329.81 C507.807 356.274 560 414.225 560 491 C560 593 470 661 335 661 L45.5509 660.509 C45.1318 660.509 45.0847 659.807 45.5 659.75 L51 659 C89 656 115 628 115 589 L115 73 C115 34 89 6 51 3 L45.5 2.25 C45.0898 2.19407 45.1369 1.5 45.5509 1.5 L284.449 1.5 C284.863 1.5 284.91 2.19407 284.5 2.25 L279 3 C241 6 215 34 215 73 L215 278 C215 298.423 231.577 315 252 315 L266.098 315 C276.314 315 296.915 304.154 302.935 295.9 C332.56 255.283 380.5 189.45 440 107 C514 5 521 1 631 1 L656.004 0.285598 C661.519 0.128021 666 4.48255 666 10 L666 10 Z M311 340 L263 340 C236.505 340 215 361.505 215 388 L215 579.68 C215 610.767 240.233 636 271.32 636 L335 636 C407 636 455 578 455 491 C455 400 397 340 311 340 L311 340 Z " />
<glyph glyph-name="Rcaron" unicode="&#x158;" horiz-adv-x="666" d="M448.87 927.848 C445.862 924.325 391.155 860.279 351.071 814.762 C344.768 807.604 332.986 805.662 326.644 812.787 C303.994 838.234 271.338 874.775 229.801 923.534 C227.648 926.06 223.981 926.205 221.5 924 L217 920 C217 919 309 740 309 740 C313 732 323 715 338 715 C351 715 362 733 366 741 C414 840 458 920 458 920 C458 920 456.613 921.233 453.5 924 C451.017 926.207 451.028 930.374 448.87 927.848 L448.87 927.848 Z M666 10 C666 15.3788 660.488 19.9567 655.111 20.094 C625.51 20.85 621.1 27.6 577 87 C501.75 191.125 443.344 269.219 413.17 309.223 C407.177 317.168 413.708 326.838 423.207 329.81 C507.807 356.274 560 414.225 560 491 C560 593 470 661 335 661 L45.5509 660.509 C45.1318 660.509 45.0847 659.807 45.5 659.75 L51 659 C89 656 115 628 115 589 L115 73 C115 34 89 6 51 3 L45.5 2.25 C45.0898 2.19407 45.1369 1.5 45.5509 1.5 L284.449 1.5 C284.863 1.5 284.91 2.19407 284.5 2.25 L279 3 C241 6 215 34 215 73 L215 278 C215 298.423 231.577 315 252 315 L266.098 315 C276.314 315 296.915 304.154 302.935 295.9 C332.56 255.283 380.5 189.45 440 107 C514 5 521 1 631 1 L656.004 0.285598 C661.519 0.128021 666 4.48255 666 10 L666 10 Z M309 769 L309 769 L309 769 Z M311 339 L263 339 C236.505 339 215 360.505 215 387 L215 578.68 C215 609.767 240.233 635 271.32 635 L335 635 C407 635 455 577 455 490 C455 399 397 339 311 339 L311 339 Z " />
<glyph glyph-name="rcaron" unicode="&#x159;" horiz-adv-x="429" d="M341.872 767.85 C338.906 764.369 284.969 701.074 245.043 655.005 C238.82 647.825 226.962 645.689 220.644 652.787 C197.994 678.234 165.338 714.775 123.801 763.534 C121.512 766.22 117.755 766.204 115 764 L110 760 C110 759 202 580 202 580 C206 572 216 555 231 555 C245 555 256 573 260 581 C308 680 352 760 352 760 C352 760 350.28 761.376 347 764 C344.242 766.207 344.163 770.539 341.872 767.85 L341.872 767.85 Z M202 608 L202 608 L202 608 Z M270 437 C302 437 344 402 376 402 C402 402 419 419 419 445 C419 480 397 504 342 504 C308.175 504 266.863 483.581 230.979 450.605 C223.212 443.467 209 447.931 209 458.48 L209 490 C209 494.968 204.968 499 200 499 L199.338 499 C198.004 499 184.296 496.971 183.02 496.584 L49.2695 456.095 C48.3012 455.802 48.4894 454.296 49.5 454.25 L55 454 C109 455 119 445 119 390 L119 71 C119 32 93 4 55 1 L49.5 0.25 C49.0898 0.194066 49.1369 -0.5 49.5509 -0.5 L278.449 -0.5 C278.863 -0.5 278.91 0.194066 278.5 0.25 L273 1 C235 4 209 32 209 71 L209 404.37 C209 410.19 212.958 418.496 217.82 421.696 C232.744 431.521 251.293 437 269.5 437 L270 437 Z " />
<glyph glyph-name="Sacute" unicode="&#x15a;" horiz-adv-x="511" d="M203.152 690.159 C207.068 694.271 285.775 777 316 816 C339 842 354 861 354 866 C354 877 318 904 303 904 C300.188 904 288.586 885.543 273.963 857.693 C273.807 857.396 268.842 849.135 268.644 848.864 C237.63 806.371 192 698 192 698 C192 698 193.67 696.785 197.5 694 C200.511 691.81 200.584 687.463 203.152 690.159 L203.152 690.159 Z M339 620 C374 604 401 569 409 530 C412.355 513.226 417.468 490.824 421.39 472.235 C421.622 471.138 423.529 471.078 423.533 472.198 L423.91 589.782 C423.96 605.375 414.87 623.413 400.718 629.959 C354.637 651.272 297.9 665 252 665 C127 665 43 586 43 468 C43 393 111 323 212 291 C321 257 394 196 394 140 C394 68 338 20 254 20 C227 20 198 24 169 31 C109 49 62 101 49 166 C47.2667 174.667 44.4067 185.587 42.3729 194.854 C42.2529 195.401 41.4855 194.461 41.4837 193.901 L41.0904 71.2178 C41.0381 54.8762 50.3067 37.4444 65.3416 31.0412 C115.387 9.7275 187 -4 255 -4 C382 -4 466 70 466 182 C466 262 396 337 291 370 C184 403 113 459 113 509 C113 588 167 641 248 641 C272 641 305 633.5 339 620.5 L339 620 Z " />
<glyph glyph-name="sacute" unicode="&#x15b;" horiz-adv-x="422" d="M149.152 530.159 C153.068 534.271 231.775 617 262 656 C285 682 300 701 300 706 C300 717 264 744 249 744 C246.188 744 234.586 725.543 219.963 697.693 C219.807 697.396 214.842 689.135 214.644 688.864 C183.63 646.371 138 538 138 538 C138 538 139.67 536.785 143.5 534 C146.511 531.81 146.584 527.463 149.152 530.159 L149.152 530.159 Z M348.623 386.318 L348.879 439.131 C348.945 452.621 338.058 470.382 325.916 476.261 C289.051 494.11 250.4 505 224 505 C123 505 56 450 56 368 C56 315 112 255 195 218 C256 191 297 149 297 113 C297 54 259 15 203 15 C202 15 158 19 159 21 C108 33 66 73 53 122 L49.75 133 C49.2341 134.746 46.4573 134.351 46.4492 132.53 L46.0952 52.523 C46.0405 40.1471 52.8687 26.7149 64.1654 21.6602 C101.143 5.115 152.1 -5 198 -5 C302 -5 372 56 372 147 C372 198 327 252 259 282 C179 318 125 365 125 399 C125 451 165 485 224 485 C231 485 246 480 265 471 C305.425 451.2 330.196 422.892 342.119 385.515 C342.798 383.386 348.612 384.083 348.623 386.318 L348.623 386.318 Z " />
<glyph glyph-name="Scircumflex" unicode="&#x15c;" horiz-adv-x="511" d="M277 879 C273 887 262 905 248 905 C233 905 223 888 219 880 C219 880 127 701 127 700 L132 696 C134.755 693.796 138.512 693.78 140.801 696.466 C182.338 745.225 214.994 781.766 237.644 807.213 C243.962 814.311 255.82 812.175 262.043 804.995 C303.11 757.61 359 692 359 692 C359 692 361.154 693.723 364 696 C366.717 698.173 370.592 697.099 368.918 700.149 C366.798 704.012 323.8 782.475 277 879 L277 879 Z M219 851 L219 851 L219 851 Z M339 619 C374 603 401 568 409 529 C412.355 512.226 417.468 489.824 421.39 471.235 C421.622 470.138 423.529 470.078 423.533 471.198 L423.91 588.782 C423.96 604.375 414.87 622.413 400.718 628.959 C354.637 650.273 297.9 664 252 664 C127 664 43 585 43 467 C43 392 111 322 212 290 C321 256 394 195 394 139 C394 67 338 19 254 19 C227 19 198 23 169 30 C109 48 62 100 49 165 C47.2667 173.667 44.4067 184.587 42.3729 193.854 C42.2529 194.401 41.4855 193.461 41.4837 192.901 L41.0904 70.2178 C41.0381 53.8762 50.3067 36.4444 65.3416 30.0412 C115.387 8.7275 187 -5 255 -5 C382 -5 466 69 466 181 C466 261 396 336 291 369 C184 402 113 458 113 508 C113 587 167 640 248 640 C272 640 305 632.5 339 619.5 L339 619 Z " />
<glyph glyph-name="Scedilla" unicode="&#x15e;" horiz-adv-x="511" d="M215 -92 L214 -94 C214 -93 214 -92 214 -91 L215 -92 L215 -92 Z M226.089 -64.9072 C243.315 -31.7793 257.358 -15.3038 266.356 -7.56738 C267.936 -6.20879 277.695 -3.59303 279.773 -3.42673 C392.802 5.62188 466 76.675 466 181 C466 261 396 336 291 369 C184 402 113 458 113 508 C113 587 167 640 248 640 C272 640 305 633 339 620 C374 604 401 569 409 530 C412.355 513.226 417.468 490.824 421.39 472.235 C421.622 471.138 423.529 471.078 423.533 472.198 L423.91 589.782 C423.96 605.375 414.87 623.413 400.718 629.959 C354.637 651.272 297.9 665 252 665 C127 665 43 586 43 468 C43 393 111 323 212 291 C321 257 394 196 394 140 C394 68 338 20 254 20 C227 20 198 24 169 31 C109 49 62 101 49 166 C47.2667 174.667 44.4067 185.587 42.3729 194.854 C42.2529 195.401 41.4855 194.461 41.4837 193.901 L41.0869 70.1015 C41.0369 54.4994 49.9971 37.6185 64.3167 31.4237 C102.35 14.9706 153.277 2.84594 205.411 -1.87484 C223.871 -3.54638 237.93 -22.2644 230.438 -39.2184 L209.356 -86.932 C208.608 -88.6235 209.346 -90.673 211 -91.5 C212.295 -92.1473 214.771 -92.5857 216.063 -91.9346 C232.75 -83.5296 253.64 -78 269 -78 C301 -78 323 -100 323 -133 C323 -169 294 -193 251 -193 C222.765 -193 197.644 -189.107 185.254 -182.696 C182.931 -181.494 179.894 -183.042 179 -185.5 C177.843 -188.682 179.2 -192.799 181.987 -194.722 C203.533 -209.588 237.55 -219 269 -219 C334 -219 378 -185 378 -133 C378 -89 343 -60 290 -60 C270.71 -60 247.55 -64.2206 230.552 -70.8919 C227.734 -71.9978 224.692 -67.593 226.089 -64.9072 L226.089 -64.9072 Z " />
<glyph glyph-name="scedilla" unicode="&#x15f;" horiz-adv-x="422" d="M158 -92 L157 -94 C157 -93 157 -92 157 -91 L158 -92 L158 -92 Z M169.089 -64.9072 C186.315 -31.7793 200.358 -15.3038 209.356 -7.56738 C210.914 -6.22779 219.017 -3.6403 221.063 -3.45103 C312.061 4.96687 371 63.15 371 147 C371 198 326 252 258 282 C178 318 124 365 124 399 C124 451 164 485 223 485 C230 485 245 480 264 471 C304.425 451.2 329.536 422.552 341.579 385.056 C342.262 382.929 347.612 383.084 347.623 385.318 L347.879 438.131 C347.945 451.621 337.058 469.382 324.916 475.261 C288.051 493.11 249.4 504 223 504 C122 504 55 449 55 367 C55 314 111 254 194 217 C255 190 296 148 296 112 C296 53 258 14 202 14 C201 14 157 18 158 20 C107 32 65 72 52 121 L48.75 132 C48.2341 133.746 45.4573 133.351 45.4492 131.53 L45.0903 50.4081 C45.0388 38.7737 51.565 25.8854 62.1439 21.0427 C89.8138 8.37637 125.662 -0.690562 161.385 -4.31278 C173.828 -5.57442 183.544 -18.3469 178.49 -29.7862 L152.356 -88.932 C151.608 -90.6235 152.346 -92.673 154 -93.5 C155.295 -94.1473 157.771 -94.5857 159.063 -93.9346 C175.75 -85.5296 196.64 -80 212 -80 C244 -80 266 -102 266 -135 C266 -171 237 -195 194 -195 C165.765 -195 140.644 -191.107 128.254 -184.696 C125.931 -183.494 122.894 -185.042 122 -187.5 C120.843 -190.682 122.2 -194.799 124.987 -196.722 C146.533 -211.588 180.55 -221 212 -221 C277 -221 321 -187 321 -135 C321 -91 286 -62 233 -62 C213.71 -62 190.55 -65.5172 173.552 -71.9615 C170.734 -73.03 167.698 -67.5812 169.089 -64.9072 L169.089 -64.9072 Z " />
</font>
</svg>
