<?xml version="1.0" encoding="UTF-8"?>
<svg xmlns="http://www.w3.org/2000/svg" xmlns:xlink="http://www.w3.org/1999/xlink" version="1.2" >
<font id="Wacian regular">
<font-face  font-family="Wacian" units-per-em="1024" ascent="936" descent="-280" font-style="normal" font-weight="400" font-stretch="normal" cap-height="928" x-height="468" underline-position="-125" underline-thickness="50" />
<missing-glyph  horiz-adv-x="100" d="" />
<glyph glyph-name="NULL" d="" />
<glyph glyph-name="CR" unicode="&#xd;" horiz-adv-x="256" d="" />
<glyph glyph-name="space" unicode="&#x20;" horiz-adv-x="250" d="" />
<glyph glyph-name="exclam" unicode="&#x21;" horiz-adv-x="234" d="M125 -5 C164 -5 190 21 190 60 C190 99 164 125 125 125 C86 125 60 99 60 60 C60 21 86 -5 125 -5 L125 -5 Z M174 600 C178 639 156 665 119 665 C81 665 59 639 64 600 C64 480 119 200 119 200 L131 200 C131 200 174 480 174 600 L174 600 Z " />
<glyph glyph-name="quotedbl" unicode="&#x22;" horiz-adv-x="340" d="M185 660 L235 400 L250 400 L300 660 L185 660 L185 660 Z M40 660 L90 400 L105 400 L155 660 L40 660 L40 660 Z " />
<glyph glyph-name="numbersign" unicode="&#x23;" horiz-adv-x="547" d="M391 665 L366 495 L229 495 L254 665 L219 665 L194 495 L68 495 L59 425 L183 425 L155 235 L27 235 L17 165 L145 165 L120 0 L155 0 L180 165 L317 165 L292 0 L327 0 L352 165 L470 165 L480 235 L362 235 L390 425 L517 425 L527 495 L401 495 L426 665 L391 665 L391 665 Z M218 425 L355 425 L327 235 L190 235 L218 425 L218 425 Z " />
<glyph glyph-name="dollar" unicode="&#x24;" horiz-adv-x="511" d="M273 735 L273 664 C256 665 239 665 223 663 L223 735 L193 735 L193 658 C102 637 44 566 44 468 C44 398 103 332 193 298 L193 26 C118 39 64 91 49 165 C47 175 44 188 42 198 L41 198 L41 42 C77 21 133 5 192 -2 L192 -76 L222 -76 L222 -5 C239 -6 256 -6 273 -5 L273 -76 L303 -76 L303 -2 C403 14 466 83 466 180 C466 257 401 329 303 364 L303 630 C315 627 327 623 339 618 C374 602 401 567 409 528 C413 508 419 480 423 460 L424 460 L424 616 C389 636 344 651 302 658 L302 733 L273 735 L273 735 Z M222 393 L222 636 C239 638 255 638 272 635 L272 372 C254 378 237 385 222 392 L222 393 L222 393 Z M192 408 C142 438 112 473 112 505 C112 564 142 609 192 628 L192 408 L192 408 Z M222 285 C240 279 257 272 273 265 L273 18 C256 17 240 18 223 20 L222 285 L222 285 Z M303 251 C360 218 395 177 395 138 C395 81 360 39 303 24 L303 251 L303 251 Z " />
<glyph glyph-name="percent" unicode="&#x25;" horiz-adv-x="802" d="M119 548 C119 638 139 698 170 698 C218 698 250 624 250 512 C250 430 226 375 191 375 C148 375 119 444 119 548 L119 548 Z M30 531 C30 419 91 345 183 345 C274 345 334 424 334 543 C334 652 274 725 183 725 C91 725 30 647 30 531 L30 531 Z M557 197 C557 288 581 348 616 348 C670 348 706 273 706 161 C706 79 678 24 636 24 C589 24 557 93 557 197 L557 197 Z M469 180 C469 69 533 -5 628 -5 C725 -5 790 73 790 191 C790 301 725 375 628 375 C533 375 469 297 469 180 L469 180 Z M202 -13 L667 707 L628 733 L163 13 L202 -13 L202 -13 Z " />
<glyph glyph-name="ampersand" unicode="&#x26;" horiz-adv-x="720" d="M304 373 C399 398 461 465 461 547 C461 618 401 665 311 665 C221 665 161 599 161 500 C161 461 182 411 218 353 C116 307 51 232 51 156 C51 60 133 -4 257 -4 C348 -4 424 17 476 54 C568 -13 640 -13 721 2 L721 17 C672 8 624 15 528 108 C546 135 555 166 555 200 L555 230 C555 269 581 297 619 300 L630 301 L630 302 L460 302 L460 301 L471 300 C509 297 535 269 535 230 L535 200 C535 171 527 145 512 123 C452 184 354 300 303 375 L304 373 L304 373 Z M228 542 C228 606 258 648 303 648 C355 648 390 606 390 544 C390 470 352 411 293 389 C252 452 228 505 228 542 L228 542 Z M454 71 C415 49 364 37 305 37 C202 37 134 99 134 192 C134 250 169 304 226 338 C278 257 381 130 453 71 L454 71 L454 71 Z " />
<glyph glyph-name="quotesingle" unicode="&#x27;" horiz-adv-x="195" d="M40 660 L90 400 L105 400 L155 660 L40 660 L40 660 Z " />
<glyph glyph-name="parenleft" unicode="&#x28;" horiz-adv-x="251" d="M230 690 C128 568 60 440 60 270 C60 100 128 -28 230 -150 L241 -140 C174 -61 130 53 130 270 C130 487 174 601 241 680 L230 690 L230 690 Z " />
<glyph glyph-name="parenright" unicode="&#x29;" horiz-adv-x="251" d="M10 -150 C112 -28 180 100 180 270 C180 440 112 568 10 690 L-1 680 C66 601 110 487 110 270 C110 53 66 -61 -1 -140 L10 -150 L10 -150 Z " />
<glyph glyph-name="asterisk" unicode="&#x2a;" horiz-adv-x="300" d="M267 577 C288 584 295 599 284 618 C274 636 256 638 240 624 L155 548 L178 660 C182 681 171 695 150 695 C129 695 119 681 123 660 L146 548 L60 624 C44 638 26 636 16 618 C5 599 12 584 33 577 L142 541 L32 504 C12 497 5 481 16 463 C26 444 43 443 60 457 L147 534 L123 420 C119 399 129 385 150 385 C171 385 182 399 178 420 L154 533 L240 457 C257 443 274 444 284 463 C295 481 288 497 268 504 L159 541 L267 577 L267 577 Z " />
<glyph glyph-name="plus" unicode="&#x2b;" horiz-adv-x="555" d="M253 450 L253 270 L75 270 L75 230 L253 230 L253 50 L297 50 L297 230 L475 230 L475 270 L297 270 L297 450 L253 450 L253 450 Z " />
<glyph glyph-name="comma" unicode="&#x2c;" horiz-adv-x="251" d="M125 125 C86 125 60 99 60 60 C60 21 86 -5 125 -5 C131 -5 138 2 145 11 C158 -52 125 -113 82 -134 L82 -149 C153 -114 200 -42 200 31 C200 78 174 125 124 125 L125 125 L125 125 Z " />
<glyph glyph-name="hyphen" unicode="&#x2d;" horiz-adv-x="280" d="M20 200 L260 200 L260 270 L20 270 L20 200 L20 200 Z " />
<glyph glyph-name="period" unicode="&#x2e;" horiz-adv-x="250" d="M125 -5 C164 -5 190 21 190 60 C190 99 164 125 125 125 C86 125 60 99 60 60 C60 21 86 -5 125 -5 L125 -5 Z " />
<glyph glyph-name="slash" unicode="&#x2f;" horiz-adv-x="350" d="M0 -145 L40 -145 L350 710 L310 710 L0 -145 L0 -145 Z " />
<glyph glyph-name="zero" unicode="0" horiz-adv-x="610" d="M150 250 C150 391 212 485 305 485 C398 485 460 391 460 250 C460 109 398 15 305 15 C212 15 150 109 150 250 L150 250 Z M50 250 C50 97 152 -5 305 -5 C458 -5 560 97 560 250 C560 403 458 505 305 505 C152 505 50 403 50 250 L50 250 Z " />
<glyph glyph-name="one" unicode="1" horiz-adv-x="350" d="M295 0 L295 1 L284 2 C246 5 220 33 220 72 L220 428 C220 467 246 495 284 498 L295 499 L295 500 L55 500 L55 499 L66 498 C104 495 130 467 130 428 L130 72 C130 33 104 5 66 2 L55 1 L55 0 L295 0 L295 0 Z " />
<glyph glyph-name="two" unicode="2" horiz-adv-x="485" d="M460 165 L459 165 L457 154 C450 116 420 90 381 90 L167 90 C332 194 435 262 435 353 C435 444 369 505 271 505 C186 505 105 447 70 359 L81 352 C102 404 160 439 226 439 C291 439 335 392 335 322 C335 189 211 141 25 20 L25 0 L445 0 C450 60 454 115 460 165 L460 165 Z " />
<glyph glyph-name="three" unicode="3" horiz-adv-x="465" d="M159 174 C256 174 320 119 320 36 C320 -96 201 -191 23 -200 L24 -215 C259 -203 415 -100 415 41 C415 134 339 199 222 208 C320 257 380 318 380 375 C380 453 321 505 232 505 C150 505 61 454 9 377 L20 370 C48 411 114 439 186 439 C248 439 289 402 289 346 C289 289 236 232 152 195 C138 190 121 184 102 177 L102 162 C118 167 144 174 159 174 L159 174 Z " />
<glyph glyph-name="four" unicode="4" horiz-adv-x="491" d="M10 15 L10 0 L281 0 L281 -150 L371 -150 L371 0 L481 0 L481 40 L371 40 L371 505 L356 505 C353 503 10 15 10 15 L10 15 Z M60 40 C108 108 207 249 281 353 C281 352 281 351 281 350 L281 39 L60 40 L60 40 Z " />
<glyph glyph-name="five" unicode="5" horiz-adv-x="451" d="M415 575 L414 575 L410 564 C394 526 358 500 319 500 L85 500 C85 407 65 191 65 191 L88 191 C88 191 89 198 90 209 C89 199 88 192 87 192 L116 192 C232 192 309 136 309 51 C309 -72 197 -158 29 -164 L30 -181 C252 -173 400 -69 400 80 C400 201 304 281 161 281 L96 281 C100 319 104 364 107 406 L359 406 C379 467 397 524 414 576 L415 575 L415 575 Z " />
<glyph glyph-name="six" unicode="6" horiz-adv-x="570" d="M496 715 C234 706 60 538 60 295 C60 115 152 -5 291 -5 C435 -5 527 83 520 216 C520 344 440 430 319 430 C249 430 194 390 165 323 C165 542 296 693 497 700 L496 715 L496 715 Z M304 405 C377 405 425 327 425 211 C431 96 381 20 301 20 C218 20 162 96 162 210 C165 327 222 405 304 405 L304 405 Z " />
<glyph glyph-name="seven" unicode="7" horiz-adv-x="442" d="M15 333 L16 333 L18 344 C25 382 55 408 94 408 L389 408 L120 -140 L220 -140 C291 70 361 281 432 491 L425 500 L30 500 C25 440 21 384 15 333 L15 333 Z " />
<glyph glyph-name="eight" unicode="8" horiz-adv-x="540" d="M340 353 C412 381 458 444 458 519 C458 607 383 665 270 665 C157 665 82 595 82 491 C82 423 127 357 198 315 C110 297 55 240 55 161 C55 61 142 -5 273 -5 C403 -5 490 68 490 178 C490 241 432 307 340 353 L340 353 Z M328 359 C314 366 299 372 283 378 C208 405 158 464 158 526 C158 598 201 646 266 646 C337 646 384 589 384 504 C384 437 363 384 328 360 L328 359 L328 359 Z M141 177 C141 240 169 288 214 308 C226 302 238 297 251 292 C345 258 407 200 407 148 C407 68 355 15 278 15 C196 15 141 80 141 177 L141 177 Z " />
<glyph glyph-name="nine" unicode="9" horiz-adv-x="570" d="M74 -215 C336 -206 510 -38 510 205 C510 385 418 505 279 505 C135 505 43 417 50 284 C50 156 130 70 251 70 C321 70 376 110 405 177 C405 -42 274 -193 73 -200 L74 -215 L74 -215 Z M266 95 C193 95 145 173 145 289 C139 404 189 480 269 480 C352 480 408 404 408 290 C405 173 348 95 266 95 L266 95 Z " />
<glyph glyph-name="colon" unicode="&#x3a;" horiz-adv-x="250" d="M125 395 C164 395 190 421 190 460 C190 499 164 525 125 525 C86 525 60 499 60 460 C60 421 86 395 125 395 L125 395 Z M125 -5 C164 -5 190 21 190 60 C190 99 164 125 125 125 C86 125 60 99 60 60 C60 21 86 -5 125 -5 L125 -5 Z " />
<glyph glyph-name="semicolon" unicode="&#x3b;" horiz-adv-x="251" d="M125 395 C164 395 190 421 190 460 C190 499 164 525 125 525 C86 525 60 499 60 460 C60 421 86 395 125 395 L125 395 Z M125 125 C86 125 60 99 60 60 C60 21 86 -5 125 -5 C131 -5 138 2 145 11 C158 -52 125 -113 82 -134 L82 -149 C153 -114 200 -42 200 31 C200 78 174 125 124 125 L125 125 L125 125 Z " />
<glyph glyph-name="less" unicode="&#x3c;" horiz-adv-x="540" d="M465 500 L50 301 C46 299 43 298 40 296 L40 254 L50 249 L465 50 L465 95 L80 275 L465 455 L465 500 L465 500 Z " />
<glyph glyph-name="equal" unicode="&#x3d;" horiz-adv-x="534" d="M84 220 L84 180 L464 180 L464 220 L84 220 L84 220 Z M84 320 L84 280 L464 280 L464 320 L84 320 L84 320 Z " />
<glyph glyph-name="greater" unicode="&#x3e;" horiz-adv-x="530" d="M490 254 L490 296 C486 298 483 299 480 301 L75 500 L75 455 L451 275 L75 95 L75 50 C213 118 352 185 490 254 L490 254 Z " />
<glyph glyph-name="question" unicode="&#x3f;" horiz-adv-x="371" d="M140 -5 C179 -5 205 21 205 60 C205 99 179 125 140 125 C101 125 75 99 75 60 C75 21 101 -5 140 -5 L140 -5 Z M121 665 C71 665 38 641 38 605 C38 582 54 566 77 566 C99 566 128 595 150 595 C249 595 315 532 315 437 C315 414 291 374 163 374 L128 374 C119 374 113 368 114 360 L134 205 L146 205 L159 305 L194 305 C313 305 336 383 336 427 C336 570 250 665 121 665 L121 665 Z " />
<glyph glyph-name="at" unicode="&#x40;" horiz-adv-x="1164" d="M1042 0 C976 -142 799 -236 599 -236 C315 -236 126 -38 126 259 C126 556 308 754 582 754 C856 754 1039 590 1039 343 C1039 142 966 8 857 8 C765 8 723 85 752 200 L822 480 L737 480 L718 405 C701 457 653 490 587 490 C408 490 288 370 288 191 C288 81 359 8 466 8 C548 8 620 48 660 113 C670 29 735 -23 840 -23 C1001 -23 1108 123 1108 343 C1108 605 897 779 581 779 C265 779 55 571 55 259 C55 -53 272 -261 598 -261 C809 -261 998 -157 1071 0 L1042 0 L1042 0 Z M705 356 L666 200 C645 114 583 57 511 57 C436 57 386 118 386 209 C386 363 465 465 584 465 C657 465 705 421 705 356 L705 356 Z " />
<glyph glyph-name="A" unicode="A" horiz-adv-x="679" d="M412 234 L481 61 C490 28 473 5 437 3 L396 1 L396 0 L674 0 L674 1 C636 5 607 23 587 65 L335 675 L310 675 L92 65 C76 30 42 5 5 2 L-7 1 L-7 0 L211 0 L211 1 L183 3 C136 5 115 37 130 83 L182 234 L412 234 L412 234 Z M401 259 L190 259 L288 543 L401 259 L401 259 Z " />
<glyph glyph-name="B" unicode="B" horiz-adv-x="630" d="M402 355 C496 376 555 431 555 504 C555 597 467 659 335 659 L40 659 L40 658 L51 657 C89 654 115 626 115 587 L115 71 C115 32 89 4 51 1 L40 0 L40 -1 L360 -1 C510 -1 610 72 610 182 C610 272 529 337 402 354 L402 355 L402 355 Z M215 360 L215 634 L335 634 C407 634 455 582 455 504 C455 418 397 360 311 360 L215 360 L215 360 Z M215 339 L302 339 C424 339 505 276 505 182 C505 87 443 24 350 24 L215 24 L215 339 L215 339 Z " />
<glyph glyph-name="C" unicode="C" horiz-adv-x="708" d="M640 169 C625 95 556 37 468 25 C444 22 420 20 397 20 C254 20 159 144 159 330 C159 516 254 640 397 640 C434 640 473 635 510 627 C574 612 625 559 639 491 C641 481 644 468 646 458 L647 458 L647 606 C586 641 486 665 397 665 C188 665 49 531 49 330 C49 129 188 -5 397 -5 C486 -5 586 19 647 54 L640 66 L640 66 L646 54 L646 202 L645 202 C643 192 640 179 638 169 L640 169 L640 169 Z " />
<glyph glyph-name="D" unicode="D" horiz-adv-x="725" d="M359 0 C549 0 675 132 675 330 C675 528 534 660 323 660 L40 660 L40 659 L51 658 C89 655 115 627 115 588 L115 72 C115 33 89 5 51 2 L40 1 L40 0 L359 0 L359 0 Z M215 25 L215 635 L323 635 C474 635 575 513 575 330 C575 147 489 25 359 25 L215 25 L215 25 Z " />
<glyph glyph-name="E" unicode="E" horiz-adv-x="625" d="M516 12 L516 12 C523 56 534 116 542 160 L541 160 L529 125 C508 65 454 25 394 25 L215 25 L215 340 L345 340 C396 340 435 311 442 268 L444 255 L445 255 L445 440 L444 440 L442 429 C435 391 396 365 345 365 L215 365 L215 635 L388 635 C448 635 495 595 505 535 L511 500 L512 500 L512 660 L40 660 L40 659 L51 658 C89 655 115 627 115 588 L115 72 C115 33 89 5 51 2 L40 1 L40 0 L514 0 L516 12 L516 12 Z " />
<glyph glyph-name="F" unicode="F" horiz-adv-x="540" d="M542 660 L40 660 L40 659 L51 658 C89 655 115 627 115 588 L115 72 C115 33 89 5 51 2 L40 1 L40 0 L300 0 L300 1 L280 3 C241 5 215 33 215 72 L215 335 L335 335 C386 335 425 306 432 263 L434 250 L435 250 L435 435 L434 435 L432 424 C425 386 386 360 335 360 L215 360 L215 635 L418 635 C478 635 525 595 535 535 L541 500 L542 500 L542 660 L542 660 Z " />
<glyph glyph-name="G" unicode="G" horiz-adv-x="804" d="M544 238 L544 44 C495 29 439 20 388 20 C251 20 160 144 160 330 C160 516 251 640 388 640 C421 640 457 636 492 628 C555 613 606 559 620 492 C622 482 625 469 627 459 L628 459 L628 607 C567 642 471 666 388 666 C185 666 50 532 50 331 C50 130 185 -4 388 -4 C473 -4 572 20 634 56 L634 239 C634 278 660 306 698 309 L709 310 L709 311 L469 311 L469 310 L480 309 C518 306 544 278 544 239 L544 238 L544 238 Z " />
<glyph glyph-name="H" unicode="H" horiz-adv-x="780" d="M740 0 L740 1 L729 2 C691 5 665 33 665 72 L665 588 C665 627 691 655 729 658 L740 659 L740 660 L490 660 L490 659 L501 658 C539 655 565 627 565 588 L565 360 L215 360 L215 588 C215 627 241 655 279 658 L290 659 L290 660 L40 660 L40 659 L51 658 C89 655 115 627 115 588 L115 72 C115 33 89 5 51 2 L40 1 L40 0 L290 0 L290 1 L279 2 C241 5 215 33 215 72 L215 335 L565 335 L565 72 C565 33 539 5 501 2 L490 1 L490 0 L740 0 L740 0 Z " />
<glyph glyph-name="I" unicode="I" horiz-adv-x="330" d="M290 0 L290 1 L279 2 C241 5 215 33 215 72 L215 588 C215 627 241 655 279 658 L290 659 L290 660 L40 660 L40 659 L51 658 C89 655 115 627 115 588 L115 72 C115 33 89 5 51 2 L40 1 L40 0 L290 0 L290 0 Z " />
<glyph glyph-name="J" unicode="J" horiz-adv-x="400" d="M185 588 L185 200 C185 63 171 10 135 10 C111 10 91 26 85 50 C79 74 61 90 40 90 C10 90 -6 74 0 50 C9 14 53 -10 110 -10 C236 -10 285 72 285 284 L285 588 C285 627 311 655 349 658 L360 659 L360 660 L110 660 L110 659 L121 658 C159 655 185 627 185 588 L185 588 Z " />
<glyph glyph-name="K" unicode="K" horiz-adv-x="670" d="M660 -5 L660 15 C611 15 559 67 450 210 C379 304 325 375 300 408 L476 588 C515 627 566 655 605 658 L620 659 L620 660 L435 660 L435 659 L445 658 C477 655 479 631 450 597 L286 426 C286 426 223 360 217 354 L217 587 C217 626 243 654 281 657 L292 658 L292 659 L42 659 L42 658 L53 657 C91 654 117 626 117 587 L117 71 C117 32 91 4 53 1 L42 0 L42 -1 L292 -1 L292 0 L281 1 C243 4 217 32 217 71 L217 321 L231 335 C255 303 310 231 382 136 C460 33 529 -7 627 -7 L660 -5 L660 -5 Z " />
<glyph glyph-name="L" unicode="L" horiz-adv-x="625" d="M516 12 L516 12 C524 58 535 120 543 167 C543 172 543 177 542 176 L523 116 C505 62 458 26 404 26 L215 26 L215 589 C215 628 241 656 279 659 L290 660 L290 661 L40 661 L40 660 L51 659 C89 656 115 628 115 589 L115 73 C115 34 89 6 51 3 L40 2 L40 1 L514 1 L516 12 L516 12 Z " />
<glyph glyph-name="M" unicode="M" horiz-adv-x="870" d="M782 72 L758 595 C759 630 783 655 819 658 L830 659 L830 660 L665 660 L449 115 L212 660 L60 660 L60 659 L71 658 C109 655 132 626 132 587 L112 63 C108 28 82 4 46 1 L35 0 L35 -1 L250 -1 L250 0 L220 2 C175 4 145 34 143 78 L160 534 C241 354 322 175 402 -5 L449 115 L449 114 L402 -5 L427 -5 L667 581 L683 67 C682 31 658 5 622 2 L611 1 L611 0 L861 0 L861 1 L850 2 C812 5 785 34 782 73 L782 72 L782 72 Z " />
<glyph glyph-name="N" unicode="N" horiz-adv-x="716" d="M571 588 L571 144 L204 660 L40 660 L40 659 L51 658 C89 655 115 627 115 588 L115 72 C115 33 89 5 51 2 L40 1 L40 0 L220 0 L220 1 L209 2 C171 5 145 33 145 72 L145 571 C286 374 427 177 568 -20 L601 -20 L601 588 C601 627 627 655 665 658 L676 659 L676 660 L496 660 L496 659 L507 658 C545 655 571 627 571 588 L571 588 Z M145 619 L145 619 L145 619 Z " />
<glyph glyph-name="O" unicode="O" horiz-adv-x="760" d="M160 330 C160 497 235 640 380 640 C525 640 600 497 600 330 C600 163 525 20 380 20 C235 20 160 163 160 330 L160 330 Z M50 330 C50 149 162 -5 380 -5 C598 -5 710 149 710 330 C710 511 598 665 380 665 C162 665 50 511 50 330 L50 330 Z " />
<glyph glyph-name="P" unicode="P" horiz-adv-x="594" d="M290 0 L290 1 L279 2 C241 5 215 33 215 72 L215 295 L317 295 C471 295 574 368 574 478 C574 587 481 660 342 660 L40 660 L40 659 L51 658 C89 655 115 627 115 588 L115 72 C115 33 89 5 51 2 L40 1 L40 0 L290 0 L290 0 Z M215 320 L215 635 L342 635 C418 635 469 572 469 478 C469 383 408 320 317 320 L215 320 L215 320 Z " />
<glyph glyph-name="Q" unicode="Q" horiz-adv-x="760" d="M803 -52 L794 -44 C781 -60 718 -70 636 -70 C518 -70 440 -45 391 -5 C602 0 710 152 710 330 C710 511 598 665 380 665 C162 665 50 511 50 330 C50 156 153 7 354 -5 C437 -84 529 -136 625 -136 C690 -136 761 -103 803 -53 L803 -52 L803 -52 Z M160 329 C160 496 235 639 380 639 C525 639 600 496 600 329 C600 162 525 19 380 19 C235 19 160 162 160 329 L160 329 Z " />
<glyph glyph-name="R" unicode="R" horiz-adv-x="666" d="M666 0 L666 20 C626 20 626 21 577 87 C491 206 427 291 402 324 C499 347 560 408 560 491 C560 593 470 661 335 661 L40 661 L40 660 L51 659 C89 656 115 628 115 589 L115 73 C115 34 89 6 51 3 L40 2 L40 1 L290 1 L290 2 L279 3 C241 6 215 34 215 73 L215 315 L289 315 C316 278 370 204 440 107 C514 5 521 1 631 1 L666 0 L666 0 Z M311 340 L215 340 L215 636 L335 636 C407 636 455 578 455 491 C455 400 397 340 311 340 L311 340 Z " />
<glyph glyph-name="S" unicode="S" horiz-adv-x="511" d="M339 620 C374 604 401 569 409 530 C413 510 419 482 423 462 L424 462 L424 618 C375 646 306 665 252 665 C127 665 43 586 43 468 C43 393 111 323 212 291 C321 257 394 196 394 140 C394 68 338 20 254 20 C227 20 198 24 169 31 C109 49 62 101 49 166 C47 176 44 189 42 199 L41 199 L41 43 C90 15 175 -4 255 -4 C382 -4 466 70 466 182 C466 262 396 337 291 370 C184 403 113 459 113 509 C113 588 167 641 248 641 C272 641 305 634 339 621 L339 620 L339 620 Z " />
<glyph glyph-name="T" unicode="T" horiz-adv-x="620" d="M605 648 L604 660 L16 660 L15 648 C13 648 2 497 1 485 L2 485 L20 555 C32 603 72 635 120 635 L260 635 L260 72 C260 33 234 5 196 2 L185 1 L185 0 L435 0 L435 1 L424 2 C386 5 360 33 360 72 L360 635 L500 635 C548 635 588 603 600 555 L618 485 L619 485 C615 534 609 599 605 648 L605 648 Z " />
<glyph glyph-name="U" unicode="U" horiz-adv-x="680" d="M105 588 L105 215 C105 83 172 -5 345 -5 C511 -5 575 71 575 185 L575 578 C575 623 604 655 647 658 L660 659 L660 660 L455 660 L455 659 L470 658 C515 655 545 623 545 578 L545 195 C545 96 493 30 360 30 C248 30 205 96 205 196 L205 588 C205 627 231 655 269 658 L280 659 L280 660 L30 660 L30 659 L41 658 C79 655 105 627 105 588 L105 588 Z " />
<glyph glyph-name="V" unicode="V" horiz-adv-x="716" d="M541 568 L389 117 L195 587 C180 625 194 654 233 656 L265 658 L265 659 L-4 659 L-4 658 C34 654 63 634 83 593 L344 -15 L369 -15 L579 592 C594 629 628 655 666 658 L678 659 L678 660 L453 660 L453 659 L476 658 C530 655 555 619 542 567 L541 568 L541 568 Z " />
<glyph glyph-name="W" unicode="W" horiz-adv-x="991" d="M856 594 L677 -15 L702 -15 L886 595 C900 630 932 655 969 658 L981 659 L981 660 L771 660 L771 659 L809 657 C846 655 865 630 856 594 L856 594 Z M677 -15 L722 139 L529 670 L504 670 L297 -15 L322 -15 L480 507 L677 -15 L677 -15 Z M79 594 L297 -15 L340 129 L189 588 C177 627 193 656 232 658 L255 660 L255 661 L-5 661 L-5 660 C33 656 62 636 79 595 L79 594 L79 594 Z " />
<glyph glyph-name="X" unicode="X" horiz-adv-x="664" d="M555 72 L554 72 L366 375 L498 588 L499 588 C523 627 565 655 604 658 L617 659 L617 660 L394 660 L394 659 L435 657 C471 655 483 631 466 596 L350 399 L227 598 C211 632 222 655 257 657 L288 659 L288 660 L20 660 L20 659 C57 655 90 632 117 588 L118 588 C174 497 231 406 287 315 L137 72 L136 72 C112 33 70 5 31 2 L18 1 L18 0 L239 0 L239 1 L213 3 C165 5 152 39 181 87 L303 291 L445 62 C461 28 450 5 415 3 L384 1 L384 0 L652 0 L652 1 C615 5 582 28 555 72 L555 72 Z " />
<glyph glyph-name="Y" unicode="Y" horiz-adv-x="645" d="M654 659 L654 660 L450 660 L450 659 L471 658 C518 655 533 625 511 581 L358 333 L210 596 C194 631 207 655 243 657 L264 659 L264 660 L0 660 L0 659 C37 654 70 632 95 588 L95 588 L272 279 L272 72 C272 33 246 5 208 2 L197 1 L197 0 L447 0 L447 1 L436 2 C398 5 372 33 372 72 L372 315 C429 406 486 497 544 588 C572 632 609 654 653 658 L654 659 L654 659 Z " />
<glyph glyph-name="Z" unicode="Z" horiz-adv-x="593" d="M507 13 C515 59 526 121 534 168 C534 173 534 178 533 177 L514 117 C496 63 449 27 395 27 L167 27 L530 661 L96 661 L93 649 L93 649 C82 609 68 556 57 516 L58 516 L77 556 C100 604 147 636 195 636 L402 636 L40 1 L504 1 L507 13 L507 13 Z " />
<glyph glyph-name="bracketleft" unicode="&#x5b;" horiz-adv-x="255" d="M140 640 L245 640 L245 660 L70 660 L70 -120 L245 -120 L245 -100 L140 -100 L140 640 L140 640 Z " />
<glyph glyph-name="backslash" unicode="&#x5c;" horiz-adv-x="252" d="M221 -145 L252 -145 L-29 710 L-60 710 L221 -145 L221 -145 Z " />
<glyph glyph-name="bracketright" unicode="&#x5d;" horiz-adv-x="250" d="M110 640 L110 -100 L5 -100 L5 -120 L180 -120 L180 660 L5 660 L5 640 L110 640 L110 640 Z " />
<glyph glyph-name="asciicircum" unicode="&#x5e;" horiz-adv-x="340" d="M199 719 C195 727 184 745 170 745 C155 745 145 728 141 720 C141 720 49 541 49 540 L59 532 C110 592 148 634 171 660 C212 613 281 532 281 532 L291 540 C291 540 247 620 199 719 L199 719 Z M141 691 L141 691 L141 691 Z " />
<glyph glyph-name="underscore" unicode="&#x5f;" horiz-adv-x="455" d="M5 -50 L5 -100 L450 -100 L450 -50 L5 -50 L5 -50 Z " />
<glyph glyph-name="grave" unicode="&#x60;" horiz-adv-x="340" d="M87 706 C87 700 103 681 126 656 C158 616 242 530 242 530 L253 538 C253 538 194 650 171 692 C152 722 142 744 138 744 C123 744 87 717 87 706 L87 706 Z " />
<glyph glyph-name="a" unicode="a" horiz-adv-x="500" d="M478 49 C468 39 455 33 431 33 C400 33 391 59 391 97 L391 355 C391 445 337 505 257 505 C149 505 69 461 56 395 L146 395 C156 446 192 480 237 480 C273 480 297 438 297 375 L297 260 C269 256 235 251 211 245 C106 219 36 162 36 104 C36 39 83 -5 153 -5 C202 -5 256 16 300 51 C307 14 326 -9 369 -9 C426 -9 461 10 489 38 L478 49 L478 49 Z M297 237 L297 88 C297 84 297 80 297 76 C269 63 234 55 198 55 C154 55 124 85 124 129 C124 169 158 204 210 217 C241 225 272 232 296 237 L297 237 L297 237 Z " />
<glyph glyph-name="b" unicode="b" horiz-adv-x="601" d="M305 -5 C450 -5 546 97 546 250 C546 403 466 505 347 505 C291 505 227 489 185 465 L185 720 L167 720 L20 676 L20 675 L31 675 C85 676 95 666 95 611 L95 0 L105 0 C114 17 138 29 165 29 C207 29 250 -5 305 -5 L305 -5 Z M305 20 C233 20 185 76 185 160 L185 450 C201 459 238 465 278 465 C382 465 451 363 451 210 C451 96 393 20 305 20 L305 20 Z " />
<glyph glyph-name="c" unicode="c" horiz-adv-x="504" d="M453 64 L445 74 C428 60 381 50 327 50 C218 50 145 136 145 266 C145 394 204 480 292 480 C334 480 365 450 369 404 C371 378 389 360 414 360 C438 360 454 376 454 400 C448 463 388 505 302 505 C151 505 50 395 50 231 C50 89 131 -5 252 -5 C323 -5 404 23 453 64 L453 64 Z " />
<glyph glyph-name="d" unicode="d" horiz-adv-x="606" d="M496 720 L478 720 L331 676 L331 675 L342 675 C396 676 406 666 406 611 L406 456 C375 485 330 505 282 505 C145 505 54 391 54 221 C54 85 132 -5 248 -5 C303 -5 363 17 404 52 L404 0 L422 0 L569 44 L569 45 L558 45 C504 44 494 54 494 109 L496 720 L496 720 Z M404 66 C387 56 346 50 296 50 C206 50 146 132 146 256 C146 390 198 480 277 480 C331 480 379 452 404 416 L404 66 L404 66 Z " />
<glyph glyph-name="e" unicode="e" horiz-adv-x="510" d="M459 64 L451 74 C434 60 385 50 330 50 C202 50 130 162 147 315 L459 315 C459 429 386 505 276 505 C140 505 49 395 49 231 C49 89 131 -5 254 -5 C327 -5 409 23 458 64 L459 64 L459 64 Z M333 345 L149 332 C164 422 209 479 271 479 C333 479 375 443 375 390 C375 364 359 346 334 344 L333 345 L333 345 Z " />
<glyph glyph-name="f" unicode="f" horiz-adv-x="455" d="M285 0 L285 1 L274 2 C236 5 210 33 210 72 L210 465 L345 465 L345 500 L210 500 L210 533 C210 633 281 700 311 700 C341 700 363 684 365 660 C367 636 385 620 410 620 C434 620 450 636 450 660 C447 696 401 720 336 720 C209 720 125 653 125 553 C122 553 120 500 120 500 L45 500 L45 465 L120 465 L120 72 C120 33 94 5 56 2 L45 1 L45 0 L285 0 L285 0 Z " />
<glyph glyph-name="g" unicode="g" horiz-adv-x="474" d="M474 500 C429 493 383 487 338 480 C310 496 275 505 235 505 C130 505 60 442 60 348 C60 279 97 227 157 204 C89 197 45 156 45 98 C45 50 83 15 143 2 C68 -24 20 -73 20 -125 C20 -195 82 -241 174 -241 C342 -241 454 -159 454 -36 C454 37 382 85 275 85 C258 85 190 82 190 82 C139 82 105 102 105 133 C105 167 135 190 180 190 L235 190 C341 190 411 253 411 348 C411 387 399 421 377 447 L474 451 L474 500 L474 500 Z M235 211 C181 211 145 266 145 349 C145 431 181 486 235 486 C290 486 326 431 326 349 C326 266 290 211 235 211 L235 211 Z M166 -1 C191 -4 216 -1 250 -1 C333 -1 389 -33 389 -81 C389 -162 307 -216 184 -216 C122 -216 80 -175 80 -114 C80 -63 114 -19 166 -2 L166 -1 L166 -1 Z " />
<glyph glyph-name="h" unicode="h" horiz-adv-x="631" d="M426 69 C425 31 399 4 362 1 L351 0 L351 -1 L591 -1 L591 0 L580 1 C542 4 516 32 516 71 L516 336 C516 437 483 504 399 504 C357 504 283 478 210 439 L210 719 L192 719 L45 675 L45 674 L56 674 C110 675 120 665 120 610 L120 71 C120 32 94 4 56 1 L45 0 L45 -1 L285 -1 L285 0 L274 1 C236 4 210 32 210 71 L210 428 C236 437 282 443 331 443 C399 443 426 396 426 326 C426 326 427 221 427 67 L426 69 L426 69 Z " />
<glyph glyph-name="i" unicode="i" horiz-adv-x="330" d="M160 570 C196 570 220 594 220 630 C220 666 196 690 160 690 C124 690 100 666 100 630 C100 594 124 570 160 570 L160 570 Z M285 0 L285 1 L274 2 C236 5 210 33 210 72 L210 500 L192 500 L45 456 L45 455 L56 455 C110 456 120 446 120 391 L120 72 C120 33 94 5 56 2 L45 1 L45 0 L285 0 L285 0 Z " />
<glyph glyph-name="j" unicode="j" horiz-adv-x="330" d="M160 570 C196 570 220 594 220 630 C220 666 196 690 160 690 C124 690 100 666 100 630 C100 594 124 570 160 570 L160 570 Z M120 395 C120 259 120 2 119 3 C119 -130 92 -173 10 -224 L18 -236 C163 -146 211 -93 211 27 C210 29 210 477 210 477 L210 500 L192 500 L45 456 L45 455 L56 455 C109 456 120 447 120 395 L120 395 Z " />
<glyph glyph-name="k" unicode="k" horiz-adv-x="568" d="M478 72 L284 325 L396 428 C439 467 493 496 532 498 L548 499 L548 500 L359 500 L359 499 L369 498 C404 495 401 467 362 428 L209 275 L209 720 L191 720 L44 676 L44 675 L55 675 C109 676 119 666 119 611 L119 72 C119 33 93 5 55 2 L44 1 L44 0 L284 0 L284 1 L273 2 C235 5 209 33 209 72 L209 257 L215 263 L372 63 C395 29 389 5 356 2 L346 1 L346 0 L607 0 L607 1 L593 2 C554 5 508 33 478 72 L478 72 Z " />
<glyph glyph-name="l" unicode="l" horiz-adv-x="330" d="M285 0 L285 1 L274 2 C236 5 210 33 210 72 L210 720 L192 720 L45 676 L45 675 L56 675 C110 676 120 666 120 611 L120 72 C120 33 94 5 56 2 L45 1 L45 0 L285 0 L285 0 Z " />
<glyph glyph-name="m" unicode="m" horiz-adv-x="956" d="M751 69 C750 31 724 4 687 1 L676 0 L676 -1 L916 -1 L916 0 L905 1 C867 4 841 32 841 71 L841 336 C841 437 788 504 717 504 C677 504 598 472 510 424 C490 474 451 504 405 504 C355 504 282 478 209 439 L209 499 L191 499 L44 455 L44 454 L55 454 C109 455 119 445 119 390 L119 71 C119 32 93 4 55 1 L44 0 L44 -1 L284 -1 L284 0 L273 1 C235 4 209 32 209 71 L209 429 C237 441 281 449 333 449 C390 449 433 400 433 327 C433 327 434 222 434 68 C433 30 407 3 370 0 L359 -1 L359 -2 L599 -2 L599 -1 L588 0 C550 3 524 31 524 70 L524 335 C524 363 520 388 513 410 C551 430 599 443 645 443 C704 443 748 396 748 326 C748 326 749 221 749 67 L751 69 L751 69 Z " />
<glyph glyph-name="n" unicode="n" horiz-adv-x="631" d="M426 69 C425 31 399 4 362 1 L351 0 L351 -1 L591 -1 L591 0 L580 1 C542 4 516 32 516 71 L516 336 C516 437 483 504 399 504 C357 504 283 478 210 439 L210 499 L192 499 L45 455 L45 454 L56 454 C110 455 120 445 120 390 L120 71 C120 32 94 4 56 1 L45 0 L45 -1 L285 -1 L285 0 L274 1 C236 4 210 32 210 71 L210 428 C236 437 282 443 331 443 C399 443 426 396 426 326 C426 326 427 221 427 67 L426 69 L426 69 Z " />
<glyph glyph-name="o" unicode="o" horiz-adv-x="600" d="M150 250 C150 391 210 485 300 485 C390 485 450 391 450 250 C450 109 390 15 300 15 C210 15 150 109 150 250 L150 250 Z M50 250 C50 97 150 -5 300 -5 C450 -5 550 97 550 250 C550 403 450 505 300 505 C150 505 50 403 50 250 L50 250 Z " />
<glyph glyph-name="p" unicode="p" horiz-adv-x="643" d="M285 -230 L285 -229 L274 -228 C236 -225 210 -197 210 -158 L210 25 C243 6 286 -5 335 -5 C487 -5 588 103 588 265 C588 409 510 505 394 505 C327 505 256 474 210 427 L210 500 L192 500 L45 456 L45 455 L56 455 C110 456 120 446 120 391 L120 -158 C120 -197 94 -225 56 -228 L45 -229 L45 -230 L285 -230 L285 -230 Z M210 135 L210 411 C235 432 279 446 325 446 C429 446 499 346 499 197 C499 91 433 21 335 21 C266 21 216 67 210 136 L210 135 L210 135 Z " />
<glyph glyph-name="q" unicode="q" horiz-adv-x="615" d="M570 -230 L570 -229 L559 -228 C521 -225 495 -197 495 -158 L495 500 L485 500 C476 483 454 471 429 471 C386 471 343 505 284 505 C147 505 55 391 55 221 C55 85 128 -5 238 -5 C296 -5 360 19 404 57 L404 -158 C404 -197 378 -225 340 -228 L329 -229 L329 -230 L570 -230 L570 -230 Z M404 73 C385 59 340 50 286 50 C203 50 147 132 147 256 C147 390 201 480 283 480 C356 480 404 424 404 340 L404 73 L404 73 Z " />
<glyph glyph-name="r" unicode="r" horiz-adv-x="429" d="M270 438 C302 438 344 403 376 403 C402 403 419 420 419 446 C419 481 397 505 342 505 C301 505 249 475 209 429 L209 500 L191 500 L44 456 L44 455 L55 455 C109 456 119 446 119 391 L119 72 C119 33 93 5 55 2 L44 1 L44 0 L284 0 L284 1 L273 2 C235 5 209 33 209 72 L209 416 C225 430 247 438 269 438 L270 438 L270 438 Z " />
<glyph glyph-name="s" unicode="s" horiz-adv-x="422" d="M348 361 L349 361 L349 464 C306 489 256 505 224 505 C123 505 56 450 56 368 C56 315 112 255 195 218 C256 191 297 149 297 113 C297 54 259 15 203 15 C202 15 158 19 159 21 C108 33 66 73 53 122 C51 129 49 137 47 144 L46 144 L46 31 C83 9 144 -5 198 -5 C302 -5 372 56 372 147 C372 198 327 252 259 282 C179 318 125 365 125 399 C125 451 165 485 224 485 C231 485 246 480 265 471 C314 447 340 410 348 360 L348 361 L348 361 Z " />
<glyph glyph-name="t" unicode="t" horiz-adv-x="352" d="M25 475 L25 465 L95 465 L95 113 C95 21 116 -5 191 -5 C255 -5 297 15 332 44 L325 52 C313 42 289 35 235 35 C195 35 184 49 184 97 C184 207 185 465 185 465 L320 465 L320 500 L185 500 L185 640 L170 640 C132 551 74 482 25 475 L25 475 Z " />
<glyph glyph-name="u" unicode="u" horiz-adv-x="596" d="M396 428 L396 75 C380 62 350 54 301 54 C221 54 180 98 180 164 L181 500 L16 500 L16 499 L27 498 C65 495 91 467 91 428 L91 155 C91 59 139 -5 231 -5 C298 -5 353 21 397 61 L397 0 L415 0 L562 44 L562 45 L551 45 C497 44 487 54 487 109 L487 500 L322 500 L322 499 L333 498 C371 495 397 467 397 428 L396 428 L396 428 Z " />
<glyph glyph-name="v" unicode="v" horiz-adv-x="594" d="M90 428 L275 -10 L290 -10 L470 428 L471 428 C487 467 524 495 562 498 L574 499 L574 500 L395 500 L395 499 L406 498 C440 495 455 471 446 437 L319 105 L187 438 C178 471 193 494 227 497 L238 498 L238 499 L-14 499 L-14 498 L-2 497 C37 494 73 465 91 426 L90 428 L90 428 Z " />
<glyph glyph-name="w" unicode="w" horiz-adv-x="884" d="M108 428 L108 428 L293 -10 L308 -10 L446 336 L592 -10 L607 -10 L787 428 L788 428 C804 467 841 495 879 498 L891 499 L891 500 L682 500 L682 499 L719 497 C756 495 773 471 764 437 L637 105 L505 438 C496 472 513 495 549 497 L576 499 L576 500 L324 500 L324 499 C360 494 389 472 408 428 L408 428 L437 360 L338 104 L208 435 C197 470 213 495 250 497 L272 499 L272 500 L20 500 L20 499 C59 495 90 473 109 429 L108 428 L108 428 Z " />
<glyph glyph-name="x" unicode="x" horiz-adv-x="583" d="M140 428 L141 428 L266 239 L151 72 C123 34 79 5 40 3 L17 1 L17 0 L251 0 L251 1 L200 4 C161 6 153 33 179 72 L278 220 L382 62 C400 28 391 4 358 1 L347 0 L347 -1 L581 -1 L581 0 C546 4 514 27 485 71 L484 71 L333 300 L431 427 L432 427 C462 466 508 494 547 497 L561 498 L561 499 L357 499 L357 498 L387 496 C425 494 433 467 408 430 L324 314 L243 436 C225 470 236 494 272 496 L293 498 L293 499 L34 499 L34 498 C74 494 110 471 139 427 L140 428 L140 428 Z " />
<glyph glyph-name="y" unicode="y" horiz-adv-x="568" d="M118 428 L297 4 C290 -10 278 -35 268 -64 C236 -141 211 -171 176 -171 C176 -171 121 -146 97 -146 C69 -146 51 -161 51 -184 C51 -212 79 -230 121 -230 C197 -230 244 -186 291 -72 C303 -37 317 -10 317 -10 L497 428 L498 428 C514 467 551 495 589 498 L601 499 L601 500 L422 500 L422 499 L433 498 C467 495 482 471 473 437 L346 105 L214 438 C205 471 220 494 254 497 L265 498 L265 499 L13 499 L13 498 L25 497 C64 494 100 465 118 426 L118 428 L118 428 Z " />
<glyph glyph-name="z" unicode="z" horiz-adv-x="484" d="M441 162 C441 167 441 172 440 171 L421 111 C403 57 356 21 302 21 L162 21 L434 501 L71 501 L68 491 L68 491 C60 461 49 420 41 390 L42 390 L50 404 C75 450 123 479 171 480 L318 481 L45 1 L412 1 C422 50 433 113 442 163 L441 162 L441 162 Z " />
<glyph glyph-name="braceleft" unicode="&#x7b;" horiz-adv-x="250" d="M235 -120 L235 -105 L215 -105 C164 -105 130 -58 130 12 L130 153 C130 216 99 261 51 271 C99 281 130 326 130 389 L130 529 C130 599 164 646 215 646 L235 646 L235 661 L195 661 C114 661 60 608 60 529 L60 339 C60 299 39 278 5 278 L5 263 C39 263 60 242 60 204 L60 13 C60 -66 114 -119 195 -119 L235 -120 L235 -120 Z " />
<glyph glyph-name="bar" unicode="&#x7c;" horiz-adv-x="190" d="M60 770 L60 -234 L130 -234 L130 770 L60 770 L60 770 Z " />
<glyph glyph-name="braceright" unicode="&#x7d;" horiz-adv-x="250" d="M5 660 L5 645 L25 645 C76 645 110 598 110 528 L110 387 C110 324 141 279 189 269 C141 259 110 214 110 151 L110 11 C110 -59 76 -106 25 -106 L5 -106 L5 -121 L45 -121 C126 -121 180 -68 180 11 L180 201 C180 241 201 262 235 262 L235 277 C201 277 180 298 180 336 L180 527 C180 606 126 659 45 659 L5 660 L5 660 Z " />
<glyph glyph-name="asciitilde" unicode="&#x7e;" horiz-adv-x="340" d="M30 310 C30 346 46 370 71 370 C123 370 192 308 244 308 C293 308 325 356 325 428 L310 428 C310 391 292 367 264 367 C212 367 143 430 91 430 C45 430 15 382 15 310 L30 310 L30 310 Z " />
<glyph glyph-name="nbspace" unicode="&#xa0;" horiz-adv-x="220" d="" />
<glyph glyph-name="exclamdown" unicode="&#xa1;" horiz-adv-x="234" d="M109 505 C70 505 44 479 44 440 C44 401 70 375 109 375 C148 375 174 401 174 440 C174 479 148 505 109 505 L109 505 Z M60 -100 C56 -139 78 -165 115 -165 C153 -165 175 -139 170 -100 C170 140 115 300 115 300 L103 300 C103 300 60 140 60 -100 L60 -100 Z " />
<glyph glyph-name="cent" unicode="&#xa2;" horiz-adv-x="504" d="M272 575 L272 504 C138 490 50 384 50 231 C50 82 137 -14 272 -5 L272 -76 L302 -76 L302 -2 C359 7 416 31 454 63 L446 73 C428 58 358 43 303 50 L303 478 C340 474 366 445 370 403 C372 377 390 359 415 359 C439 359 455 375 455 399 C449 462 389 504 303 504 L303 574 L272 575 L272 575 Z M273 57 C195 81 146 158 146 265 C146 383 196 465 273 477 L273 57 L273 57 Z " />
<glyph glyph-name="guillemotleft" unicode="&#xab;" horiz-adv-x="460" d="M405 35 L415 44 C415 44 316 167 273 248 C301 297 367 410 413 456 L404 465 C271 332 187 255 187 255 L187 245 C202 236 406 35 406 35 L405 35 L405 35 Z M108 248 C136 297 202 410 248 456 L239 465 C105 331 21 255 21 255 L21 245 L21 245 C38 235 240 35 241 35 L250 44 C250 44 151 167 108 248 L108 248 Z " />
<glyph glyph-name="acute" unicode="&#xb4;" horiz-adv-x="340" d="M95 530 C95 530 177 616 208 656 C231 682 246 701 246 706 C246 717 210 744 195 744 C192 744 179 723 163 692 C138 648 84 538 84 538 L95 530 L95 530 Z " />
<glyph glyph-name="guillemotright" unicode="&#xbb;" horiz-adv-x="460" d="M55 35 C55 35 259 236 274 245 L274 245 L274 255 C274 255 190 332 57 465 L48 456 C94 410 160 297 188 248 C145 167 46 44 46 44 L55 35 L55 35 Z M221 35 C221 35 424 234 440 245 C441 245 441 245 441 245 L441 245 L441 255 C441 255 357 331 223 465 L214 456 C260 410 326 297 354 248 C311 167 212 44 212 44 L221 35 L221 35 Z " />
<glyph glyph-name="onequarter" unicode="&#xbc;" horiz-adv-x="780" d="M140 -21 L680 649 L640 681 L100 11 L140 -21 L140 -21 Z M445 63 L445 50 L556 50 L556 -2 L633 -2 L633 50 L688 50 L688 84 L633 84 L633 303 L620 303 C613 299 445 63 445 63 L445 63 Z M488 84 C506 109 531 144 555 178 C555 177 555 176 555 175 L555 84 L488 84 L488 84 Z M316 415 L316 416 C293 416 278 430 278 451 L278 629 C278 649 291 663 310 664 L316 665 L164 665 L170 664 C189 663 202 649 202 629 L202 451 C202 430 187 416 164 416 L164 415 L316 415 L316 415 Z " />
<glyph glyph-name="onehalf" unicode="&#xbd;" horiz-adv-x="780" d="M140 -21 L680 649 L640 681 L100 11 L140 -21 L140 -21 Z M643 77 L583 77 C642 116 677 145 677 179 C677 223 642 253 590 253 C546 253 504 221 484 173 L494 167 C501 184 524 196 552 196 C576 196 591 179 591 153 C591 84 540 67 463 17 L463 0 C464 1 465 2 466 3 C465 2 464 1 463 0 L673 0 L676 38 C678 61 681 91 683 114 L682 114 C678 93 667 77 643 77 L643 77 Z M317 415 L317 416 C294 416 279 430 279 451 L279 629 C279 649 292 663 311 664 L317 665 L165 665 L171 664 C190 663 203 649 203 629 L203 451 C203 430 188 416 165 416 L165 415 L317 415 L317 415 Z " />
<glyph glyph-name="threequarters" unicode="&#xbe;" horiz-adv-x="780" d="M122 340 C244 347 325 393 325 457 C325 494 303 520 257 529 C294 552 315 578 315 602 C315 641 283 668 235 668 C194 668 146 637 114 590 L124 584 C135 601 164 612 196 612 C222 612 239 598 239 577 C239 549 216 522 179 506 C173 504 167 502 161 500 L161 487 C171 490 182 493 189 493 C222 493 245 477 245 453 C245 397 195 357 121 353 L122 340 L122 340 Z M140 -21 L680 649 L640 681 L100 11 L140 -21 L140 -21 Z M445 63 L445 50 L556 50 L556 -2 L633 -2 L633 50 L688 50 L688 84 L633 84 L633 303 L620 303 C613 299 445 63 445 63 L445 63 Z M488 84 C506 109 531 144 555 178 C555 177 555 176 555 175 L555 84 L488 84 L488 84 Z " />
<glyph glyph-name="questiondown" unicode="&#xbf;" horiz-adv-x="371" d="M231 505 C192 505 166 479 166 440 C166 401 192 375 231 375 C270 375 296 401 296 440 C296 479 270 505 231 505 L231 505 Z M250 -165 C300 -165 333 -141 333 -105 C333 -82 317 -66 294 -66 C272 -66 243 -95 221 -95 C122 -95 56 -32 56 63 C56 86 80 126 208 126 L243 126 C252 126 258 132 257 140 L237 295 L225 295 L212 195 L177 195 C58 195 35 117 35 73 C35 -70 121 -165 250 -165 L250 -165 Z " />
<glyph glyph-name="Agrave" unicode="&#xc0;" horiz-adv-x="679" d="M239 866 C239 860 255 841 278 816 C310 775 395 690 395 690 L405 698 C405 698 356 812 324 852 C308 883 296 904 291 904 C275 904 239 877 239 866 L239 866 Z M412 234 L481 61 C490 28 473 5 437 3 L396 1 L396 0 L674 0 L674 1 C636 5 607 23 587 65 L335 675 L310 675 L92 65 C76 30 42 5 5 2 L-7 1 L-7 0 L211 0 L211 1 L183 3 C136 5 115 37 130 83 L182 234 L412 234 L412 234 Z M401 259 L190 259 L288 543 L401 259 L401 259 Z " />
<glyph glyph-name="Aacute" unicode="&#xc1;" horiz-adv-x="679" d="M261 690 C261 690 344 776 375 816 C398 842 413 861 413 866 C413 877 377 904 361 904 C357 904 345 883 329 852 C298 812 251 698 251 698 L261 690 L261 690 Z M412 234 L481 61 C490 28 473 5 437 3 L396 1 L396 0 L674 0 L674 1 C636 5 607 23 587 65 L335 675 L310 675 L92 65 C76 30 42 5 5 2 L-7 1 L-7 0 L211 0 L211 1 L183 3 C136 5 115 37 130 83 L182 234 L412 234 L412 234 Z M401 259 L190 259 L288 543 L401 259 L401 259 Z " />
<glyph glyph-name="Acircumflex" unicode="&#xc2;" horiz-adv-x="679" d="M351 879 C347 887 336 905 323 905 C308 905 298 888 294 880 C294 880 202 701 202 700 L211 692 C262 752 300 794 323 820 C364 774 434 692 434 692 L443 700 C443 700 399 780 351 879 L351 879 Z M294 851 L294 851 L294 851 Z M412 233 L481 60 C490 27 473 4 437 2 L396 0 L396 -1 L674 -1 L674 0 C636 4 607 22 587 64 L335 674 L310 674 L92 64 C76 29 42 4 5 1 L-7 0 L-7 -1 L211 -1 L211 0 L183 2 C136 4 115 36 130 82 L182 233 L412 233 L412 233 Z M401 258 L190 258 L288 542 L401 258 L401 258 Z " />
<glyph glyph-name="Atilde" unicode="&#xc3;" horiz-adv-x="679" d="M182 755 C182 791 199 815 224 815 C276 815 345 753 397 753 C446 753 478 801 478 873 L463 873 C463 836 445 812 417 812 C365 812 295 875 243 875 C197 875 167 827 167 755 L182 755 L182 755 Z M412 234 L481 61 C490 28 473 5 437 3 L396 1 L396 0 L674 0 L674 1 C636 5 607 23 587 65 L335 675 L310 675 L92 65 C76 30 42 5 5 2 L-7 1 L-7 0 L211 0 L211 1 L183 3 C136 5 115 37 130 83 L182 234 L412 234 L412 234 Z M401 259 L190 259 L288 543 L401 259 L401 259 Z " />
<glyph glyph-name="Adieresis" unicode="&#xc4;" horiz-adv-x="679" d="M418 730 C451 730 473 752 473 785 C473 818 451 840 418 840 C385 840 363 818 363 785 C363 752 385 730 418 730 L418 730 Z M227 730 C260 730 282 752 282 785 C282 818 260 840 227 840 C194 840 172 818 172 785 C172 752 194 730 227 730 L227 730 Z M412 234 L481 61 C490 28 473 5 437 3 L396 1 L396 0 L674 0 L674 1 C636 5 607 23 587 65 L335 675 L310 675 L92 65 C76 30 42 5 5 2 L-7 1 L-7 0 L211 0 L211 1 L183 3 C136 5 115 37 130 83 L182 234 L412 234 L412 234 Z M401 259 L190 259 L288 543 L401 259 L401 259 Z " />
<glyph glyph-name="Aring" unicode="&#xc5;" horiz-adv-x="679" d="M252 788 C252 831 280 860 323 860 C365 860 393 831 393 788 C393 749 361 715 323 715 C285 715 252 749 252 788 L252 788 Z M227 788 C227 738 271 695 323 695 C374 695 418 738 418 788 C418 843 380 880 323 880 C265 880 227 843 227 788 L227 788 Z M412 234 L481 61 C490 28 473 5 437 3 L396 1 L396 0 L674 0 L674 1 C636 5 607 23 587 65 L335 675 L310 675 L92 65 C76 30 42 5 5 2 L-7 1 L-7 0 L211 0 L211 1 L183 3 C136 5 115 37 130 83 L182 234 L412 234 L412 234 Z M401 259 L190 259 L288 543 L401 259 L401 259 Z " />
<glyph glyph-name="Ccedilla" unicode="&#xc7;" horiz-adv-x="708" d="M640 169 C625 95 556 37 468 25 C444 22 420 20 397 20 C254 20 159 144 159 330 C159 516 254 640 397 640 C434 640 473 635 510 627 C574 612 625 559 639 491 C641 481 644 468 646 458 L647 458 L647 606 C586 641 486 665 397 665 C188 665 49 531 49 330 C49 132 184 -1 388 -5 L350 -91 L356 -94 C356 -93 356 -92 356 -91 L355 -93 C372 -84 394 -78 410 -78 C442 -78 464 -100 464 -133 C464 -169 435 -193 392 -193 C360 -193 332 -188 322 -180 L318 -191 C339 -208 376 -219 410 -219 C475 -219 519 -185 519 -133 C519 -89 484 -60 431 -60 C408 -60 380 -66 363 -75 C386 -28 404 -10 413 -3 C498 0 590 23 647 56 L640 68 L640 68 L646 56 L646 204 L645 204 C643 194 640 181 638 171 L640 169 L640 169 Z " />
<glyph glyph-name="Egrave" unicode="&#xc8;" horiz-adv-x="625" d="M208 866 C208 860 224 841 247 816 C279 775 364 690 364 690 L374 698 C374 698 325 812 293 852 C277 883 265 904 260 904 C244 904 208 877 208 866 L208 866 Z M516 12 L516 12 C523 56 534 116 542 160 L541 160 L529 125 C508 65 454 25 394 25 L215 25 L215 340 L345 340 C396 340 435 311 442 268 L444 255 L445 255 L445 440 L444 440 L442 429 C435 391 396 365 345 365 L215 365 L215 635 L388 635 C448 635 495 595 505 535 L511 500 L512 500 L512 660 L40 660 L40 659 L51 658 C89 655 115 627 115 588 L115 72 C115 33 89 5 51 2 L40 1 L40 0 L514 0 L516 12 L516 12 Z " />
<glyph glyph-name="Eacute" unicode="&#xc9;" horiz-adv-x="625" d="M277 690 C277 690 360 776 391 816 C414 842 429 861 429 866 C429 877 393 904 377 904 C373 904 361 883 345 852 C314 812 267 698 267 698 L277 690 L277 690 Z M516 12 L516 12 C523 56 534 116 542 160 L541 160 L529 125 C508 65 454 25 394 25 L215 25 L215 340 L345 340 C396 340 435 311 442 268 L444 255 L445 255 L445 440 L444 440 L442 429 C435 391 396 365 345 365 L215 365 L215 635 L388 635 C448 635 495 595 505 535 L511 500 L512 500 L512 660 L40 660 L40 659 L51 658 C89 655 115 627 115 588 L115 72 C115 33 89 5 51 2 L40 1 L40 0 L514 0 L516 12 L516 12 Z " />
<glyph glyph-name="Ecircumflex" unicode="&#xca;" horiz-adv-x="625" d="M336 879 C332 887 321 905 308 905 C293 905 283 888 279 880 C279 880 187 701 187 700 L196 692 C247 752 285 794 308 820 C349 774 419 692 419 692 L428 700 C428 700 384 780 336 879 L336 879 Z M279 851 L279 851 L279 851 Z M516 11 L516 11 C523 55 534 115 542 159 L541 159 L529 124 C508 64 454 24 394 24 L215 24 L215 339 L345 339 C396 339 435 310 442 267 L444 254 L445 254 L445 439 L444 439 L442 428 C435 390 396 364 345 364 L215 364 L215 634 L388 634 C448 634 495 594 505 534 L511 499 L512 499 L512 659 L40 659 L40 658 L51 657 C89 654 115 626 115 587 L115 71 C115 32 89 4 51 1 L40 0 L40 -1 L514 -1 L516 11 L516 11 Z " />
<glyph glyph-name="Edieresis" unicode="&#xcb;" horiz-adv-x="625" d="M403 730 C436 730 458 752 458 785 C458 818 436 840 403 840 C370 840 348 818 348 785 C348 752 370 730 403 730 L403 730 Z M212 730 C245 730 267 752 267 785 C267 818 245 840 212 840 C179 840 157 818 157 785 C157 752 179 730 212 730 L212 730 Z M516 12 L516 12 C523 56 534 116 542 160 L541 160 L529 125 C508 65 454 25 394 25 L215 25 L215 340 L345 340 C396 340 435 311 442 268 L444 255 L445 255 L445 440 L444 440 L442 429 C435 391 396 365 345 365 L215 365 L215 635 L388 635 C448 635 495 595 505 535 L511 500 L512 500 L512 660 L40 660 L40 659 L51 658 C89 655 115 627 115 588 L115 72 C115 33 89 5 51 2 L40 1 L40 0 L514 0 L516 12 L516 12 Z " />
<glyph glyph-name="Igrave" unicode="&#xcc;" horiz-adv-x="330" d="M82 866 C82 860 98 841 121 816 C153 776 237 690 237 690 L248 698 C248 698 198 811 166 852 C150 883 137 904 133 904 C118 904 82 877 82 866 L82 866 Z M290 0 L290 1 L279 2 C241 5 215 33 215 72 L215 588 C215 627 241 655 279 658 L290 659 L290 660 L40 660 L40 659 L51 658 C89 655 115 627 115 588 L115 72 C115 33 89 5 51 2 L40 1 L40 0 L290 0 L290 0 Z " />
<glyph glyph-name="Iacute" unicode="&#xcd;" horiz-adv-x="330" d="M105 690 C105 690 187 776 218 816 C241 842 256 861 256 866 C256 877 220 904 205 904 C202 904 189 883 173 852 C142 812 94 698 94 698 L105 690 L105 690 Z M290 0 L290 1 L279 2 C241 5 215 33 215 72 L215 588 C215 627 241 655 279 658 L290 659 L290 660 L40 660 L40 659 L51 658 C89 655 115 627 115 588 L115 72 C115 33 89 5 51 2 L40 1 L40 0 L290 0 L290 0 Z " />
<glyph glyph-name="Icircumflex" unicode="&#xce;" horiz-adv-x="330" d="M194 879 C190 887 179 905 165 905 C150 905 140 888 136 880 C136 880 44 701 44 700 L54 692 C105 752 143 794 166 820 C207 773 276 692 276 692 L286 700 C286 700 242 780 194 879 L194 879 Z M136 851 L136 851 L136 851 Z M290 -1 L290 0 L279 1 C241 4 215 32 215 71 L215 587 C215 626 241 654 279 657 L290 658 L290 659 L40 659 L40 658 L51 657 C89 654 115 626 115 587 L115 71 C115 32 89 4 51 1 L40 0 L40 -1 L290 -1 L290 -1 Z " />
<glyph glyph-name="Idieresis" unicode="&#xcf;" horiz-adv-x="330" d="M261 730 C294 730 316 752 316 785 C316 818 294 840 261 840 C228 840 206 818 206 785 C206 752 228 730 261 730 L261 730 Z M69 730 C102 730 124 752 124 785 C124 818 102 840 69 840 C36 840 14 818 14 785 C14 752 36 730 69 730 L69 730 Z M290 0 L290 1 L279 2 C241 5 215 33 215 72 L215 588 C215 627 241 655 279 658 L290 659 L290 660 L40 660 L40 659 L51 658 C89 655 115 627 115 588 L115 72 C115 33 89 5 51 2 L40 1 L40 0 L290 0 L290 0 Z " />
<glyph glyph-name="Ntilde" unicode="&#xd1;" horiz-adv-x="716" d="M218 755 C218 791 234 815 259 815 C311 815 380 753 432 753 C481 753 513 801 513 873 L498 873 C498 836 480 812 452 812 C400 812 331 875 279 875 C233 875 203 827 203 755 L218 755 L218 755 Z M571 588 L571 144 L204 660 L40 660 L40 659 L51 658 C89 655 115 627 115 588 L115 72 C115 33 89 5 51 2 L40 1 L40 0 L220 0 L220 1 L209 2 C171 5 145 33 145 72 L145 571 C286 374 427 177 568 -20 L601 -20 L601 588 C601 627 627 655 665 658 L676 659 L676 660 L496 660 L496 659 L507 658 C545 655 571 627 571 588 L571 588 Z M145 619 L145 619 L145 619 Z " />
<glyph glyph-name="Ograve" unicode="&#xd2;" horiz-adv-x="760" d="M160 330 C160 497 235 640 380 640 C525 640 600 497 600 330 C600 163 525 20 380 20 C235 20 160 163 160 330 L160 330 Z M50 330 C50 149 162 -5 380 -5 C598 -5 710 149 710 330 C710 511 598 665 380 665 C162 665 50 511 50 330 L50 330 Z M297 866 C297 860 313 841 336 816 C368 776 452 690 452 690 L463 698 C463 698 413 811 381 852 C365 883 352 904 348 904 C333 904 297 877 297 866 L297 866 Z " />
<glyph glyph-name="Oacute" unicode="&#xd3;" horiz-adv-x="760" d="M357 690 C357 690 439 776 470 816 C493 842 508 861 508 866 C508 877 472 904 457 904 C454 904 441 883 425 852 C394 812 346 698 346 698 L357 690 L357 690 Z M160 330 C160 497 235 640 380 640 C525 640 600 497 600 330 C600 163 525 20 380 20 C235 20 160 163 160 330 L160 330 Z M50 330 C50 149 162 -5 380 -5 C598 -5 710 149 710 330 C710 511 598 665 380 665 C162 665 50 511 50 330 L50 330 Z " />
<glyph glyph-name="Ocircumflex" unicode="&#xd4;" horiz-adv-x="760" d="M160 330 C160 497 235 640 380 640 C525 640 600 497 600 330 C600 163 525 20 380 20 C235 20 160 163 160 330 L160 330 Z M50 330 C50 149 162 -5 380 -5 C598 -5 710 149 710 330 C710 511 598 665 380 665 C162 665 50 511 50 330 L50 330 Z M409 879 C405 887 394 905 380 905 C365 905 355 888 351 880 C351 880 259 701 259 700 L269 692 C320 752 358 794 381 820 C422 773 491 692 491 692 L501 700 C501 700 457 780 409 879 L409 879 Z M351 851 L351 851 L351 851 Z " />
<glyph glyph-name="Otilde" unicode="&#xd5;" horiz-adv-x="760" d="M240 755 C240 791 256 815 281 815 C333 815 402 753 454 753 C503 753 535 801 535 873 L520 873 C520 836 502 812 474 812 C422 812 353 875 301 875 C255 875 225 827 225 755 L240 755 L240 755 Z M160 330 C160 497 235 640 380 640 C525 640 600 497 600 330 C600 163 525 20 380 20 C235 20 160 163 160 330 L160 330 Z M50 330 C50 149 162 -5 380 -5 C598 -5 710 149 710 330 C710 511 598 665 380 665 C162 665 50 511 50 330 L50 330 Z " />
<glyph glyph-name="Odieresis" unicode="&#xd6;" horiz-adv-x="760" d="M476 730 C509 730 531 752 531 785 C531 818 509 840 476 840 C443 840 421 818 421 785 C421 752 443 730 476 730 L476 730 Z M284 730 C317 730 339 752 339 785 C339 818 317 840 284 840 C251 840 229 818 229 785 C229 752 251 730 284 730 L284 730 Z M160 330 C160 497 235 640 380 640 C525 640 600 497 600 330 C600 163 525 20 380 20 C235 20 160 163 160 330 L160 330 Z M50 330 C50 149 162 -5 380 -5 C598 -5 710 149 710 330 C710 511 598 665 380 665 C162 665 50 511 50 330 L50 330 Z " />
<glyph glyph-name="Oslash" unicode="&#xd8;" horiz-adv-x="760" d="M66 -21 L157 71 C211 24 286 -5 380 -5 C598 -5 710 149 710 330 C710 416 685 496 635 556 L726 649 L694 681 L603 589 C549 636 474 665 380 665 C162 665 50 511 50 330 C50 244 75 164 125 104 L34 11 L66 -21 L66 -21 Z M551 536 L187 167 C168 215 159 271 159 330 C159 497 234 640 379 640 C456 640 513 599 550 536 L551 536 L551 536 Z M571 493 C590 445 599 389 599 330 C599 163 524 20 379 20 C302 20 245 61 208 124 L571 493 L571 493 Z " />
<glyph glyph-name="Ugrave" unicode="&#xd9;" horiz-adv-x="680" d="M257 866 C257 860 273 841 296 816 C328 776 412 690 412 690 L423 698 C423 698 373 811 341 852 C325 883 312 904 308 904 C293 904 257 877 257 866 L257 866 Z M105 588 L105 215 C105 83 172 -5 345 -5 C511 -5 575 71 575 185 L575 578 C575 623 604 655 647 658 L660 659 L660 660 L455 660 L455 659 L470 658 C515 655 545 623 545 578 L545 195 C545 96 493 30 360 30 C248 30 205 96 205 196 L205 588 C205 627 231 655 269 658 L280 659 L280 660 L30 660 L30 659 L41 658 C79 655 105 627 105 588 L105 588 Z " />
<glyph glyph-name="Uacute" unicode="&#xda;" horiz-adv-x="680" d="M340 690 C340 690 422 776 453 816 C476 842 491 861 491 866 C491 877 455 904 440 904 C437 904 424 883 408 852 C377 812 329 698 329 698 L340 690 L340 690 Z M105 588 L105 215 C105 83 172 -5 345 -5 C511 -5 575 71 575 185 L575 578 C575 623 604 655 647 658 L660 659 L660 660 L455 660 L455 659 L470 658 C515 655 545 623 545 578 L545 195 C545 96 493 30 360 30 C248 30 205 96 205 196 L205 588 C205 627 231 655 269 658 L280 659 L280 660 L30 660 L30 659 L41 658 C79 655 105 627 105 588 L105 588 Z " />
<glyph glyph-name="Ucircumflex" unicode="&#xdb;" horiz-adv-x="680" d="M369 879 C365 887 354 905 340 905 C325 905 315 888 311 880 C311 880 219 701 219 700 L229 692 C280 752 318 794 341 820 C382 773 451 692 451 692 L461 700 C461 700 417 780 369 879 L369 879 Z M311 851 L311 851 L311 851 Z M105 587 L105 214 C105 82 172 -6 345 -6 C511 -6 575 70 575 184 L575 577 C575 622 604 654 647 657 L660 658 L660 659 L455 659 L455 658 L470 657 C515 654 545 622 545 577 L545 194 C545 95 493 29 360 29 C248 29 205 95 205 195 L205 587 C205 626 231 654 269 657 L280 658 L280 659 L30 659 L30 658 L41 657 C79 654 105 626 105 587 L105 587 Z " />
<glyph glyph-name="Udieresis" unicode="&#xdc;" horiz-adv-x="680" d="M436 730 C469 730 491 752 491 785 C491 818 469 840 436 840 C403 840 381 818 381 785 C381 752 403 730 436 730 L436 730 Z M244 730 C277 730 299 752 299 785 C299 818 277 840 244 840 C211 840 189 818 189 785 C189 752 211 730 244 730 L244 730 Z M105 588 L105 215 C105 83 172 -5 345 -5 C511 -5 575 71 575 185 L575 578 C575 623 604 655 647 658 L660 659 L660 660 L455 660 L455 659 L470 658 C515 655 545 623 545 578 L545 195 C545 96 493 30 360 30 C248 30 205 96 205 196 L205 588 C205 627 231 655 269 658 L280 659 L280 660 L30 660 L30 659 L41 658 C79 655 105 627 105 588 L105 588 Z " />
<glyph glyph-name="Yacute" unicode="&#xdd;" horiz-adv-x="645" d="M323 690 C323 690 405 776 436 816 C459 842 474 861 474 866 C474 877 438 904 423 904 C420 904 407 883 391 852 C360 812 312 698 312 698 L323 690 L323 690 Z M654 659 L654 660 L450 660 L450 659 L471 658 C518 655 533 625 511 581 L358 333 L210 596 C194 631 207 655 243 657 L264 659 L264 660 L0 660 L0 659 C37 654 70 632 95 588 L95 588 L272 279 L272 72 C272 33 246 5 208 2 L197 1 L197 0 L447 0 L447 1 L436 2 C398 5 372 33 372 72 L372 315 C429 406 486 497 544 588 C572 632 609 654 653 658 L654 659 L654 659 Z " />
<glyph glyph-name="agrave" unicode="&#xe0;" horiz-adv-x="500" d="M478 49 C468 39 455 33 431 33 C400 33 391 59 391 97 L391 355 C391 445 337 505 257 505 C149 505 69 461 56 395 L146 395 C156 446 192 480 237 480 C273 480 297 438 297 375 L297 260 C269 256 235 251 211 245 C106 219 36 162 36 104 C36 39 83 -5 153 -5 C202 -5 256 16 300 51 C307 14 326 -9 369 -9 C426 -9 461 10 489 38 L478 49 L478 49 Z M140 707 C140 701 156 682 179 657 C211 616 296 531 296 531 L306 539 C306 539 257 653 225 693 C209 724 197 745 192 745 C176 745 140 718 140 707 L140 707 Z M297 237 L297 88 C297 84 297 80 297 76 C269 63 234 55 198 55 C154 55 124 85 124 129 C124 169 158 204 210 217 C241 225 272 232 296 237 L297 237 L297 237 Z " />
<glyph glyph-name="aacute" unicode="&#xe1;" horiz-adv-x="500" d="M193 530 C193 530 276 616 307 656 C330 682 345 701 345 706 C345 717 309 744 293 744 C289 744 277 723 261 692 C230 652 183 538 183 538 L193 530 L193 530 Z M478 49 C468 39 455 33 431 33 C400 33 391 59 391 97 L391 355 C391 445 337 505 257 505 C149 505 69 461 56 395 L146 395 C156 446 192 480 237 480 C273 480 297 438 297 375 L297 260 C269 256 235 251 211 245 C106 219 36 162 36 104 C36 39 83 -5 153 -5 C202 -5 256 16 300 51 C307 14 326 -9 369 -9 C426 -9 461 10 489 38 L478 49 L478 49 Z M297 237 L297 88 C297 84 297 80 297 76 C269 63 234 55 198 55 C154 55 124 85 124 129 C124 169 158 204 210 217 C241 225 272 232 296 237 L297 237 L297 237 Z " />
<glyph glyph-name="acircumflex" unicode="&#xe2;" horiz-adv-x="500" d="M478 49 C468 39 455 33 431 33 C400 33 391 59 391 97 L391 355 C391 445 337 505 257 505 C149 505 69 461 56 395 L146 395 C156 446 192 480 237 480 C273 480 297 438 297 375 L297 260 C269 256 235 251 211 245 C106 219 36 162 36 104 C36 39 83 -5 153 -5 C202 -5 256 16 300 51 C307 14 326 -9 369 -9 C426 -9 461 10 489 38 L478 49 L478 49 Z M252 720 C248 728 237 746 224 746 C209 746 199 729 195 721 C195 721 103 542 103 541 L112 533 C163 593 201 635 224 661 C265 615 335 533 335 533 L344 541 C344 541 300 621 252 720 L252 720 Z M195 692 L195 692 L195 692 Z M297 237 L297 88 C297 84 297 80 297 76 C269 63 234 55 198 55 C154 55 124 85 124 129 C124 169 158 204 210 217 C241 225 272 232 296 237 L297 237 L297 237 Z " />
<glyph glyph-name="atilde" unicode="&#xe3;" horiz-adv-x="500" d="M83 595 C83 631 100 655 125 655 C177 655 246 593 298 593 C347 593 379 641 379 713 L364 713 C364 676 346 652 318 652 C266 652 196 715 144 715 C98 715 68 667 68 595 L83 595 L83 595 Z M478 49 C468 39 455 33 431 33 C400 33 391 59 391 97 L391 355 C391 445 337 505 257 505 C149 505 69 461 56 395 L146 395 C156 446 192 480 237 480 C273 480 297 438 297 375 L297 260 C269 256 235 251 211 245 C106 219 36 162 36 104 C36 39 83 -5 153 -5 C202 -5 256 16 300 51 C307 14 326 -9 369 -9 C426 -9 461 10 489 38 L478 49 L478 49 Z M297 237 L297 88 C297 84 297 80 297 76 C269 63 234 55 198 55 C154 55 124 85 124 129 C124 169 158 204 210 217 C241 225 272 232 296 237 L297 237 L297 237 Z " />
<glyph glyph-name="adieresis" unicode="&#xe4;" horiz-adv-x="500" d="M319 570 C352 570 374 592 374 625 C374 658 352 680 319 680 C286 680 264 658 264 625 C264 592 286 570 319 570 L319 570 Z M128 570 C161 570 183 592 183 625 C183 658 161 680 128 680 C95 680 73 658 73 625 C73 592 95 570 128 570 L128 570 Z M478 49 C468 39 455 33 431 33 C400 33 391 59 391 97 L391 355 C391 445 337 505 257 505 C149 505 69 461 56 395 L146 395 C156 446 192 480 237 480 C273 480 297 438 297 375 L297 260 C269 256 235 251 211 245 C106 219 36 162 36 104 C36 39 83 -5 153 -5 C202 -5 256 16 300 51 C307 14 326 -9 369 -9 C426 -9 461 10 489 38 L478 49 L478 49 Z M297 237 L297 88 C297 84 297 80 297 76 C269 63 234 55 198 55 C154 55 124 85 124 129 C124 169 158 204 210 217 C241 225 272 232 296 237 L297 237 L297 237 Z " />
<glyph glyph-name="aring" unicode="&#xe5;" horiz-adv-x="500" d="M153 628 C153 671 181 700 224 700 C266 700 294 671 294 628 C294 589 262 555 224 555 C186 555 153 589 153 628 L153 628 Z M128 628 C128 578 172 535 224 535 C275 535 319 578 319 628 C319 683 281 720 224 720 C166 720 128 683 128 628 L128 628 Z M478 49 C468 39 455 33 431 33 C400 33 391 59 391 97 L391 355 C391 445 337 505 257 505 C149 505 69 461 56 395 L146 395 C156 446 192 480 237 480 C273 480 297 438 297 375 L297 260 C269 256 235 251 211 245 C106 219 36 162 36 104 C36 39 83 -5 153 -5 C202 -5 256 16 300 51 C307 14 326 -9 369 -9 C426 -9 461 10 489 38 L478 49 L478 49 Z M297 237 L297 88 C297 84 297 80 297 76 C269 63 234 55 198 55 C154 55 124 85 124 129 C124 169 158 204 210 217 C241 225 272 232 296 237 L297 237 L297 237 Z " />
<glyph glyph-name="ccedilla" unicode="&#xe7;" horiz-adv-x="504" d="M212 -92 L211 -94 C211 -93 211 -92 211 -91 L212 -92 L212 -92 Z M218 -75 C241 -28 259 -10 268 -4 C335 0 407 27 452 65 L444 75 C427 61 380 51 326 51 C217 51 144 137 144 267 C144 395 203 481 291 481 C333 481 364 451 368 405 C370 379 388 361 413 361 C437 361 453 377 453 401 C447 464 387 506 301 506 C150 506 49 396 49 232 C49 93 126 0 242 -4 L204 -90 L210 -93 C227 -84 249 -78 265 -78 C297 -78 319 -100 319 -133 C319 -169 290 -193 247 -193 C215 -193 187 -188 177 -180 L173 -191 C194 -208 231 -219 265 -219 C330 -219 374 -185 374 -133 C374 -89 339 -60 286 -60 C263 -60 235 -66 218 -75 L218 -75 Z " />
<glyph glyph-name="egrave" unicode="&#xe8;" horiz-adv-x="510" d="M459 64 L451 74 C434 60 385 50 330 50 C202 50 130 162 147 315 L459 315 C459 429 386 505 276 505 C140 505 49 395 49 231 C49 89 131 -5 254 -5 C327 -5 409 23 458 64 L459 64 L459 64 Z M193 706 C193 700 209 681 232 656 C264 616 348 530 348 530 L359 538 C359 538 309 651 277 692 C261 723 248 744 244 744 C229 744 193 717 193 706 L193 706 Z M333 345 L149 332 C164 422 209 479 271 479 C333 479 375 443 375 390 C375 364 359 346 334 344 L333 345 L333 345 Z " />
<glyph glyph-name="eacute" unicode="&#xe9;" horiz-adv-x="510" d="M247 530 C247 530 329 616 360 656 C383 682 398 701 398 706 C398 717 362 744 347 744 C344 744 331 723 315 692 C284 652 236 538 236 538 L247 530 L247 530 Z M459 64 L451 74 C434 60 385 50 330 50 C202 50 130 162 147 315 L459 315 C459 429 386 505 276 505 C140 505 49 395 49 231 C49 89 131 -5 254 -5 C327 -5 409 23 458 64 L459 64 L459 64 Z M333 345 L149 332 C164 422 209 479 271 479 C333 479 375 443 375 390 C375 364 359 346 334 344 L333 345 L333 345 Z " />
<glyph glyph-name="ecircumflex" unicode="&#xea;" horiz-adv-x="510" d="M459 64 L451 74 C434 60 385 50 330 50 C202 50 130 162 147 315 L459 315 C459 429 386 505 276 505 C140 505 49 395 49 231 C49 89 131 -5 254 -5 C327 -5 409 23 458 64 L459 64 L459 64 Z M305 719 C301 727 290 745 276 745 C261 745 251 728 247 720 C247 720 155 541 155 540 L165 532 C216 592 254 634 277 660 C318 613 387 532 387 532 L397 540 C397 540 353 620 305 719 L305 719 Z M247 691 L247 691 L247 691 Z M333 345 L149 332 C164 422 209 479 271 479 C333 479 375 443 375 390 C375 364 359 346 334 344 L333 345 L333 345 Z " />
<glyph glyph-name="edieresis" unicode="&#xeb;" horiz-adv-x="510" d="M373 570 C406 570 428 592 428 625 C428 658 406 680 373 680 C340 680 318 658 318 625 C318 592 340 570 373 570 L373 570 Z M181 570 C214 570 236 592 236 625 C236 658 214 680 181 680 C148 680 126 658 126 625 C126 592 148 570 181 570 L181 570 Z M459 64 L451 74 C434 60 385 50 330 50 C202 50 130 162 147 315 L459 315 C459 429 386 505 276 505 C140 505 49 395 49 231 C49 89 131 -5 254 -5 C327 -5 409 23 458 64 L459 64 L459 64 Z M333 345 L149 332 C164 422 209 479 271 479 C333 479 375 443 375 390 C375 364 359 346 334 344 L333 345 L333 345 Z " />
<glyph glyph-name="igrave" unicode="&#xec;" horiz-adv-x="330" d="M82 706 C82 700 98 681 121 656 C153 616 237 530 237 530 L248 538 C248 538 198 651 166 692 C150 723 137 744 133 744 C118 744 82 717 82 706 L82 706 Z M285 0 L285 1 L274 2 C236 5 210 33 210 72 L210 500 L192 500 L45 456 L45 455 L56 455 C110 456 120 446 120 391 L120 72 C120 33 94 5 56 2 L45 1 L45 0 L285 0 L285 0 Z " />
<glyph glyph-name="iacute" unicode="&#xed;" horiz-adv-x="330" d="M90 530 C90 530 172 616 203 656 C226 682 241 701 241 706 C241 717 205 744 190 744 C187 744 174 723 158 692 C127 652 79 538 79 538 L90 530 L90 530 Z M285 0 L285 1 L274 2 C236 5 210 33 210 72 L210 500 L192 500 L45 456 L45 455 L56 455 C110 456 120 446 120 391 L120 72 C120 33 94 5 56 2 L45 1 L45 0 L285 0 L285 0 Z " />
<glyph glyph-name="icircumflex" unicode="&#xee;" horiz-adv-x="330" d="M194 719 C190 727 179 745 165 745 C150 745 140 728 136 720 C136 720 44 541 44 540 L54 532 C105 592 143 634 166 660 C207 613 276 532 276 532 L286 540 C286 540 242 620 194 719 L194 719 Z M136 691 L136 691 L136 691 Z M285 -1 L285 0 L274 1 C236 4 210 32 210 71 L210 499 L192 499 L45 455 L45 454 L56 454 C110 455 120 445 120 390 L120 71 C120 32 94 4 56 1 L45 0 L45 -1 L285 -1 L285 -1 Z " />
<glyph glyph-name="idieresis" unicode="&#xef;" horiz-adv-x="330" d="M261 570 C294 570 316 592 316 625 C316 658 294 680 261 680 C228 680 206 658 206 625 C206 592 228 570 261 570 L261 570 Z M69 570 C102 570 124 592 124 625 C124 658 102 680 69 680 C36 680 14 658 14 625 C14 592 36 570 69 570 L69 570 Z M285 0 L285 1 L274 2 C236 5 210 33 210 72 L210 500 L192 500 L45 456 L45 455 L56 455 C110 456 120 446 120 391 L120 72 C120 33 94 5 56 2 L45 1 L45 0 L285 0 L285 0 Z " />
<glyph glyph-name="ntilde" unicode="&#xf1;" horiz-adv-x="631" d="M178 595 C178 631 194 655 219 655 C271 655 340 593 392 593 C441 593 473 641 473 713 L458 713 C458 676 440 652 412 652 C360 652 291 715 239 715 C193 715 163 667 163 595 L178 595 L178 595 Z M426 69 C425 31 399 4 362 1 L351 0 L351 -1 L591 -1 L591 0 L580 1 C542 4 516 32 516 71 L516 336 C516 437 483 504 399 504 C357 504 283 478 210 439 L210 499 L192 499 L45 455 L45 454 L56 454 C110 455 120 445 120 390 L120 71 C120 32 94 4 56 1 L45 0 L45 -1 L285 -1 L285 0 L274 1 C236 4 210 32 210 71 L210 428 C236 437 282 443 331 443 C399 443 426 396 426 326 C426 326 427 221 427 67 L426 69 L426 69 Z " />
<glyph glyph-name="ograve" unicode="&#xf2;" horiz-adv-x="600" d="M150 250 C150 391 210 485 300 485 C390 485 450 391 450 250 C450 109 390 15 300 15 C210 15 150 109 150 250 L150 250 Z M50 250 C50 97 150 -5 300 -5 C450 -5 550 97 550 250 C550 403 450 505 300 505 C150 505 50 403 50 250 L50 250 Z M217 706 C217 700 233 681 256 656 C288 616 372 530 372 530 L383 538 C383 538 333 651 301 692 C285 723 272 744 268 744 C253 744 217 717 217 706 L217 706 Z " />
<glyph glyph-name="oacute" unicode="&#xf3;" horiz-adv-x="600" d="M270 530 C270 530 352 616 383 656 C406 682 421 701 421 706 C421 717 385 744 370 744 C367 744 354 723 338 692 C307 652 259 538 259 538 L270 530 L270 530 Z M150 250 C150 391 210 485 300 485 C390 485 450 391 450 250 C450 109 390 15 300 15 C210 15 150 109 150 250 L150 250 Z M50 250 C50 97 150 -5 300 -5 C450 -5 550 97 550 250 C550 403 450 505 300 505 C150 505 50 403 50 250 L50 250 Z " />
<glyph glyph-name="ocircumflex" unicode="&#xf4;" horiz-adv-x="600" d="M150 250 C150 391 210 485 300 485 C390 485 450 391 450 250 C450 109 390 15 300 15 C210 15 150 109 150 250 L150 250 Z M50 250 C50 97 150 -5 300 -5 C450 -5 550 97 550 250 C550 403 450 505 300 505 C150 505 50 403 50 250 L50 250 Z M329 719 C325 727 314 745 300 745 C285 745 275 728 271 720 C271 720 179 541 179 540 L189 532 C240 592 278 634 301 660 C342 613 411 532 411 532 L421 540 C421 540 377 620 329 719 L329 719 Z M271 691 L271 691 L271 691 Z " />
<glyph glyph-name="otilde" unicode="&#xf5;" horiz-adv-x="600" d="M160 595 C160 631 176 655 201 655 C253 655 322 593 374 593 C423 593 455 641 455 713 L440 713 C440 676 422 652 394 652 C342 652 273 715 221 715 C175 715 145 667 145 595 L160 595 L160 595 Z M150 250 C150 391 210 485 300 485 C390 485 450 391 450 250 C450 109 390 15 300 15 C210 15 150 109 150 250 L150 250 Z M50 250 C50 97 150 -5 300 -5 C450 -5 550 97 550 250 C550 403 450 505 300 505 C150 505 50 403 50 250 L50 250 Z " />
<glyph glyph-name="odieresis" unicode="&#xf6;" horiz-adv-x="600" d="M396 570 C429 570 451 592 451 625 C451 658 429 680 396 680 C363 680 341 658 341 625 C341 592 363 570 396 570 L396 570 Z M204 570 C237 570 259 592 259 625 C259 658 237 680 204 680 C171 680 149 658 149 625 C149 592 171 570 204 570 L204 570 Z M150 250 C150 391 210 485 300 485 C390 485 450 391 450 250 C450 109 390 15 300 15 C210 15 150 109 150 250 L150 250 Z M50 250 C50 97 150 -5 300 -5 C450 -5 550 97 550 250 C550 403 450 505 300 505 C150 505 50 403 50 250 L50 250 Z " />
<glyph glyph-name="oslash" unicode="&#xf8;" horiz-adv-x="600" d="M61 -16 L130 54 C173 16 231 -5 300 -5 C450 -5 550 97 550 250 C550 320 529 379 492 423 L561 494 L539 516 L470 446 C427 484 369 505 300 505 C150 505 50 403 50 250 C50 180 71 121 108 77 L39 6 L61 -16 L61 -16 Z M422 396 L166 135 C156 168 150 207 150 250 C150 391 210 485 300 485 C353 485 396 452 422 396 L422 396 Z M434 364 C444 331 450 292 450 249 C450 108 390 14 300 14 C247 14 204 47 178 103 L434 364 L434 364 Z " />
<glyph glyph-name="ugrave" unicode="&#xf9;" horiz-adv-x="596" d="M205 706 C205 700 221 681 244 656 C276 616 360 530 360 530 L371 538 C371 538 321 651 289 692 C273 723 260 744 256 744 C241 744 205 717 205 706 L205 706 Z M396 428 L396 75 C380 62 350 54 301 54 C221 54 180 98 180 164 L181 500 L16 500 L16 499 L27 498 C65 495 91 467 91 428 L91 155 C91 59 139 -5 231 -5 C298 -5 353 21 397 61 L397 0 L415 0 L562 44 L562 45 L551 45 C497 44 487 54 487 109 L487 500 L322 500 L322 499 L333 498 C371 495 397 467 397 428 L396 428 L396 428 Z " />
<glyph glyph-name="uacute" unicode="&#xfa;" horiz-adv-x="596" d="M258 530 C258 530 340 616 371 656 C394 682 409 701 409 706 C409 717 373 744 358 744 C355 744 342 723 326 692 C295 652 247 538 247 538 L258 530 L258 530 Z M396 428 L396 75 C380 62 350 54 301 54 C221 54 180 98 180 164 L181 500 L16 500 L16 499 L27 498 C65 495 91 467 91 428 L91 155 C91 59 139 -5 231 -5 C298 -5 353 21 397 61 L397 0 L415 0 L562 44 L562 45 L551 45 C497 44 487 54 487 109 L487 500 L322 500 L322 499 L333 498 C371 495 397 467 397 428 L396 428 L396 428 Z " />
<glyph glyph-name="ucircumflex" unicode="&#xfb;" horiz-adv-x="596" d="M317 719 C313 727 302 745 288 745 C273 745 263 728 259 720 C259 720 167 541 167 540 L177 532 C228 592 266 634 289 660 C330 613 399 532 399 532 L409 540 C409 540 365 620 317 719 L317 719 Z M259 691 L259 691 L259 691 Z M396 427 L396 74 C380 61 350 53 301 53 C221 53 180 97 180 163 L181 499 L16 499 L16 498 L27 497 C65 494 91 466 91 427 L91 154 C91 58 139 -6 231 -6 C298 -6 353 20 397 60 L397 -1 L415 -1 L562 43 L562 44 L551 44 C497 43 487 53 487 108 L487 499 L322 499 L322 498 L333 497 C371 494 397 466 397 427 L396 427 L396 427 Z " />
<glyph glyph-name="udieresis" unicode="&#xfc;" horiz-adv-x="596" d="M384 570 C417 570 439 592 439 625 C439 658 417 680 384 680 C351 680 329 658 329 625 C329 592 351 570 384 570 L384 570 Z M192 570 C225 570 247 592 247 625 C247 658 225 680 192 680 C159 680 137 658 137 625 C137 592 159 570 192 570 L192 570 Z M396 428 L396 75 C380 62 350 54 301 54 C221 54 180 98 180 164 L181 500 L16 500 L16 499 L27 498 C65 495 91 467 91 428 L91 155 C91 59 139 -5 231 -5 C298 -5 353 21 397 61 L397 0 L415 0 L562 44 L562 45 L551 45 C497 44 487 54 487 109 L487 500 L322 500 L322 499 L333 498 C371 495 397 467 397 428 L396 428 L396 428 Z " />
<glyph glyph-name="ydieresis" unicode="&#xff;" horiz-adv-x="513" d="M376 570 C409 570 431 592 431 625 C431 658 409 680 376 680 C343 680 321 658 321 625 C321 592 343 570 376 570 L376 570 Z M184 570 C217 570 239 592 239 625 C239 658 217 680 184 680 C151 680 129 658 129 625 C129 592 151 570 184 570 L184 570 Z M90 428 L269 4 C262 -10 250 -35 240 -64 C208 -141 183 -171 148 -171 C148 -171 93 -146 69 -146 C41 -146 23 -161 23 -184 C23 -212 51 -230 93 -230 C169 -230 216 -186 263 -72 C275 -37 289 -10 289 -10 L469 428 L470 428 C486 467 523 495 561 498 L573 499 L573 500 L394 500 L394 499 L405 498 C439 495 454 471 445 437 L318 105 L186 438 C177 471 192 494 226 497 L237 498 L237 499 L-15 499 L-15 498 L-3 497 C36 494 72 465 90 426 L90 428 L90 428 Z " />
<glyph glyph-name="Amacron" unicode="&#x100;" horiz-adv-x="679" d="M173 765 L473 765 L473 815 L173 815 L173 765 L173 765 Z M412 234 L481 61 C490 28 473 5 437 3 L396 1 L396 0 L674 0 L674 1 C636 5 607 23 587 65 L335 675 L310 675 L92 65 C76 30 42 5 5 2 L-7 1 L-7 0 L211 0 L211 1 L183 3 C136 5 115 37 130 83 L182 234 L412 234 L412 234 Z M401 259 L190 259 L288 543 L401 259 L401 259 Z " />
<glyph glyph-name="amacron" unicode="&#x101;" horiz-adv-x="500" d="M74 605 L374 605 L374 655 L74 655 L74 605 L74 605 Z M478 49 C468 39 455 33 431 33 C400 33 391 59 391 97 L391 355 C391 445 337 505 257 505 C149 505 69 461 56 395 L146 395 C156 446 192 480 237 480 C273 480 297 438 297 375 L297 260 C269 256 235 251 211 245 C106 219 36 162 36 104 C36 39 83 -5 153 -5 C202 -5 256 16 300 51 C307 14 326 -9 369 -9 C426 -9 461 10 489 38 L478 49 L478 49 Z M297 237 L297 88 C297 84 297 80 297 76 C269 63 234 55 198 55 C154 55 124 85 124 129 C124 169 158 204 210 217 C241 225 272 232 296 237 L297 237 L297 237 Z " />
<glyph glyph-name="Abreve" unicode="&#x102;" horiz-adv-x="679" d="M197 871 C221 797 271 748 323 748 C374 748 424 797 448 871 L433 876 C420 835 376 808 323 808 C270 808 225 835 212 876 L197 871 L197 871 Z M412 234 L481 61 C490 28 473 5 437 3 L396 1 L396 0 L674 0 L674 1 C636 5 607 23 587 65 L335 675 L310 675 L92 65 C76 30 42 5 5 2 L-7 1 L-7 0 L211 0 L211 1 L183 3 C136 5 115 37 130 83 L182 234 L412 234 L412 234 Z M401 259 L190 259 L288 543 L401 259 L401 259 Z " />
<glyph glyph-name="abreve" unicode="&#x103;" horiz-adv-x="500" d="M98 681 C122 607 172 558 224 558 C275 558 325 607 349 681 L334 686 C321 645 277 618 224 618 C171 618 126 645 113 686 L98 681 L98 681 Z M478 49 C468 39 455 33 431 33 C400 33 391 59 391 97 L391 355 C391 445 337 505 257 505 C149 505 69 461 56 395 L146 395 C156 446 192 480 237 480 C273 480 297 438 297 375 L297 260 C269 256 235 251 211 245 C106 219 36 162 36 104 C36 39 83 -5 153 -5 C202 -5 256 16 300 51 C307 14 326 -9 369 -9 C426 -9 461 10 489 38 L478 49 L478 49 Z M297 237 L297 88 C297 84 297 80 297 76 C269 63 234 55 198 55 C154 55 124 85 124 129 C124 169 158 204 210 217 C241 225 272 232 296 237 L297 237 L297 237 Z " />
<glyph glyph-name="Aogonek" unicode="&#x104;" horiz-adv-x="679" d="M467 0 C414 -34 344 -100 344 -155 C344 -203 394 -235 469 -235 C503 -235 537 -222 553 -203 L546 -196 C539 -204 516 -210 488 -210 C435 -210 399 -184 399 -145 C399 -81 473 -12 505 0 L674 0 L674 1 C636 5 607 23 587 65 L335 675 L310 675 L92 65 C76 30 42 5 5 2 L-7 1 L-7 0 L211 0 L211 1 L183 3 C136 5 115 37 130 83 L182 234 L411 234 L480 61 C489 28 472 5 436 3 L395 1 L395 0 L467 0 L467 0 Z M401 259 L190 259 L288 543 L401 259 L401 259 Z " />
<glyph glyph-name="aogonek" unicode="&#x105;" horiz-adv-x="500" d="M478 49 C472 43 464 41 455 36 C409 23 391 48 391 97 L391 355 C391 445 337 505 257 505 C149 505 69 461 56 395 L146 395 C156 446 192 480 237 480 C273 480 297 438 297 375 L297 260 C269 256 235 251 211 245 C106 219 36 162 36 104 C36 39 83 -5 153 -5 C202 -5 256 16 300 51 C308 3 338 -15 395 -8 C354 -45 317 -94 317 -137 C317 -196 367 -235 442 -235 C476 -235 510 -222 526 -203 L519 -196 C512 -204 489 -210 461 -210 C408 -210 372 -177 372 -127 C372 -76 412 -23 446 6 C463 14 477 25 490 38 L478 49 L478 49 Z M298 237 L298 88 C298 84 298 80 298 76 C270 63 235 55 199 55 C155 55 125 85 125 129 C125 169 159 204 211 217 C242 225 273 232 297 237 L298 237 L298 237 Z " />
<glyph glyph-name="Cacute" unicode="&#x106;" horiz-adv-x="708" d="M353 690 C353 690 435 776 466 816 C489 842 504 861 504 866 C504 877 468 904 453 904 C450 904 437 883 421 852 C390 812 342 698 342 698 L353 690 L353 690 Z M640 169 C625 95 556 37 468 25 C444 22 420 20 397 20 C254 20 159 144 159 330 C159 516 254 640 397 640 C434 640 473 635 510 627 C574 612 625 559 639 491 C641 481 644 468 646 458 L647 458 L647 606 C586 641 486 665 397 665 C188 665 49 531 49 330 C49 129 188 -5 397 -5 C486 -5 586 19 647 54 L640 66 L640 66 L646 54 L646 202 L645 202 C643 192 640 179 638 169 L640 169 L640 169 Z " />
<glyph glyph-name="cacute" unicode="&#x107;" horiz-adv-x="504" d="M227 530 C227 530 309 616 340 656 C363 682 378 701 378 706 C378 717 342 744 327 744 C324 744 311 723 295 692 C264 652 216 538 216 538 L227 530 L227 530 Z M453 64 L445 74 C428 60 381 50 327 50 C218 50 145 136 145 266 C145 394 204 480 292 480 C334 480 365 450 369 404 C371 378 389 360 414 360 C438 360 454 376 454 400 C448 463 388 505 302 505 C151 505 50 395 50 231 C50 89 131 -5 252 -5 C323 -5 404 23 453 64 L453 64 Z " />
<glyph glyph-name="Ccircumflex" unicode="&#x108;" horiz-adv-x="708" d="M640 169 C625 95 556 37 468 25 C444 22 420 20 397 20 C254 20 159 144 159 330 C159 516 254 640 397 640 C434 640 473 635 510 627 C574 612 625 559 639 491 C641 481 644 468 646 458 L647 458 L647 606 C586 641 486 665 397 665 C188 665 49 531 49 330 C49 129 188 -5 397 -5 C486 -5 586 19 647 54 L640 66 L640 66 L646 54 L646 202 L645 202 C643 192 640 179 638 169 L640 169 L640 169 Z M425 879 C421 887 410 905 396 905 C381 905 371 888 367 880 C367 880 275 701 275 700 L285 692 C336 752 374 794 397 820 C438 773 507 692 507 692 L517 700 C517 700 473 780 425 879 L425 879 Z M367 851 L367 851 L367 851 Z " />
<glyph glyph-name="Cdot" unicode="&#x10a;" horiz-adv-x="708" d="M398 730 C431 730 453 752 453 785 C453 818 431 840 398 840 C365 840 343 818 343 785 C343 752 365 730 398 730 L398 730 Z M640 169 C625 95 556 37 468 25 C444 22 420 20 397 20 C254 20 159 144 159 330 C159 516 254 640 397 640 C434 640 473 635 510 627 C574 612 625 559 639 491 C641 481 644 468 646 458 L647 458 L647 606 C586 641 486 665 397 665 C188 665 49 531 49 330 C49 129 188 -5 397 -5 C486 -5 586 19 647 54 L640 66 L640 66 L646 54 L646 202 L645 202 C643 192 640 179 638 169 L640 169 L640 169 Z " />
<glyph glyph-name="cdot" unicode="&#x10b;" horiz-adv-x="504" d="M302 570 C335 570 357 592 357 625 C357 658 335 680 302 680 C269 680 247 658 247 625 C247 592 269 570 302 570 L302 570 Z M453 64 L445 74 C428 60 381 50 327 50 C218 50 145 136 145 266 C145 394 204 480 292 480 C334 480 365 450 369 404 C371 378 389 360 414 360 C438 360 454 376 454 400 C448 463 388 505 302 505 C151 505 50 395 50 231 C50 89 131 -5 252 -5 C323 -5 404 23 453 64 L453 64 Z " />
<glyph glyph-name="Ccaron" unicode="&#x10c;" horiz-adv-x="708" d="M509 928 C509 928 440 847 399 800 C376 826 338 868 287 928 L277 920 C277 919 369 740 369 740 C373 732 383 715 398 715 C412 715 423 733 427 741 C475 840 519 920 519 920 L509 928 L509 928 Z M640 169 C625 95 556 37 468 25 C444 22 420 20 397 20 C254 20 159 144 159 330 C159 516 254 640 397 640 C434 640 473 635 510 627 C574 612 625 559 639 491 C641 481 644 468 646 458 L647 458 L647 606 C586 641 486 665 397 665 C188 665 49 531 49 330 C49 129 188 -5 397 -5 C486 -5 586 19 647 54 L640 66 L640 66 L646 54 L646 202 L645 202 C643 192 640 179 638 169 L640 169 L640 169 Z M367 768 L367 768 L367 768 Z " />
<glyph glyph-name="ccaron" unicode="&#x10d;" horiz-adv-x="504" d="M413 768 C413 768 344 687 303 640 C280 666 242 708 191 768 L181 760 C181 759 273 580 273 580 C277 572 287 555 302 555 C316 555 327 573 331 581 C379 680 423 760 423 760 L413 768 L413 768 Z M453 64 L445 74 C428 60 381 50 327 50 C218 50 145 136 145 266 C145 394 204 480 292 480 C334 480 365 450 369 404 C371 378 389 360 414 360 C438 360 454 376 454 400 C448 463 388 505 302 505 C151 505 50 395 50 231 C50 89 131 -5 252 -5 C323 -5 404 23 453 64 L453 64 Z M273 608 L273 608 L273 608 Z " />
<glyph glyph-name="Dcaron" unicode="&#x10e;" horiz-adv-x="725" d="M456 928 C456 928 387 847 346 800 C323 826 285 868 234 928 L224 920 C224 919 316 740 316 740 C320 732 330 715 345 715 C359 715 370 733 374 741 C422 840 466 920 466 920 L456 928 L456 928 Z M316 768 L316 768 L316 768 Z M359 -1 C549 -1 675 131 675 329 C675 527 534 659 323 659 L40 659 L40 658 L51 657 C89 654 115 626 115 587 L115 71 C115 32 89 4 51 1 L40 0 L40 -1 L359 -1 L359 -1 Z M215 24 L215 634 L323 634 C474 634 575 512 575 329 C575 146 489 24 359 24 L215 24 L215 24 Z " />
<glyph glyph-name="dcaron" unicode="&#x10f;" horiz-adv-x="606" d="M613 752 C595 752 580 689 572 644 L543 480 L555 476 L628 624 C653 674 670 725 670 732 C670 746 630 752 613 752 L613 752 Z M496 720 L478 720 L331 676 L331 675 L342 675 C396 676 406 666 406 611 L406 456 C375 485 330 505 282 505 C145 505 54 391 54 221 C54 85 132 -5 248 -5 C303 -5 363 17 404 52 L404 0 L422 0 L569 44 L569 45 L558 45 C504 44 494 54 494 109 L496 720 L496 720 Z M404 66 C387 56 346 50 296 50 C206 50 146 132 146 256 C146 390 198 480 277 480 C331 480 379 452 404 416 L404 66 L404 66 Z " />
<glyph glyph-name="Emacron" unicode="&#x112;" horiz-adv-x="625" d="M158 765 L458 765 L458 815 L158 815 L158 765 L158 765 Z M516 12 L516 12 C523 56 534 116 542 160 L541 160 L529 125 C508 65 454 25 394 25 L215 25 L215 340 L345 340 C396 340 435 311 442 268 L444 255 L445 255 L445 440 L444 440 L442 429 C435 391 396 365 345 365 L215 365 L215 635 L388 635 C448 635 495 595 505 535 L511 500 L512 500 L512 660 L40 660 L40 659 L51 658 C89 655 115 627 115 588 L115 72 C115 33 89 5 51 2 L40 1 L40 0 L514 0 L516 12 L516 12 Z " />
<glyph glyph-name="emacron" unicode="&#x113;" horiz-adv-x="510" d="M127 605 L427 605 L427 655 L127 655 L127 605 L127 605 Z M459 64 L451 74 C434 60 385 50 330 50 C202 50 130 162 147 315 L459 315 C459 429 386 505 276 505 C140 505 49 395 49 231 C49 89 131 -5 254 -5 C327 -5 409 23 458 64 L459 64 L459 64 Z M333 345 L149 332 C164 422 209 479 271 479 C333 479 375 443 375 390 C375 364 359 346 334 344 L333 345 L333 345 Z " />
<glyph glyph-name="Ebreve" unicode="&#x114;" horiz-adv-x="625" d="M182 871 C206 797 256 748 308 748 C359 748 409 797 433 871 L418 876 C405 835 361 808 308 808 C255 808 210 835 197 876 L182 871 L182 871 Z M516 12 L516 12 C523 56 534 116 542 160 L541 160 L529 125 C508 65 454 25 394 25 L215 25 L215 340 L345 340 C396 340 435 311 442 268 L444 255 L445 255 L445 440 L444 440 L442 429 C435 391 396 365 345 365 L215 365 L215 635 L388 635 C448 635 495 595 505 535 L511 500 L512 500 L512 660 L40 660 L40 659 L51 658 C89 655 115 627 115 588 L115 72 C115 33 89 5 51 2 L40 1 L40 0 L514 0 L516 12 L516 12 Z " />
<glyph glyph-name="ebreve" unicode="&#x115;" horiz-adv-x="510" d="M151 711 C175 637 225 588 277 588 C329 588 379 637 403 711 L388 716 C375 675 330 648 277 648 C224 648 179 675 166 716 L151 711 L151 711 Z M459 64 L451 74 C434 60 385 50 330 50 C202 50 130 162 147 315 L459 315 C459 429 386 505 276 505 C140 505 49 395 49 231 C49 89 131 -5 254 -5 C327 -5 409 23 458 64 L459 64 L459 64 Z M333 345 L149 332 C164 422 209 479 271 479 C333 479 375 443 375 390 C375 364 359 346 334 344 L333 345 L333 345 Z " />
<glyph glyph-name="Edot" unicode="&#x116;" horiz-adv-x="625" d="M308 730 C341 730 363 752 363 785 C363 818 341 840 308 840 C275 840 253 818 253 785 C253 752 275 730 308 730 L308 730 Z M516 12 L516 12 C523 56 534 116 542 160 L541 160 L529 125 C508 65 454 25 394 25 L215 25 L215 340 L345 340 C396 340 435 311 442 268 L444 255 L445 255 L445 440 L444 440 L442 429 C435 391 396 365 345 365 L215 365 L215 635 L388 635 C448 635 495 595 505 535 L511 500 L512 500 L512 660 L40 660 L40 659 L51 658 C89 655 115 627 115 588 L115 72 C115 33 89 5 51 2 L40 1 L40 0 L514 0 L516 12 L516 12 Z " />
<glyph glyph-name="edot" unicode="&#x117;" horiz-adv-x="510" d="M277 570 C310 570 332 592 332 625 C332 658 310 680 277 680 C244 680 222 658 222 625 C222 592 244 570 277 570 L277 570 Z M459 64 L451 74 C434 60 385 50 330 50 C202 50 130 162 147 315 L459 315 C459 429 386 505 276 505 C140 505 49 395 49 231 C49 89 131 -5 254 -5 C327 -5 409 23 458 64 L459 64 L459 64 Z M333 345 L149 332 C164 422 209 479 271 479 C333 479 375 443 375 390 C375 364 359 346 334 344 L333 345 L333 345 Z " />
<glyph glyph-name="Eogonek" unicode="&#x118;" horiz-adv-x="625" d="M516 12 L516 12 C523 56 534 116 542 160 L541 160 L529 125 C508 65 454 25 394 25 L215 25 L215 340 L345 340 C396 340 435 311 442 268 L444 255 L445 255 L445 440 L444 440 L442 429 C435 391 396 365 345 365 L215 365 L215 635 L388 635 C448 635 495 595 505 535 L511 500 L512 500 L512 660 L40 660 L40 659 L51 658 C89 655 115 627 115 588 L115 72 C115 33 89 5 51 2 L40 1 L40 0 L472 0 C419 -34 349 -100 349 -155 C349 -203 399 -235 474 -235 C508 -235 542 -222 558 -203 L551 -196 C544 -204 521 -210 493 -210 C440 -210 404 -184 404 -145 C404 -81 478 -12 510 0 L514 0 L516 12 L516 12 Z " />
<glyph glyph-name="eogonek" unicode="&#x119;" horiz-adv-x="510" d="M334 345 L150 332 C165 422 210 479 272 479 C334 479 376 443 376 390 C376 364 360 346 335 344 L334 345 L334 345 Z M148 314 L460 314 C460 428 387 504 277 504 C141 504 50 394 50 230 C50 70 150 -25 303 -2 C253 -39 198 -98 198 -148 C198 -201 248 -236 323 -236 C357 -236 391 -223 407 -204 L400 -197 C393 -205 370 -211 342 -211 C289 -211 253 -182 253 -138 C253 -73 324 -4 357 10 C396 22 432 40 459 62 L451 72 C434 58 385 48 330 48 C202 48 130 160 147 313 L148 314 L148 314 Z " />
<glyph glyph-name="Ecaron" unicode="&#x11a;" horiz-adv-x="625" d="M419 928 C419 928 349 846 308 800 C285 826 247 868 196 928 L187 920 C187 919 279 740 279 740 C283 732 293 715 308 715 C321 715 332 733 336 741 C384 840 428 920 428 920 L419 928 L419 928 Z M279 768 L279 768 L279 768 Z M516 11 L516 11 C523 55 534 115 542 159 L541 159 L529 124 C508 64 454 24 394 24 L215 24 L215 339 L345 339 C396 339 435 310 442 267 L444 254 L445 254 L445 439 L444 439 L442 428 C435 390 396 364 345 364 L215 364 L215 634 L388 634 C448 634 495 594 505 534 L511 499 L512 499 L512 659 L40 659 L40 658 L51 657 C89 654 115 626 115 587 L115 71 C115 32 89 4 51 1 L40 0 L40 -1 L514 -1 L516 11 L516 11 Z " />
<glyph glyph-name="ecaron" unicode="&#x11b;" horiz-adv-x="510" d="M388 768 C388 768 319 687 278 640 C255 666 217 708 166 768 L156 760 C156 759 248 580 248 580 C252 572 262 555 277 555 C291 555 302 573 306 581 C354 680 398 760 398 760 L388 768 L388 768 Z M459 64 L451 74 C434 60 385 50 330 50 C202 50 130 162 147 315 L459 315 C459 429 386 505 276 505 C140 505 49 395 49 231 C49 89 131 -5 254 -5 C327 -5 409 23 458 64 L459 64 L459 64 Z M247 608 L247 608 L247 608 Z M333 344 L149 331 C164 421 209 478 271 478 C333 478 375 442 375 389 C375 363 359 345 334 343 L333 344 L333 344 Z " />
<glyph glyph-name="Gcircumflex" unicode="&#x11c;" horiz-adv-x="804" d="M417 879 C413 887 402 905 388 905 C373 905 363 888 359 880 C359 880 267 701 267 700 L277 692 C328 752 366 794 389 820 C430 773 499 692 499 692 L509 700 C509 700 465 780 417 879 L417 879 Z M359 851 L359 851 L359 851 Z M544 237 L544 43 C495 28 439 19 388 19 C251 19 160 143 160 329 C160 515 251 639 388 639 C421 639 457 635 492 627 C555 612 606 558 620 491 C622 481 625 468 627 458 L628 458 L628 606 C567 641 471 665 388 665 C185 665 50 531 50 330 C50 129 185 -5 388 -5 C473 -5 572 19 634 55 L634 238 C634 277 660 305 698 308 L709 309 L709 310 L469 310 L469 309 L480 308 C518 305 544 277 544 238 L544 237 L544 237 Z " />
<glyph glyph-name="Gbreve" unicode="&#x11e;" horiz-adv-x="804" d="M262 871 C286 797 336 748 388 748 C440 748 490 797 514 871 L499 876 C486 835 441 808 388 808 C335 808 290 835 277 876 L262 871 L262 871 Z M544 238 L544 44 C495 29 439 20 388 20 C251 20 160 144 160 330 C160 516 251 640 388 640 C421 640 457 636 492 628 C555 613 606 559 620 492 C622 482 625 469 627 459 L628 459 L628 607 C567 642 471 666 388 666 C185 666 50 532 50 331 C50 130 185 -4 388 -4 C473 -4 572 20 634 56 L634 239 C634 278 660 306 698 309 L709 310 L709 311 L469 311 L469 310 L480 309 C518 306 544 278 544 239 L544 238 L544 238 Z " />
<glyph glyph-name="gbreve" unicode="&#x11f;" horiz-adv-x="474" d="M109 711 C133 637 183 588 235 588 C287 588 337 637 361 711 L346 716 C333 675 288 648 235 648 C182 648 137 675 124 716 L109 711 L109 711 Z M474 500 C429 493 383 487 338 480 C310 496 275 505 235 505 C130 505 60 442 60 348 C60 279 97 227 157 204 C89 197 45 156 45 98 C45 50 83 15 143 2 C68 -24 20 -73 20 -125 C20 -195 82 -241 174 -241 C342 -241 454 -159 454 -36 C454 37 382 85 275 85 C258 85 190 82 190 82 C139 82 105 102 105 133 C105 167 135 190 180 190 L235 190 C341 190 411 253 411 348 C411 387 399 421 377 447 L474 451 L474 500 L474 500 Z M235 211 C181 211 145 266 145 349 C145 431 181 486 235 486 C290 486 326 431 326 349 C326 266 290 211 235 211 L235 211 Z M166 -1 C191 -4 216 -1 250 -1 C333 -1 389 -33 389 -81 C389 -162 307 -216 184 -216 C122 -216 80 -175 80 -114 C80 -63 114 -19 166 -2 L166 -1 L166 -1 Z " />
<glyph glyph-name="Gdot" unicode="&#x120;" horiz-adv-x="804" d="M388 730 C421 730 443 752 443 785 C443 818 421 840 388 840 C355 840 333 818 333 785 C333 752 355 730 388 730 L388 730 Z M544 238 L544 44 C495 29 439 20 388 20 C251 20 160 144 160 330 C160 516 251 640 388 640 C421 640 457 636 492 628 C555 613 606 559 620 492 C622 482 625 469 627 459 L628 459 L628 607 C567 642 471 666 388 666 C185 666 50 532 50 331 C50 130 185 -4 388 -4 C473 -4 572 20 634 56 L634 239 C634 278 660 306 698 309 L709 310 L709 311 L469 311 L469 310 L480 309 C518 306 544 278 544 239 L544 238 L544 238 Z " />
<glyph glyph-name="gdot" unicode="&#x121;" horiz-adv-x="474" d="M235 570 C268 570 290 592 290 625 C290 658 268 680 235 680 C202 680 180 658 180 625 C180 592 202 570 235 570 L235 570 Z M474 500 C429 493 383 487 338 480 C310 496 275 505 235 505 C130 505 60 442 60 348 C60 279 97 227 157 204 C89 197 45 156 45 98 C45 50 83 15 143 2 C68 -24 20 -73 20 -125 C20 -195 82 -241 174 -241 C342 -241 454 -159 454 -36 C454 37 382 85 275 85 C258 85 190 82 190 82 C139 82 105 102 105 133 C105 167 135 190 180 190 L235 190 C341 190 411 253 411 348 C411 387 399 421 377 447 L474 451 L474 500 L474 500 Z M235 211 C181 211 145 266 145 349 C145 431 181 486 235 486 C290 486 326 431 326 349 C326 266 290 211 235 211 L235 211 Z M166 -1 C191 -4 216 -1 250 -1 C333 -1 389 -33 389 -81 C389 -162 307 -216 184 -216 C122 -216 80 -175 80 -114 C80 -63 114 -19 166 -2 L166 -1 L166 -1 Z " />
<glyph glyph-name="Hcircumflex" unicode="&#x124;" horiz-adv-x="780" d="M419 879 C415 887 404 905 390 905 C375 905 365 888 361 880 C361 880 269 701 269 700 L279 692 C330 752 368 794 391 820 C432 773 501 692 501 692 L511 700 C511 700 467 780 419 879 L419 879 Z M361 851 L361 851 L361 851 Z M740 -1 L740 0 L729 1 C691 4 665 32 665 71 L665 587 C665 626 691 654 729 657 L740 658 L740 659 L490 659 L490 658 L501 657 C539 654 565 626 565 587 L565 359 L215 359 L215 587 C215 626 241 654 279 657 L290 658 L290 659 L40 659 L40 658 L51 657 C89 654 115 626 115 587 L115 71 C115 32 89 4 51 1 L40 0 L40 -1 L290 -1 L290 0 L279 1 C241 4 215 32 215 71 L215 334 L565 334 L565 71 C565 32 539 4 501 1 L490 0 L490 -1 L740 -1 L740 -1 Z " />
<glyph glyph-name="Itilde" unicode="&#x128;" horiz-adv-x="330" d="M25 755 C25 791 41 815 66 815 C118 815 187 753 239 753 C288 753 320 801 320 873 L305 873 C305 836 287 812 259 812 C207 812 138 875 86 875 C40 875 10 827 10 755 L25 755 L25 755 Z M290 0 L290 1 L279 2 C241 5 215 33 215 72 L215 588 C215 627 241 655 279 658 L290 659 L290 660 L40 660 L40 659 L51 658 C89 655 115 627 115 588 L115 72 C115 33 89 5 51 2 L40 1 L40 0 L290 0 L290 0 Z " />
<glyph glyph-name="itilde" unicode="&#x129;" horiz-adv-x="330" d="M25 595 C25 631 41 655 66 655 C118 655 187 593 239 593 C288 593 320 641 320 713 L305 713 C305 676 287 652 259 652 C207 652 138 715 86 715 C40 715 10 667 10 595 L25 595 L25 595 Z M285 0 L285 1 L274 2 C236 5 210 33 210 72 L210 500 L192 500 L45 456 L45 455 L56 455 C110 456 120 446 120 391 L120 72 C120 33 94 5 56 2 L45 1 L45 0 L285 0 L285 0 Z " />
<glyph glyph-name="Imacron" unicode="&#x12a;" horiz-adv-x="330" d="M15 765 L315 765 L315 815 L15 815 L15 765 L15 765 Z M290 0 L290 1 L279 2 C241 5 215 33 215 72 L215 588 C215 627 241 655 279 658 L290 659 L290 660 L40 660 L40 659 L51 658 C89 655 115 627 115 588 L115 72 C115 33 89 5 51 2 L40 1 L40 0 L290 0 L290 0 Z " />
<glyph glyph-name="imacron" unicode="&#x12b;" horiz-adv-x="330" d="M15 605 L315 605 L315 655 L15 655 L15 605 L15 605 Z M285 0 L285 1 L274 2 C236 5 210 33 210 72 L210 500 L192 500 L45 456 L45 455 L56 455 C110 456 120 446 120 391 L120 72 C120 33 94 5 56 2 L45 1 L45 0 L285 0 L285 0 Z " />
<glyph glyph-name="Ibreve" unicode="&#x12c;" horiz-adv-x="330" d="M39 871 C63 797 113 748 165 748 C217 748 267 797 291 871 L276 876 C263 835 218 808 165 808 C112 808 67 835 54 876 L39 871 L39 871 Z M290 0 L290 1 L279 2 C241 5 215 33 215 72 L215 588 C215 627 241 655 279 658 L290 659 L290 660 L40 660 L40 659 L51 658 C89 655 115 627 115 588 L115 72 C115 33 89 5 51 2 L40 1 L40 0 L290 0 L290 0 Z " />
<glyph glyph-name="ibreve" unicode="&#x12d;" horiz-adv-x="330" d="M39 711 C63 637 113 588 165 588 C217 588 267 637 291 711 L276 716 C263 675 218 648 165 648 C112 648 67 675 54 716 L39 711 L39 711 Z M285 0 L285 1 L274 2 C236 5 210 33 210 72 L210 500 L192 500 L45 456 L45 455 L56 455 C110 456 120 446 120 391 L120 72 C120 33 94 5 56 2 L45 1 L45 0 L285 0 L285 0 Z " />
<glyph glyph-name="Idot" unicode="&#x130;" horiz-adv-x="330" d="M165 730 C198 730 220 752 220 785 C220 818 198 840 165 840 C132 840 110 818 110 785 C110 752 132 730 165 730 L165 730 Z M290 0 L290 1 L279 2 C241 5 215 33 215 72 L215 588 C215 627 241 655 279 658 L290 659 L290 660 L40 660 L40 659 L51 658 C89 655 115 627 115 588 L115 72 C115 33 89 5 51 2 L40 1 L40 0 L290 0 L290 0 Z " />
<glyph glyph-name="dotlessi" unicode="&#x131;" horiz-adv-x="330" d="M285 0 L285 1 L274 2 C236 5 210 33 210 72 L210 500 L192 500 L45 456 L45 455 L56 455 C110 456 120 446 120 391 L120 72 C120 33 94 5 56 2 L45 1 L45 0 L285 0 L285 0 Z " />
<glyph glyph-name="Jcircumflex" unicode="&#x134;" horiz-adv-x="400" d="M264 879 C260 887 249 905 235 905 C220 905 210 888 206 880 C206 880 114 701 114 700 L124 692 C175 752 213 794 236 820 C277 773 346 692 346 692 L356 700 C356 700 312 780 264 879 L264 879 Z M206 851 L206 851 L206 851 Z M185 587 L185 199 C185 62 171 9 135 9 C111 9 91 25 85 49 C79 73 61 89 40 89 C10 89 -6 73 0 49 C9 13 53 -11 110 -11 C236 -11 285 71 285 283 L285 587 C285 626 311 654 349 657 L360 658 L360 659 L110 659 L110 658 L121 657 C159 654 185 626 185 587 L185 587 Z " />
<glyph glyph-name="Lacute" unicode="&#x139;" horiz-adv-x="625" d="M142 690 C142 690 224 776 255 816 C278 842 293 861 293 866 C293 877 257 904 242 904 C239 904 226 883 210 852 C179 812 131 698 131 698 L142 690 L142 690 Z M516 12 L516 12 C524 58 535 120 543 167 C543 172 543 177 542 176 L523 116 C505 62 458 26 404 26 L215 26 L215 589 C215 628 241 656 279 659 L290 660 L290 661 L40 661 L40 660 L51 659 C89 656 115 628 115 589 L115 73 C115 34 89 6 51 3 L40 2 L40 1 L514 1 L516 12 L516 12 Z " />
<glyph glyph-name="Lcaron" unicode="&#x13d;" horiz-adv-x="625" d="M407 692 C389 692 374 629 366 584 L337 420 L349 416 L422 564 C447 614 464 665 464 672 C464 686 424 692 407 692 L407 692 Z M516 12 L516 12 C524 58 535 120 543 167 C543 172 543 177 542 176 L523 116 C505 62 458 26 404 26 L215 26 L215 589 C215 628 241 656 279 659 L290 660 L290 661 L40 661 L40 660 L51 659 C89 656 115 628 115 589 L115 73 C115 34 89 6 51 3 L40 2 L40 1 L514 1 L516 12 L516 12 Z " />
<glyph glyph-name="lcaron" unicode="&#x13e;" horiz-adv-x="330" d="M327 722 C309 722 294 659 286 614 L257 450 L269 446 L342 594 C367 644 384 695 384 702 C384 716 344 722 327 722 L327 722 Z M285 0 L285 1 L274 2 C236 5 210 33 210 72 L210 720 L192 720 L45 676 L45 675 L56 675 C110 676 120 666 120 611 L120 72 C120 33 94 5 56 2 L45 1 L45 0 L285 0 L285 0 Z " />
<glyph glyph-name="Lslash" unicode="&#x141;" horiz-adv-x="625" d="M65 265 L115 282 L115 72 C115 33 89 5 51 2 L40 1 L40 0 L514 0 L516 12 L516 12 C524 58 535 120 543 167 C543 172 543 177 542 176 L523 116 C505 62 458 26 404 26 L215 26 L215 316 L363 366 L363 396 L215 346 L215 589 C215 628 241 656 279 659 L290 660 L290 661 L40 661 L40 660 L51 659 C89 656 115 628 115 589 L115 313 L65 296 L65 265 L65 265 Z " />
<glyph glyph-name="lslash" unicode="&#x142;" horiz-adv-x="330" d="M20 295 L120 329 L120 72 C120 33 94 5 56 2 L45 1 L45 0 L285 0 L285 1 L274 2 C236 5 210 33 210 72 L210 361 L310 395 L310 425 L210 391 L210 720 L192 720 L45 676 L45 675 L56 675 C110 676 120 666 120 611 L120 359 L20 325 L20 295 L20 295 Z " />
<glyph glyph-name="Nacute" unicode="&#x143;" horiz-adv-x="716" d="M328 690 C328 690 410 776 441 816 C464 842 479 861 479 866 C479 877 443 904 428 904 C425 904 412 883 396 852 C365 812 317 698 317 698 L328 690 L328 690 Z M571 588 L571 144 L204 660 L40 660 L40 659 L51 658 C89 655 115 627 115 588 L115 72 C115 33 89 5 51 2 L40 1 L40 0 L220 0 L220 1 L209 2 C171 5 145 33 145 72 L145 571 C286 374 427 177 568 -20 L601 -20 L601 588 C601 627 627 655 665 658 L676 659 L676 660 L496 660 L496 659 L507 658 C545 655 571 627 571 588 L571 588 Z M145 619 L145 619 L145 619 Z " />
<glyph glyph-name="nacute" unicode="&#x144;" horiz-adv-x="631" d="M243 530 C243 530 325 616 356 656 C379 682 394 701 394 706 C394 717 358 744 343 744 C340 744 327 723 311 692 C280 652 232 538 232 538 L243 530 L243 530 Z M426 69 C425 31 399 4 362 1 L351 0 L351 -1 L591 -1 L591 0 L580 1 C542 4 516 32 516 71 L516 336 C516 437 483 504 399 504 C357 504 283 478 210 439 L210 499 L192 499 L45 455 L45 454 L56 454 C110 455 120 445 120 390 L120 71 C120 32 94 4 56 1 L45 0 L45 -1 L285 -1 L285 0 L274 1 C236 4 210 32 210 71 L210 428 C236 437 282 443 331 443 C399 443 426 396 426 326 C426 326 427 221 427 67 L426 69 L426 69 Z " />
<glyph glyph-name="Ncaron" unicode="&#x147;" horiz-adv-x="716" d="M469 928 C469 928 400 847 359 800 C336 826 298 868 247 928 L237 920 C237 919 329 740 329 740 C333 732 343 715 358 715 C372 715 383 733 387 741 C435 840 479 920 479 920 L469 928 L469 928 Z M329 768 L329 768 L329 768 Z M571 587 L571 143 L204 659 L40 659 L40 658 L51 657 C89 654 115 626 115 587 L115 71 C115 32 89 4 51 1 L40 0 L40 -1 L220 -1 L220 0 L209 1 C171 4 145 32 145 71 L145 570 C286 373 427 176 568 -21 L601 -21 L601 587 C601 626 627 654 665 657 L676 658 L676 659 L496 659 L496 658 L507 657 C545 654 571 626 571 587 L571 587 Z M145 618 L145 618 L145 618 Z " />
<glyph glyph-name="ncaron" unicode="&#x148;" horiz-adv-x="631" d="M429 768 C429 768 360 687 319 640 C296 666 258 708 207 768 L197 760 C197 759 289 580 289 580 C293 572 303 555 318 555 C332 555 343 573 347 581 C395 680 439 760 439 760 L429 768 L429 768 Z M289 608 L289 608 L289 608 Z M426 68 C425 30 399 3 362 0 L351 -1 L351 -2 L591 -2 L591 -1 L580 0 C542 3 516 31 516 70 L516 335 C516 436 483 503 399 503 C357 503 283 477 210 438 L210 498 L192 498 L45 454 L45 453 L56 453 C110 454 120 444 120 389 L120 70 C120 31 94 3 56 0 L45 -1 L45 -2 L285 -2 L285 -1 L274 0 C236 3 210 31 210 70 L210 427 C236 436 282 442 331 442 C399 442 426 395 426 325 C426 325 427 220 427 66 L426 68 L426 68 Z " />
<glyph glyph-name="Omacron" unicode="&#x14c;" horiz-adv-x="760" d="M230 765 L530 765 L530 815 L230 815 L230 765 L230 765 Z M160 330 C160 497 235 640 380 640 C525 640 600 497 600 330 C600 163 525 20 380 20 C235 20 160 163 160 330 L160 330 Z M50 330 C50 149 162 -5 380 -5 C598 -5 710 149 710 330 C710 511 598 665 380 665 C162 665 50 511 50 330 L50 330 Z " />
<glyph glyph-name="omacron" unicode="&#x14d;" horiz-adv-x="600" d="M150 605 L450 605 L450 655 L150 655 L150 605 L150 605 Z M150 250 C150 391 210 485 300 485 C390 485 450 391 450 250 C450 109 390 15 300 15 C210 15 150 109 150 250 L150 250 Z M50 250 C50 97 150 -5 300 -5 C450 -5 550 97 550 250 C550 403 450 505 300 505 C150 505 50 403 50 250 L50 250 Z " />
<glyph glyph-name="Obreve" unicode="&#x14e;" horiz-adv-x="760" d="M254 871 C278 797 328 748 380 748 C432 748 482 797 506 871 L491 876 C478 835 433 808 380 808 C327 808 282 835 269 876 L254 871 L254 871 Z M160 330 C160 497 235 640 380 640 C525 640 600 497 600 330 C600 163 525 20 380 20 C235 20 160 163 160 330 L160 330 Z M50 330 C50 149 162 -5 380 -5 C598 -5 710 149 710 330 C710 511 598 665 380 665 C162 665 50 511 50 330 L50 330 Z " />
<glyph glyph-name="obreve" unicode="&#x14f;" horiz-adv-x="600" d="M174 711 C198 637 248 588 300 588 C352 588 402 637 426 711 L411 716 C398 675 353 648 300 648 C247 648 202 675 189 716 L174 711 L174 711 Z M150 250 C150 391 210 485 300 485 C390 485 450 391 450 250 C450 109 390 15 300 15 C210 15 150 109 150 250 L150 250 Z M50 250 C50 97 150 -5 300 -5 C450 -5 550 97 550 250 C550 403 450 505 300 505 C150 505 50 403 50 250 L50 250 Z " />
<glyph glyph-name="Racute" unicode="&#x154;" horiz-adv-x="666" d="M261 690 C261 690 344 776 375 816 C398 842 413 861 413 866 C413 877 377 904 361 904 C357 904 345 883 329 852 C298 812 251 698 251 698 L261 690 L261 690 Z M666 0 L666 20 C626 20 626 21 577 87 C491 206 427 291 402 324 C499 347 560 408 560 491 C560 593 470 661 335 661 L40 661 L40 660 L51 659 C89 656 115 628 115 589 L115 73 C115 34 89 6 51 3 L40 2 L40 1 L290 1 L290 2 L279 3 C241 6 215 34 215 73 L215 315 L289 315 C316 278 370 204 440 107 C514 5 521 1 631 1 L666 0 L666 0 Z M311 340 L215 340 L215 636 L335 636 C407 636 455 578 455 491 C455 400 397 340 311 340 L311 340 Z " />
<glyph glyph-name="Rcaron" unicode="&#x158;" horiz-adv-x="666" d="M449 928 C449 928 379 846 338 800 C315 826 277 868 226 928 L217 920 C217 919 309 740 309 740 C313 732 323 715 338 715 C351 715 362 733 366 741 C414 840 458 920 458 920 L449 928 L449 928 Z M666 0 L666 20 C626 20 626 21 577 87 C491 206 427 291 402 324 C499 347 560 408 560 491 C560 593 470 661 335 661 L40 661 L40 660 L51 659 C89 656 115 628 115 589 L115 73 C115 34 89 6 51 3 L40 2 L40 1 L290 1 L290 2 L279 3 C241 6 215 34 215 73 L215 315 L289 315 C316 278 370 204 440 107 C514 5 521 1 631 1 L666 0 L666 0 Z M309 769 L309 769 L309 769 Z M311 339 L215 339 L215 635 L335 635 C407 635 455 577 455 490 C455 399 397 339 311 339 L311 339 Z " />
<glyph glyph-name="rcaron" unicode="&#x159;" horiz-adv-x="429" d="M342 768 C342 768 273 687 232 640 C209 666 171 708 120 768 L110 760 C110 759 202 580 202 580 C206 572 216 555 231 555 C245 555 256 573 260 581 C308 680 352 760 352 760 L342 768 L342 768 Z M202 608 L202 608 L202 608 Z M270 437 C302 437 344 402 376 402 C402 402 419 419 419 445 C419 480 397 504 342 504 C301 504 249 474 209 428 L209 499 L191 499 L44 455 L44 454 L55 454 C109 455 119 445 119 390 L119 71 C119 32 93 4 55 1 L44 0 L44 -1 L284 -1 L284 0 L273 1 C235 4 209 32 209 71 L209 415 C225 429 247 437 269 437 L270 437 L270 437 Z " />
<glyph glyph-name="Sacute" unicode="&#x15a;" horiz-adv-x="511" d="M203 690 C203 690 285 776 316 816 C339 842 354 861 354 866 C354 877 318 904 303 904 C300 904 287 883 271 852 C240 812 192 698 192 698 L203 690 L203 690 Z M339 620 C374 604 401 569 409 530 C413 510 419 482 423 462 L424 462 L424 618 C375 646 306 665 252 665 C127 665 43 586 43 468 C43 393 111 323 212 291 C321 257 394 196 394 140 C394 68 338 20 254 20 C227 20 198 24 169 31 C109 49 62 101 49 166 C47 176 44 189 42 199 L41 199 L41 43 C90 15 175 -4 255 -4 C382 -4 466 70 466 182 C466 262 396 337 291 370 C184 403 113 459 113 509 C113 588 167 641 248 641 C272 641 305 634 339 621 L339 620 L339 620 Z " />
<glyph glyph-name="sacute" unicode="&#x15b;" horiz-adv-x="422" d="M149 530 C149 530 231 616 262 656 C285 682 300 701 300 706 C300 717 264 744 249 744 C246 744 233 723 217 692 C186 652 138 538 138 538 L149 530 L149 530 Z M348 361 L349 361 L349 464 C306 489 256 505 224 505 C123 505 56 450 56 368 C56 315 112 255 195 218 C256 191 297 149 297 113 C297 54 259 15 203 15 C202 15 158 19 159 21 C108 33 66 73 53 122 C51 129 49 137 47 144 L46 144 L46 31 C83 9 144 -5 198 -5 C302 -5 372 56 372 147 C372 198 327 252 259 282 C179 318 125 365 125 399 C125 451 165 485 224 485 C231 485 246 480 265 471 C314 447 340 410 348 360 L348 361 L348 361 Z " />
<glyph glyph-name="Scircumflex" unicode="&#x15c;" horiz-adv-x="511" d="M277 879 C273 887 262 905 248 905 C233 905 223 888 219 880 C219 880 127 701 127 700 L137 692 C188 752 226 794 249 820 C290 773 359 692 359 692 L369 700 C369 700 325 780 277 879 L277 879 Z M219 851 L219 851 L219 851 Z M339 619 C374 603 401 568 409 529 C413 509 419 481 423 461 L424 461 L424 617 C375 645 306 664 252 664 C127 664 43 585 43 467 C43 392 111 322 212 290 C321 256 394 195 394 139 C394 67 338 19 254 19 C227 19 198 23 169 30 C109 48 62 100 49 165 C47 175 44 188 42 198 L41 198 L41 42 C90 14 175 -5 255 -5 C382 -5 466 69 466 181 C466 261 396 336 291 369 C184 402 113 458 113 508 C113 587 167 640 248 640 C272 640 305 633 339 620 L339 619 L339 619 Z " />
<glyph glyph-name="Scedilla" unicode="&#x15e;" horiz-adv-x="511" d="M215 -92 L214 -94 C214 -93 214 -92 214 -91 L215 -92 L215 -92 Z M221 -75 C244 -28 262 -10 271 -4 C389 2 466 74 466 181 C466 261 396 336 291 369 C184 402 113 458 113 508 C113 587 167 640 248 640 C272 640 305 633 339 620 C374 604 401 569 409 530 C413 510 419 482 423 462 L424 462 L424 618 C375 646 306 665 252 665 C127 665 43 586 43 468 C43 393 111 323 212 291 C321 257 394 196 394 140 C394 68 338 20 254 20 C227 20 198 24 169 31 C109 49 62 101 49 166 C47 176 44 189 42 199 L41 199 L41 43 C88 16 169 -3 246 -4 L208 -90 L214 -93 C231 -84 253 -78 269 -78 C301 -78 323 -100 323 -133 C323 -169 294 -193 251 -193 C219 -193 191 -188 181 -180 L177 -191 C198 -208 235 -219 269 -219 C334 -219 378 -185 378 -133 C378 -89 343 -60 290 -60 C267 -60 239 -66 222 -75 L221 -75 L221 -75 Z " />
<glyph glyph-name="scedilla" unicode="&#x15f;" horiz-adv-x="422" d="M158 -92 L157 -94 C157 -93 157 -92 157 -91 L158 -92 L158 -92 Z M164 -75 C187 -28 205 -10 214 -4 C309 2 371 61 371 147 C371 198 326 252 258 282 C178 318 124 365 124 399 C124 451 164 485 223 485 C230 485 245 480 264 471 C313 447 339 410 347 360 L348 360 L348 463 C305 488 255 504 223 504 C122 504 55 449 55 367 C55 314 111 254 194 217 C255 190 296 148 296 112 C296 53 258 14 202 14 C201 14 157 18 158 20 C107 32 65 72 52 121 C50 128 48 136 46 143 L45 143 L45 30 C80 9 137 -5 189 -6 L151 -92 L157 -95 C174 -86 196 -80 212 -80 C244 -80 266 -102 266 -135 C266 -171 237 -195 194 -195 C162 -195 134 -190 124 -182 L120 -193 C141 -210 178 -221 212 -221 C277 -221 321 -187 321 -135 C321 -91 286 -62 233 -62 C210 -62 182 -68 165 -77 L164 -75 L164 -75 Z " />
<glyph glyph-name="Scaron" unicode="&#x160;" horiz-adv-x="511" d="M359 928 C359 928 290 847 249 800 C226 826 188 868 137 928 L127 920 C127 919 219 740 219 740 C223 732 233 715 248 715 C262 715 273 733 277 741 C325 840 369 920 369 920 L359 928 L359 928 Z M219 768 L219 768 L219 768 Z M339 619 C374 603 401 568 409 529 C413 509 419 481 423 461 L424 461 L424 617 C375 645 306 664 252 664 C127 664 43 585 43 467 C43 392 111 322 212 290 C321 256 394 195 394 139 C394 67 338 19 254 19 C227 19 198 23 169 30 C109 48 62 100 49 165 C47 175 44 188 42 198 L41 198 L41 42 C90 14 175 -5 255 -5 C382 -5 466 69 466 181 C466 261 396 336 291 369 C184 402 113 458 113 508 C113 587 167 640 248 640 C272 640 305 633 339 620 L339 619 L339 619 Z " />
<glyph glyph-name="scaron" unicode="&#x161;" horiz-adv-x="422" d="M335 768 C335 768 266 687 225 640 C202 666 164 708 113 768 L103 760 C103 759 195 580 195 580 C199 572 209 555 224 555 C238 555 249 573 253 581 C301 680 345 760 345 760 L335 768 L335 768 Z M195 608 L195 608 L195 608 Z M348 360 L349 360 L349 463 C306 488 256 504 224 504 C123 504 56 449 56 367 C56 314 112 254 195 217 C256 190 297 148 297 112 C297 53 259 14 203 14 C202 14 158 18 159 20 C108 32 66 72 53 121 C51 128 49 136 47 143 L46 143 L46 30 C83 8 144 -6 198 -6 C302 -6 372 55 372 146 C372 197 327 251 259 281 C179 317 125 364 125 398 C125 450 165 484 224 484 C231 484 246 479 265 470 C314 446 340 409 348 359 L348 360 L348 360 Z " />
<glyph glyph-name="Tcaron" unicode="&#x164;" horiz-adv-x="620" d="M421 928 C421 928 352 847 311 800 C288 826 250 868 199 928 L189 920 C189 919 281 740 281 740 C285 732 295 715 310 715 C324 715 335 733 339 741 C387 840 431 920 431 920 L421 928 L421 928 Z M281 768 L281 768 L281 768 Z M605 647 L604 659 L16 659 L15 647 C13 647 2 496 1 484 L2 484 L20 554 C32 602 72 634 120 634 L260 634 L260 71 C260 32 234 4 196 1 L185 0 L185 -1 L435 -1 L435 0 L424 1 C386 4 360 32 360 71 L360 634 L500 634 C548 634 588 602 600 554 L618 484 L619 484 C615 533 609 598 605 647 L605 647 Z " />
<glyph glyph-name="tcaron" unicode="&#x165;" horiz-adv-x="352" d="M25 475 L25 465 L95 465 L95 113 C95 21 116 -5 191 -5 C255 -5 297 15 332 44 L325 52 C313 42 289 35 235 35 C195 35 184 49 184 97 C184 207 185 465 185 465 L320 465 L320 500 L185 500 L185 640 L170 640 C132 551 74 482 25 475 L25 475 Z M437 722 C419 722 404 659 396 614 L367 450 L379 446 L452 594 C477 644 494 695 494 702 C494 716 454 722 437 722 L437 722 Z " />
<glyph glyph-name="Utilde" unicode="&#x168;" horiz-adv-x="680" d="M200 755 C200 791 216 815 241 815 C293 815 362 753 414 753 C463 753 495 801 495 873 L480 873 C480 836 462 812 434 812 C382 812 313 875 261 875 C215 875 185 827 185 755 L200 755 L200 755 Z M105 588 L105 215 C105 83 172 -5 345 -5 C511 -5 575 71 575 185 L575 578 C575 623 604 655 647 658 L660 659 L660 660 L455 660 L455 659 L470 658 C515 655 545 623 545 578 L545 195 C545 96 493 30 360 30 C248 30 205 96 205 196 L205 588 C205 627 231 655 269 658 L280 659 L280 660 L30 660 L30 659 L41 658 C79 655 105 627 105 588 L105 588 Z " />
<glyph glyph-name="utilde" unicode="&#x169;" horiz-adv-x="596" d="M148 595 C148 631 164 655 189 655 C241 655 310 593 362 593 C411 593 443 641 443 713 L428 713 C428 676 410 652 382 652 C330 652 261 715 209 715 C163 715 133 667 133 595 L148 595 L148 595 Z M396 428 L396 75 C380 62 350 54 301 54 C221 54 180 98 180 164 L181 500 L16 500 L16 499 L27 498 C65 495 91 467 91 428 L91 155 C91 59 139 -5 231 -5 C298 -5 353 21 397 61 L397 0 L415 0 L562 44 L562 45 L551 45 C497 44 487 54 487 109 L487 500 L322 500 L322 499 L333 498 C371 495 397 467 397 428 L396 428 L396 428 Z " />
<glyph glyph-name="Umacron" unicode="&#x16a;" horiz-adv-x="680" d="M190 765 L490 765 L490 815 L190 815 L190 765 L190 765 Z M105 588 L105 215 C105 83 172 -5 345 -5 C511 -5 575 71 575 185 L575 578 C575 623 604 655 647 658 L660 659 L660 660 L455 660 L455 659 L470 658 C515 655 545 623 545 578 L545 195 C545 96 493 30 360 30 C248 30 205 96 205 196 L205 588 C205 627 231 655 269 658 L280 659 L280 660 L30 660 L30 659 L41 658 C79 655 105 627 105 588 L105 588 Z " />
<glyph glyph-name="umacron" unicode="&#x16b;" horiz-adv-x="492" d="M138 605 L438 605 L438 655 L138 655 L138 605 L138 605 Z M396 428 L396 75 C380 62 350 54 301 54 C221 54 180 98 180 164 L181 500 L16 500 L16 499 L27 498 C65 495 91 467 91 428 L91 155 C91 59 139 -5 231 -5 C298 -5 353 21 397 61 L397 0 L415 0 L562 44 L562 45 L551 45 C497 44 487 54 487 109 L487 500 L322 500 L322 499 L333 498 C371 495 397 467 397 428 L396 428 L396 428 Z " />
<glyph glyph-name="Ubreve" unicode="&#x16c;" horiz-adv-x="680" d="M214 871 C238 797 288 748 340 748 C392 748 442 797 466 871 L451 876 C438 835 393 808 340 808 C287 808 242 835 229 876 L214 871 L214 871 Z M105 588 L105 215 C105 83 172 -5 345 -5 C511 -5 575 71 575 185 L575 578 C575 623 604 655 647 658 L660 659 L660 660 L455 660 L455 659 L470 658 C515 655 545 623 545 578 L545 195 C545 96 493 30 360 30 C248 30 205 96 205 196 L205 588 C205 627 231 655 269 658 L280 659 L280 660 L30 660 L30 659 L41 658 C79 655 105 627 105 588 L105 588 Z " />
<glyph glyph-name="ubreve" unicode="&#x16d;" horiz-adv-x="596" d="M162 711 C186 637 236 588 288 588 C340 588 390 637 414 711 L399 716 C386 675 341 648 288 648 C235 648 190 675 177 716 L162 711 L162 711 Z M396 428 L396 75 C380 62 350 54 301 54 C221 54 180 98 180 164 L181 500 L16 500 L16 499 L27 498 C65 495 91 467 91 428 L91 155 C91 59 139 -5 231 -5 C298 -5 353 21 397 61 L397 0 L415 0 L562 44 L562 45 L551 45 C497 44 487 54 487 109 L487 500 L322 500 L322 499 L333 498 C371 495 397 467 397 428 L396 428 L396 428 Z " />
<glyph glyph-name="Uring" unicode="&#x16e;" horiz-adv-x="680" d="M270 788 C270 831 298 860 340 860 C382 860 410 831 410 788 C410 749 378 715 340 715 C302 715 270 749 270 788 L270 788 Z M245 788 C245 738 289 695 340 695 C391 695 435 738 435 788 C435 843 397 880 340 880 C283 880 245 843 245 788 L245 788 Z M105 588 L105 215 C105 83 172 -5 345 -5 C511 -5 575 71 575 185 L575 578 C575 623 604 655 647 658 L660 659 L660 660 L455 660 L455 659 L470 658 C515 655 545 623 545 578 L545 195 C545 96 493 30 360 30 C248 30 205 96 205 196 L205 588 C205 627 231 655 269 658 L280 659 L280 660 L30 660 L30 659 L41 658 C79 655 105 627 105 588 L105 588 Z " />
<glyph glyph-name="uring" unicode="&#x16f;" horiz-adv-x="596" d="M218 628 C218 671 246 700 288 700 C330 700 358 671 358 628 C358 589 326 555 288 555 C250 555 218 589 218 628 L218 628 Z M193 628 C193 578 237 535 288 535 C339 535 383 578 383 628 C383 683 345 720 288 720 C231 720 193 683 193 628 L193 628 Z M396 428 L396 75 C380 62 350 54 301 54 C221 54 180 98 180 164 L181 500 L16 500 L16 499 L27 498 C65 495 91 467 91 428 L91 155 C91 59 139 -5 231 -5 C298 -5 353 21 397 61 L397 0 L415 0 L562 44 L562 45 L551 45 C497 44 487 54 487 109 L487 500 L322 500 L322 499 L333 498 C371 495 397 467 397 428 L396 428 L396 428 Z " />
<glyph glyph-name="Wcircumflex" unicode="&#x174;" horiz-adv-x="980" d="M545 879 C541 887 530 905 517 905 C502 905 492 888 488 880 C488 880 396 701 396 700 L405 692 C456 752 494 794 517 820 C558 774 628 692 628 692 L637 700 C637 700 593 780 545 879 L545 879 Z M488 851 L488 851 L488 851 Z M856 593 L677 -16 L702 -16 L886 594 C900 629 932 654 969 657 L981 658 L981 659 L771 659 L771 658 L809 656 C846 654 865 629 856 593 L856 593 Z M677 -16 L722 138 L529 669 L504 669 L297 -16 L322 -16 L480 506 L677 -16 L677 -16 Z M79 593 L297 -16 L340 128 L189 587 C177 626 193 655 232 657 L255 659 L255 660 L-5 660 L-5 659 C33 655 62 635 79 594 L79 593 L79 593 Z " />
<glyph glyph-name="Ycircumflex" unicode="&#x176;" horiz-adv-x="645" d="M654 659 L654 660 L450 660 L450 659 L471 658 C518 655 533 625 511 581 L358 333 L210 596 C194 631 207 655 243 657 L264 659 L264 660 L0 660 L0 659 C37 654 70 632 95 588 L95 588 L272 279 L272 72 C272 33 246 5 208 2 L197 1 L197 0 L447 0 L447 1 L436 2 C398 5 372 33 372 72 L372 315 C429 406 486 497 544 588 C572 632 609 654 653 658 L654 659 L654 659 Z M351 878 C347 886 336 904 322 904 C307 904 297 887 293 879 C293 879 201 700 201 699 L211 691 C262 751 300 793 323 819 C364 772 433 691 433 691 L443 699 C443 699 399 779 351 878 L351 878 Z M293 850 L293 850 L293 850 Z " />
<glyph glyph-name="Ydieresis" unicode="&#x178;" horiz-adv-x="645" d="M419 730 C452 730 474 752 474 785 C474 818 452 840 419 840 C386 840 364 818 364 785 C364 752 386 730 419 730 L419 730 Z M227 730 C260 730 282 752 282 785 C282 818 260 840 227 840 C194 840 172 818 172 785 C172 752 194 730 227 730 L227 730 Z M654 659 L654 660 L450 660 L450 659 L471 658 C518 655 533 625 511 581 L358 333 L210 596 C194 631 207 655 243 657 L264 659 L264 660 L0 660 L0 659 C37 654 70 632 95 588 L95 588 L272 279 L272 72 C272 33 246 5 208 2 L197 1 L197 0 L447 0 L447 1 L436 2 C398 5 372 33 372 72 L372 315 C429 406 486 497 544 588 C572 632 609 654 653 658 L654 659 L654 659 Z " />
<glyph glyph-name="Zacute" unicode="&#x179;" horiz-adv-x="593" d="M325 690 C325 690 407 776 438 816 C461 842 476 861 476 866 C476 877 440 904 425 904 C422 904 409 883 393 852 C362 812 314 698 314 698 L325 690 L325 690 Z M507 13 C515 59 526 121 534 168 C534 173 534 178 533 177 L514 117 C496 63 449 27 395 27 L167 27 L530 661 L96 661 L93 649 L93 649 C82 609 68 556 57 516 L58 516 L77 556 C100 604 147 636 195 636 L402 636 L40 1 L504 1 L507 13 L507 13 Z " />
<glyph glyph-name="zacute" unicode="&#x17a;" horiz-adv-x="484" d="M188 530 C188 530 271 616 302 656 C325 682 340 701 340 706 C340 717 304 744 288 744 C284 744 272 723 256 692 C225 652 178 538 178 538 L188 530 L188 530 Z M441 162 C441 167 441 172 440 171 L421 111 C403 57 356 21 302 21 L162 21 L434 501 L71 501 L68 491 L68 491 C60 461 49 420 41 390 L42 390 L50 404 C75 450 123 479 171 480 L318 481 L45 1 L412 1 C422 50 433 113 442 163 L441 162 L441 162 Z " />
<glyph glyph-name="Zdot" unicode="&#x17b;" horiz-adv-x="593" d="M325 730 C358 730 380 752 380 785 C380 818 358 840 325 840 C292 840 270 818 270 785 C270 752 292 730 325 730 L325 730 Z M507 13 C515 59 526 121 534 168 C534 173 534 178 533 177 L514 117 C496 63 449 27 395 27 L167 27 L530 661 L96 661 L93 649 L93 649 C82 609 68 556 57 516 L58 516 L77 556 C100 604 147 636 195 636 L402 636 L40 1 L504 1 L507 13 L507 13 Z " />
<glyph glyph-name="zdot" unicode="&#x17c;" horiz-adv-x="484" d="M265 570 C298 570 320 592 320 625 C320 658 298 680 265 680 C232 680 210 658 210 625 C210 592 232 570 265 570 L265 570 Z M441 162 C441 167 441 172 440 171 L421 111 C403 57 356 21 302 21 L162 21 L434 501 L71 501 L68 491 L68 491 C60 461 49 420 41 390 L42 390 L50 404 C75 450 123 479 171 480 L318 481 L45 1 L412 1 C422 50 433 113 442 163 L441 162 L441 162 Z " />
<glyph glyph-name="Zcaron" unicode="&#x17d;" horiz-adv-x="593" d="M436 928 C436 928 367 847 326 800 C303 826 265 868 214 928 L204 920 C204 919 296 740 296 740 C300 732 310 715 325 715 C339 715 350 733 354 741 C402 840 446 920 446 920 L436 928 L436 928 Z M296 768 L296 768 L296 768 Z M507 12 C515 58 526 120 534 167 C534 172 534 177 533 176 L514 116 C496 62 449 26 395 26 L167 26 L530 660 L96 660 L93 648 L93 648 C82 608 68 555 57 515 L58 515 L77 555 C100 603 147 635 195 635 L402 635 L40 0 L504 0 L507 12 L507 12 Z " />
<glyph glyph-name="zcaron" unicode="&#x17e;" horiz-adv-x="484" d="M376 768 C376 768 306 686 265 640 C242 666 204 708 153 768 L144 760 C144 759 236 580 236 580 C240 572 250 555 265 555 C278 555 289 573 293 581 C341 680 385 760 385 760 L376 768 L376 768 Z M441 162 C441 167 441 172 440 171 L421 111 C403 57 356 21 302 21 L162 21 L434 501 L71 501 L68 491 L68 491 C60 461 49 420 41 390 L42 390 L50 404 C75 450 123 479 171 480 L318 481 L45 1 L412 1 C422 50 433 113 442 163 L441 162 L441 162 Z M237 609 L237 609 L237 609 Z " />
<glyph glyph-name="oogonek" unicode="&#x1eb;" horiz-adv-x="699" d="M714 -52 L706 -45 C691 -63 636 -75 570 -75 C477 -75 409 -47 361 -5 C552 -1 650 127 650 276 C650 428 549 557 352 557 C155 557 53 428 53 276 C53 130 147 4 329 -6 C410 -85 491 -136 562 -136 C613 -136 675 -103 716 -54 L714 -52 L714 -52 Z M153 275 C153 415 221 534 353 534 C484 534 552 415 552 275 C552 135 484 16 353 16 C221 16 153 135 153 275 L153 275 Z " />
<glyph glyph-name="Adotabove" unicode="&#x226;" horiz-adv-x="679" d="M323 730 C356 730 378 752 378 785 C378 818 356 840 323 840 C290 840 268 818 268 785 C268 752 290 730 323 730 L323 730 Z M412 234 L481 61 C490 28 473 5 437 3 L396 1 L396 0 L674 0 L674 1 C636 5 607 23 587 65 L335 675 L310 675 L92 65 C76 30 42 5 5 2 L-7 1 L-7 0 L211 0 L211 1 L183 3 C136 5 115 37 130 83 L182 234 L412 234 L412 234 Z M401 259 L190 259 L288 543 L401 259 L401 259 Z " />
<glyph glyph-name="G_sc" unicode="&#x262;" horiz-adv-x="745" d="M494 188 L494 43 C448 27 398 18 355 18 C233 18 151 122 151 277 C151 432 233 536 355 536 C377 536 401 533 426 528 C494 514 549 457 563 386 C565 376 568 363 570 353 L571 353 L571 498 C509 534 423 558 356 558 C174 558 53 446 53 277 C53 108 174 -5 356 -5 C426 -5 514 19 576 55 L576 188 C576 227 602 255 640 258 L651 259 L651 260 L420 260 L420 259 L431 258 C469 255 495 227 495 188 L494 188 L494 188 Z " />
<glyph glyph-name="I_sc" unicode="&#x26a;" horiz-adv-x="325" d="M285 0 L285 1 L274 2 C236 5 210 33 210 72 L210 481 C210 520 236 548 274 551 L285 552 L285 553 L45 553 L45 552 L56 551 C94 548 120 520 120 481 L120 72 C120 33 94 5 56 2 L45 1 L45 0 L285 0 L285 0 Z " />
<glyph glyph-name="N_sc" unicode="&#x274;" horiz-adv-x="652" d="M510 481 L510 129 L196 553 L40 553 L40 552 L51 551 C89 548 115 520 115 481 L115 72 C115 33 89 5 51 2 L40 1 L40 0 L217 0 L217 1 L206 2 C168 5 142 33 142 72 L142 475 C264 311 387 147 509 -18 L537 -18 L537 481 C537 520 563 548 601 551 L612 552 L612 553 L435 553 L435 552 L446 551 C484 548 510 520 510 481 L510 481 Z M142 516 L142 516 L142 516 Z " />
<glyph glyph-name="R_sc" unicode="&#x280;" horiz-adv-x="604" d="M604 0 L604 18 C565 18 565 18 506 89 C432 178 376 245 353 272 C439 292 492 344 492 413 C492 498 410 554 287 554 L43 554 L43 553 L54 552 C92 549 118 521 118 482 L118 73 C118 34 92 6 54 3 L43 2 L43 1 L283 1 L283 2 L272 3 C234 6 208 34 208 73 L208 264 L252 264 C276 235 323 179 383 107 C468 5 476 1 570 1 L604 0 L604 0 Z M270 286 L207 287 L207 532 L286 532 C352 532 396 484 396 413 C396 337 346 286 270 286 L270 286 Z " />
<glyph glyph-name="Y_sc" unicode="&#x28f;" horiz-adv-x="575" d="M584 552 L584 553 L383 553 L383 552 L404 551 C451 548 466 517 441 472 L317 277 L200 490 C185 525 198 549 234 551 L255 553 L255 554 L3 554 L3 553 C40 548 73 526 99 482 L99 482 L243 237 L243 73 C243 34 217 6 179 3 L168 2 L168 1 L408 1 L408 2 L397 3 C359 6 333 34 333 73 L333 267 L333 267 L473 482 L474 482 C504 526 542 548 585 552 L584 552 L584 552 Z " />
<glyph glyph-name="B_sc" unicode="&#x299;" horiz-adv-x="562" d="M358 299 C438 317 487 362 487 423 C487 501 407 553 286 553 L42 553 L42 552 L53 551 C91 548 117 520 117 481 L117 72 C117 33 91 5 53 2 L42 1 L42 0 L307 0 C447 0 541 62 541 154 C541 230 470 285 358 300 L358 299 L358 299 Z M208 305 L208 532 L287 532 C354 532 398 489 398 424 C398 353 348 305 272 305 L208 305 L208 305 Z M208 286 L268 286 C375 286 447 234 447 155 C447 76 388 24 299 24 L208 24 L208 286 L208 286 Z " />
<glyph glyph-name="H_sc" unicode="&#x29c;" horiz-adv-x="721" d="M681 0 L681 1 L670 2 C632 5 606 33 606 72 L606 481 C606 520 632 548 670 551 L681 552 L681 553 L441 553 L441 552 L452 551 C490 548 516 520 516 481 L516 304 L208 304 L208 481 C208 520 234 548 272 551 L283 552 L283 553 L43 553 L43 552 L54 551 C92 548 118 520 118 481 L118 72 C118 33 92 5 54 2 L43 1 L43 0 L283 0 L283 1 L272 2 C234 5 208 33 208 72 L208 282 L516 282 L516 72 C516 33 490 5 452 2 L441 1 L441 0 L681 0 L681 0 Z " />
<glyph glyph-name="L_sc" unicode="&#x29f;" horiz-adv-x="573" d="M463 11 L463 11 C471 57 482 119 490 165 C490 170 490 175 489 174 L470 114 C452 60 405 24 351 24 L208 24 L208 482 C208 521 234 549 272 552 L283 553 L283 554 L43 554 L43 553 L54 552 C92 549 118 521 118 482 L118 73 C118 34 92 6 54 3 L43 2 L43 1 L461 1 L463 11 L463 11 Z " />
<glyph glyph-name="circumflex" unicode="&#x2c6;" horiz-adv-x="340" d="M199 719 C195 727 184 745 170 745 C155 745 145 728 141 720 C141 720 49 541 49 540 L59 532 C110 592 148 634 171 660 C212 613 281 532 281 532 L291 540 C291 540 247 620 199 719 L199 719 Z M141 691 L141 691 L141 691 Z " />
<glyph glyph-name="caron" unicode="&#x2c7;" horiz-adv-x="340" d="M281 768 C281 768 212 687 171 640 C148 666 110 708 59 768 L49 760 C49 759 141 580 141 580 C145 572 155 555 170 555 C184 555 195 573 199 581 C247 680 291 760 291 760 L281 768 L281 768 Z M141 608 L141 608 L141 608 Z " />
<glyph glyph-name="firsttonechinese" unicode="&#x2c9;" horiz-adv-x="340" d="M20 605 L320 605 L320 655 L20 655 L20 605 L20 605 Z " />
<glyph glyph-name="breve" unicode="&#x2d8;" horiz-adv-x="340" d="M44 711 C68 637 118 588 170 588 C222 588 272 637 296 711 L281 716 C268 675 223 648 170 648 C117 648 72 675 59 716 L44 711 L44 711 Z " />
<glyph glyph-name="dotaccent" unicode="&#x2d9;" horiz-adv-x="340" d="M170 570 C203 570 225 592 225 625 C225 658 203 680 170 680 C137 680 115 658 115 625 C115 592 137 570 170 570 L170 570 Z " />
<glyph glyph-name="ring" unicode="&#x2da;" horiz-adv-x="340" d="M100 628 C100 671 128 700 170 700 C212 700 240 671 240 628 C240 589 208 555 170 555 C132 555 100 589 100 628 L100 628 Z M75 628 C75 578 119 535 170 535 C221 535 265 578 265 628 C265 683 227 720 170 720 C113 720 75 683 75 628 L75 628 Z " />
<glyph glyph-name="A_sc" unicode="&#x1d00;" horiz-adv-x="608" d="M363 196 L418 62 C428 28 412 4 375 2 L334 0 L334 -1 L602 -1 L602 0 C565 4 535 21 515 62 L300 564 L277 564 L95 70 C80 32 45 3 6 0 L-6 -1 L-6 -2 L208 -2 L208 -1 L180 1 C133 3 113 36 128 82 L168 194 L363 196 L363 196 Z M353 216 L175 216 L258 447 L353 216 L353 216 Z " />
<glyph glyph-name="C_sc" unicode="&#x1d04;" horiz-adv-x="650" d="M407 21 L407 21 C393 19 379 18 365 18 C237 18 151 122 151 277 C151 432 237 536 365 536 C394 536 426 532 458 525 C520 508 569 454 582 387 C584 377 587 364 589 354 L590 354 L590 499 C528 535 438 559 365 559 C177 559 52 447 52 278 C52 109 177 -4 365 -4 C438 -4 528 20 590 56 L590 201 L589 201 C587 191 584 178 582 168 C566 91 496 32 407 22 L407 21 L407 21 Z " />
<glyph glyph-name="D_sc" unicode="&#x1d05;" horiz-adv-x="658" d="M312 0 C490 0 608 111 608 277 C608 443 479 553 286 553 L43 553 L43 552 L54 551 C92 548 118 520 118 481 L118 72 C118 33 92 5 54 2 L43 1 L43 0 L312 0 L312 0 Z M208 23 L208 531 L286 531 C425 531 518 429 518 277 C518 125 436 23 312 23 L208 23 L208 23 Z " />
<glyph glyph-name="E_sc" unicode="&#x1d07;" horiz-adv-x="573" d="M463 11 L463 11 C471 55 481 114 489 158 L488 158 L476 123 C455 63 401 23 341 23 L208 23 L208 284 L293 284 C344 284 383 255 390 212 L392 199 L393 199 L393 381 L392 381 L390 370 C383 332 344 306 293 306 L208 306 L208 531 L335 531 C395 531 442 491 452 431 L458 396 L459 396 L459 553 L43 553 L43 552 L54 551 C92 548 118 520 118 481 L118 72 C118 33 92 5 54 2 L43 1 L43 0 L461 0 L463 11 L463 11 Z " />
<glyph glyph-name="J_sc" unicode="&#x1d0a;" horiz-adv-x="354" d="M149 481 L149 168 C149 53 139 8 114 8 C97 8 82 25 76 50 C71 72 55 86 36 86 C9 86 -5 72 0 50 C9 14 46 -10 92 -10 C198 -10 239 61 239 243 L239 481 C239 520 265 548 303 551 L314 552 L314 553 L74 553 L74 552 L85 551 C123 548 149 520 149 481 L149 481 Z " />
<glyph glyph-name="K_sc" unicode="&#x1d0b;" horiz-adv-x="600" d="M590 -5 L590 13 C543 13 492 65 385 210 C339 272 302 321 283 346 L410 480 C447 519 498 547 537 550 L552 551 L552 552 L376 552 L376 551 L386 550 C419 547 420 524 392 490 L270 362 C269 363 269 363 269 363 C249 341 229 319 209 297 L209 480 C209 519 235 547 273 550 L284 551 L284 552 L44 552 L44 551 L55 550 C93 547 119 519 119 480 L119 71 C119 32 93 4 55 1 L44 0 L44 -1 L284 -1 L284 0 L273 1 C235 4 209 32 209 71 L209 267 L221 280 C239 256 276 207 323 143 C402 36 468 -6 559 -6 L590 -5 L590 -5 Z " />
<glyph glyph-name="M_sc" unicode="&#x1d0d;" horiz-adv-x="799" d="M217 3 C169 5 139 39 141 87 L157 445 C229 295 300 144 372 -6 L394 -6 L606 484 L622 71 C622 32 599 3 561 0 L550 -1 L550 -2 L790 -2 L790 -1 L779 0 C741 3 715 29 711 66 L689 480 C687 519 711 547 749 550 L760 550 L760 552 L645 552 L645 551 L604 551 L416 97 L415 100 L205 551 L60 551 L60 550 L71 549 C107 546 131 521 132 486 L113 70 C111 31 84 2 46 -1 L35 -2 L35 -3 L247 -3 L247 -2 L217 3 L217 3 Z " />
<glyph glyph-name="O_sc" unicode="&#x1d0f;" horiz-adv-x="699" d="M151 277 C151 417 219 536 351 536 C482 536 550 417 550 277 C550 137 482 18 351 18 C219 18 151 137 151 277 L151 277 Z M52 277 C52 125 154 -5 351 -5 C548 -5 649 125 649 277 C649 429 548 558 351 558 C154 558 52 429 52 277 L52 277 Z " />
<glyph glyph-name="P_sc" unicode="&#x1d18;" horiz-adv-x="529" d="M283 0 L283 1 L272 2 C234 5 208 33 208 72 L208 248 L277 248 C416 248 509 309 509 400 C509 492 423 553 294 553 L43 553 L43 552 L54 551 C92 548 118 520 118 481 L118 72 C118 33 92 5 54 2 L43 1 L43 0 L283 0 L283 0 Z M208 271 L208 531 L294 531 C366 531 414 479 414 400 C414 322 359 270 277 270 C277 270 229 271 208 271 L208 271 Z " />
<glyph glyph-name="T_sc" unicode="&#x1d1b;" horiz-adv-x="560" d="M543 542 L542 553 L18 553 L17 542 C13 494 7 429 3 381 L4 381 L22 451 C34 499 74 531 122 531 L235 531 L235 72 C235 33 209 5 171 2 L160 1 L160 0 L400 0 L400 1 L389 2 C351 5 325 33 325 72 L325 531 L438 531 C486 531 526 499 538 451 L556 381 L557 381 C553 429 547 494 543 542 L543 542 Z " />
<glyph glyph-name="U_sc" unicode="&#x1d1c;" horiz-adv-x="622" d="M108 481 L108 176 C108 67 167 -5 317 -5 C461 -5 517 57 517 150 L517 471 C517 516 546 548 589 551 L602 552 L602 553 L400 553 L400 552 L415 551 C460 548 490 516 490 471 L490 159 C490 79 445 26 330 26 C235 26 198 79 198 158 L198 481 C198 520 224 548 262 551 L273 552 L273 553 L33 553 L33 552 L44 551 C82 548 108 520 108 481 L108 481 Z " />
<glyph glyph-name="V_sc" unicode="&#x1d20;" horiz-adv-x="602" d="M89 481 L310 -15 L333 -15 L507 481 C521 520 556 548 595 551 L607 552 L607 553 L385 553 L385 552 L408 551 C464 548 489 509 471 454 L348 95 L184 486 C171 522 186 548 223 550 L255 552 L255 553 L-3 553 L-3 552 C37 548 68 526 89 482 L89 481 L89 481 Z " />
<glyph glyph-name="W_sc" unicode="&#x1d21;" horiz-adv-x="848" d="M81 481 L262 -15 L285 -15 L417 427 L580 -15 L602 -15 L753 488 C767 523 799 548 836 551 L848 552 L848 553 L641 553 L641 552 L679 550 C717 548 736 522 727 485 L618 112 L459 563 L436 563 L299 105 L176 487 C167 523 185 548 222 550 L245 552 L245 553 L-4 553 L-4 552 L6 551 C37 548 68 520 82 481 L81 481 L81 481 Z " />
<glyph glyph-name="Z_sc" unicode="&#x1d22;" horiz-adv-x="533" d="M449 11 L449 11 C457 57 468 119 476 165 C476 170 476 175 475 174 L456 114 C438 60 391 24 337 24 L158 24 L470 554 L101 554 L98 543 C88 504 73 451 63 412 L64 412 L83 452 C106 500 153 532 201 532 L354 532 L43 1 L447 1 L449 11 L449 11 Z " />
<glyph glyph-name="Wgrave" unicode="&#x1e80;" horiz-adv-x="980" d="M433 866 C433 860 449 841 472 816 C504 775 589 690 589 690 L599 698 C599 698 550 812 518 852 C502 883 490 904 485 904 C469 904 433 877 433 866 L433 866 Z M856 594 L677 -15 L702 -15 L886 595 C900 630 932 655 969 658 L981 659 L981 660 L771 660 L771 659 L809 657 C846 655 865 630 856 594 L856 594 Z M677 -15 L722 139 L529 670 L504 670 L297 -15 L322 -15 L480 507 L677 -15 L677 -15 Z M79 594 L297 -15 L340 129 L189 588 C177 627 193 656 232 658 L255 660 L255 661 L-5 661 L-5 660 C33 656 62 636 79 595 L79 594 L79 594 Z " />
<glyph glyph-name="Wacute" unicode="&#x1e82;" horiz-adv-x="980" d="M455 690 C455 690 538 776 569 816 C592 842 607 861 607 866 C607 877 571 904 555 904 C551 904 539 883 523 852 C492 812 445 698 445 698 L455 690 L455 690 Z M856 594 L677 -15 L702 -15 L886 595 C900 630 932 655 969 658 L981 659 L981 660 L771 660 L771 659 L809 657 C846 655 865 630 856 594 L856 594 Z M677 -15 L722 139 L529 670 L504 670 L297 -15 L322 -15 L480 507 L677 -15 L677 -15 Z M79 594 L297 -15 L340 129 L189 588 C177 627 193 656 232 658 L255 660 L255 661 L-5 661 L-5 660 C33 656 62 636 79 595 L79 594 L79 594 Z " />
<glyph glyph-name="Wdieresis" unicode="&#x1e84;" horiz-adv-x="980" d="M612 730 C645 730 667 752 667 785 C667 818 645 840 612 840 C579 840 557 818 557 785 C557 752 579 730 612 730 L612 730 Z M421 730 C454 730 476 752 476 785 C476 818 454 840 421 840 C388 840 366 818 366 785 C366 752 388 730 421 730 L421 730 Z M856 594 L677 -15 L702 -15 L886 595 C900 630 932 655 969 658 L981 659 L981 660 L771 660 L771 659 L809 657 C846 655 865 630 856 594 L856 594 Z M677 -15 L722 139 L529 670 L504 670 L297 -15 L322 -15 L480 507 L677 -15 L677 -15 Z M79 594 L297 -15 L340 129 L189 588 C177 627 193 656 232 658 L255 660 L255 661 L-5 661 L-5 660 C33 656 62 636 79 595 L79 594 L79 594 Z " />
<glyph glyph-name="Etilde" unicode="&#x1ebc;" horiz-adv-x="625" d="M167 755 C167 791 184 815 209 815 C261 815 330 753 382 753 C431 753 463 801 463 873 L448 873 C448 836 430 812 402 812 C350 812 280 875 228 875 C182 875 152 827 152 755 L167 755 L167 755 Z M516 12 L516 12 C523 56 534 116 542 160 L541 160 L529 125 C508 65 454 25 394 25 L215 25 L215 340 L345 340 C396 340 435 311 442 268 L444 255 L445 255 L445 440 L444 440 L442 429 C435 391 396 365 345 365 L215 365 L215 635 L388 635 C448 635 495 595 505 535 L511 500 L512 500 L512 660 L40 660 L40 659 L51 658 C89 655 115 627 115 588 L115 72 C115 33 89 5 51 2 L40 1 L40 0 L514 0 L516 12 L516 12 Z " />
<glyph glyph-name="Ygrave" unicode="&#x1ef2;" horiz-adv-x="645" d="M654 659 L654 660 L450 660 L450 659 L471 658 C518 655 533 625 511 581 L358 333 L210 596 C194 631 207 655 243 657 L264 659 L264 660 L0 660 L0 659 C37 654 70 632 95 588 L95 588 L272 279 L272 72 C272 33 246 5 208 2 L197 1 L197 0 L447 0 L447 1 L436 2 C398 5 372 33 372 72 L372 315 C429 406 486 497 544 588 C572 632 609 654 653 658 L654 659 L654 659 Z M239 865 C239 859 255 840 278 815 C310 775 394 689 394 689 L405 697 C405 697 355 810 323 851 C307 882 294 903 290 903 C275 903 239 876 239 865 L239 865 Z " />
<glyph glyph-name="quoteleft" unicode="&#x2018;" horiz-adv-x="251" d="M125 395 C164 395 190 421 190 460 C190 505 151 536 103 521 C97 579 129 633 173 654 L167 667 C97 633 50 562 50 489 C50 441 76 394 126 394 L125 395 L125 395 Z " />
<glyph glyph-name="quoteright" unicode="&#x2019;" horiz-adv-x="251" d="M125 665 C86 665 60 639 60 600 C60 555 99 524 147 539 C153 481 121 427 77 406 L83 393 C153 427 200 498 200 571 C200 619 174 666 124 666 L125 665 L125 665 Z " />
<glyph glyph-name="quotedblleft" unicode="&#x201c;" horiz-adv-x="442" d="M316 395 C355 395 381 421 381 460 C381 505 342 536 294 521 C288 579 320 633 364 654 L358 667 C288 633 241 562 241 489 C241 441 267 394 317 394 L316 395 L316 395 Z M126 394 C165 394 191 420 191 459 C191 504 152 535 104 520 C98 578 130 632 174 653 L168 666 C98 632 51 561 51 488 C51 440 77 393 127 393 L126 394 L126 394 Z " />
<glyph glyph-name="quotedblright" unicode="&#x201d;" horiz-adv-x="442" d="M316 665 C277 665 251 639 251 600 C251 555 290 524 338 539 C344 481 312 427 268 406 L274 393 C344 427 391 498 391 571 C391 619 365 666 315 666 L316 665 L316 665 Z M124 666 C85 666 59 640 59 601 C59 556 98 525 146 540 C152 482 120 428 76 407 L82 394 C152 428 199 499 199 572 C199 620 173 667 123 667 L124 666 L124 666 Z " />
<glyph glyph-name="ellipsis" unicode="&#x2026;" horiz-adv-x="570" d="M475 0 C514 0 540 26 540 65 C540 104 514 130 475 130 C436 130 410 104 410 65 C410 26 436 0 475 0 L475 0 Z M285 0 C324 0 350 26 350 65 C350 104 324 130 285 130 C246 130 220 104 220 65 C220 26 246 0 285 0 L285 0 Z M95 0 C134 0 160 26 160 65 C160 104 134 130 95 130 C56 130 30 104 30 65 C30 26 56 0 95 0 L95 0 Z " />
<glyph glyph-name="perthousand" unicode="&#x2030;" horiz-adv-x="1141" d="M914 197 C914 288 934 348 965 348 C1013 348 1045 273 1045 161 C1045 79 1021 24 986 24 C943 24 914 93 914 197 L914 197 Z M825 180 C825 69 886 -5 978 -5 C1069 -5 1129 74 1129 192 C1129 302 1069 375 978 375 C886 375 825 297 825 180 L825 180 Z M119 548 C119 638 139 698 170 698 C218 698 250 624 250 512 C250 430 226 375 191 375 C148 375 119 444 119 548 L119 548 Z M30 531 C30 419 91 345 183 345 C274 345 334 424 334 543 C334 652 274 725 183 725 C91 725 30 647 30 531 L30 531 Z M557 197 C557 288 581 348 616 348 C670 348 706 273 706 161 C706 79 678 24 636 24 C589 24 557 93 557 197 L557 197 Z M469 180 C469 69 533 -5 628 -5 C725 -5 790 73 790 191 C790 301 725 375 628 375 C533 375 469 297 469 180 L469 180 Z M202 -13 L667 707 L628 733 L163 13 L202 -13 L202 -13 Z " />
<glyph glyph-name="guilsinglleft" unicode="&#x2039;" horiz-adv-x="297" d="M111 251 L249 456 L240 465 L20 256 L20 246 L242 37 L252 47 L111 251 L111 251 Z " />
<glyph glyph-name="guilsinglright" unicode="&#x203a;" horiz-adv-x="297" d="M55 37 L277 246 L277 256 L57 465 L48 456 L186 251 L45 47 L55 37 L55 37 Z " />
<glyph glyph-name="fraction" unicode="&#x2044;" horiz-adv-x="487" d="M50 -13 L515 707 L475 733 L10 13 L50 -13 L50 -13 Z " />
<glyph glyph-name="Euro" unicode="&#x20ac;" horiz-adv-x="758" d="M690 169 C675 95 606 37 518 25 C494 22 470 20 447 20 C328 20 242 105 216 241 L487 241 L496 305 L209 305 C208 321 208 338 209 354 L496 354 L505 418 L216 418 C242 554 328 639 447 639 C484 639 523 634 560 626 C624 611 675 558 689 490 C691 480 694 467 696 457 L697 457 L697 605 C636 640 536 664 447 664 C271 664 144 569 109 418 L58 418 L49 354 L100 354 C99 338 99 321 100 305 L49 305 L40 241 L109 241 C144 90 271 -5 447 -5 C536 -5 636 19 697 54 L690 66 L690 66 L696 54 L696 202 L695 202 C693 192 690 179 688 169 L690 169 L690 169 Z " />
<glyph glyph-name="F_sc" unicode="&#xa730;" horiz-adv-x="488" d="M489 553 L43 553 L43 552 L54 551 C92 548 118 520 118 481 L118 72 C118 33 92 5 54 2 L43 1 L43 0 L293 0 L293 1 L273 3 C234 5 208 33 208 72 L208 280 L283 280 C334 280 373 251 380 208 L382 195 L383 195 L383 377 L382 377 L380 366 C373 328 334 302 283 302 L208 302 L208 531 L365 531 C425 531 472 491 482 431 L488 396 L489 396 L489 553 L489 553 Z " />
<glyph glyph-name="S_sc" unicode="&#xa731;" horiz-adv-x="449" d="M273 521 C312 504 342 467 351 426 C355 406 361 378 365 358 L366 358 L366 510 C316 539 259 558 224 558 C117 558 46 492 46 392 C46 330 102 271 187 244 C279 215 341 163 341 115 C341 57 294 18 223 18 C208 18 191 20 173 24 C112 41 64 94 50 162 C48 172 45 185 43 195 L42 195 L42 43 C92 14 164 -5 223 -5 C332 -5 405 58 405 152 C405 218 344 281 253 310 C167 337 109 384 109 428 C109 493 153 536 220 536 C232 536 251 531 274 522 L273 521 L273 521 Z " />
<glyph glyph-name="X_sc" unicode="&#xf078;" horiz-adv-x="596" d="M486 72 L485 72 C432 155 378 239 326 322 L429 481 L430 481 C456 520 498 548 537 551 L550 552 L550 553 L336 553 L336 552 L377 550 C413 548 424 524 407 490 L314 340 L218 492 C201 525 213 548 248 550 L279 552 L279 553 L22 553 L22 552 C59 548 90 528 118 487 L261 263 L260 263 L142 72 L141 72 C117 33 75 5 36 2 L23 1 L23 0 L235 0 L235 1 L209 3 C164 5 150 36 173 80 L272 246 L382 73 C406 34 398 6 359 4 L328 2 L328 1 L584 1 L584 2 C546 6 513 29 485 73 L486 72 L486 72 Z " />
</font>
</svg>
