<?xml version="1.0" encoding="UTF-8"?>
<svg xmlns="http://www.w3.org/2000/svg" xmlns:xlink="http://www.w3.org/1999/xlink" version="1.2" >
<font id="Warick Light">
<font-face  font-family="Warick" units-per-em="1024" ascent="975" descent="-300" font-style="normal" font-weight="300" font-stretch="normal" cap-height="1042" x-height="488" underline-position="-125" underline-thickness="50" />
<missing-glyph  horiz-adv-x="100" d="" />
<glyph glyph-name="NULL" d="" />
<glyph glyph-name="CR" unicode="&#xd;" horiz-adv-x="256" d="" />
<glyph glyph-name="space" unicode="&#x20;" horiz-adv-x="207" d="" />
<glyph glyph-name="exclam" unicode="&#x21;" horiz-adv-x="201" d="M136 30 C136 77 66 77 66 30 C66 -16 136 -16 136 30 L136 30 Z M101 755 C77 755 67 721 70 671 L96 210 L105 210 L131 671 C134 721 124 755 101 755 L101 755 Z " />
<glyph glyph-name="quotedbl" unicode="&#x22;" horiz-adv-x="290" d="M216 750 C204 750 198 732 201 705 L219 560 L225 560 L243 705 C246 732 240 750 228 750 L216 750 L216 750 Z M96 750 C84 750 78 732 81 705 L99 560 L105 560 L123 705 C126 732 120 750 108 750 L96 750 L96 750 Z " />
<glyph glyph-name="numbersign" unicode="&#x23;" horiz-adv-x="482" d="M359 681 L330 479 L197 479 L226 681 L221 681 L192 479 L64 479 L58 441 L187 441 L155 219 L25 219 L19 181 L150 181 L124 0 L129 0 L155 181 L288 181 L262 0 L267 0 L293 181 L412 181 L417 219 L298 219 L330 441 L457 441 L462 479 L335 479 L364 681 L359 681 L359 681 Z M192 441 L325 441 L293 219 L160 219 L192 441 L192 441 Z " />
<glyph glyph-name="dollar" unicode="&#x24;" horiz-adv-x="512" d="M53 193 L53 44 L61 44 L65 60 C69 75 100 66 144 37 C163 23 183 12 205 2 L206 3 C207 3 208 3 209 3 L209 -75 L226 -75 L226 -3 C247 -9 267 -11 289 -10 L289 -75 L306 -75 L306 -9 C407 1 472 75 472 183 C472 266 415 349 306 402 L306 737 C347 714 385 671 408 618 L417 596 L429 596 L429 709 L421 709 L417 701 C414 696 385 707 345 730 C345 730 310 747 306 749 L306 824 L289 824 L289 755 C282 757 275 759 268 760 L268 756 C255 758 242 759 228 758 L228 823 L211 823 L211 756 C128 745 75 675 75 574 C75 502 121 429 211 372 L211 9 C156 33 105 96 76 168 L67 191 L53 193 L53 193 Z M291 744 L291 409 C268 420 247 432 228 444 L228 753 C250 754 273 750 291 743 L291 744 L291 744 Z M228 361 C248 350 271 340 291 329 L291 -7 C269 -8 249 -5 228 2 L228 361 L228 361 Z M308 319 C386 272 427 215 427 162 C427 70 380 6 308 -6 L308 319 L308 319 Z M211 456 C151 500 120 549 120 595 C120 679 156 738 211 751 L211 456 L211 456 Z " />
<glyph glyph-name="ampersand" unicode="&#x26;" horiz-adv-x="287" d="M311 471 L316 466 C407 494 468 553 468 613 C468 701 407 760 315 760 C218 760 153 697 153 603 C153 568 207 501 289 404 C289 404 368 315 505 153 C431 79 351 37 274 37 C170 37 101 109 101 217 C101 322 163 411 256 439 L247 442 C128 406 49 310 49 202 C49 75 127 -9 245 -9 C336 -9 431 45 517 139 C528 126 539 113 550 99 C605 34 665 -10 700 -10 C767 -10 819 53 831 148 L822 151 C813 79 773 31 721 31 C692 31 641 69 594 125 C579 143 564 161 550 178 C617 263 677 373 723 501 L711 501 C666 376 606 270 539 191 C408 346 332 431 332 431 C250 528 196 595 196 631 C196 702 243 749 314 749 C381 749 426 696 426 617 C426 551 380 493 310 472 L311 471 L311 471 Z " />
<glyph glyph-name="quotesingle" unicode="&#x27;" horiz-adv-x="188" d="M96 750 C84 750 78 732 81 705 L99 560 L105 560 L123 705 C126 732 120 750 108 750 L96 750 L96 750 Z " />
<glyph glyph-name="parenleft" unicode="&#x28;" horiz-adv-x="354" d="M320 760 C188 671 100 476 100 273 C100 77 185 -118 313 -214 L316 -209 C207 -127 135 66 135 273 C135 486 210 678 323 754 L320 760 L320 760 Z " />
<glyph glyph-name="parenright" unicode="&#x29;" horiz-adv-x="354" d="M27 754 C161 667 250 475 250 273 C250 68 164 -125 34 -209 L37 -214 C186 -117 285 77 285 273 C285 466 183 661 30 760 L27 754 L27 754 Z " />
<glyph glyph-name="asterisk" unicode="&#x2a;" horiz-adv-x="268" d="M263 675 L263 675 L263 675 Z M246 556 C267 542 283 571 261 582 C261 582 251 564 247 556 L246 556 L246 556 Z M263 675 C283 686 269 715 248 701 L248 702 L152 629 L247 557 L262 583 L153 629 L263 676 L264 676 L263 675 L263 675 Z M152 630 L41 583 C19 572 34 542 55 556 L55 557 C50 565 40 583 40 583 L55 557 L150 629 L135 511 C133 486 167 486 165 511 L150 629 L152 630 L152 630 Z M54 704 L39 678 C43 686 54 704 54 704 L54 704 Z M54 704 C33 718 18 687 39 676 L39 677 L150 630 L54 704 L54 704 Z M150 630 L165 750 C167 775 133 775 135 750 L150 630 L150 630 Z " />
<glyph glyph-name="plus" unicode="&#x2b;" horiz-adv-x="586" d="M274 443 L274 268 L100 268 L100 232 L274 232 L274 57 L312 57 L312 232 L486 232 L486 268 L312 268 L312 443 L274 443 L274 443 Z " />
<glyph glyph-name="comma" unicode="&#x2c;" horiz-adv-x="258" d="M174 43 C196 -43 147 -109 65 -109 L65 -112 C139 -112 188 -64 188 9 C188 51 177 84 159 101 C150 110 139 115 125 115 C89 115 65 91 65 55 C65 19 89 -5 125 -5 C152 -5 171 14 175 43 L174 43 L174 43 Z " />
<glyph glyph-name="hyphen" unicode="&#x2d;" horiz-adv-x="396" d="M80 264 L316 264 L316 306 L80 306 L80 264 L80 264 Z " />
<glyph glyph-name="period" unicode="&#x2e;" horiz-adv-x="195" d="M160 30 C160 77 90 77 90 30 C90 -16 160 -16 160 30 L160 30 Z " />
<glyph glyph-name="slash" unicode="&#x2f;" horiz-adv-x="379" d="M319 770 L37 -80 L67 -80 L349 770 L319 770 L319 770 Z " />
<glyph glyph-name="zero" unicode="0" horiz-adv-x="606" d="M73 250 C73 379 166 489 305 489 C430 489 537 393 537 250 C537 121 444 11 305 11 C180 11 73 107 73 250 L73 250 Z M49 250 C49 94 167 -10 305 -10 C459 -10 561 110 561 250 C561 406 443 510 305 510 C151 510 49 390 49 250 L49 250 Z " />
<glyph glyph-name="one" unicode="1" horiz-adv-x="196" d="M165 7 L158 8 C137 10 123 37 123 76 L123 424 C123 463 137 490 158 492 L165 493 L165 500 L31 500 L31 493 L38 492 C59 490 73 463 73 424 L73 76 C73 37 59 10 38 8 L31 7 L31 0 L165 0 L165 7 L165 7 Z " />
<glyph glyph-name="two" unicode="2" horiz-adv-x="493" d="M328 44 L112 44 C271 134 394 237 394 342 C394 442 333 509 242 509 C150 509 71 423 46 293 L57 290 C78 399 142 471 217 471 C293 471 344 415 344 330 C344 221 236 124 96 43 C75 43 70 36 54 20 C44 15 34 10 24 5 L29 1 C27 0 25 0 23 0 L391 0 L417 40 C423 48 429 56 434 63 L433 63 C431 64 431 65 431 65 C417 51 384 43 330 43 L328 44 L328 44 Z " />
<glyph glyph-name="three" unicode="3" horiz-adv-x="374" d="M93 166 L93 156 L93 156 L93 156 C206 140 282 71 282 -17 C282 -123 176 -205 18 -222 L20 -232 C208 -212 334 -120 334 -2 C334 97 253 164 128 171 C255 230 338 302 338 384 C338 460 281 510 195 510 C113 510 44 446 22 351 L33 348 C51 424 107 475 175 475 C241 475 285 432 285 367 C285 280 203 213 93 166 L93 166 Z " />
<glyph glyph-name="four" unicode="4" horiz-adv-x="555" d="M519 -12 L528 -12 C530 -3 532 10 533 19 L532 19 C533 32 536 50 538 63 C529 65 529 66 525 61 C516 47 487 38 452 38 L380 38 L380 530 L374 530 L14 9 L14 0 L330 0 L330 -220 L380 -220 L380 0 L448 0 C486 0 510 -4 518 -12 L519 -12 L519 -12 Z M330 437 L330 38 L58 38 L330 437 L330 437 Z " />
<glyph glyph-name="five" unicode="5" horiz-adv-x="394" d="M233 500 L102 500 L56 223 L65 215 L88 215 C227 215 320 141 320 30 C320 -103 216 -204 59 -223 L60 -232 C242 -210 364 -98 364 47 C364 180 256 268 93 268 L81 268 L111 455 L306 457 L310 478 C312 488 315 502 317 512 L308 512 C299 503 270 500 233 500 L233 500 Z " />
<glyph glyph-name="six" unicode="6" horiz-adv-x="533" d="M516 750 C242 692 59 507 59 287 C59 109 146 -10 277 -10 C399 -10 481 90 481 239 C481 372 395 461 267 461 C201 461 149 429 121 376 C165 559 313 700 518 743 L516 750 L516 750 Z M108 260 C108 378 171 457 265 457 C365 457 431 371 431 242 C431 93 369 -6 276 -6 C175 -6 108 100 108 260 L108 260 Z " />
<glyph glyph-name="seven" unicode="7" horiz-adv-x="405" d="M146 459 L382 459 L390 471 L112 -220 L151 -220 L400 485 L400 500 L162 500 C123 500 98 501 91 504 L82 504 C82 503 80 501 80 500 C76 493 72 485 69 479 L71 479 L63 459 C63 459 56 445 56 444 C61 444 65 442 65 442 C76 453 105 459 145 459 L146 459 L146 459 Z " />
<glyph glyph-name="eight" unicode="8" horiz-adv-x="509" d="M217 386 C224 382 232 378 240 375 C354 325 430 276 430 197 C430 75 361 -7 258 -7 C158 -7 91 65 91 174 C91 267 141 349 217 386 L217 386 Z M212 388 C112 344 47 260 47 174 C47 64 131 -10 258 -10 C385 -10 469 65 469 177 C469 296 397 357 287 409 C381 450 442 523 442 597 C442 695 368 760 257 760 C147 760 73 689 73 583 C73 502 128 433 213 388 L212 388 L212 388 Z M285 410 C277 414 269 418 261 422 C172 461 113 526 113 603 C113 697 171 759 259 759 C344 759 400 693 400 594 C400 516 355 445 285 411 L285 410 L285 410 Z " />
<glyph glyph-name="nine" unicode="9" horiz-adv-x="533" d="M17 -250 C291 -192 474 -7 474 213 C474 391 387 510 256 510 C134 510 52 410 52 261 C52 128 138 39 266 39 C332 39 384 71 412 124 C368 -59 220 -200 15 -243 L17 -250 L17 -250 Z M425 240 C425 122 362 43 268 43 C168 43 102 129 102 258 C102 407 164 506 257 506 C358 506 425 400 425 240 L425 240 Z " />
<glyph glyph-name="colon" unicode="&#x3a;" horiz-adv-x="135" d="M160 420 C160 467 90 467 90 420 C90 374 160 374 160 420 L160 420 Z M160 30 C160 77 90 77 90 30 C90 -16 160 -16 160 30 L160 30 Z " />
<glyph glyph-name="semicolon" unicode="&#x3b;" horiz-adv-x="258" d="M160 420 C160 467 90 467 90 420 C90 374 160 374 160 420 L160 420 Z M174 43 C196 -43 147 -109 65 -109 L65 -112 C139 -112 188 -64 188 9 C188 51 177 84 159 101 C150 110 139 115 125 115 C89 115 65 91 65 55 C65 19 89 -5 125 -5 C152 -5 171 14 175 43 L174 43 L174 43 Z " />
<glyph glyph-name="equal" unicode="&#x3d;" horiz-adv-x="494" d="M78 211 L78 189 L424 189 L424 211 L78 211 L78 211 Z M78 311 L78 289 L424 289 L424 311 L78 311 L78 311 Z " />
<glyph glyph-name="question" unicode="&#x3f;" horiz-adv-x="305" d="M160 30 C160 77 90 77 90 30 C90 -16 160 -16 160 30 L160 30 Z M121 175 C121 175 123 359 125 360 C209 360 243 397 281 453 C298 478 309 518 309 553 C309 677 243 760 145 760 C117 760 98 745 98 723 C98 708 109 698 125 698 C136 698 152 707 163 707 C242 707 295 643 295 547 C295 527 285 498 270 476 C243 436 214 410 108 410 C111 411 113 175 113 175 L121 175 L121 175 Z " />
<glyph glyph-name="at" unicode="&#x40;" horiz-adv-x="1088" d="M992 0 C925 -144 748 -240 549 -240 C276 -240 94 -40 94 259 C94 558 274 757 544 757 C814 757 994 591 994 343 C994 140 919 4 806 4 C690 4 633 82 662 200 L732 480 L684 480 L661 387 C651 450 608 490 548 490 C390 490 285 373 285 197 C285 87 348 13 443 13 C511 13 572 60 606 135 C610 44 680 -13 796 -13 C938 -13 1032 129 1032 343 C1032 599 836 770 543 770 C250 770 54 566 54 259 C54 -45 256 -248 559 -248 C759 -248 939 -149 1008 0 L992 0 L992 0 Z M652 356 L613 200 C589 105 531 41 468 41 C390 41 338 107 338 207 C338 368 421 476 546 476 C610 476 652 428 652 356 L652 356 Z " />
<glyph glyph-name="A" unicode="A" horiz-adv-x="582" d="M164 9 L150 10 C107 13 90 58 107 124 L155 296 L388 296 L437 116 C450 55 432 14 390 11 L376 10 L376 1 L579 1 L579 10 L571 11 C545 14 515 58 496 123 L326 734 C326 734 318 772 315 772 L310 772 C313 753 296 738 267 734 L270 724 L103 131 C84 62 39 14 -8 11 L-22 10 L-22 1 L163 1 L164 9 L164 9 Z M155 300 L272 717 L387 300 L155 300 L155 300 Z " />
<glyph glyph-name="B" unicode="B" horiz-adv-x="539" d="M286 1 L236 1 C197 1 171 41 171 101 L171 385 L306 385 C383 385 434 309 434 194 C434 38 375 1 286 1 L286 1 Z M70 741 L77 740 C98 737 112 710 112 671 L112 79 C112 40 98 13 77 10 L70 9 L70 0 L291 0 C416 0 499 37 499 194 C499 311 425 388 314 388 C417 403 483 472 483 569 C483 678 437 750 241 750 L70 750 L70 741 L70 741 Z M269 388 L171 388 L171 747 L235 747 C389 747 425 673 425 563 C425 458 363 388 269 388 L269 388 Z " />
<glyph glyph-name="C" unicode="C" horiz-adv-x="663" d="M466 745 C437 755 404 760 365 760 C183 760 62 606 62 375 C62 144 179 -10 355 -10 C395 -10 431 -4 463 7 C464 5 516 31 520 34 C567 62 602 73 607 59 L611 46 L619 46 L619 171 L607 171 L598 152 C569 94 513 40 460 16 C429 2 395 -6 358 -6 C220 -6 128 146 128 375 C128 604 224 756 368 756 C404 756 435 749 463 736 C513 713 567 658 597 598 L606 579 L618 579 L618 701 L610 701 L606 689 C602 677 568 689 523 718 C522 717 468 748 467 745 L466 745 L466 745 Z M611 622 L611 622 L611 622 L611 622 Z M611 128 L611 128 L611 128 L611 128 Z " />
<glyph glyph-name="D" unicode="D" horiz-adv-x="724" d="M233 3 C177 3 171 39 171 94 L171 747 L258 747 C487 747 605 598 605 375 C605 129 456 3 233 3 L233 3 Z M70 743 L77 742 C98 740 112 713 112 674 L112 76 C112 37 98 10 77 8 L70 7 L70 0 L237 0 C496 0 669 128 669 375 C669 600 533 750 270 750 L70 750 L70 743 L70 743 Z " />
<glyph glyph-name="E" unicode="E" horiz-adv-x="522" d="M387 293 L387 481 L378 481 L374 467 C360 420 313 389 256 389 L171 389 L171 747 L316 747 C373 747 424 716 444 669 L450 655 L459 655 C455 683 450 721 447 749 L447 750 L50 750 L50 743 L60 742 C91 740 112 705 112 654 L112 96 C112 45 91 10 60 8 L50 7 L50 0 L472 0 L472 1 L473 1 C478 26 484 60 488 85 L479 85 L473 72 C452 31 390 3 318 3 L265 3 C180 3 171 39 171 94 L171 385 L256 385 C313 385 360 354 374 307 L378 293 L387 293 L387 293 Z " />
<glyph glyph-name="F" unicode="F" horiz-adv-x="497" d="M377 293 L377 481 L368 481 L364 467 C350 420 303 389 246 389 L171 389 L171 747 L316 747 C373 747 424 716 444 669 L450 655 L459 655 C455 683 450 721 447 749 L447 750 L50 750 L50 743 L60 742 C91 740 112 705 112 654 L112 96 C112 45 91 10 60 8 L50 7 L50 0 L233 0 L233 7 L223 8 C192 10 171 45 171 96 L171 385 L246 385 C303 385 350 354 364 307 L368 293 L377 293 L377 293 Z " />
<glyph glyph-name="G" unicode="G" horiz-adv-x="696" d="M617 579 L617 701 L609 701 L605 689 C601 677 567 689 522 718 C521 717 467 748 466 745 C437 755 404 760 365 760 C183 760 62 606 62 375 C62 144 182 -10 362 -10 C438 -10 504 1 565 20 L598 28 L598 31 C624 40 649 50 674 61 L673 64 C649 53 625 43 599 34 L599 210 C599 270 617 311 643 314 L651 315 L651 324 L488 324 L488 315 L496 314 C522 311 540 270 540 210 C540 162 540 108 540 69 C534 33 479 8 397 3 C420 4 448 6 473 8 C441 4 407 2 370 2 C224 2 126 151 126 375 C126 604 222 756 366 756 C402 756 433 749 461 736 C511 713 565 658 595 598 L604 579 L617 579 L617 579 Z M609 622 L609 622 L609 622 L609 622 Z M396 3 C387 3 378 3 369 3 C377 3 386 3 396 3 L396 3 Z " />
<glyph glyph-name="H" unicode="H" horiz-adv-x="692" d="M633 7 L626 8 C605 10 591 37 591 76 L591 674 C591 713 605 740 626 742 L633 743 L633 750 L491 750 L491 743 L498 742 C519 740 533 713 533 674 L533 387 L207 387 L207 674 C207 713 221 740 242 742 L249 743 L249 750 L106 750 L106 743 L113 742 C134 740 148 713 148 674 L148 76 C148 37 134 10 113 8 L106 7 L106 0 L249 0 L249 7 L242 8 C221 10 207 37 207 76 L207 383 L533 383 L533 76 C533 37 519 10 498 8 L491 7 L491 0 L633 0 L633 7 L633 7 Z " />
<glyph glyph-name="I" unicode="I" horiz-adv-x="277" d="M218 7 L211 8 C190 10 176 37 176 76 L176 674 C176 713 190 740 211 742 L218 743 L218 750 L75 750 L75 743 L82 742 C103 740 117 713 117 674 L117 76 C117 37 103 10 82 8 L75 7 L75 0 L218 0 L218 7 L218 7 Z " />
<glyph glyph-name="J" unicode="J" horiz-adv-x="277" d="M218 750 L75 750 L75 743 L82 742 C103 740 117 713 117 674 L117 -34 C117 -185 51 -214 4 -214 C-25 -214 -11 -167 -40 -167 C-56 -167 -67 -177 -67 -193 C-67 -209 -40 -220 0 -220 C74 -220 176 -172 176 78 L176 674 C176 713 190 740 211 742 L218 743 L218 750 L218 750 Z " />
<glyph glyph-name="K" unicode="K" horiz-adv-x="586" d="M213 750 L70 750 L70 743 L77 742 C98 740 112 713 112 674 L112 76 C112 37 98 10 77 8 L70 7 L70 0 L213 0 L213 7 L206 8 C185 10 171 37 171 76 L171 375 L471 0 L581 0 L581 7 C552 11 524 29 491 69 L215 414 L401 663 C437 709 481 740 513 742 L523 743 L523 750 L333 750 L333 743 L349 742 C401 740 403 693 353 624 L354 624 L173 375 L173 674 C173 713 187 740 208 742 L215 743 L213 750 L213 750 Z " />
<glyph glyph-name="L" unicode="L" horiz-adv-x="499" d="M218 750 L75 750 L75 743 L82 742 C103 740 117 713 117 674 L117 76 C117 37 103 10 82 8 L75 7 L75 0 L468 0 L468 5 C472 31 478 66 483 92 L474 92 L468 79 C447 38 385 10 313 10 L270 10 C185 10 176 44 176 94 L176 674 C176 713 190 740 211 742 L218 743 L218 750 L218 750 Z " />
<glyph glyph-name="M" unicode="M" horiz-adv-x="733" d="M699 750 L601 750 L391 78 L162 750 L52 750 L52 743 C77 739 95 726 112 692 L94 76 C93 37 78 9 57 7 L51 6 L51 -1 L155 -1 L155 6 L148 7 C127 9 115 37 115 75 L127 654 C207 436 287 217 368 -1 L383 -1 L384 4 L604 689 L620 73 C620 36 607 10 587 8 L580 7 L580 0 L721 0 L721 7 L715 8 C694 10 679 38 678 77 L660 683 C661 718 674 741 694 743 L701 744 L699 750 L699 750 Z " />
<glyph glyph-name="N" unicode="N" horiz-adv-x="636" d="M16 743 C45 739 71 720 98 678 L97 77 C97 38 83 11 62 9 L55 8 L55 1 L157 1 L157 8 L150 9 C129 11 115 39 115 78 L113 655 C248 437 383 219 518 1 L530 1 L534 675 C535 713 548 741 569 743 L575 744 L575 751 L475 751 L475 744 L482 743 C503 741 517 714 517 675 L518 113 L125 751 L15 751 L16 743 L16 743 Z M518 113 L518 113 L518 113 Z " />
<glyph glyph-name="O" unicode="O" horiz-adv-x="763" d="M125 375 C125 604 227 756 379 756 C538 756 644 604 644 375 C644 146 534 -6 370 -6 C223 -6 125 146 125 375 L125 375 Z M61 375 C61 144 185 -10 370 -10 C573 -10 708 144 708 375 C708 606 577 760 380 760 C189 760 61 606 61 375 L61 375 Z " />
<glyph glyph-name="P" unicode="P" horiz-adv-x="480" d="M227 7 L220 8 C199 10 185 37 185 76 L185 353 L226 353 C366 353 460 411 460 541 C460 666 383 750 268 750 L85 750 L85 743 L92 742 C113 740 127 713 127 674 L127 76 C127 37 113 10 92 8 L85 7 L85 0 L227 0 L227 7 L227 7 Z M185 365 L185 740 L253 740 C344 740 405 664 405 550 C405 422 333 365 226 365 L185 365 L185 365 Z " />
<glyph glyph-name="Q" unicode="Q" horiz-adv-x="758" d="M1015 -52 L1014 -51 C985 -76 875 -92 741 -92 C565 -92 401 -58 329 -7 C342 -9 356 -10 370 -10 C573 -10 708 144 708 375 C708 606 577 760 380 760 C189 760 61 606 61 375 C61 185 145 47 277 4 C384 -78 568 -132 736 -132 C848 -132 960 -100 1016 -53 L1015 -52 L1015 -52 Z M126 374 C126 603 228 755 380 755 C539 755 645 603 645 374 C645 144 534 -9 367 -9 C222 -9 126 144 126 374 L126 374 Z " />
<glyph glyph-name="R" unicode="R" horiz-adv-x="590" d="M70 743 L77 742 C98 740 112 713 112 674 L112 76 C112 37 98 10 77 8 L70 7 L70 0 L213 0 L213 7 L206 8 C185 10 171 37 171 76 L171 365 L273 365 C285 331 336 219 408 72 C442 3 448 0 580 0 L580 7 C511 7 507 10 477 72 C404 222 351 332 333 369 C425 384 483 438 483 540 C483 666 401 750 277 750 L70 750 L70 743 L70 743 Z M171 380 L171 738 L259 738 C354 738 418 664 418 552 C418 433 362 380 277 380 L171 380 L171 380 Z " />
<glyph glyph-name="S" unicode="S" horiz-adv-x="512" d="M267 762 L267 758 C150 775 74 698 74 576 C74 490 139 403 265 344 C371 294 426 227 426 165 C426 63 369 -5 283 -5 C255 -5 227 2 200 15 C152 41 103 101 75 169 L66 192 L54 192 L54 43 L62 43 L66 59 C70 74 101 65 145 36 C164 22 184 11 206 1 L207 2 C232 -7 258 -12 284 -12 C398 -12 474 65 474 181 C474 266 415 351 301 404 C182 460 120 531 120 596 C120 711 183 775 282 747 C333 731 383 681 411 617 L420 595 L432 595 L432 708 L424 708 L420 700 C417 695 388 707 348 729 C325 742 297 755 270 760 L267 762 L267 762 Z " />
<glyph glyph-name="T" unicode="T" horiz-adv-x="740" d="M686 750 L683 750 C683 751 683 752 683 753 L676 753 C654 749 604 751 536 751 L203 751 C134 751 85 749 63 753 L56 753 C55 750 53 746 52 743 L56 743 L56 742 C45 715 31 680 20 654 L29 654 L38 667 C68 708 128 736 188 736 L342 736 L342 77 C342 38 328 11 307 9 L300 8 L300 1 L443 1 L443 8 L436 9 C415 11 401 38 401 77 L401 736 L548 736 C608 736 668 708 699 667 L708 654 L717 654 C708 678 695 710 684 736 L687 736 L686 750 L686 750 Z " />
<glyph glyph-name="U" unicode="U" horiz-adv-x="568" d="M539 28 L532 27 C511 24 497 47 497 86 L497 750 L468 750 L468 752 L397 752 L397 745 L404 744 C425 742 439 715 439 676 L439 169 C400 84 313 28 222 28 C170 28 136 102 136 213 L136 750 L107 750 L107 752 L35 752 L35 745 L42 744 C63 742 77 715 77 676 L77 213 C77 79 126 -10 199 -10 C300 -10 396 51 439 143 L439 0 L468 0 L497 8 L497 9 C512 13 527 17 539 21 L539 28 L539 28 Z " />
<glyph glyph-name="V" unicode="V" horiz-adv-x="658" d="M610 750 L436 750 L436 741 L452 740 C504 737 522 689 500 620 L291 -11 L303 -11 L527 633 C550 695 580 736 603 739 L610 740 L610 750 L610 750 Z M199 749 L12 749 L12 740 L17 739 C32 736 55 697 76 639 C147 422 219 206 290 -11 L321 84 L148 620 C127 688 141 736 185 739 L198 740 L199 749 L199 749 Z " />
<glyph glyph-name="W" unicode="W" horiz-adv-x="907" d="M895 750 L721 750 L721 741 L736 740 C784 737 807 701 796 648 L643 80 L491 640 C477 696 493 736 535 739 L548 740 L548 749 L362 749 L362 740 L368 739 C386 736 409 699 426 645 C440 596 455 547 469 499 L303 70 L137 640 C121 697 130 737 162 740 L172 741 L172 750 L11 750 L11 741 L16 740 C33 737 56 697 73 640 C139 423 205 206 272 -11 L287 -11 L478 470 C525 310 572 149 619 -11 L634 -11 L816 640 C833 696 860 736 887 739 L895 740 L895 750 L895 750 Z " />
<glyph glyph-name="X" unicode="X" horiz-adv-x="661" d="M618 750 L463 750 L463 743 L475 742 C512 740 520 712 496 671 L338 410 L190 671 C167 712 170 740 198 742 L207 743 L207 750 L54 750 L54 743 C73 738 93 718 118 675 L296 360 L119 80 C93 39 57 9 29 7 L21 6 L21 -1 L173 -1 L173 6 L161 7 C123 9 116 39 141 80 L304 347 L455 80 C479 38 476 9 448 7 L439 6 L439 -1 L593 -1 L593 6 C573 11 551 34 525 80 L341 404 L521 674 C552 718 582 738 617 742 L618 750 L618 750 Z " />
<glyph glyph-name="Y" unicode="Y" horiz-adv-x="576" d="M177 750 L22 750 L22 743 C42 739 64 715 88 669 L88 669 L270 329 L270 96 C270 45 249 10 218 8 L208 7 L208 0 L391 0 L391 7 L381 8 C350 10 329 45 329 96 L329 338 L497 682 C520 722 545 739 578 743 L578 750 L440 750 L440 743 L452 742 C491 740 502 710 483 669 L327 343 L152 678 C135 715 141 740 167 742 L176 743 L177 750 L177 750 Z " />
<glyph glyph-name="Z" unicode="Z" horiz-adv-x="596" d="M71 653 L76 665 C93 706 152 734 224 735 L224 735 L512 737 L24 12 L24 0 L571 0 L575 18 L574 18 L592 99 L583 99 L576 87 C553 47 496 20 429 16 L93 12 L575 737 L575 749 L69 749 L68 733 C68 733 64 681 61 652 L71 653 L71 653 Z " />
<glyph glyph-name="bracketleft" unicode="&#x5b;" horiz-adv-x="285" d="M125 735 L335 735 L335 750 L108 750 L108 -195 L335 -195 L335 -180 L125 -180 L125 735 L125 735 Z " />
<glyph glyph-name="backslash" unicode="&#x5c;" horiz-adv-x="337" d="M37 770 L297 -80 L327 -80 L67 770 L37 770 L37 770 Z " />
<glyph glyph-name="bracketright" unicode="&#x5d;" horiz-adv-x="288" d="M161 735 L161 -180 L-49 -180 L-49 -195 L178 -195 L178 750 L-49 750 L-49 735 L161 735 L161 735 Z " />
<glyph glyph-name="asciicircum" unicode="&#x5e;" horiz-adv-x="297" d="M166 765 C162 770 154 783 149 783 C143 783 135 770 131 765 L0 563 L6 558 L148 727 L291 558 L298 563 L166 765 L166 765 Z " />
<glyph glyph-name="underscore" unicode="&#x5f;" horiz-adv-x="378" d="M5 -50 L5 -78 L373 -78 L373 -50 L5 -50 L5 -50 Z " />
<glyph glyph-name="grave" unicode="&#x60;" horiz-adv-x="297" d="M-57 755 C-57 749 -29 722 13 686 L152 563 L158 570 L36 709 C0 751 -26 779 -32 779 C-45 779 -57 768 -57 755 L-57 755 Z " />
<glyph glyph-name="a" unicode="a" horiz-adv-x="477" d="M487 78 L480 81 C475 51 452 31 422 31 C388 31 365 51 365 81 L365 358 C365 463 316 510 242 510 C141 510 73 414 73 360 C73 339 83 325 98 325 C118 325 131 340 131 350 C131 363 111 382 111 392 C111 433 162 506 238 506 C284 506 315 466 315 377 L315 264 C139 163 53 110 53 80 C53 26 94 -10 156 -10 C196 -10 248 17 314 87 C314 31 345 -5 400 -5 C443 -5 477 28 486 78 L487 78 L487 78 Z M314 261 L314 89 C264 37 219 17 181 17 C134 17 103 45 103 86 C103 133 172 178 314 260 L314 261 L314 261 Z " />
<glyph glyph-name="b" unicode="b" horiz-adv-x="440" d="M32 660 L32 125 L30 125 C31 123 32 121 33 119 L33 75 L33 0 L35 0 L55 73 C89 22 145 -10 208 -10 C320 -10 395 94 395 251 C395 403 319 505 204 505 C158 505 111 471 82 419 L82 749 L57 749 C43 745 24 740 10 736 L10 731 C25 724 32 700 32 659 L32 660 L32 660 Z M82 109 L82 410 C108 457 149 488 188 488 C279 488 339 391 339 245 C339 96 287 -4 209 -4 C157 -4 107 40 82 109 L82 109 Z " />
<glyph glyph-name="c" unicode="c" horiz-adv-x="422" d="M392 128 L390 129 C356 53 294 3 235 3 C151 3 95 107 95 264 C95 410 154 507 242 507 C280 507 320 466 342 405 C347 390 357 380 367 380 C387 380 397 390 392 405 C369 468 309 510 243 510 C124 510 45 402 45 239 C45 90 118 -10 228 -10 C290 -10 355 45 392 128 L392 128 Z " />
<glyph glyph-name="d" unicode="d" horiz-adv-x="513" d="M499 24 L492 23 C471 19 457 42 457 81 L457 750 L432 750 L407 743 L407 741 C399 739 391 737 384 735 L384 730 C399 723 406 699 406 658 L406 409 C379 466 328 510 275 510 C123 510 44 408 44 254 C44 99 127 -5 252 -5 C309 -5 370 27 406 75 L406 0 L431 0 C451 5 478 12 498 17 L499 24 L499 24 Z M406 375 L406 80 C376 41 324 16 273 16 C166 16 95 116 95 267 C95 404 158 495 281 495 C334 495 386 440 406 375 L406 375 Z " />
<glyph glyph-name="e" unicode="e" horiz-adv-x="483" d="M104 340 L453 340 C431 462 362 510 270 510 C135 510 45 433 45 235 C45 88 127 -10 249 -10 C331 -10 406 48 438 135 L437 135 C408 56 335 4 254 4 C160 4 98 104 98 255 C98 287 100 315 104 340 L104 340 Z M397 344 L104 343 C123 459 184 507 268 507 C327 507 375 461 396 344 L397 344 L397 344 Z " />
<glyph glyph-name="f" unicode="f" horiz-adv-x="270" d="M157 7 C143 10 135 19 135 41 L135 474 L260 474 L260 500 L135 500 C135 644 167 740 229 740 C260 740 289 635 314 635 C341 635 359 653 359 680 C359 725 314 755 247 755 C140 755 85 653 85 500 L-17 480 L-17 474 L85 474 L85 41 C85 19 77 10 63 7 L63 0 L157 0 L157 7 L157 7 Z " />
<glyph glyph-name="g" unicode="g" horiz-adv-x="486" d="M505 459 C505 477 492 489 473 489 C434 489 399 467 381 433 C355 481 306 510 242 510 C147 510 83 446 83 350 C83 263 134 202 213 190 C120 185 59 153 59 107 C59 59 95 25 151 18 C91 -1 52 -44 52 -94 C52 -176 132 -231 251 -231 C370 -231 450 -171 450 -80 C450 8 403 66 281 66 L175 66 C123 66 88 88 88 121 C88 161 150 187 242 187 C337 187 400 252 400 349 C400 379 394 406 383 429 C396 447 417 458 441 458 C453 458 470 438 482 438 C495 438 503 447 503 460 L505 459 L505 459 Z M241 192 C176 192 132 256 132 351 C132 445 176 508 241 508 C306 508 349 445 349 351 C349 256 306 192 241 192 L241 192 Z M155 19 C160 19 165 19 171 19 L275 19 C371 19 408 -24 408 -88 C408 -170 345 -225 251 -225 C156 -225 92 -167 92 -79 C92 -34 116 4 154 19 L155 19 L155 19 Z " />
<glyph glyph-name="h" unicode="h" horiz-adv-x="410" d="M49 660 L49 41 C49 19 41 10 27 7 L27 0 L121 0 L121 7 C107 10 99 19 99 41 L99 373 C121 434 172 475 226 475 C281 475 309 431 309 365 L309 41 C309 19 301 10 287 7 L287 0 L381 0 L381 7 C367 10 359 19 359 41 L359 365 C359 452 324 510 255 510 C190 510 128 456 99 376 L99 750 L74 750 C60 746 41 741 27 737 L27 732 C42 725 49 701 49 660 L49 660 Z " />
<glyph glyph-name="i" unicode="i" horiz-adv-x="160" d="M116 647 C116 690 52 690 52 647 C52 605 116 605 116 647 L116 647 Z M59 410 L59 41 C59 19 51 10 37 7 L37 0 L131 0 L131 7 C117 10 109 19 109 41 L109 500 L84 500 C70 496 51 491 37 487 L37 482 C52 475 59 451 59 410 L59 410 Z " />
<glyph glyph-name="j" unicode="j" horiz-adv-x="192" d="M109 647 C109 690 45 690 45 647 C45 605 109 605 109 647 L109 647 Z M52 410 L52 29 C52 -50 36 -112 11 -126 C-23 -126 -69 -100 -103 -100 C-130 -100 -148 -116 -148 -140 C-148 -169 -124 -187 -88 -185 C-81 -185 -39 -163 17 -130 C68 -101 102 -37 102 29 L102 500 L77 500 C63 496 44 491 30 487 L30 482 C45 475 52 451 52 410 L52 410 Z " />
<glyph glyph-name="k" unicode="k" horiz-adv-x="351" d="M358 500 L184 500 L184 493 L202 492 C261 490 260 447 201 383 L99 279 L99 749 L74 749 C60 745 41 740 27 736 L27 731 C42 724 49 700 49 659 L49 40 C49 18 41 9 27 6 L27 -1 L121 -1 L121 6 C107 9 99 18 99 40 L99 279 L242 60 C261 30 270 9 263 7 L260 6 L260 -1 L347 -1 L347 6 C340 9 321 33 294 74 L294 74 L136 307 L246 419 C293 465 328 487 358 491 L358 500 L358 500 Z " />
<glyph glyph-name="l" unicode="l" horiz-adv-x="150" d="M49 660 L49 41 C49 19 41 10 27 7 L27 0 L121 0 L121 7 C107 10 99 19 99 41 L99 750 L74 750 C60 746 41 741 27 737 L27 732 C42 725 49 701 49 660 L49 660 Z " />
<glyph glyph-name="m" unicode="m" horiz-adv-x="668" d="M49 410 L49 41 C49 19 41 10 27 7 L27 0 L121 0 L121 7 C107 10 99 19 99 41 L99 378 C119 435 168 473 221 473 C284 473 308 430 308 365 L308 41 C308 19 300 10 286 7 L286 0 L380 0 L380 7 C366 10 358 19 358 41 L358 365 C358 372 358 378 358 384 C379 437 427 472 480 472 C543 472 567 429 567 364 L567 40 C567 18 559 9 545 6 L545 -1 L639 -1 L639 6 C625 9 617 18 617 40 L617 364 C617 451 584 509 500 509 C443 509 386 460 357 386 C352 461 318 509 241 509 C184 509 127 457 99 380 L99 499 L74 499 C60 495 41 490 27 486 L27 481 C42 474 49 450 49 409 L49 410 L49 410 Z " />
<glyph glyph-name="n" unicode="n" horiz-adv-x="409" d="M49 410 L49 41 C49 19 41 10 27 7 L27 0 L121 0 L121 7 C107 10 99 19 99 41 L99 374 C123 440 173 484 226 484 C280 484 308 427 308 342 L308 41 C308 19 300 10 286 7 L286 0 L380 0 L380 7 C366 10 358 19 358 41 L358 342 C358 443 318 510 241 510 C183 510 127 459 99 382 L99 500 L74 500 C60 496 41 491 27 487 L27 482 C42 475 49 451 49 410 L49 410 Z " />
<glyph glyph-name="o" unicode="o" horiz-adv-x="570" d="M100 250 C100 404 174 506 285 506 C395 506 469 404 469 250 C469 96 395 -6 285 -6 C174 -6 100 96 100 250 L100 250 Z M45 250 C45 94 141 -10 285 -10 C429 -10 525 94 525 250 C525 406 429 510 285 510 C141 510 45 406 45 250 L45 250 Z " />
<glyph glyph-name="p" unicode="p" horiz-adv-x="446" d="M34 410 L34 -179 C34 -201 26 -210 12 -213 L12 -220 L106 -220 L106 -213 C92 -210 84 -201 84 -179 L84 46 C113 14 150 -5 188 -5 C316 -5 401 114 401 254 C401 408 325 510 211 510 C164 510 114 480 84 434 L84 499 L59 499 C45 495 26 490 12 486 L12 481 C27 474 34 450 34 409 L34 410 L34 410 Z M84 129 L84 413 C113 458 154 488 189 488 C284 488 347 388 347 237 C347 113 285 7 191 7 C150 7 107 56 85 129 L84 129 L84 129 Z " />
<glyph glyph-name="q" unicode="q" horiz-adv-x="479" d="M475 -213 C461 -210 453 -201 453 -179 L453 500 L450 500 L434 440 L425 431 C389 480 331 510 266 510 C114 510 36 408 36 254 C36 99 122 -5 252 -5 C272 -5 332 25 401 71 L401 -179 C401 -201 393 -210 379 -213 L379 -220 L473 -220 L475 -213 L475 -213 Z M401 389 L401 89 C334 45 283 16 272 16 C161 16 87 116 87 267 C87 406 147 499 262 499 C322 499 376 455 402 389 L401 389 L401 389 Z " />
<glyph glyph-name="r" unicode="r" horiz-adv-x="278" d="M50 410 L50 41 C50 19 42 10 28 7 L28 0 L122 0 L122 7 C108 10 100 19 100 41 L100 394 C111 450 148 486 197 486 C204 486 209 472 209 451 C209 414 268 413 268 451 C268 486 249 509 220 509 C158 509 112 467 99 401 L99 500 L74 500 C60 496 41 491 27 487 L27 482 C42 475 49 451 49 410 L50 410 L50 410 Z " />
<glyph glyph-name="s" unicode="s" horiz-adv-x="387" d="M309 388 L309 466 L303 466 L301 464 C307 471 280 485 233 499 C219 507 204 512 189 514 L188 510 C111 516 61 465 61 390 C61 324 106 264 193 232 C262 207 298 159 298 108 C298 40 261 -6 205 -6 C185 -6 167 1 153 9 L153 10 C150 11 147 12 144 13 C111 36 83 76 69 121 L65 132 L59 132 L59 44 L65 44 L68 49 C66 45 96 27 144 6 C153 0 162 -5 171 -8 L172 -5 C182 -8 193 -9 204 -9 C283 -9 335 43 335 122 C335 185 294 241 215 270 C136 299 96 351 96 407 C96 468 128 508 176 508 C177 508 186 508 186 507 C194 506 202 504 210 501 L209 499 C215 497 221 495 227 492 C258 474 284 441 297 399 L301 388 L309 388 L309 388 Z " />
<glyph glyph-name="t" unicode="t" horiz-adv-x="317" d="M277 500 L141 500 L141 620 L137 620 L26 500 L26 490 L91 490 L91 129 C91 29 134 -10 199 -10 C234 -10 277 21 307 68 L302 71 C280 37 245 14 214 14 C169 14 139 43 139 118 L141 474 L277 474 L277 500 L277 500 Z " />
<glyph glyph-name="u" unicode="u" horiz-adv-x="385" d="M371 23 L366 23 C350 21 339 45 339 84 L339 500 L314 500 L314 501 L267 501 L267 494 C281 491 289 482 289 460 L289 128 C262 66 218 26 175 26 C126 26 94 78 94 156 L94 501 L22 501 L22 494 C36 491 44 482 44 460 L44 156 C44 57 87 -9 152 -9 C202 -9 255 44 289 125 L289 1 L314 1 C320 3 330 8 338 8 C349 11 360 14 369 17 L371 23 L371 23 Z " />
<glyph glyph-name="v" unicode="v" horiz-adv-x="371" d="M103 500 L7 500 L7 493 C22 489 33 472 45 434 L164 -10 L179 -10 L307 419 C319 461 335 490 347 492 L350 493 L350 500 L286 500 L286 493 L289 492 C298 490 297 461 285 419 L192 89 L103 419 C92 461 91 490 100 492 L103 493 L103 500 L103 500 Z " />
<glyph glyph-name="w" unicode="w" horiz-adv-x="584" d="M569 500 L504 500 L504 493 L507 492 C516 490 513 460 501 419 L400 88 L308 436 C301 469 301 491 310 493 L313 494 L313 501 L215 501 L215 494 L219 493 C230 491 244 461 256 420 L274 350 L172 -9 L187 -9 L283 316 L369 -9 L383 -9 L523 420 C538 461 554 491 566 493 L569 494 L569 500 L569 500 Z M118 501 L21 501 L21 494 C37 490 49 468 61 424 L173 -9 L202 94 L115 429 C106 466 106 491 115 493 L118 494 L118 501 L118 501 Z " />
<glyph glyph-name="x" unicode="x" horiz-adv-x="387" d="M352 500 L289 500 L289 493 L292 492 C300 490 292 461 271 419 L207 289 L137 428 C119 465 112 490 119 492 L122 493 L122 500 L21 500 L21 493 C38 489 57 465 80 419 L80 419 L174 234 C142 183 111 132 79 81 C51 35 30 11 13 7 L13 0 L74 0 L74 7 L71 8 C63 10 76 40 99 81 L181 223 L258 72 C276 35 283 10 276 8 L273 7 L273 0 L374 0 L374 7 C357 11 338 35 315 81 L315 81 L216 276 L303 438 C324 473 339 489 354 493 L352 500 L352 500 Z " />
<glyph glyph-name="y" unicode="y" horiz-adv-x="408" d="M118 500 L22 500 L22 493 C37 489 47 473 59 437 L176 0 C156 -54 137 -108 118 -162 C111 -181 97 -194 91 -194 C69 -194 64 -175 42 -175 C17 -175 1 -191 1 -216 C1 -242 19 -260 46 -260 C68 -260 111 -223 131 -168 C161 -83 191 2 221 87 C260 198 298 310 338 420 C355 466 369 490 385 494 L385 501 L321 501 L321 494 L324 493 C333 491 329 461 316 420 L207 89 L117 420 C106 462 105 491 114 493 L117 494 L118 500 L118 500 Z " />
<glyph glyph-name="z" unicode="z" horiz-adv-x="441" d="M61 491 C59 491 53 467 43 428 L53 428 L60 436 C80 461 127 480 179 484 L342 487 L40 12 L40 0 L396 0 L396 18 C397 28 399 47 402 72 L392 72 L386 64 C367 36 314 18 255 16 L101 13 L401 488 L401 500 L67 500 L67 491 L61 491 L61 491 Z M64 500 C64 500 63 491 61 491 L63 500 L64 500 L64 500 Z " />
<glyph glyph-name="bar" unicode="&#x7c;" horiz-adv-x="159" d="M60 800 L60 -250 L99 -250 L99 800 L60 800 L60 800 Z " />
<glyph glyph-name="asciitilde" unicode="&#x7e;" horiz-adv-x="297" d="M29 310 C29 350 44 376 67 376 C111 376 171 311 215 311 C248 311 270 349 270 406 L268 406 C268 370 252 346 227 346 C183 346 123 411 79 411 C48 411 27 371 27 310 L29 310 L29 310 Z " />
<glyph glyph-name="exclamdown" unicode="&#xa1;" horiz-adv-x="201" d="M65 470 C65 423 135 423 135 470 C135 516 65 516 65 470 L65 470 Z M100 -255 C124 -255 134 -221 131 -171 C131 -171 105 152 105 290 L96 290 C96 152 70 -171 70 -171 C67 -221 77 -255 100 -255 L100 -255 Z " />
<glyph glyph-name="cent" unicode="&#xa2;" horiz-adv-x="422" d="M219 575 L219 508 C113 494 45 390 45 238 C45 93 114 -6 219 -11 L219 -76 L237 -76 L237 -11 C296 -6 357 48 392 127 L390 128 C356 53 295 3 237 2 L237 506 C280 508 319 467 342 404 C347 389 357 379 367 379 C387 379 397 389 392 404 C368 469 307 511 237 509 L237 574 L219 575 L219 575 Z M219 3 C144 15 95 115 95 262 C95 395 144 487 219 503 L219 3 L219 3 Z " />
<glyph glyph-name="acute" unicode="&#xb4;" horiz-adv-x="297" d="M155 563 L294 686 C336 724 364 751 364 755 C364 768 353 779 339 779 C335 779 309 751 271 709 L149 570 L155 563 L155 563 Z " />
<glyph glyph-name="questiondown" unicode="&#xbf;" horiz-adv-x="305" d="M145 470 C145 423 215 423 215 470 C215 516 145 516 145 470 L145 470 Z M184 325 C184 325 182 141 180 140 C96 140 62 103 24 47 C7 22 -4 -18 -4 -53 C-4 -177 62 -260 160 -260 C188 -260 207 -245 207 -223 C207 -208 196 -198 180 -198 C169 -198 153 -207 142 -207 C63 -207 10 -143 10 -47 C10 -27 20 2 35 24 C62 64 91 90 197 90 C194 89 192 325 192 325 L184 325 L184 325 Z " />
<glyph glyph-name="Agrave" unicode="&#xc0;" horiz-adv-x="582" d="M92 1005 C92 999 120 972 162 936 L301 813 L307 820 L185 959 C149 1001 123 1029 117 1029 C104 1029 92 1018 92 1005 L92 1005 Z M164 9 L150 10 C107 13 90 58 107 124 L155 296 L388 296 L437 116 C450 55 432 14 390 11 L376 10 L376 1 L579 1 L579 10 L571 11 C545 14 515 58 496 123 L326 734 C326 734 318 772 315 772 L310 772 C313 753 296 738 267 734 L270 724 L103 131 C84 62 39 14 -8 11 L-22 10 L-22 1 L163 1 L164 9 L164 9 Z M155 300 L272 717 L387 300 L155 300 L155 300 Z " />
<glyph glyph-name="Aacute" unicode="&#xc1;" horiz-adv-x="582" d="M304 813 L443 936 C485 974 513 1001 513 1005 C513 1018 502 1029 488 1029 C484 1029 458 1001 420 959 L298 820 L304 813 L304 813 Z M164 9 L150 10 C107 13 90 58 107 124 L155 296 L388 296 L437 116 C450 55 432 14 390 11 L376 10 L376 1 L579 1 L579 10 L571 11 C545 14 515 58 496 123 L326 734 C326 734 318 772 315 772 L310 772 C313 753 296 738 267 734 L270 724 L103 131 C84 62 39 14 -8 11 L-22 10 L-22 1 L163 1 L164 9 L164 9 Z M155 300 L272 717 L387 300 L155 300 L155 300 Z " />
<glyph glyph-name="Acircumflex" unicode="&#xc2;" horiz-adv-x="582" d="M315 1015 C311 1020 303 1033 298 1033 C292 1033 284 1020 280 1015 L148 813 L155 808 L297 977 L440 808 L447 813 L315 1015 L315 1015 Z M164 9 L150 10 C107 13 90 58 107 124 L155 296 L388 296 L437 116 C450 55 432 14 390 11 L376 10 L376 1 L579 1 L579 10 L571 11 C545 14 515 58 496 123 L326 734 C326 734 318 772 315 772 L310 772 C313 753 296 738 267 734 L270 724 L103 131 C84 62 39 14 -8 11 L-22 10 L-22 1 L163 1 L164 9 L164 9 Z M155 300 L272 717 L387 300 L155 300 L155 300 Z " />
<glyph glyph-name="Atilde" unicode="&#xc3;" horiz-adv-x="582" d="M178 870 C178 910 193 936 216 936 C261 936 320 871 365 871 C397 871 419 909 419 966 L417 966 C417 930 401 906 377 906 C332 906 272 971 227 971 C196 971 176 931 176 870 L178 870 L178 870 Z M164 9 L150 10 C107 13 90 58 107 124 L155 296 L388 296 L437 116 C450 55 432 14 390 11 L376 10 L376 1 L579 1 L579 10 L571 11 C545 14 515 58 496 123 L326 734 C326 734 318 772 315 772 L310 772 C313 753 296 738 267 734 L270 724 L103 131 C84 62 39 14 -8 11 L-22 10 L-22 1 L163 1 L164 9 L164 9 Z M155 300 L272 717 L387 300 L155 300 L155 300 Z " />
<glyph glyph-name="Adieresis" unicode="&#xc4;" horiz-adv-x="582" d="M397 897 C397 941 332 940 332 897 C332 856 397 855 397 897 L397 897 Z M263 897 C263 940 198 941 198 897 C198 855 263 856 263 897 L263 897 Z M164 9 L150 10 C107 13 90 58 107 124 L155 296 L388 296 L437 116 C450 55 432 14 390 11 L376 10 L376 1 L579 1 L579 10 L571 11 C545 14 515 58 496 123 L326 734 C326 734 318 772 315 772 L310 772 C313 753 296 738 267 734 L270 724 L103 131 C84 62 39 14 -8 11 L-22 10 L-22 1 L163 1 L164 9 L164 9 Z M155 300 L272 717 L387 300 L155 300 L155 300 Z " />
<glyph glyph-name="Aring" unicode="&#xc5;" horiz-adv-x="582" d="M216 905 C216 955 249 988 298 988 C347 988 379 955 379 905 C379 860 342 822 298 822 C254 822 216 860 216 905 L216 905 Z M201 905 C201 854 246 810 298 810 C350 810 394 854 394 905 C394 962 356 1000 298 1000 C240 1000 201 962 201 905 L201 905 Z M164 9 L150 10 C107 13 90 58 107 124 L155 296 L388 296 L437 116 C450 55 432 14 390 11 L376 10 L376 1 L579 1 L579 10 L571 11 C545 14 515 58 496 123 L326 734 C326 734 318 772 315 772 L310 772 C313 753 296 738 267 734 L270 724 L103 131 C84 62 39 14 -8 11 L-22 10 L-22 1 L163 1 L164 9 L164 9 Z M155 300 L272 717 L387 300 L155 300 L155 300 Z " />
<glyph glyph-name="Egrave" unicode="&#xc8;" horiz-adv-x="522" d="M75 1005 C75 999 103 972 145 936 L284 813 L290 820 L168 959 C132 1001 106 1029 100 1029 C87 1029 75 1018 75 1005 L75 1005 Z M387 293 L387 481 L378 481 L374 467 C360 420 313 389 256 389 L171 389 L171 747 L316 747 C373 747 424 716 444 669 L450 655 L459 655 C455 683 450 721 447 749 L447 750 L50 750 L50 743 L60 742 C91 740 112 705 112 654 L112 96 C112 45 91 10 60 8 L50 7 L50 0 L472 0 L472 1 L473 1 C478 26 484 60 488 85 L479 85 L473 72 C452 31 390 3 318 3 L265 3 C180 3 171 39 171 94 L171 385 L256 385 C313 385 360 354 374 307 L378 293 L387 293 L387 293 Z " />
<glyph glyph-name="Eacute" unicode="&#xc9;" horiz-adv-x="522" d="M287 813 L426 936 C468 974 496 1001 496 1005 C496 1018 485 1029 471 1029 C467 1029 441 1001 403 959 L281 820 L287 813 L287 813 Z M387 293 L387 481 L378 481 L374 467 C360 420 313 389 256 389 L171 389 L171 747 L316 747 C373 747 424 716 444 669 L450 655 L459 655 C455 683 450 721 447 749 L447 750 L50 750 L50 743 L60 742 C91 740 112 705 112 654 L112 96 C112 45 91 10 60 8 L50 7 L50 0 L472 0 L472 1 L473 1 C478 26 484 60 488 85 L479 85 L473 72 C452 31 390 3 318 3 L265 3 C180 3 171 39 171 94 L171 385 L256 385 C313 385 360 354 374 307 L378 293 L387 293 L387 293 Z " />
<glyph glyph-name="Ecircumflex" unicode="&#xca;" horiz-adv-x="522" d="M298 1015 C294 1020 286 1033 281 1033 C275 1033 267 1020 263 1015 L131 813 L138 808 L280 977 L423 808 L430 813 L298 1015 L298 1015 Z M387 293 L387 481 L378 481 L374 467 C360 420 313 389 256 389 L171 389 L171 747 L316 747 C373 747 424 716 444 669 L450 655 L459 655 C455 683 450 721 447 749 L447 750 L50 750 L50 743 L60 742 C91 740 112 705 112 654 L112 96 C112 45 91 10 60 8 L50 7 L50 0 L472 0 L472 1 L473 1 C478 26 484 60 488 85 L479 85 L473 72 C452 31 390 3 318 3 L265 3 C180 3 171 39 171 94 L171 385 L256 385 C313 385 360 354 374 307 L378 293 L387 293 L387 293 Z " />
<glyph glyph-name="Edieresis" unicode="&#xcb;" horiz-adv-x="522" d="M380 897 C380 941 315 940 315 897 C315 856 380 855 380 897 L380 897 Z M246 897 C246 940 181 941 181 897 C181 855 246 856 246 897 L246 897 Z M387 293 L387 481 L378 481 L374 467 C360 420 313 389 256 389 L171 389 L171 747 L316 747 C373 747 424 716 444 669 L450 655 L459 655 C455 683 450 721 447 749 L447 750 L50 750 L50 743 L60 742 C91 740 112 705 112 654 L112 96 C112 45 91 10 60 8 L50 7 L50 0 L472 0 L472 1 L473 1 C478 26 484 60 488 85 L479 85 L473 72 C452 31 390 3 318 3 L265 3 C180 3 171 39 171 94 L171 385 L256 385 C313 385 360 354 374 307 L378 293 L387 293 L387 293 Z " />
<glyph glyph-name="Igrave" unicode="&#xcc;" horiz-adv-x="277" d="M-59 1005 C-59 999 -31 972 11 936 L150 813 L157 820 L34 959 C-2 1001 -29 1029 -35 1029 C-48 1029 -59 1018 -59 1005 L-59 1005 Z M218 7 L211 8 C190 10 176 37 176 76 L176 674 C176 713 190 740 211 742 L218 743 L218 750 L75 750 L75 743 L82 742 C103 740 117 713 117 674 L117 76 C117 37 103 10 82 8 L75 7 L75 0 L218 0 L218 7 L218 7 Z " />
<glyph glyph-name="Iacute" unicode="&#xcd;" horiz-adv-x="277" d="M154 813 L293 936 C335 974 363 1001 363 1005 C363 1018 352 1029 339 1029 C335 1029 308 1001 270 959 L147 820 L154 813 L154 813 Z M218 7 L211 8 C190 10 176 37 176 76 L176 674 C176 713 190 740 211 742 L218 743 L218 750 L75 750 L75 743 L82 742 C103 740 117 713 117 674 L117 76 C117 37 103 10 82 8 L75 7 L75 0 L218 0 L218 7 L218 7 Z " />
<glyph glyph-name="Icircumflex" unicode="&#xce;" horiz-adv-x="277" d="M165 1015 C161 1020 153 1033 147 1033 C141 1033 133 1020 129 1015 L-2 813 L5 808 L147 976 L289 808 L296 813 L165 1015 L165 1015 Z M218 7 L211 8 C190 10 176 37 176 76 L176 674 C176 713 190 740 211 742 L218 743 L218 750 L75 750 L75 743 L82 742 C103 740 117 713 117 674 L117 76 C117 37 103 10 82 8 L75 7 L75 0 L218 0 L218 7 L218 7 Z " />
<glyph glyph-name="Idieresis" unicode="&#xcf;" horiz-adv-x="277" d="M247 897 C247 940 182 941 182 897 C182 855 247 856 247 897 L247 897 Z M112 897 C112 941 47 940 47 897 C47 856 112 855 112 897 L112 897 Z M218 7 L211 8 C190 10 176 37 176 76 L176 674 C176 713 190 740 211 742 L218 743 L218 750 L75 750 L75 743 L82 742 C103 740 117 713 117 674 L117 76 C117 37 103 10 82 8 L75 7 L75 0 L218 0 L218 7 L218 7 Z " />
<glyph glyph-name="Ntilde" unicode="&#xd1;" horiz-adv-x="636" d="M197 870 C197 910 212 936 235 936 C279 936 339 871 383 871 C416 871 438 909 438 966 L435 966 C435 930 419 906 395 906 C350 906 291 971 246 971 C215 971 194 931 194 870 L197 870 L197 870 Z M16 743 C45 739 71 720 98 678 L97 77 C97 38 83 11 62 9 L55 8 L55 1 L157 1 L157 8 L150 9 C129 11 115 39 115 78 L113 655 C248 437 383 219 518 1 L530 1 L534 675 C535 713 548 741 569 743 L575 744 L575 751 L475 751 L475 744 L482 743 C503 741 517 714 517 675 L518 113 L125 751 L15 751 L16 743 L16 743 Z M518 113 L518 113 L518 113 Z " />
<glyph glyph-name="Ograve" unicode="&#xd2;" horiz-adv-x="763" d="M125 375 C125 604 227 756 379 756 C538 756 644 604 644 375 C644 146 534 -6 370 -6 C223 -6 125 146 125 375 L125 375 Z M61 375 C61 144 185 -10 370 -10 C573 -10 708 144 708 375 C708 606 577 760 380 760 C189 760 61 606 61 375 L61 375 Z M174 1005 C174 999 202 972 244 936 L383 813 L390 820 L267 959 C231 1001 204 1029 198 1029 C185 1029 174 1018 174 1005 L174 1005 Z " />
<glyph glyph-name="Oacute" unicode="&#xd3;" horiz-adv-x="763" d="M387 813 L526 936 C568 974 596 1001 596 1005 C596 1018 585 1029 572 1029 C568 1029 541 1001 503 959 L380 820 L387 813 L387 813 Z M125 375 C125 604 227 756 379 756 C538 756 644 604 644 375 C644 146 534 -6 370 -6 C223 -6 125 146 125 375 L125 375 Z M61 375 C61 144 185 -10 370 -10 C573 -10 708 144 708 375 C708 606 577 760 380 760 C189 760 61 606 61 375 L61 375 Z " />
<glyph glyph-name="Ocircumflex" unicode="&#xd4;" horiz-adv-x="763" d="M125 375 C125 604 227 756 379 756 C538 756 644 604 644 375 C644 146 534 -6 370 -6 C223 -6 125 146 125 375 L125 375 Z M61 375 C61 144 185 -10 370 -10 C573 -10 708 144 708 375 C708 606 577 760 380 760 C189 760 61 606 61 375 L61 375 Z M398 1015 C394 1020 386 1033 380 1033 C374 1033 366 1020 362 1015 L231 813 L238 808 L380 976 L522 808 L529 813 L398 1015 L398 1015 Z " />
<glyph glyph-name="Otilde" unicode="&#xd5;" horiz-adv-x="763" d="M261 870 C261 910 276 936 299 936 C343 936 403 871 447 871 C480 871 502 909 502 966 L499 966 C499 930 483 906 459 906 C414 906 355 971 310 971 C279 971 258 931 258 870 L261 870 L261 870 Z M125 375 C125 604 227 756 379 756 C538 756 644 604 644 375 C644 146 534 -6 370 -6 C223 -6 125 146 125 375 L125 375 Z M61 375 C61 144 185 -10 370 -10 C573 -10 708 144 708 375 C708 606 577 760 380 760 C189 760 61 606 61 375 L61 375 Z " />
<glyph glyph-name="Odieresis" unicode="&#xd6;" horiz-adv-x="763" d="M480 897 C480 940 415 941 415 897 C415 855 480 856 480 897 L480 897 Z M345 897 C345 941 280 940 280 897 C280 856 345 855 345 897 L345 897 Z M125 375 C125 604 227 756 379 756 C538 756 644 604 644 375 C644 146 534 -6 370 -6 C223 -6 125 146 125 375 L125 375 Z M61 375 C61 144 185 -10 370 -10 C573 -10 708 144 708 375 C708 606 577 760 380 760 C189 760 61 606 61 375 L61 375 Z " />
<glyph glyph-name="Oslash" unicode="&#xd8;" horiz-adv-x="763" d="M64 -12 C64 -12 95 24 151 90 C205 26 281 -11 371 -11 C574 -11 709 143 709 374 C709 488 677 583 621 650 C650 685 680 721 711 758 L705 762 C675 726 645 691 616 657 C559 723 478 761 381 761 C190 761 62 607 62 376 C62 261 93 165 147 98 C90 31 59 -6 59 -6 L64 -12 L64 -12 Z M590 625 C412 413 269 242 176 132 C144 196 126 279 126 376 C126 605 228 757 380 757 C470 757 543 708 589 624 L590 625 L590 625 Z M593 617 C626 554 645 472 645 376 C645 147 535 -5 371 -5 C289 -5 222 43 179 125 C271 234 414 405 593 618 L593 617 L593 617 Z " />
<glyph glyph-name="Ugrave" unicode="&#xd9;" horiz-adv-x="568" d="M81 1007 C81 1001 109 974 151 938 L290 815 L297 822 L174 961 C138 1003 111 1031 105 1031 C92 1031 81 1020 81 1007 L81 1007 Z M539 28 L532 27 C511 24 497 47 497 86 L497 750 L468 750 L468 752 L397 752 L397 745 L404 744 C425 742 439 715 439 676 L439 169 C400 84 313 28 222 28 C170 28 136 102 136 213 L136 750 L107 750 L107 752 L35 752 L35 745 L42 744 C63 742 77 715 77 676 L77 213 C77 79 126 -10 199 -10 C300 -10 396 51 439 143 L439 0 L468 0 L497 8 L497 9 C512 13 527 17 539 21 L539 28 L539 28 Z " />
<glyph glyph-name="Uacute" unicode="&#xda;" horiz-adv-x="568" d="M294 815 L433 938 C475 976 503 1003 503 1007 C503 1020 492 1031 479 1031 C475 1031 448 1003 410 961 L287 822 L294 815 L294 815 Z M539 28 L532 27 C511 24 497 47 497 86 L497 750 L468 750 L468 752 L397 752 L397 745 L404 744 C425 742 439 715 439 676 L439 169 C400 84 313 28 222 28 C170 28 136 102 136 213 L136 750 L107 750 L107 752 L35 752 L35 745 L42 744 C63 742 77 715 77 676 L77 213 C77 79 126 -10 199 -10 C300 -10 396 51 439 143 L439 0 L468 0 L497 8 L497 9 C512 13 527 17 539 21 L539 28 L539 28 Z " />
<glyph glyph-name="Ucircumflex" unicode="&#xdb;" horiz-adv-x="568" d="M305 1017 C301 1022 293 1035 287 1035 C281 1035 273 1022 269 1017 L138 815 L145 810 L287 978 L429 810 L436 815 L305 1017 L305 1017 Z M539 28 L532 27 C511 24 497 47 497 86 L497 750 L468 750 L468 752 L397 752 L397 745 L404 744 C425 742 439 715 439 676 L439 169 C400 84 313 28 222 28 C170 28 136 102 136 213 L136 750 L107 750 L107 752 L35 752 L35 745 L42 744 C63 742 77 715 77 676 L77 213 C77 79 126 -10 199 -10 C300 -10 396 51 439 143 L439 0 L468 0 L497 8 L497 9 C512 13 527 17 539 21 L539 28 L539 28 Z " />
<glyph glyph-name="Udieresis" unicode="&#xdc;" horiz-adv-x="568" d="M387 899 C387 942 322 943 322 899 C322 857 387 858 387 899 L387 899 Z M252 899 C252 943 187 942 187 899 C187 858 252 857 252 899 L252 899 Z M539 28 L532 27 C511 24 497 47 497 86 L497 750 L468 750 L468 752 L397 752 L397 745 L404 744 C425 742 439 715 439 676 L439 169 C400 84 313 28 222 28 C170 28 136 102 136 213 L136 750 L107 750 L107 752 L35 752 L35 745 L42 744 C63 742 77 715 77 676 L77 213 C77 79 126 -10 199 -10 C300 -10 396 51 439 143 L439 0 L468 0 L497 8 L497 9 C512 13 527 17 539 21 L539 28 L539 28 Z " />
<glyph glyph-name="Yacute" unicode="&#xdd;" horiz-adv-x="565" d="M295 813 L434 936 C476 974 504 1001 504 1005 C504 1018 493 1029 479 1029 C475 1029 449 1001 411 959 L289 820 L295 813 L295 813 Z M166 750 L11 750 L11 743 C31 739 53 715 77 669 L77 669 L259 329 L259 96 C259 45 238 10 207 8 L197 7 L197 0 L380 0 L380 7 L370 8 C339 10 318 45 318 96 L318 338 L486 682 C509 722 534 739 567 743 L567 750 L429 750 L429 743 L441 742 C480 740 491 710 472 669 L316 343 L141 678 C124 715 130 740 156 742 L165 743 L166 750 L166 750 Z " />
<glyph glyph-name="agrave" unicode="&#xe0;" horiz-adv-x="477" d="M487 78 L480 81 C475 51 452 31 422 31 C388 31 365 51 365 81 L365 358 C365 463 316 510 242 510 C141 510 73 414 73 360 C73 339 83 325 98 325 C118 325 131 340 131 350 C131 363 111 382 111 392 C111 433 162 506 238 506 C284 506 315 466 315 377 L315 264 C139 163 53 110 53 80 C53 26 94 -10 156 -10 C196 -10 248 17 314 87 C314 31 345 -5 400 -5 C443 -5 477 28 486 78 L487 78 L487 78 Z M35 755 C35 749 63 722 105 686 L244 563 L251 570 L128 709 C92 751 65 779 59 779 C46 779 35 768 35 755 L35 755 Z M314 261 L314 89 C264 37 219 17 181 17 C134 17 103 45 103 86 C103 133 172 178 314 260 L314 261 L314 261 Z " />
<glyph glyph-name="aacute" unicode="&#xe1;" horiz-adv-x="477" d="M249 563 L388 686 C430 724 458 751 458 755 C458 768 447 779 434 779 C430 779 403 751 365 709 L242 570 L249 563 L249 563 Z M487 78 L480 81 C475 51 452 31 422 31 C388 31 365 51 365 81 L365 358 C365 463 316 510 242 510 C141 510 73 414 73 360 C73 339 83 325 98 325 C118 325 131 340 131 350 C131 363 111 382 111 392 C111 433 162 506 238 506 C284 506 315 466 315 377 L315 264 C139 163 53 110 53 80 C53 26 94 -10 156 -10 C196 -10 248 17 314 87 C314 31 345 -5 400 -5 C443 -5 477 28 486 78 L487 78 L487 78 Z M314 261 L314 89 C264 37 219 17 181 17 C134 17 103 45 103 86 C103 133 172 178 314 260 L314 261 L314 261 Z " />
<glyph glyph-name="acircumflex" unicode="&#xe2;" horiz-adv-x="477" d="M487 78 L480 81 C475 51 452 31 422 31 C388 31 365 51 365 81 L365 358 C365 463 316 510 242 510 C141 510 73 414 73 360 C73 339 83 325 98 325 C118 325 131 340 131 350 C131 363 111 382 111 392 C111 433 162 506 238 506 C284 506 315 466 315 377 L315 264 C139 163 53 110 53 80 C53 26 94 -10 156 -10 C196 -10 248 17 314 87 C314 31 345 -5 400 -5 C443 -5 477 28 486 78 L487 78 L487 78 Z M259 765 C255 770 247 783 241 783 C235 783 227 770 223 765 L92 563 L99 558 L241 726 L383 558 L390 563 L259 765 L259 765 Z M314 261 L314 89 C264 37 219 17 181 17 C134 17 103 45 103 86 C103 133 172 178 314 260 L314 261 L314 261 Z " />
<glyph glyph-name="atilde" unicode="&#xe3;" horiz-adv-x="477" d="M123 620 C123 660 138 686 161 686 C205 686 265 621 309 621 C342 621 364 659 364 716 L361 716 C361 680 345 656 321 656 C276 656 217 721 172 721 C141 721 120 681 120 620 L123 620 L123 620 Z M487 78 L480 81 C475 51 452 31 422 31 C388 31 365 51 365 81 L365 358 C365 463 316 510 242 510 C141 510 73 414 73 360 C73 339 83 325 98 325 C118 325 131 340 131 350 C131 363 111 382 111 392 C111 433 162 506 238 506 C284 506 315 466 315 377 L315 264 C139 163 53 110 53 80 C53 26 94 -10 156 -10 C196 -10 248 17 314 87 C314 31 345 -5 400 -5 C443 -5 477 28 486 78 L487 78 L487 78 Z M314 261 L314 89 C264 37 219 17 181 17 C134 17 103 45 103 86 C103 133 172 178 314 260 L314 261 L314 261 Z " />
<glyph glyph-name="adieresis" unicode="&#xe4;" horiz-adv-x="477" d="M342 647 C342 690 277 691 277 647 C277 605 342 606 342 647 L342 647 Z M207 647 C207 691 142 690 142 647 C142 606 207 605 207 647 L207 647 Z M487 78 L480 81 C475 51 452 31 422 31 C388 31 365 51 365 81 L365 358 C365 463 316 510 242 510 C141 510 73 414 73 360 C73 339 83 325 98 325 C118 325 131 340 131 350 C131 363 111 382 111 392 C111 433 162 506 238 506 C284 506 315 466 315 377 L315 264 C139 163 53 110 53 80 C53 26 94 -10 156 -10 C196 -10 248 17 314 87 C314 31 345 -5 400 -5 C443 -5 477 28 486 78 L487 78 L487 78 Z M314 261 L314 89 C264 37 219 17 181 17 C134 17 103 45 103 86 C103 133 172 178 314 260 L314 261 L314 261 Z " />
<glyph glyph-name="aring" unicode="&#xe5;" horiz-adv-x="477" d="M160 655 C160 705 193 738 242 738 C291 738 324 705 324 655 C324 610 286 572 242 572 C198 572 160 610 160 655 L160 655 Z M146 655 C146 604 190 560 242 560 C294 560 338 604 338 655 C338 712 300 750 242 750 C184 750 146 712 146 655 L146 655 Z M487 78 L480 81 C475 51 452 31 422 31 C388 31 365 51 365 81 L365 358 C365 463 316 510 242 510 C141 510 73 414 73 360 C73 339 83 325 98 325 C118 325 131 340 131 350 C131 363 111 382 111 392 C111 433 162 506 238 506 C284 506 315 466 315 377 L315 264 C139 163 53 110 53 80 C53 26 94 -10 156 -10 C196 -10 248 17 314 87 C314 31 345 -5 400 -5 C443 -5 477 28 486 78 L487 78 L487 78 Z M314 261 L314 89 C264 37 219 17 181 17 C134 17 103 45 103 86 C103 133 172 178 314 260 L314 261 L314 261 Z " />
<glyph glyph-name="egrave" unicode="&#xe8;" horiz-adv-x="483" d="M64 755 C64 749 92 722 134 686 L273 563 L280 570 L157 709 C121 751 94 779 88 779 C75 779 64 768 64 755 L64 755 Z M104 340 L453 340 C431 462 362 510 270 510 C135 510 45 433 45 235 C45 88 127 -10 249 -10 C331 -10 406 48 438 135 L437 135 C408 56 335 4 254 4 C160 4 98 104 98 255 C98 287 100 315 104 340 L104 340 Z M397 344 L104 343 C123 459 184 507 268 507 C327 507 375 461 396 344 L397 344 L397 344 Z " />
<glyph glyph-name="eacute" unicode="&#xe9;" horiz-adv-x="483" d="M277 563 L416 686 C458 724 486 751 486 755 C486 768 475 779 462 779 C458 779 431 751 393 709 L270 570 L277 563 L277 563 Z M104 340 L453 340 C431 462 362 510 270 510 C135 510 45 433 45 235 C45 88 127 -10 249 -10 C331 -10 406 48 438 135 L437 135 C408 56 335 4 254 4 C160 4 98 104 98 255 C98 287 100 315 104 340 L104 340 Z M397 344 L104 343 C123 459 184 507 268 507 C327 507 375 461 396 344 L397 344 L397 344 Z " />
<glyph glyph-name="ecircumflex" unicode="&#xea;" horiz-adv-x="483" d="M288 765 C284 770 276 783 270 783 C264 783 256 770 252 765 L121 563 L128 558 L270 726 L412 558 L419 563 L288 765 L288 765 Z M104 340 L453 340 C431 462 362 510 270 510 C135 510 45 433 45 235 C45 88 127 -10 249 -10 C331 -10 406 48 438 135 L437 135 C408 56 335 4 254 4 C160 4 98 104 98 255 C98 287 100 315 104 340 L104 340 Z M397 344 L104 343 C123 459 184 507 268 507 C327 507 375 461 396 344 L397 344 L397 344 Z " />
<glyph glyph-name="edieresis" unicode="&#xeb;" horiz-adv-x="483" d="M370 647 C370 690 305 691 305 647 C305 605 370 606 370 647 L370 647 Z M235 647 C235 691 170 690 170 647 C170 606 235 605 235 647 L235 647 Z M104 340 L453 340 C431 462 362 510 270 510 C135 510 45 433 45 235 C45 88 127 -10 249 -10 C331 -10 406 48 438 135 L437 135 C408 56 335 4 254 4 C160 4 98 104 98 255 C98 287 100 315 104 340 L104 340 Z M397 344 L104 343 C123 459 184 507 268 507 C327 507 375 461 396 344 L397 344 L397 344 Z " />
<glyph glyph-name="igrave" unicode="&#xec;" horiz-adv-x="206" d="M-91 755 C-91 749 -63 722 -21 686 L118 563 L125 570 L2 709 C-34 751 -61 779 -67 779 C-80 779 -91 768 -91 755 L-91 755 Z M68 480 C83 480 90 473 90 452 L90 41 C90 19 82 10 68 7 L68 0 L162 0 L162 7 C148 10 140 19 140 41 L140 500 L115 500 C101 496 82 491 68 487 L68 480 L68 480 Z " />
<glyph glyph-name="iacute" unicode="&#xed;" horiz-adv-x="206" d="M-91 755 C-91 749 -63 722 -21 686 L118 563 L125 570 L2 709 C-34 751 -61 779 -67 779 C-80 779 -91 768 -91 755 L-91 755 Z M68 480 C83 480 90 473 90 452 L90 41 C90 19 82 10 68 7 L68 0 L162 0 L162 7 C148 10 140 19 140 41 L140 500 L115 500 C101 496 82 491 68 487 L68 480 L68 480 Z " />
<glyph glyph-name="icircumflex" unicode="&#xee;" horiz-adv-x="206" d="M133 765 C129 770 121 783 115 783 C109 783 101 770 97 765 L-34 563 L-27 558 L115 726 L257 558 L264 563 L133 765 L133 765 Z M68 480 C83 480 90 473 90 452 L90 41 C90 19 82 10 68 7 L68 0 L162 0 L162 7 C148 10 140 19 140 41 L140 500 L115 500 C101 496 82 491 68 487 L68 480 L68 480 Z " />
<glyph glyph-name="idieresis" unicode="&#xef;" horiz-adv-x="206" d="M215 647 C215 690 150 691 150 647 C150 605 215 606 215 647 L215 647 Z M80 647 C80 691 15 690 15 647 C15 606 80 605 80 647 L80 647 Z M68 480 C83 480 90 473 90 452 L90 41 C90 19 82 10 68 7 L68 0 L162 0 L162 7 C148 10 140 19 140 41 L140 500 L115 500 C101 496 82 491 68 487 L68 480 L68 480 Z " />
<glyph glyph-name="ntilde" unicode="&#xf1;" horiz-adv-x="409" d="M84 620 C84 660 99 686 122 686 C167 686 226 621 271 621 C303 621 325 659 325 716 L323 716 C323 680 307 656 283 656 C238 656 178 721 133 721 C102 721 82 681 82 620 L84 620 L84 620 Z M49 410 L49 41 C49 19 41 10 27 7 L27 0 L121 0 L121 7 C107 10 99 19 99 41 L99 374 C123 440 173 484 226 484 C280 484 308 427 308 342 L308 41 C308 19 300 10 286 7 L286 0 L380 0 L380 7 C366 10 358 19 358 41 L358 342 C358 443 318 510 241 510 C183 510 127 459 99 382 L99 500 L74 500 C60 496 41 491 27 487 L27 482 C42 475 49 451 49 410 L49 410 Z " />
<glyph glyph-name="ograve" unicode="&#xf2;" horiz-adv-x="570" d="M100 250 C100 404 174 506 285 506 C395 506 469 404 469 250 C469 96 395 -6 285 -6 C174 -6 100 96 100 250 L100 250 Z M45 250 C45 94 141 -10 285 -10 C429 -10 525 94 525 250 C525 406 429 510 285 510 C141 510 45 406 45 250 L45 250 Z M79 755 C79 749 107 722 149 686 L288 563 L295 570 L172 709 C136 751 109 779 103 779 C90 779 79 768 79 755 L79 755 Z " />
<glyph glyph-name="oacute" unicode="&#xf3;" horiz-adv-x="570" d="M292 563 L431 686 C473 724 501 751 501 755 C501 768 490 779 477 779 C473 779 446 751 408 709 L285 570 L292 563 L292 563 Z M100 250 C100 404 174 506 285 506 C395 506 469 404 469 250 C469 96 395 -6 285 -6 C174 -6 100 96 100 250 L100 250 Z M45 250 C45 94 141 -10 285 -10 C429 -10 525 94 525 250 C525 406 429 510 285 510 C141 510 45 406 45 250 L45 250 Z " />
<glyph glyph-name="ocircumflex" unicode="&#xf4;" horiz-adv-x="570" d="M100 250 C100 404 174 506 285 506 C395 506 469 404 469 250 C469 96 395 -6 285 -6 C174 -6 100 96 100 250 L100 250 Z M45 250 C45 94 141 -10 285 -10 C429 -10 525 94 525 250 C525 406 429 510 285 510 C141 510 45 406 45 250 L45 250 Z M303 765 C299 770 291 783 285 783 C279 783 271 770 267 765 L136 563 L143 558 L285 726 L427 558 L434 563 L303 765 L303 765 Z " />
<glyph glyph-name="otilde" unicode="&#xf5;" horiz-adv-x="570" d="M166 620 C166 660 181 686 204 686 C248 686 308 621 352 621 C385 621 407 659 407 716 L404 716 C404 680 388 656 364 656 C319 656 260 721 215 721 C184 721 163 681 163 620 L166 620 L166 620 Z M100 250 C100 404 174 506 285 506 C395 506 469 404 469 250 C469 96 395 -6 285 -6 C174 -6 100 96 100 250 L100 250 Z M45 250 C45 94 141 -10 285 -10 C429 -10 525 94 525 250 C525 406 429 510 285 510 C141 510 45 406 45 250 L45 250 Z " />
<glyph glyph-name="odieresis" unicode="&#xf6;" horiz-adv-x="570" d="M385 647 C385 690 320 691 320 647 C320 605 385 606 385 647 L385 647 Z M250 647 C250 691 185 690 185 647 C185 606 250 605 250 647 L250 647 Z M100 250 C100 404 174 506 285 506 C395 506 469 404 469 250 C469 96 395 -6 285 -6 C174 -6 100 96 100 250 L100 250 Z M45 250 C45 94 141 -10 285 -10 C429 -10 525 94 525 250 C525 406 429 510 285 510 C141 510 45 406 45 250 L45 250 Z " />
<glyph glyph-name="oslash" unicode="&#xf8;" horiz-adv-x="570" d="M47 -12 L113 59 C155 15 214 -10 285 -10 C429 -10 525 94 525 250 C525 327 502 391 461 436 L527 508 L523 512 L457 441 C415 485 356 510 285 510 C141 510 45 406 45 250 C45 173 68 109 109 64 L43 -8 L47 -12 L47 -12 Z M432 414 L134 91 C112 133 100 187 100 250 C100 404 174 506 285 506 C349 506 401 472 433 414 L432 414 L432 414 Z M436 409 C458 367 470 313 470 251 C470 97 396 -5 286 -5 C222 -5 170 29 138 87 L436 409 L436 409 Z " />
<glyph glyph-name="ugrave" unicode="&#xf9;" horiz-adv-x="385" d="M-14 756 C-14 750 14 723 56 687 L195 564 L202 571 L79 710 C43 752 16 780 10 780 C-3 780 -14 769 -14 756 L-14 756 Z M371 23 L366 23 C350 21 339 45 339 84 L339 500 L314 500 L314 501 L267 501 L267 494 C281 491 289 482 289 460 L289 128 C262 66 218 26 175 26 C126 26 94 78 94 156 L94 501 L22 501 L22 494 C36 491 44 482 44 460 L44 156 C44 57 87 -9 152 -9 C202 -9 255 44 289 125 L289 1 L314 1 C320 3 330 8 338 8 C349 11 360 14 369 17 L371 23 L371 23 Z " />
<glyph glyph-name="uacute" unicode="&#xfa;" horiz-adv-x="385" d="M199 564 L338 687 C380 725 408 752 408 756 C408 769 397 780 384 780 C380 780 353 752 315 710 L192 571 L199 564 L199 564 Z M371 23 L366 23 C350 21 339 45 339 84 L339 500 L314 500 L314 501 L267 501 L267 494 C281 491 289 482 289 460 L289 128 C262 66 218 26 175 26 C126 26 94 78 94 156 L94 501 L22 501 L22 494 C36 491 44 482 44 460 L44 156 C44 57 87 -9 152 -9 C202 -9 255 44 289 125 L289 1 L314 1 C320 3 330 8 338 8 C349 11 360 14 369 17 L371 23 L371 23 Z " />
<glyph glyph-name="ucircumflex" unicode="&#xfb;" horiz-adv-x="385" d="M210 766 C206 771 198 784 192 784 C186 784 178 771 174 766 L43 564 L50 559 L192 727 L334 559 L341 564 L210 766 L210 766 Z M371 23 L366 23 C350 21 339 45 339 84 L339 500 L314 500 L314 501 L267 501 L267 494 C281 491 289 482 289 460 L289 128 C262 66 218 26 175 26 C126 26 94 78 94 156 L94 501 L22 501 L22 494 C36 491 44 482 44 460 L44 156 C44 57 87 -9 152 -9 C202 -9 255 44 289 125 L289 1 L314 1 C320 3 330 8 338 8 C349 11 360 14 369 17 L371 23 L371 23 Z " />
<glyph glyph-name="udieresis" unicode="&#xfc;" horiz-adv-x="385" d="M292 648 C292 691 227 692 227 648 C227 606 292 607 292 648 L292 648 Z M157 648 C157 692 92 691 92 648 C92 607 157 606 157 648 L157 648 Z M371 23 L366 23 C350 21 339 45 339 84 L339 500 L314 500 L314 501 L267 501 L267 494 C281 491 289 482 289 460 L289 128 C262 66 218 26 175 26 C126 26 94 78 94 156 L94 501 L22 501 L22 494 C36 491 44 482 44 460 L44 156 C44 57 87 -9 152 -9 C202 -9 255 44 289 125 L289 1 L314 1 C320 3 330 8 338 8 C349 11 360 14 369 17 L371 23 L371 23 Z " />
<glyph glyph-name="ydieresis" unicode="&#xff;" horiz-adv-x="377" d="M304 647 C304 691 239 690 239 647 C239 606 304 605 304 647 L304 647 Z M170 647 C170 690 105 691 105 647 C105 605 170 606 170 647 L170 647 Z M103 500 L7 500 L7 493 C22 489 32 473 44 437 L161 0 C141 -54 122 -108 103 -162 C96 -181 82 -194 76 -194 C54 -194 49 -175 27 -175 C2 -175 -14 -191 -14 -216 C-14 -242 4 -260 31 -260 C53 -260 96 -223 116 -168 C146 -83 176 2 206 87 C245 198 283 310 323 420 C340 466 354 490 370 494 L370 501 L306 501 L306 494 L309 493 C318 491 314 461 301 420 L192 89 L102 420 C91 462 90 491 99 493 L102 494 L103 500 L103 500 Z " />
<glyph glyph-name="Amacron" unicode="&#x100;" horiz-adv-x="582" d="M173 901 L422 901 L422 936 L173 936 L173 901 L173 901 Z M164 9 L150 10 C107 13 90 58 107 124 L155 296 L388 296 L437 116 C450 55 432 14 390 11 L376 10 L376 1 L579 1 L579 10 L571 11 C545 14 515 58 496 123 L326 734 C326 734 318 772 315 772 L310 772 C313 753 296 738 267 734 L270 724 L103 131 C84 62 39 14 -8 11 L-22 10 L-22 1 L163 1 L164 9 L164 9 Z M155 300 L272 717 L387 300 L155 300 L155 300 Z " />
<glyph glyph-name="amacron" unicode="&#x101;" horiz-adv-x="477" d="M118 651 L366 651 L366 686 L118 686 L118 651 L118 651 Z M487 78 L480 81 C475 51 452 31 422 31 C388 31 365 51 365 81 L365 358 C365 463 316 510 242 510 C141 510 73 414 73 360 C73 339 83 325 98 325 C118 325 131 340 131 350 C131 363 111 382 111 392 C111 433 162 506 238 506 C284 506 315 466 315 377 L315 264 C139 163 53 110 53 80 C53 26 94 -10 156 -10 C196 -10 248 17 314 87 C314 31 345 -5 400 -5 C443 -5 477 28 486 78 L487 78 L487 78 Z M314 261 L314 89 C264 37 219 17 181 17 C134 17 103 45 103 86 C103 133 172 178 314 260 L314 261 L314 261 Z " />
<glyph glyph-name="Abreve" unicode="&#x102;" horiz-adv-x="582" d="M192 995 C195 931 238 889 298 889 C358 889 400 931 403 994 L393 995 C391 952 353 924 298 924 C243 924 204 953 202 996 L192 995 L192 995 Z M164 9 L150 10 C107 13 90 58 107 124 L155 296 L388 296 L437 116 C450 55 432 14 390 11 L376 10 L376 1 L579 1 L579 10 L571 11 C545 14 515 58 496 123 L326 734 C326 734 318 772 315 772 L310 772 C313 753 296 738 267 734 L270 724 L103 131 C84 62 39 14 -8 11 L-22 10 L-22 1 L163 1 L164 9 L164 9 Z M155 300 L272 717 L387 300 L155 300 L155 300 Z " />
<glyph glyph-name="abreve" unicode="&#x103;" horiz-adv-x="477" d="M136 745 C139 681 182 639 242 639 C302 639 344 681 347 744 L337 745 C335 702 297 674 242 674 C187 674 149 703 147 746 L136 745 L136 745 Z M487 78 L480 81 C475 51 452 31 422 31 C388 31 365 51 365 81 L365 358 C365 463 316 510 242 510 C141 510 73 414 73 360 C73 339 83 325 98 325 C118 325 131 340 131 350 C131 363 111 382 111 392 C111 433 162 506 238 506 C284 506 315 466 315 377 L315 264 C139 163 53 110 53 80 C53 26 94 -10 156 -10 C196 -10 248 17 314 87 C314 31 345 -5 400 -5 C443 -5 477 28 486 78 L487 78 L487 78 Z M314 261 L314 89 C264 37 219 17 181 17 C134 17 103 45 103 86 C103 133 172 178 314 260 L314 261 L314 261 Z " />
<glyph glyph-name="Cacute" unicode="&#x106;" horiz-adv-x="663" d="M371 813 L510 936 C552 974 580 1001 580 1005 C580 1018 569 1029 556 1029 C552 1029 525 1001 487 959 L364 820 L371 813 L371 813 Z M466 745 C437 755 404 760 365 760 C183 760 62 606 62 375 C62 144 179 -10 355 -10 C395 -10 431 -4 463 7 C464 5 516 31 520 34 C567 62 602 73 607 59 L611 46 L619 46 L619 171 L607 171 L598 152 C569 94 513 40 460 16 C429 2 395 -6 358 -6 C220 -6 128 146 128 375 C128 604 224 756 368 756 C404 756 435 749 463 736 C513 713 567 658 597 598 L606 579 L618 579 L618 701 L610 701 L606 689 C602 677 568 689 523 718 C522 717 468 748 467 745 L466 745 L466 745 Z M611 622 L611 622 L611 622 L611 622 Z M611 128 L611 128 L611 128 L611 128 Z " />
<glyph glyph-name="Ccircumflex" unicode="&#x108;" horiz-adv-x="663" d="M466 745 C437 755 404 760 365 760 C183 760 62 606 62 375 C62 144 179 -10 355 -10 C395 -10 431 -4 463 7 C464 5 516 31 520 34 C567 62 602 73 607 59 L611 46 L619 46 L619 171 L607 171 L598 152 C569 94 513 40 460 16 C429 2 395 -6 358 -6 C220 -6 128 146 128 375 C128 604 224 756 368 756 C404 756 435 749 463 736 C513 713 567 658 597 598 L606 579 L618 579 L618 701 L610 701 L606 689 C602 677 568 689 523 718 C522 717 468 748 467 745 L466 745 L466 745 Z M383 1015 C379 1020 371 1033 365 1033 C359 1033 351 1020 347 1015 L216 813 L223 808 L365 976 L507 808 L514 813 L383 1015 L383 1015 Z M611 622 L611 622 L611 622 L611 622 Z M611 128 L611 128 L611 128 L611 128 Z " />
<glyph glyph-name="Cdot" unicode="&#x10a;" horiz-adv-x="663" d="M396 897 C396 940 332 940 332 897 C332 855 396 855 396 897 L396 897 Z M466 745 C437 755 404 760 365 760 C183 760 62 606 62 375 C62 144 179 -10 355 -10 C395 -10 431 -4 463 7 C464 5 516 31 520 34 C567 62 602 73 607 59 L611 46 L619 46 L619 171 L607 171 L598 152 C569 94 513 40 460 16 C429 2 395 -6 358 -6 C220 -6 128 146 128 375 C128 604 224 756 368 756 C404 756 435 749 463 736 C513 713 567 658 597 598 L606 579 L618 579 L618 701 L610 701 L606 689 C602 677 568 689 523 718 C522 717 468 748 467 745 L466 745 L466 745 Z M611 622 L611 622 L611 622 L611 622 Z M611 128 L611 128 L611 128 L611 128 Z " />
<glyph glyph-name="cdot" unicode="&#x10b;" horiz-adv-x="422" d="M275 647 C275 690 211 690 211 647 C211 605 275 605 275 647 L275 647 Z M392 128 L390 129 C356 53 294 3 235 3 C151 3 95 107 95 264 C95 410 154 507 242 507 C280 507 320 466 342 405 C347 390 357 380 367 380 C387 380 397 390 392 405 C369 468 309 510 243 510 C124 510 45 402 45 239 C45 90 118 -10 228 -10 C290 -10 355 45 392 128 L392 128 Z " />
<glyph glyph-name="Ccaron" unicode="&#x10c;" horiz-adv-x="663" d="M506 1042 L364 874 L222 1042 L215 1037 L346 835 C350 830 358 817 364 817 C370 817 378 830 382 835 L513 1037 L506 1042 L506 1042 Z M466 745 C437 755 404 760 365 760 C183 760 62 606 62 375 C62 144 179 -10 355 -10 C395 -10 431 -4 463 7 C464 5 516 31 520 34 C567 62 602 73 607 59 L611 46 L619 46 L619 171 L607 171 L598 152 C569 94 513 40 460 16 C429 2 395 -6 358 -6 C220 -6 128 146 128 375 C128 604 224 756 368 756 C404 756 435 749 463 736 C513 713 567 658 597 598 L606 579 L618 579 L618 701 L610 701 L606 689 C602 677 568 689 523 718 C522 717 468 748 467 745 L466 745 L466 745 Z M611 622 L611 622 L611 622 L611 622 Z M611 128 L611 128 L611 128 L611 128 Z " />
<glyph glyph-name="ccaron" unicode="&#x10d;" horiz-adv-x="422" d="M385 792 L243 624 L101 792 L94 787 L225 585 C229 580 237 567 243 567 C249 567 257 580 261 585 L392 787 L385 792 L385 792 Z M392 128 L390 129 C356 53 294 3 235 3 C151 3 95 107 95 264 C95 410 154 507 242 507 C280 507 320 466 342 405 C347 390 357 380 367 380 C387 380 397 390 392 405 C369 468 309 510 243 510 C124 510 45 402 45 239 C45 90 118 -10 228 -10 C290 -10 355 45 392 128 L392 128 Z " />
<glyph glyph-name="Dcaron" unicode="&#x10e;" horiz-adv-x="724" d="M501 1042 L358 873 L216 1042 L209 1037 L341 835 C345 830 353 817 359 817 C364 817 372 830 376 835 L508 1037 L501 1042 L501 1042 Z M233 3 C177 3 171 39 171 94 L171 747 L258 747 C487 747 605 598 605 375 C605 129 456 3 233 3 L233 3 Z M70 743 L77 742 C98 740 112 713 112 674 L112 76 C112 37 98 10 77 8 L70 7 L70 0 L237 0 C496 0 669 128 669 375 C669 600 533 750 270 750 L70 750 L70 743 L70 743 Z " />
<glyph glyph-name="dcaron" unicode="&#x10f;" horiz-adv-x="513" d="M540 757 C529 757 520 695 516 650 L505 539 L513 538 L542 645 C554 688 562 730 562 750 C562 755 553 757 540 757 L540 757 Z M499 24 L492 23 C471 19 457 42 457 81 L457 750 L432 750 L407 743 L407 741 C399 739 391 737 384 735 L384 730 C399 723 406 699 406 658 L406 409 C379 466 328 510 275 510 C123 510 44 408 44 254 C44 99 127 -5 252 -5 C309 -5 370 27 406 75 L406 0 L431 0 C451 5 478 12 498 17 L499 24 L499 24 Z M406 375 L406 80 C376 41 324 16 273 16 C166 16 95 116 95 267 C95 404 158 495 281 495 C334 495 386 440 406 375 L406 375 Z " />
<glyph glyph-name="Emacron" unicode="&#x112;" horiz-adv-x="522" d="M156 901 L405 901 L405 936 L156 936 L156 901 L156 901 Z M387 293 L387 481 L378 481 L374 467 C360 420 313 389 256 389 L171 389 L171 747 L316 747 C373 747 424 716 444 669 L450 655 L459 655 C455 683 450 721 447 749 L447 750 L50 750 L50 743 L60 742 C91 740 112 705 112 654 L112 96 C112 45 91 10 60 8 L50 7 L50 0 L472 0 L472 1 L473 1 C478 26 484 60 488 85 L479 85 L473 72 C452 31 390 3 318 3 L265 3 C180 3 171 39 171 94 L171 385 L256 385 C313 385 360 354 374 307 L378 293 L387 293 L387 293 Z " />
<glyph glyph-name="emacron" unicode="&#x113;" horiz-adv-x="483" d="M146 651 L394 651 L394 686 L146 686 L146 651 L146 651 Z M104 340 L453 340 C431 462 362 510 270 510 C135 510 45 433 45 235 C45 88 127 -10 249 -10 C331 -10 406 48 438 135 L437 135 C408 56 335 4 254 4 C160 4 98 104 98 255 C98 287 100 315 104 340 L104 340 Z M397 344 L104 343 C123 459 184 507 268 507 C327 507 375 461 396 344 L397 344 L397 344 Z " />
<glyph glyph-name="Ebreve" unicode="&#x114;" horiz-adv-x="522" d="M175 995 C178 931 221 889 281 889 C341 889 383 931 386 994 L376 995 C374 952 336 924 281 924 C226 924 187 953 185 996 L175 995 L175 995 Z M387 293 L387 481 L378 481 L374 467 C360 420 313 389 256 389 L171 389 L171 747 L316 747 C373 747 424 716 444 669 L450 655 L459 655 C455 683 450 721 447 749 L447 750 L50 750 L50 743 L60 742 C91 740 112 705 112 654 L112 96 C112 45 91 10 60 8 L50 7 L50 0 L472 0 L472 1 L473 1 C478 26 484 60 488 85 L479 85 L473 72 C452 31 390 3 318 3 L265 3 C180 3 171 39 171 94 L171 385 L256 385 C313 385 360 354 374 307 L378 293 L387 293 L387 293 Z " />
<glyph glyph-name="ebreve" unicode="&#x115;" horiz-adv-x="483" d="M164 745 C167 681 210 639 270 639 C330 639 372 681 375 744 L365 745 C363 702 325 674 270 674 C215 674 177 703 175 746 L164 745 L164 745 Z M104 340 L453 340 C431 462 362 510 270 510 C135 510 45 433 45 235 C45 88 127 -10 249 -10 C331 -10 406 48 438 135 L437 135 C408 56 335 4 254 4 C160 4 98 104 98 255 C98 287 100 315 104 340 L104 340 Z M397 344 L104 343 C123 459 184 507 268 507 C327 507 375 461 396 344 L397 344 L397 344 Z " />
<glyph glyph-name="Edot" unicode="&#x116;" horiz-adv-x="522" d="M313 897 C313 941 248 940 248 897 C248 856 313 855 313 897 L313 897 Z M387 293 L387 481 L378 481 L374 467 C360 420 313 389 256 389 L171 389 L171 747 L316 747 C373 747 424 716 444 669 L450 655 L459 655 C455 683 450 721 447 749 L447 750 L50 750 L50 743 L60 742 C91 740 112 705 112 654 L112 96 C112 45 91 10 60 8 L50 7 L50 0 L472 0 L472 1 L473 1 C478 26 484 60 488 85 L479 85 L473 72 C452 31 390 3 318 3 L265 3 C180 3 171 39 171 94 L171 385 L256 385 C313 385 360 354 374 307 L378 293 L387 293 L387 293 Z " />
<glyph glyph-name="edot" unicode="&#x117;" horiz-adv-x="483" d="M302 647 C302 690 238 690 238 647 C238 605 302 605 302 647 L302 647 Z M104 340 L453 340 C431 462 362 510 270 510 C135 510 45 433 45 235 C45 88 127 -10 249 -10 C331 -10 406 48 438 135 L437 135 C408 56 335 4 254 4 C160 4 98 104 98 255 C98 287 100 315 104 340 L104 340 Z M397 344 L104 343 C123 459 184 507 268 507 C327 507 375 461 396 344 L397 344 L397 344 Z " />
<glyph glyph-name="Ecaron" unicode="&#x11a;" horiz-adv-x="522" d="M423 1042 L280 873 L138 1042 L131 1037 L263 835 C267 830 275 817 281 817 C286 817 294 830 298 835 L430 1037 L423 1042 L423 1042 Z M387 293 L387 481 L378 481 L374 467 C360 420 313 389 256 389 L171 389 L171 747 L316 747 C373 747 424 716 444 669 L450 655 L459 655 C455 683 450 721 447 749 L447 750 L50 750 L50 743 L60 742 C91 740 112 705 112 654 L112 96 C112 45 91 10 60 8 L50 7 L50 0 L472 0 L472 1 L473 1 C478 26 484 60 488 85 L479 85 L473 72 C452 31 390 3 318 3 L265 3 C180 3 171 39 171 94 L171 385 L256 385 C313 385 360 354 374 307 L378 293 L387 293 L387 293 Z " />
<glyph glyph-name="ecaron" unicode="&#x11b;" horiz-adv-x="483" d="M412 792 L270 624 L128 792 L121 787 L252 585 C256 580 264 567 270 567 C276 567 284 580 288 585 L419 787 L412 792 L412 792 Z M104 340 L453 340 C431 462 362 510 270 510 C135 510 45 433 45 235 C45 88 127 -10 249 -10 C331 -10 406 48 438 135 L437 135 C408 56 335 4 254 4 C160 4 98 104 98 255 C98 287 100 315 104 340 L104 340 Z M397 344 L104 343 C123 459 184 507 268 507 C327 507 375 461 396 344 L397 344 L397 344 Z " />
<glyph glyph-name="Gcircumflex" unicode="&#x11c;" horiz-adv-x="696" d="M617 579 L617 701 L609 701 L605 689 C601 677 567 689 522 718 C521 717 467 748 466 745 C437 755 404 760 365 760 C183 760 62 606 62 375 C62 144 182 -10 362 -10 C438 -10 504 1 565 20 L598 28 L598 31 C624 40 649 50 674 61 L673 64 C649 53 625 43 599 34 L599 210 C599 270 617 311 643 314 L651 315 L651 324 L488 324 L488 315 L496 314 C522 311 540 270 540 210 C540 162 540 108 540 69 C534 33 479 8 397 3 C420 4 448 6 473 8 C441 4 407 2 370 2 C224 2 126 151 126 375 C126 604 222 756 366 756 C402 756 433 749 461 736 C511 713 565 658 595 598 L604 579 L617 579 L617 579 Z M381 1015 C377 1020 369 1033 363 1033 C357 1033 349 1020 345 1015 L214 813 L221 808 L363 976 L505 808 L512 813 L381 1015 L381 1015 Z M609 622 L609 622 L609 622 L609 622 Z M396 3 C387 3 378 3 369 3 C377 3 386 3 396 3 L396 3 Z " />
<glyph glyph-name="Gbreve" unicode="&#x11e;" horiz-adv-x="696" d="M258 995 C261 931 304 889 364 889 C424 889 466 931 469 994 L459 995 C457 952 419 924 364 924 C309 924 271 953 269 996 L258 995 L258 995 Z M617 579 L617 701 L609 701 L605 689 C601 677 567 689 522 718 C521 717 467 748 466 745 C437 755 404 760 365 760 C183 760 62 606 62 375 C62 144 182 -10 362 -10 C438 -10 504 1 565 20 L598 28 L598 31 C624 40 649 50 674 61 L673 64 C649 53 625 43 599 34 L599 210 C599 270 617 311 643 314 L651 315 L651 324 L488 324 L488 315 L496 314 C522 311 540 270 540 210 C540 162 540 108 540 69 C534 33 479 8 397 3 C420 4 448 6 473 8 C441 4 407 2 370 2 C224 2 126 151 126 375 C126 604 222 756 366 756 C402 756 433 749 461 736 C511 713 565 658 595 598 L604 579 L617 579 L617 579 Z M609 622 L609 622 L609 622 L609 622 Z M396 3 C387 3 378 3 369 3 C377 3 386 3 396 3 L396 3 Z " />
<glyph glyph-name="gbreve" unicode="&#x11f;" horiz-adv-x="486" d="M137 745 C140 681 183 639 243 639 C303 639 345 681 348 744 L338 745 C336 702 298 674 243 674 C188 674 150 703 148 746 L137 745 L137 745 Z M505 459 C505 477 492 489 473 489 C434 489 399 467 381 433 C355 481 306 510 242 510 C147 510 83 446 83 350 C83 263 134 202 213 190 C120 185 59 153 59 107 C59 59 95 25 151 18 C91 -1 52 -44 52 -94 C52 -176 132 -231 251 -231 C370 -231 450 -171 450 -80 C450 8 403 66 281 66 L175 66 C123 66 88 88 88 121 C88 161 150 187 242 187 C337 187 400 252 400 349 C400 379 394 406 383 429 C396 447 417 458 441 458 C453 458 470 438 482 438 C495 438 503 447 503 460 L505 459 L505 459 Z M241 192 C176 192 132 256 132 351 C132 445 176 508 241 508 C306 508 349 445 349 351 C349 256 306 192 241 192 L241 192 Z M155 19 C160 19 165 19 171 19 L275 19 C371 19 408 -24 408 -88 C408 -170 345 -225 251 -225 C156 -225 92 -167 92 -79 C92 -34 116 4 154 19 L155 19 L155 19 Z " />
<glyph glyph-name="Gdot" unicode="&#x120;" horiz-adv-x="696" d="M396 897 C396 940 332 940 332 897 C332 855 396 855 396 897 L396 897 Z M617 579 L617 701 L609 701 L605 689 C601 677 567 689 522 718 C521 717 467 748 466 745 C437 755 404 760 365 760 C183 760 62 606 62 375 C62 144 182 -10 362 -10 C438 -10 504 1 565 20 L598 28 L598 31 C624 40 649 50 674 61 L673 64 C649 53 625 43 599 34 L599 210 C599 270 617 311 643 314 L651 315 L651 324 L488 324 L488 315 L496 314 C522 311 540 270 540 210 C540 162 540 108 540 69 C534 33 479 8 397 3 C420 4 448 6 473 8 C441 4 407 2 370 2 C224 2 126 151 126 375 C126 604 222 756 366 756 C402 756 433 749 461 736 C511 713 565 658 595 598 L604 579 L617 579 L617 579 Z M609 622 L609 622 L609 622 L609 622 Z M396 3 C387 3 378 3 369 3 C377 3 386 3 396 3 L396 3 Z " />
<glyph glyph-name="gdot" unicode="&#x121;" horiz-adv-x="486" d="M275 647 C275 690 211 690 211 647 C211 605 275 605 275 647 L275 647 Z M505 459 C505 477 492 489 473 489 C434 489 399 467 381 433 C355 481 306 510 242 510 C147 510 83 446 83 350 C83 263 134 202 213 190 C120 185 59 153 59 107 C59 59 95 25 151 18 C91 -1 52 -44 52 -94 C52 -176 132 -231 251 -231 C370 -231 450 -171 450 -80 C450 8 403 66 281 66 L175 66 C123 66 88 88 88 121 C88 161 150 187 242 187 C337 187 400 252 400 349 C400 379 394 406 383 429 C396 447 417 458 441 458 C453 458 470 438 482 438 C495 438 503 447 503 460 L505 459 L505 459 Z M241 192 C176 192 132 256 132 351 C132 445 176 508 241 508 C306 508 349 445 349 351 C349 256 306 192 241 192 L241 192 Z M155 19 C160 19 165 19 171 19 L275 19 C371 19 408 -24 408 -88 C408 -170 345 -225 251 -225 C156 -225 92 -167 92 -79 C92 -34 116 4 154 19 L155 19 L155 19 Z " />
<glyph glyph-name="Hcircumflex" unicode="&#x124;" horiz-adv-x="692" d="M388 1015 C384 1020 376 1033 370 1033 C364 1033 356 1020 352 1015 L221 813 L228 808 L370 976 L512 808 L519 813 L388 1015 L388 1015 Z M633 7 L626 8 C605 10 591 37 591 76 L591 674 C591 713 605 740 626 742 L633 743 L633 750 L491 750 L491 743 L498 742 C519 740 533 713 533 674 L533 387 L207 387 L207 674 C207 713 221 740 242 742 L249 743 L249 750 L106 750 L106 743 L113 742 C134 740 148 713 148 674 L148 76 C148 37 134 10 113 8 L106 7 L106 0 L249 0 L249 7 L242 8 C221 10 207 37 207 76 L207 383 L533 383 L533 76 C533 37 519 10 498 8 L491 7 L491 0 L633 0 L633 7 L633 7 Z " />
<glyph glyph-name="Itilde" unicode="&#x128;" horiz-adv-x="277" d="M28 870 C28 910 43 936 66 936 C110 936 170 871 214 871 C247 871 269 909 269 966 L266 966 C266 930 250 906 226 906 C181 906 122 971 77 971 C46 971 25 931 25 870 L28 870 L28 870 Z M218 7 L211 8 C190 10 176 37 176 76 L176 674 C176 713 190 740 211 742 L218 743 L218 750 L75 750 L75 743 L82 742 C103 740 117 713 117 674 L117 76 C117 37 103 10 82 8 L75 7 L75 0 L218 0 L218 7 L218 7 Z " />
<glyph glyph-name="itilde" unicode="&#x129;" horiz-adv-x="206" d="M-4 620 C-4 660 11 686 34 686 C78 686 138 621 182 621 C215 621 237 659 237 716 L234 716 C234 680 218 656 194 656 C149 656 90 721 45 721 C14 721 -7 681 -7 620 L-4 620 L-4 620 Z M68 480 C83 480 90 473 90 452 L90 41 C90 19 82 10 68 7 L68 0 L162 0 L162 7 C148 10 140 19 140 41 L140 500 L115 500 C101 496 82 491 68 487 L68 480 L68 480 Z " />
<glyph glyph-name="Imacron" unicode="&#x12a;" horiz-adv-x="277" d="M23 901 L271 901 L271 936 L23 936 L23 901 L23 901 Z M218 7 L211 8 C190 10 176 37 176 76 L176 674 C176 713 190 740 211 742 L218 743 L218 750 L75 750 L75 743 L82 742 C103 740 117 713 117 674 L117 76 C117 37 103 10 82 8 L75 7 L75 0 L218 0 L218 7 L218 7 Z " />
<glyph glyph-name="imacron" unicode="&#x12b;" horiz-adv-x="206" d="M-9 651 L239 651 L239 686 L-9 686 L-9 651 L-9 651 Z M68 480 C83 480 90 473 90 452 L90 41 C90 19 82 10 68 7 L68 0 L162 0 L162 7 C148 10 140 19 140 41 L140 500 L115 500 C101 496 82 491 68 487 L68 480 L68 480 Z " />
<glyph glyph-name="Ibreve" unicode="&#x12c;" horiz-adv-x="277" d="M41 995 C44 931 87 889 147 889 C207 889 249 931 252 994 L242 995 C240 952 202 924 147 924 C92 924 54 953 52 996 L41 995 L41 995 Z M218 7 L211 8 C190 10 176 37 176 76 L176 674 C176 713 190 740 211 742 L218 743 L218 750 L75 750 L75 743 L82 742 C103 740 117 713 117 674 L117 76 C117 37 103 10 82 8 L75 7 L75 0 L218 0 L218 7 L218 7 Z " />
<glyph glyph-name="ibreve" unicode="&#x12d;" horiz-adv-x="206" d="M9 745 C12 681 55 639 115 639 C175 639 217 681 220 744 L210 745 C208 702 170 674 115 674 C60 674 22 703 20 746 L9 745 L9 745 Z M68 480 C83 480 90 473 90 452 L90 41 C90 19 82 10 68 7 L68 0 L162 0 L162 7 C148 10 140 19 140 41 L140 500 L115 500 C101 496 82 491 68 487 L68 480 L68 480 Z " />
<glyph glyph-name="Idot" unicode="&#x130;" horiz-adv-x="277" d="M179 897 C179 940 115 940 115 897 C115 855 179 855 179 897 L179 897 Z M218 7 L211 8 C190 10 176 37 176 76 L176 674 C176 713 190 740 211 742 L218 743 L218 750 L75 750 L75 743 L82 742 C103 740 117 713 117 674 L117 76 C117 37 103 10 82 8 L75 7 L75 0 L218 0 L218 7 L218 7 Z " />
<glyph glyph-name="dotlessi" unicode="&#x131;" horiz-adv-x="206" d="M68 480 C83 480 90 473 90 452 L90 41 C90 19 82 10 68 7 L68 0 L162 0 L162 7 C148 10 140 19 140 41 L140 500 L115 500 C101 496 82 491 68 487 L68 480 L68 480 Z " />
<glyph glyph-name="Jcircumflex" unicode="&#x134;" horiz-adv-x="277" d="M165 1015 C161 1020 153 1033 147 1033 C141 1033 133 1020 129 1015 L-2 813 L5 808 L147 976 L289 808 L296 813 L165 1015 L165 1015 Z M218 750 L75 750 L75 743 L82 742 C103 740 117 713 117 674 L117 -34 C117 -185 51 -214 4 -214 C-25 -214 -11 -167 -40 -167 C-56 -167 -67 -177 -67 -193 C-67 -209 -40 -220 0 -220 C74 -220 176 -172 176 78 L176 674 C176 713 190 740 211 742 L218 743 L218 750 L218 750 Z " />
<glyph glyph-name="Lacute" unicode="&#x139;" horiz-adv-x="499" d="M154 813 L293 936 C335 974 363 1001 363 1005 C363 1018 352 1029 339 1029 C335 1029 308 1001 270 959 L147 820 L154 813 L154 813 Z M218 750 L75 750 L75 743 L82 742 C103 740 117 713 117 674 L117 76 C117 37 103 10 82 8 L75 7 L75 0 L468 0 L468 5 C472 31 478 66 483 92 L474 92 L468 79 C447 38 385 10 313 10 L270 10 C185 10 176 44 176 94 L176 674 C176 713 190 740 211 742 L218 743 L218 750 L218 750 Z " />
<glyph glyph-name="Lcaron" unicode="&#x13d;" horiz-adv-x="499" d="M314 809 C303 809 295 747 291 702 L280 591 L289 590 L317 697 C328 739 336 781 336 802 C336 807 327 809 314 809 L314 809 Z M218 750 L75 750 L75 743 L82 742 C103 740 117 713 117 674 L117 76 C117 37 103 10 82 8 L75 7 L75 0 L468 0 L468 5 C472 31 478 66 483 92 L474 92 L468 79 C447 38 385 10 313 10 L270 10 C185 10 176 44 176 94 L176 674 C176 713 190 740 211 742 L218 743 L218 750 L218 750 Z " />
<glyph glyph-name="lcaron" unicode="&#x13e;" horiz-adv-x="150" d="M182 759 C171 759 162 697 158 652 L147 541 L155 540 L184 647 C196 690 204 732 204 752 C204 757 195 759 182 759 L182 759 Z M49 660 L49 41 C49 19 41 10 27 7 L27 0 L121 0 L121 7 C107 10 99 19 99 41 L99 750 L74 750 C60 746 41 741 27 737 L27 732 C42 725 49 701 49 660 L49 660 Z " />
<glyph glyph-name="Nacute" unicode="&#x143;" horiz-adv-x="636" d="M223 813 L362 936 C404 974 432 1001 432 1005 C432 1018 421 1029 408 1029 C404 1029 377 1001 339 959 L216 820 L223 813 L223 813 Z M16 743 C45 739 71 720 98 678 L97 77 C97 38 83 11 62 9 L55 8 L55 1 L157 1 L157 8 L150 9 C129 11 115 39 115 78 L113 655 C248 437 383 219 518 1 L530 1 L534 675 C535 713 548 741 569 743 L575 744 L575 751 L475 751 L475 744 L482 743 C503 741 517 714 517 675 L518 113 L125 751 L15 751 L16 743 L16 743 Z M518 113 L518 113 L518 113 Z " />
<glyph glyph-name="Ncaron" unicode="&#x147;" horiz-adv-x="636" d="M458 1042 L316 874 L174 1042 L167 1037 L298 835 C302 830 310 817 316 817 C322 817 330 830 334 835 L465 1037 L458 1042 L458 1042 Z M16 743 C45 739 71 720 98 678 L97 77 C97 38 83 11 62 9 L55 8 L55 1 L157 1 L157 8 L150 9 C129 11 115 39 115 78 L113 655 C248 437 383 219 518 1 L530 1 L534 675 C535 713 548 741 569 743 L575 744 L575 751 L475 751 L475 744 L482 743 C503 741 517 714 517 675 L518 113 L125 751 L15 751 L16 743 L16 743 Z M518 113 L518 113 L518 113 Z " />
<glyph glyph-name="ncaron" unicode="&#x148;" horiz-adv-x="409" d="M346 792 L203 623 L61 792 L54 787 L186 585 C190 580 198 567 204 567 C209 567 217 580 221 585 L353 787 L346 792 L346 792 Z M49 410 L49 41 C49 19 41 10 27 7 L27 0 L121 0 L121 7 C107 10 99 19 99 41 L99 374 C123 440 173 484 226 484 C280 484 308 427 308 342 L308 41 C308 19 300 10 286 7 L286 0 L380 0 L380 7 C366 10 358 19 358 41 L358 342 C358 443 318 510 241 510 C183 510 127 459 99 382 L99 500 L74 500 C60 496 41 491 27 487 L27 482 C42 475 49 451 49 410 L49 410 Z " />
<glyph glyph-name="Omacron" unicode="&#x14c;" horiz-adv-x="763" d="M256 901 L504 901 L504 936 L256 936 L256 901 L256 901 Z M125 375 C125 604 227 756 379 756 C538 756 644 604 644 375 C644 146 534 -6 370 -6 C223 -6 125 146 125 375 L125 375 Z M61 375 C61 144 185 -10 370 -10 C573 -10 708 144 708 375 C708 606 577 760 380 760 C189 760 61 606 61 375 L61 375 Z " />
<glyph glyph-name="omacron" unicode="&#x14d;" horiz-adv-x="570" d="M161 651 L409 651 L409 686 L161 686 L161 651 L161 651 Z M100 250 C100 404 174 506 285 506 C395 506 469 404 469 250 C469 96 395 -6 285 -6 C174 -6 100 96 100 250 L100 250 Z M45 250 C45 94 141 -10 285 -10 C429 -10 525 94 525 250 C525 406 429 510 285 510 C141 510 45 406 45 250 L45 250 Z " />
<glyph glyph-name="Obreve" unicode="&#x14e;" horiz-adv-x="763" d="M274 995 C277 931 320 889 380 889 C440 889 482 931 485 994 L475 995 C473 952 435 924 380 924 C325 924 287 953 285 996 L274 995 L274 995 Z M125 375 C125 604 227 756 379 756 C538 756 644 604 644 375 C644 146 534 -6 370 -6 C223 -6 125 146 125 375 L125 375 Z M61 375 C61 144 185 -10 370 -10 C573 -10 708 144 708 375 C708 606 577 760 380 760 C189 760 61 606 61 375 L61 375 Z " />
<glyph glyph-name="obreve" unicode="&#x14f;" horiz-adv-x="570" d="M179 745 C182 681 225 639 285 639 C345 639 387 681 390 744 L380 745 C378 702 340 674 285 674 C230 674 192 703 190 746 L179 745 L179 745 Z M100 250 C100 404 174 506 285 506 C395 506 469 404 469 250 C469 96 395 -6 285 -6 C174 -6 100 96 100 250 L100 250 Z M45 250 C45 94 141 -10 285 -10 C429 -10 525 94 525 250 C525 406 429 510 285 510 C141 510 45 406 45 250 L45 250 Z " />
<glyph glyph-name="Racute" unicode="&#x154;" horiz-adv-x="590" d="M272 813 L411 936 C453 974 481 1001 481 1005 C481 1018 470 1029 457 1029 C453 1029 426 1001 388 959 L265 820 L272 813 L272 813 Z M70 743 L77 742 C98 740 112 713 112 674 L112 76 C112 37 98 10 77 8 L70 7 L70 0 L213 0 L213 7 L206 8 C185 10 171 37 171 76 L171 365 L273 365 C285 331 336 219 408 72 C442 3 448 0 580 0 L580 7 C511 7 507 10 477 72 C404 222 351 332 333 369 C425 384 483 438 483 540 C483 666 401 750 277 750 L70 750 L70 743 L70 743 Z M171 380 L171 738 L259 738 C354 738 418 664 418 552 C418 433 362 380 277 380 L171 380 L171 380 Z " />
<glyph glyph-name="Rcaron" unicode="&#x158;" horiz-adv-x="590" d="M407 1042 L265 874 L123 1042 L116 1037 L247 835 C251 830 259 817 265 817 C271 817 279 830 283 835 L414 1037 L407 1042 L407 1042 Z M70 743 L77 742 C98 740 112 713 112 674 L112 76 C112 37 98 10 77 8 L70 7 L70 0 L213 0 L213 7 L206 8 C185 10 171 37 171 76 L171 365 L273 365 C285 331 336 219 408 72 C442 3 448 0 580 0 L580 7 C511 7 507 10 477 72 C404 222 351 332 333 369 C425 384 483 438 483 540 C483 666 401 750 277 750 L70 750 L70 743 L70 743 Z M171 380 L171 738 L259 738 C354 738 418 664 418 552 C418 433 362 380 277 380 L171 380 L171 380 Z " />
<glyph glyph-name="rcaron" unicode="&#x159;" horiz-adv-x="278" d="M297 792 L154 623 L12 792 L5 787 L137 585 C141 580 149 567 155 567 C160 567 168 580 172 585 L304 787 L297 792 L297 792 Z M50 410 L50 41 C50 19 42 10 28 7 L28 0 L122 0 L122 7 C108 10 100 19 100 41 L100 394 C111 450 148 486 197 486 C204 486 209 472 209 451 C209 414 268 413 268 451 C268 486 249 509 220 509 C158 509 112 467 99 401 L99 500 L74 500 C60 496 41 491 27 487 L27 482 C42 475 49 451 49 410 L50 410 L50 410 Z " />
<glyph glyph-name="Sacute" unicode="&#x15a;" horiz-adv-x="512" d="M264 813 L403 936 C445 974 473 1001 473 1005 C473 1018 462 1029 448 1029 C444 1029 418 1001 380 959 L258 820 L264 813 L264 813 Z M267 762 L267 758 C150 775 74 698 74 576 C74 490 139 403 265 344 C371 294 426 227 426 165 C426 63 369 -5 283 -5 C255 -5 227 2 200 15 C152 41 103 101 75 169 L66 192 L54 192 L54 43 L62 43 L66 59 C70 74 101 65 145 36 C164 22 184 11 206 1 L207 2 C232 -7 258 -12 284 -12 C398 -12 474 65 474 181 C474 266 415 351 301 404 C182 460 120 531 120 596 C120 711 183 775 282 747 C333 731 383 681 411 617 L420 595 L432 595 L432 708 L424 708 L420 700 C417 695 388 707 348 729 C325 742 297 755 270 760 L267 762 L267 762 Z " />
<glyph glyph-name="Scircumflex" unicode="&#x15c;" horiz-adv-x="512" d="M267 762 L267 758 C150 775 74 698 74 576 C74 490 139 403 265 344 C371 294 426 227 426 165 C426 63 369 -5 283 -5 C255 -5 227 2 200 15 C152 41 103 101 75 169 L66 192 L54 192 L54 43 L62 43 L66 59 C70 74 101 65 145 36 C164 22 184 11 206 1 L207 2 C232 -7 258 -12 284 -12 C398 -12 474 65 474 181 C474 266 415 351 301 404 C182 460 120 531 120 596 C120 711 183 775 282 747 C333 731 383 681 411 617 L420 595 L432 595 L432 708 L424 708 L420 700 C417 695 388 707 348 729 C325 742 297 755 270 760 L267 762 L267 762 Z M278 1013 C274 1018 266 1031 261 1031 C255 1031 247 1018 243 1013 L111 811 L118 806 L260 975 L403 806 L410 811 L278 1013 L278 1013 Z " />
<glyph glyph-name="Scaron" unicode="&#x160;" horiz-adv-x="512" d="M400 1042 L257 873 L115 1042 L108 1037 L240 835 C244 830 252 817 258 817 C263 817 271 830 275 835 L407 1037 L400 1042 L400 1042 Z M267 762 L267 758 C150 775 74 698 74 576 C74 490 139 403 265 344 C371 294 426 227 426 165 C426 63 369 -5 283 -5 C255 -5 227 2 200 15 C152 41 103 101 75 169 L66 192 L54 192 L54 43 L62 43 L66 59 C70 74 101 65 145 36 C164 22 184 11 206 1 L207 2 C232 -7 258 -12 284 -12 C398 -12 474 65 474 181 C474 266 415 351 301 404 C182 460 120 531 120 596 C120 711 183 775 282 747 C333 731 383 681 411 617 L420 595 L432 595 L432 708 L424 708 L420 700 C417 695 388 707 348 729 C325 742 297 755 270 760 L267 762 L267 762 Z " />
<glyph glyph-name="scaron" unicode="&#x161;" horiz-adv-x="387" d="M348 792 L206 624 L64 792 L57 787 L188 585 C192 580 200 567 206 567 C212 567 220 580 224 585 L355 787 L348 792 L348 792 Z M309 388 L309 466 L303 466 L301 464 C307 471 280 485 233 499 C219 507 204 512 189 514 L188 510 C111 516 61 465 61 390 C61 324 106 264 193 232 C262 207 298 159 298 108 C298 40 261 -6 205 -6 C185 -6 167 1 153 9 L153 10 C150 11 147 12 144 13 C111 36 83 76 69 121 L65 132 L59 132 L59 44 L65 44 L68 49 C66 45 96 27 144 6 C153 0 162 -5 171 -8 L172 -5 C182 -8 193 -9 204 -9 C283 -9 335 43 335 122 C335 185 294 241 215 270 C136 299 96 351 96 407 C96 468 128 508 176 508 C177 508 186 508 186 507 C194 506 202 504 210 501 L209 499 C215 497 221 495 227 492 C258 474 284 441 297 399 L301 388 L309 388 L309 388 Z " />
<glyph glyph-name="Tcaron" unicode="&#x164;" horiz-adv-x="740" d="M508 1042 L366 874 L224 1042 L217 1037 L348 835 C352 830 360 817 366 817 C372 817 380 830 384 835 L515 1037 L508 1042 L508 1042 Z M686 750 L683 750 C683 751 683 752 683 753 L676 753 C654 749 604 751 536 751 L203 751 C134 751 85 749 63 753 L56 753 C55 750 53 746 52 743 L56 743 L56 742 C45 715 31 680 20 654 L29 654 L38 667 C68 708 128 736 188 736 L342 736 L342 77 C342 38 328 11 307 9 L300 8 L300 1 L443 1 L443 8 L436 9 C415 11 401 38 401 77 L401 736 L548 736 C608 736 668 708 699 667 L708 654 L717 654 C708 678 695 710 684 736 L687 736 L686 750 L686 750 Z " />
<glyph glyph-name="tcaron" unicode="&#x165;" horiz-adv-x="317" d="M277 500 L141 500 L141 620 L137 620 L26 500 L26 490 L91 490 L91 129 C91 29 134 -10 199 -10 C234 -10 277 21 307 68 L302 71 C280 37 245 14 214 14 C169 14 139 43 139 118 L141 474 L277 474 L277 500 L277 500 Z M360 759 C349 759 340 697 336 652 L325 541 L333 540 L362 647 C374 690 382 732 382 752 C382 757 373 759 360 759 L360 759 Z " />
<glyph glyph-name="Utilde" unicode="&#x168;" horiz-adv-x="568" d="M168 872 C168 912 183 938 206 938 C250 938 310 873 354 873 C387 873 409 911 409 968 L406 968 C406 932 390 908 366 908 C321 908 262 973 217 973 C186 973 165 933 165 872 L168 872 L168 872 Z M539 28 L532 27 C511 24 497 47 497 86 L497 750 L468 750 L468 752 L397 752 L397 745 L404 744 C425 742 439 715 439 676 L439 169 C400 84 313 28 222 28 C170 28 136 102 136 213 L136 750 L107 750 L107 752 L35 752 L35 745 L42 744 C63 742 77 715 77 676 L77 213 C77 79 126 -10 199 -10 C300 -10 396 51 439 143 L439 0 L468 0 L497 8 L497 9 C512 13 527 17 539 21 L539 28 L539 28 Z " />
<glyph glyph-name="utilde" unicode="&#x169;" horiz-adv-x="385" d="M73 621 C73 661 88 687 111 687 C155 687 215 622 259 622 C292 622 314 660 314 717 L311 717 C311 681 295 657 271 657 C226 657 167 722 122 722 C91 722 70 682 70 621 L73 621 L73 621 Z M371 23 L366 23 C350 21 339 45 339 84 L339 500 L314 500 L314 501 L267 501 L267 494 C281 491 289 482 289 460 L289 128 C262 66 218 26 175 26 C126 26 94 78 94 156 L94 501 L22 501 L22 494 C36 491 44 482 44 460 L44 156 C44 57 87 -9 152 -9 C202 -9 255 44 289 125 L289 1 L314 1 C320 3 330 8 338 8 C349 11 360 14 369 17 L371 23 L371 23 Z " />
<glyph glyph-name="Umacron" unicode="&#x16a;" horiz-adv-x="568" d="M163 903 L411 903 L411 938 L163 938 L163 903 L163 903 Z M539 28 L532 27 C511 24 497 47 497 86 L497 750 L468 750 L468 752 L397 752 L397 745 L404 744 C425 742 439 715 439 676 L439 169 C400 84 313 28 222 28 C170 28 136 102 136 213 L136 750 L107 750 L107 752 L35 752 L35 745 L42 744 C63 742 77 715 77 676 L77 213 C77 79 126 -10 199 -10 C300 -10 396 51 439 143 L439 0 L468 0 L497 8 L497 9 C512 13 527 17 539 21 L539 28 L539 28 Z " />
<glyph glyph-name="umacron" unicode="&#x16b;" horiz-adv-x="385" d="M68 652 L316 652 L316 687 L68 687 L68 652 L68 652 Z M371 23 L366 23 C350 21 339 45 339 84 L339 500 L314 500 L314 501 L267 501 L267 494 C281 491 289 482 289 460 L289 128 C262 66 218 26 175 26 C126 26 94 78 94 156 L94 501 L22 501 L22 494 C36 491 44 482 44 460 L44 156 C44 57 87 -9 152 -9 C202 -9 255 44 289 125 L289 1 L314 1 C320 3 330 8 338 8 C349 11 360 14 369 17 L371 23 L371 23 Z " />
<glyph glyph-name="Ubreve" unicode="&#x16c;" horiz-adv-x="568" d="M181 997 C184 933 227 891 287 891 C347 891 389 933 392 996 L382 997 C380 954 342 926 287 926 C232 926 194 955 192 998 L181 997 L181 997 Z M539 28 L532 27 C511 24 497 47 497 86 L497 750 L468 750 L468 752 L397 752 L397 745 L404 744 C425 742 439 715 439 676 L439 169 C400 84 313 28 222 28 C170 28 136 102 136 213 L136 750 L107 750 L107 752 L35 752 L35 745 L42 744 C63 742 77 715 77 676 L77 213 C77 79 126 -10 199 -10 C300 -10 396 51 439 143 L439 0 L468 0 L497 8 L497 9 C512 13 527 17 539 21 L539 28 L539 28 Z " />
<glyph glyph-name="ubreve" unicode="&#x16d;" horiz-adv-x="385" d="M86 746 C89 682 132 640 192 640 C252 640 294 682 297 745 L287 746 C285 703 247 675 192 675 C137 675 99 704 97 747 L86 746 L86 746 Z M371 23 L366 23 C350 21 339 45 339 84 L339 500 L314 500 L314 501 L267 501 L267 494 C281 491 289 482 289 460 L289 128 C262 66 218 26 175 26 C126 26 94 78 94 156 L94 501 L22 501 L22 494 C36 491 44 482 44 460 L44 156 C44 57 87 -9 152 -9 C202 -9 255 44 289 125 L289 1 L314 1 C320 3 330 8 338 8 C349 11 360 14 369 17 L371 23 L371 23 Z " />
<glyph glyph-name="Uring" unicode="&#x16e;" horiz-adv-x="568" d="M205 907 C205 957 238 990 287 990 C336 990 369 957 369 907 C369 862 331 824 287 824 C243 824 205 862 205 907 L205 907 Z M191 907 C191 856 235 812 287 812 C339 812 383 856 383 907 C383 964 345 1002 287 1002 C229 1002 191 964 191 907 L191 907 Z M539 28 L532 27 C511 24 497 47 497 86 L497 750 L468 750 L468 752 L397 752 L397 745 L404 744 C425 742 439 715 439 676 L439 169 C400 84 313 28 222 28 C170 28 136 102 136 213 L136 750 L107 750 L107 752 L35 752 L35 745 L42 744 C63 742 77 715 77 676 L77 213 C77 79 126 -10 199 -10 C300 -10 396 51 439 143 L439 0 L468 0 L497 8 L497 9 C512 13 527 17 539 21 L539 28 L539 28 Z " />
<glyph glyph-name="uring" unicode="&#x16f;" horiz-adv-x="385" d="M110 656 C110 706 143 739 192 739 C241 739 274 706 274 656 C274 611 236 573 192 573 C148 573 110 611 110 656 L110 656 Z M96 656 C96 605 140 561 192 561 C244 561 288 605 288 656 C288 713 250 751 192 751 C134 751 96 713 96 656 L96 656 Z M371 23 L366 23 C350 21 339 45 339 84 L339 500 L314 500 L314 501 L267 501 L267 494 C281 491 289 482 289 460 L289 128 C262 66 218 26 175 26 C126 26 94 78 94 156 L94 501 L22 501 L22 494 C36 491 44 482 44 460 L44 156 C44 57 87 -9 152 -9 C202 -9 255 44 289 125 L289 1 L314 1 C320 3 330 8 338 8 C349 11 360 14 369 17 L371 23 L371 23 Z " />
<glyph glyph-name="Wcircumflex" unicode="&#x174;" horiz-adv-x="907" d="M895 750 L721 750 L721 741 L736 740 C784 737 807 701 796 648 L643 80 L491 640 C477 696 493 736 535 739 L548 740 L548 749 L362 749 L362 740 L368 739 C386 736 409 699 426 645 C440 596 455 547 469 499 L303 70 L137 640 C121 697 130 737 162 740 L172 741 L172 750 L11 750 L11 741 L16 740 C33 737 56 697 73 640 C139 423 205 206 272 -11 L287 -11 L478 470 C525 310 572 149 619 -11 L634 -11 L816 640 C833 696 860 736 887 739 L895 740 L895 750 L895 750 Z M461 1014 C457 1019 449 1032 443 1032 C437 1032 429 1019 425 1014 L294 812 L301 807 L443 975 L585 807 L592 812 L461 1014 L461 1014 Z " />
<glyph glyph-name="Ycircumflex" unicode="&#x176;" horiz-adv-x="565" d="M166 750 L11 750 L11 743 C31 739 53 715 77 669 L77 669 L259 329 L259 96 C259 45 238 10 207 8 L197 7 L197 0 L380 0 L380 7 L370 8 C339 10 318 45 318 96 L318 338 L486 682 C509 722 534 739 567 743 L567 750 L429 750 L429 743 L441 742 C480 740 491 710 472 669 L316 343 L141 678 C124 715 130 740 156 742 L165 743 L166 750 L166 750 Z M305 1015 C301 1020 293 1033 288 1033 C282 1033 274 1020 270 1015 L138 813 L145 808 L287 977 L430 808 L437 813 L305 1015 L305 1015 Z " />
<glyph glyph-name="Ydieresis" unicode="&#x178;" horiz-adv-x="565" d="M388 897 C388 941 323 940 323 897 C323 856 388 855 388 897 L388 897 Z M254 897 C254 940 189 941 189 897 C189 855 254 856 254 897 L254 897 Z M166 750 L11 750 L11 743 C31 739 53 715 77 669 L77 669 L259 329 L259 96 C259 45 238 10 207 8 L197 7 L197 0 L380 0 L380 7 L370 8 C339 10 318 45 318 96 L318 338 L486 682 C509 722 534 739 567 743 L567 750 L429 750 L429 743 L441 742 C480 740 491 710 472 669 L316 343 L141 678 C124 715 130 740 156 742 L165 743 L166 750 L166 750 Z " />
<glyph glyph-name="Zacute" unicode="&#x179;" horiz-adv-x="596" d="M328 813 L467 936 C509 974 537 1001 537 1005 C537 1018 526 1029 513 1029 C509 1029 482 1001 444 959 L321 820 L328 813 L328 813 Z M71 653 L76 665 C93 706 152 734 224 735 L224 735 L512 737 L24 12 L24 0 L571 0 L575 18 L574 18 L592 99 L583 99 L576 87 C553 47 496 20 429 16 L93 12 L575 737 L575 749 L69 749 L68 733 C68 733 64 681 61 652 L71 653 L71 653 Z " />
<glyph glyph-name="Zdot" unicode="&#x17b;" horiz-adv-x="596" d="M353 897 C353 940 289 940 289 897 C289 855 353 855 353 897 L353 897 Z M71 653 L76 665 C93 706 152 734 224 735 L224 735 L512 737 L24 12 L24 0 L571 0 L575 18 L574 18 L592 99 L583 99 L576 87 C553 47 496 20 429 16 L93 12 L575 737 L575 749 L69 749 L68 733 C68 733 64 681 61 652 L71 653 L71 653 Z " />
<glyph glyph-name="zdot" unicode="&#x17c;" horiz-adv-x="441" d="M263 647 C263 690 199 690 199 647 C199 605 263 605 263 647 L263 647 Z M61 491 C59 491 53 467 43 428 L53 428 L60 436 C80 461 127 480 179 484 L342 487 L40 12 L40 0 L396 0 L396 18 C397 28 399 47 402 72 L392 72 L386 64 C367 36 314 18 255 16 L101 13 L401 488 L401 500 L67 500 L67 491 L61 491 L61 491 Z M64 500 C64 500 63 491 61 491 L63 500 L64 500 L64 500 Z " />
<glyph glyph-name="Zcaron" unicode="&#x17d;" horiz-adv-x="596" d="M463 1042 L321 874 L179 1042 L172 1037 L303 835 C307 830 315 817 321 817 C327 817 335 830 339 835 L470 1037 L463 1042 L463 1042 Z M71 653 L76 665 C93 706 152 734 224 735 L224 735 L512 737 L24 12 L24 0 L571 0 L575 18 L574 18 L592 99 L583 99 L576 87 C553 47 496 20 429 16 L93 12 L575 737 L575 749 L69 749 L68 733 C68 733 64 681 61 652 L71 653 L71 653 Z " />
<glyph glyph-name="zcaron" unicode="&#x17e;" horiz-adv-x="441" d="M373 792 L231 624 L89 792 L82 787 L213 585 C217 580 225 567 231 567 C237 567 245 580 249 585 L380 787 L373 792 L373 792 Z M61 491 C59 491 53 467 43 428 L53 428 L60 436 C80 461 127 480 179 484 L342 487 L40 12 L40 0 L396 0 L396 18 C397 28 399 47 402 72 L392 72 L386 64 C367 36 314 18 255 16 L101 13 L401 488 L401 500 L67 500 L67 491 L61 491 L61 491 Z M64 500 C64 500 63 491 61 491 L63 500 L64 500 L64 500 Z " />
<glyph glyph-name="oogonek" unicode="&#x1eb;" horiz-adv-x="689" d="M884 -53 L883 -51 C853 -76 760 -93 650 -93 C512 -93 372 -59 298 -8 C310 -9 323 -10 336 -10 C518 -10 639 111 639 292 C639 473 522 593 346 593 C176 593 63 473 63 292 C63 146 134 39 247 3 C355 -76 513 -128 644 -128 C735 -128 831 -98 884 -54 L884 -53 L884 -53 Z M120 291 C120 470 210 589 345 589 C487 589 582 470 582 291 C582 111 482 -9 333 -9 C205 -9 120 111 120 291 L120 291 Z " />
<glyph glyph-name="Adotabove" unicode="&#x226;" horiz-adv-x="582" d="M330 897 C330 941 265 940 265 897 C265 856 330 855 330 897 L330 897 Z M164 9 L150 10 C107 13 90 58 107 124 L155 296 L388 296 L437 116 C450 55 432 14 390 11 L376 10 L376 1 L579 1 L579 10 L571 11 C545 14 515 58 496 123 L326 734 C326 734 318 772 315 772 L310 772 C313 753 296 738 267 734 L270 724 L103 131 C84 62 39 14 -8 11 L-22 10 L-22 1 L163 1 L164 9 L164 9 Z M155 300 L272 717 L387 300 L155 300 L155 300 Z " />
<glyph glyph-name="G_sc" unicode="&#x262;" horiz-adv-x="628" d="M338 1 C208 1 121 117 121 292 C121 471 205 590 330 590 C352 590 372 588 390 584 C442 571 499 522 528 462 L537 442 L549 442 L549 563 L541 563 L537 551 C533 541 500 548 454 570 C454 570 427 580 423 581 C412 586 402 590 392 592 L391 588 C193 622 62 493 62 292 C62 111 169 -10 329 -10 C377 -10 423 -3 469 10 C475 11 479 11 479 11 L530 24 L530 30 C555 39 580 50 606 62 L605 65 C580 54 555 44 530 35 L530 140 C530 200 548 241 574 244 L582 245 L582 254 L425 254 L425 245 L433 244 C459 241 477 200 477 140 L478 140 C478 112 478 83 478 60 C471 24 412 3 339 3 L338 1 L338 1 Z M360 4 C353 4 346 4 339 4 C345 4 352 4 360 4 L360 4 Z " />
<glyph glyph-name="I_sc" unicode="&#x26a;" horiz-adv-x="274" d="M215 7 L208 8 C187 10 173 37 173 76 L173 507 C173 546 187 573 208 575 L215 576 L215 583 L78 583 L78 576 L85 575 C106 573 120 546 120 507 L120 76 C120 37 106 10 85 8 L78 7 L78 0 L215 0 L215 7 L215 7 Z " />
<glyph glyph-name="N_sc" unicode="&#x274;" horiz-adv-x="571" d="M23 576 C49 572 72 558 99 525 L99 76 C99 37 85 10 64 8 L57 7 L57 0 L156 0 L156 7 L149 8 C128 10 115 38 114 76 L113 506 C228 337 343 168 458 -1 L469 -1 L473 519 C476 551 490 572 509 574 L515 575 L515 582 L416 582 L416 575 L423 574 C444 572 458 545 458 506 L459 71 L455 77 L128 582 L27 582 L23 576 L23 576 Z " />
<glyph glyph-name="R_sc" unicode="&#x280;" horiz-adv-x="484" d="M71 576 L78 575 C99 573 113 546 113 507 L113 76 C113 37 99 10 78 8 L71 7 L71 0 L208 0 L208 7 L201 8 C180 10 166 37 166 76 L166 282 L225 282 C235 255 276 169 333 57 C360 3 366 1 474 1 L474 7 C422 7 419 9 395 57 C337 171 295 255 279 287 C363 299 416 342 416 422 C416 520 341 585 228 585 L71 585 L71 576 L71 576 Z M166 298 L166 575 L212 575 C299 575 357 518 357 432 C357 340 305 298 228 298 L166 298 L166 298 Z " />
<glyph glyph-name="Y_sc" unicode="&#x28f;" horiz-adv-x="496" d="M165 0 L342 0 L342 7 L332 8 C301 10 280 45 280 96 L280 262 L410 508 C432 547 463 573 490 575 L498 576 L498 583 L361 583 L361 576 L373 575 C409 573 422 547 404 508 L279 267 L140 510 C121 548 125 574 151 576 L160 577 L160 584 L14 584 L14 577 C34 572 57 549 83 503 L227 255 L227 97 C227 46 206 11 175 9 L165 8 L165 0 L165 0 Z " />
<glyph glyph-name="B_sc" unicode="&#x299;" horiz-adv-x="461" d="M302 300 C338 300 362 240 362 151 C362 29 330 1 282 1 L232 1 C192 1 166 41 166 101 L166 299 L266 299 C279 299 302 300 302 300 L302 300 Z M71 574 L78 573 C99 570 113 543 113 504 L113 79 C113 40 99 13 78 10 L71 9 L71 0 L286 0 C367 0 421 29 421 151 C421 242 377 302 311 302 L298 302 C364 315 406 369 406 444 C406 528 370 584 215 584 L71 584 L71 574 L71 574 Z M265 303 L166 303 L166 582 C166 582 210 582 210 581 C327 581 354 524 354 438 C354 357 318 303 265 303 L265 303 Z " />
<glyph glyph-name="H_sc" unicode="&#x29c;" horiz-adv-x="628" d="M569 7 L562 8 C541 10 527 37 527 76 L527 507 C527 546 541 573 562 575 L569 576 L569 583 L432 583 L432 576 L439 575 C460 573 474 546 474 507 L474 302 L202 302 L202 507 C202 546 216 573 237 575 L244 576 L244 583 L107 583 L107 576 L114 575 C135 573 149 546 149 507 L149 76 C149 37 135 10 114 8 L107 7 L107 0 L244 0 L244 7 L237 8 C216 10 202 37 202 76 L202 298 L474 298 L474 76 C474 37 460 10 439 8 L432 7 L432 0 L569 0 L569 7 L569 7 Z " />
<glyph glyph-name="L_sc" unicode="&#x29f;" horiz-adv-x="434" d="M215 583 L78 583 L78 576 L85 575 C106 573 120 546 120 507 L120 76 C120 37 106 10 85 8 L78 7 L78 0 L403 0 L403 4 C407 30 413 65 418 91 L409 91 L403 78 C382 39 325 12 257 10 C181 13 173 46 173 95 L173 508 C173 547 187 574 208 576 L215 577 L215 583 L215 583 Z " />
<glyph glyph-name="circumflex" unicode="&#x2c6;" horiz-adv-x="297" d="M166 765 C162 770 154 783 149 783 C143 783 135 770 131 765 L0 563 L6 558 L148 727 L291 558 L298 563 L166 765 L166 765 Z " />
<glyph glyph-name="caron" unicode="&#x2c7;" horiz-adv-x="297" d="M291 792 L148 623 L6 792 L0 787 L131 585 C135 580 143 567 149 567 C154 567 162 580 166 585 L298 787 L291 792 L291 792 Z " />
<glyph glyph-name="firsttonechinese" unicode="&#x2c9;" horiz-adv-x="297" d="M24 651 L273 651 L273 686 L24 686 L24 651 L24 651 Z " />
<glyph glyph-name="breve" unicode="&#x2d8;" horiz-adv-x="297" d="M43 745 C46 681 89 639 149 639 C209 639 251 681 254 744 L243 745 C241 702 203 674 149 674 C94 674 56 703 54 746 L43 745 L43 745 Z " />
<glyph glyph-name="dotaccent" unicode="&#x2d9;" horiz-adv-x="297" d="M181 647 C181 691 116 690 116 647 C116 606 181 605 181 647 L181 647 Z " />
<glyph glyph-name="ring" unicode="&#x2da;" horiz-adv-x="297" d="M67 655 C67 705 100 738 149 738 C198 738 230 705 230 655 C230 610 193 572 149 572 C105 572 67 610 67 655 L67 655 Z M52 655 C52 604 97 560 149 560 C201 560 245 604 245 655 C245 712 207 750 149 750 C91 750 52 712 52 655 L52 655 Z " />
<glyph glyph-name="A_sc" unicode="&#x1d00;" horiz-adv-x="519" d="M321 0 L517 0 L517 9 L509 10 C484 13 454 54 433 115 L292 572 C292 572 285 604 282 604 L277 604 C280 588 265 576 239 572 L242 562 C208 453 175 343 141 234 L141 233 L109 130 C88 61 42 14 -6 11 L-20 10 L-20 1 L165 1 L165 10 L151 11 C107 14 93 62 113 131 L144 231 L345 231 L379 119 C395 57 378 15 337 12 L323 11 L321 0 L321 0 Z M146 235 L246 558 L344 235 L146 235 L146 235 Z " />
<glyph glyph-name="C_sc" unicode="&#x1d04;" horiz-adv-x="596" d="M549 18 L549 143 L537 143 L528 124 C501 69 449 22 397 4 C374 -3 349 -7 322 -7 C201 -7 121 113 121 292 C121 471 205 590 330 590 C352 590 372 588 390 584 C442 571 499 522 528 462 L537 442 L549 442 L549 563 L541 563 L537 551 C533 541 500 548 454 570 C454 570 427 580 423 581 C412 586 402 590 392 592 L391 588 C193 622 62 493 62 292 C62 87 192 -42 389 -4 L390 -7 C400 -4 410 0 421 5 C432 8 442 12 452 16 C499 38 534 44 538 31 L542 18 L549 18 L549 18 Z M544 100 L544 100 L544 100 L544 100 Z " />
<glyph glyph-name="D_sc" unicode="&#x1d05;" horiz-adv-x="656" d="M208 3 C170 3 166 39 166 94 L166 581 C166 581 224 581 224 580 C434 580 542 465 542 292 C542 101 408 3 208 3 L208 3 Z M71 576 L78 575 C99 573 113 546 113 507 L113 76 C113 37 99 10 78 8 L71 7 L71 0 L212 0 C445 0 601 99 601 292 C601 467 477 583 236 583 L71 583 L71 576 L71 576 Z " />
<glyph glyph-name="E_sc" unicode="&#x1d07;" horiz-adv-x="467" d="M332 207 L332 395 L323 395 L319 381 C305 334 258 303 201 303 L166 303 L166 580 L261 580 C318 580 369 549 389 502 L395 488 L404 488 C400 516 395 554 392 582 L392 583 L51 583 L51 576 L61 575 C92 573 113 538 113 487 L113 96 C113 45 92 10 61 8 L51 7 L51 0 L417 0 L417 1 L418 1 C423 26 429 60 433 85 L424 85 L418 72 C396 31 334 3 262 3 C176 3 166 38 166 94 L166 299 L201 299 C258 299 305 268 319 221 L323 207 L332 207 L332 207 Z " />
<glyph glyph-name="J_sc" unicode="&#x1d0a;" horiz-adv-x="274" d="M215 583 L78 583 L78 576 L85 575 C106 573 120 546 120 507 L120 -28 C120 -185 60 -215 17 -215 C-9 -215 3 -173 -23 -173 C-37 -173 -47 -182 -47 -196 C-47 -210 -23 -220 14 -220 C81 -220 173 -173 173 72 L173 507 C173 546 187 573 208 575 L215 576 L215 583 L215 583 Z " />
<glyph glyph-name="K_sc" unicode="&#x1d0b;" horiz-adv-x="513" d="M208 583 L71 583 L71 576 L78 575 C99 573 113 546 113 507 L113 76 C113 37 99 10 78 8 L71 7 L71 0 L208 0 L208 7 L201 8 C180 10 166 37 166 76 L166 292 L410 0 L507 0 L507 7 L501 8 C478 10 442 38 410 77 L204 328 L335 502 C370 545 412 574 443 576 L453 577 L453 584 L266 584 L266 577 L282 576 C334 574 335 526 286 457 L166 292 L166 507 C166 546 180 573 201 575 L208 576 L208 583 L208 583 Z " />
<glyph glyph-name="M_sc" unicode="&#x1d0d;" horiz-adv-x="665" d="M54 576 C77 572 94 561 112 532 L95 65 C92 32 77 10 58 8 L52 7 L52 0 L153 0 L153 7 L146 8 C126 10 113 35 113 71 L125 506 C195 337 265 169 335 0 L348 0 L541 535 L557 76 C557 38 546 10 525 8 L518 7 L518 0 L654 0 L654 7 L648 8 C629 10 614 33 611 68 L594 507 C593 546 605 573 626 575 L633 576 L633 583 L540 583 L362 74 L158 583 L56 583 L54 576 L54 576 Z " />
<glyph glyph-name="O_sc" unicode="&#x1d0f;" horiz-adv-x="694" d="M120 292 C120 471 210 590 345 590 C487 590 582 471 582 292 C582 113 484 -6 337 -6 C207 -6 120 113 120 292 L120 292 Z M63 292 C63 111 172 -10 336 -10 C518 -10 639 111 639 292 C639 473 522 593 346 593 C176 593 63 473 63 292 L63 292 Z " />
<glyph glyph-name="P_sc" unicode="&#x1d18;" horiz-adv-x="394" d="M221 7 L214 8 C193 10 179 37 179 76 L179 273 L208 273 C308 273 374 319 374 420 C374 518 319 583 237 583 L85 583 L85 576 L92 575 C113 573 127 546 127 507 L127 76 C127 37 113 10 92 8 L85 7 L85 0 L221 0 L221 7 L221 7 Z M179 284 L179 574 L224 574 C285 574 325 516 325 429 C325 329 278 284 208 284 L179 284 L179 284 Z " />
<glyph glyph-name="T_sc" unicode="&#x1d1b;" horiz-adv-x="691" d="M488 583 L202 583 C133 583 84 581 62 585 L55 585 L52 576 L55 576 L55 572 C44 546 31 514 21 489 L30 489 L39 502 C69 543 129 571 189 571 L319 571 L319 77 C319 38 305 11 284 9 L277 8 L277 1 L414 1 L414 8 L407 9 C386 11 372 38 372 77 L372 571 L500 571 C560 571 620 543 651 502 L660 489 L669 489 C667 494 636 571 636 571 L636 577 L638 577 L636 583 L636 584 L636 584 L635 586 L628 586 C606 582 556 584 488 584 L488 583 L488 583 Z " />
<glyph glyph-name="U_sc" unicode="&#x1d1c;" horiz-adv-x="497" d="M468 18 L468 25 L461 24 C440 21 426 44 426 83 L426 583 L331 583 L331 576 L338 575 C359 573 373 546 373 507 L373 152 C337 75 263 24 187 24 C153 24 131 94 131 198 L131 583 L36 583 L36 576 L43 575 C64 573 78 546 78 507 L78 198 C78 73 113 -10 166 -10 C252 -10 334 45 373 128 L373 0 L400 0 C422 6 447 12 468 18 L468 18 Z " />
<glyph glyph-name="V_sc" unicode="&#x1d20;" horiz-adv-x="559" d="M541 583 L370 583 L370 574 L386 573 C436 570 454 527 433 463 L294 85 L152 455 C127 523 137 571 181 574 L194 575 L194 584 L13 584 L13 575 C34 571 54 540 78 481 C138 318 198 154 259 -9 L270 -9 L448 455 C475 523 509 571 534 574 L541 575 L541 583 L541 583 Z " />
<glyph glyph-name="W_sc" unicode="&#x1d21;" horiz-adv-x="801" d="M167 583 L14 583 L14 574 C36 570 56 540 76 483 C132 319 188 155 244 -9 L257 -9 L419 367 C459 242 499 117 540 -8 L553 -8 L711 492 C729 540 756 572 781 575 L789 576 L789 585 L617 585 L617 576 L632 575 C681 572 702 535 687 480 L564 75 L440 476 C423 533 438 573 480 576 L493 577 L493 586 L314 586 L314 577 L320 576 C340 573 365 534 383 477 L411 391 L274 67 L137 477 C119 533 126 573 158 576 L168 577 L167 583 L167 583 Z " />
<glyph glyph-name="Z_sc" unicode="&#x1d22;" horiz-adv-x="546" d="M71 488 L76 500 C93 541 152 569 224 570 L224 570 L467 572 L24 11 L24 0 L521 0 L525 16 L523 16 C526 29 533 58 542 96 L533 96 L526 84 C504 45 448 18 382 14 L89 11 L526 572 L526 582 L481 582 L477 583 L476 582 L70 582 L69 568 C69 568 65 517 62 487 L71 488 L71 488 Z " />
<glyph glyph-name="Wgrave" unicode="&#x1e80;" horiz-adv-x="907" d="M895 750 L721 750 L721 741 L736 740 C784 737 807 701 796 648 L643 80 L491 640 C477 696 493 736 535 739 L548 740 L548 749 L362 749 L362 740 L368 739 C386 736 409 699 426 645 C440 596 455 547 469 499 L303 70 L137 640 C121 697 130 737 162 740 L172 741 L172 750 L11 750 L11 741 L16 740 C33 737 56 697 73 640 C139 423 205 206 272 -11 L287 -11 L478 470 C525 310 572 149 619 -11 L634 -11 L816 640 C833 696 860 736 887 739 L895 740 L895 750 L895 750 Z M237 1004 C237 998 265 971 307 935 L446 812 L453 819 L330 958 C294 1000 267 1028 261 1028 C248 1028 237 1017 237 1004 L237 1004 Z " />
<glyph glyph-name="Wacute" unicode="&#x1e82;" horiz-adv-x="907" d="M450 813 L589 936 C631 974 659 1001 659 1005 C659 1018 648 1029 635 1029 C631 1029 604 1001 566 959 L443 820 L450 813 L450 813 Z M895 750 L721 750 L721 741 L736 740 C784 737 807 701 796 648 L643 80 L491 640 C477 696 493 736 535 739 L548 740 L548 749 L362 749 L362 740 L368 739 C386 736 409 699 426 645 C440 596 455 547 469 499 L303 70 L137 640 C121 697 130 737 162 740 L172 741 L172 750 L11 750 L11 741 L16 740 C33 737 56 697 73 640 C139 423 205 206 272 -11 L287 -11 L478 470 C525 310 572 149 619 -11 L634 -11 L816 640 C833 696 860 736 887 739 L895 740 L895 750 L895 750 Z " />
<glyph glyph-name="Wdieresis" unicode="&#x1e84;" horiz-adv-x="907" d="M543 897 C543 940 478 941 478 897 C478 855 543 856 543 897 L543 897 Z M408 897 C408 941 343 940 343 897 C343 856 408 855 408 897 L408 897 Z M895 750 L721 750 L721 741 L736 740 C784 737 807 701 796 648 L643 80 L491 640 C477 696 493 736 535 739 L548 740 L548 749 L362 749 L362 740 L368 739 C386 736 409 699 426 645 C440 596 455 547 469 499 L303 70 L137 640 C121 697 130 737 162 740 L172 741 L172 750 L11 750 L11 741 L16 740 C33 737 56 697 73 640 C139 423 205 206 272 -11 L287 -11 L478 470 C525 310 572 149 619 -11 L634 -11 L816 640 C833 696 860 736 887 739 L895 740 L895 750 L895 750 Z " />
<glyph glyph-name="Etilde" unicode="&#x1ebc;" horiz-adv-x="522" d="M161 870 C161 910 176 936 199 936 C244 936 303 871 348 871 C380 871 402 909 402 966 L400 966 C400 930 384 906 360 906 C315 906 255 971 210 971 C179 971 159 931 159 870 L161 870 L161 870 Z M387 293 L387 481 L378 481 L374 467 C360 420 313 389 256 389 L171 389 L171 747 L316 747 C373 747 424 716 444 669 L450 655 L459 655 C455 683 450 721 447 749 L447 750 L50 750 L50 743 L60 742 C91 740 112 705 112 654 L112 96 C112 45 91 10 60 8 L50 7 L50 0 L472 0 L472 1 L473 1 C478 26 484 60 488 85 L479 85 L473 72 C452 31 390 3 318 3 L265 3 C180 3 171 39 171 94 L171 385 L256 385 C313 385 360 354 374 307 L378 293 L387 293 L387 293 Z " />
<glyph glyph-name="Ygrave" unicode="&#x1ef2;" horiz-adv-x="565" d="M166 750 L11 750 L11 743 C31 739 53 715 77 669 L77 669 L259 329 L259 96 C259 45 238 10 207 8 L197 7 L197 0 L380 0 L380 7 L370 8 C339 10 318 45 318 96 L318 338 L486 682 C509 722 534 739 567 743 L567 750 L429 750 L429 743 L441 742 C480 740 491 710 472 669 L316 343 L141 678 C124 715 130 740 156 742 L165 743 L166 750 L166 750 Z M82 1005 C82 999 110 972 152 936 L291 813 L297 820 L175 959 C139 1001 113 1029 107 1029 C94 1029 82 1018 82 1005 L82 1005 Z " />
<glyph glyph-name="quoteleft" unicode="&#x2018;" horiz-adv-x="408" d="M76 632 C76 633 76 634 76 635 C76 694 98 739 131 748 L121 759 C86 750 62 696 62 625 C62 605 74 592 91 592 C105 592 115 601 115 615 C115 634 89 649 77 631 L76 632 L76 632 Z " />
<glyph glyph-name="quoteright" unicode="&#x2019;" horiz-adv-x="27" d="M92 720 C92 656 78 609 58 604 L69 593 C92 599 108 654 108 731 C108 748 96 760 78 760 C64 760 54 750 54 736 C54 717 79 703 92 719 L92 720 L92 720 Z " />
<glyph glyph-name="quotedblleft" unicode="&#x201c;" horiz-adv-x="408" d="M137 632 C137 633 137 634 137 635 C137 694 159 739 192 748 L182 759 C147 750 123 696 123 625 C123 605 135 592 152 592 C166 592 176 601 176 615 C176 634 150 649 138 631 L137 632 L137 632 Z M65 631 C65 632 65 633 65 634 C65 693 87 738 120 747 L110 758 C75 749 51 695 51 624 C51 604 63 591 80 591 C94 591 104 600 104 614 C104 633 78 648 66 630 L65 631 L65 631 Z " />
<glyph glyph-name="quotedblright" unicode="&#x201d;" horiz-adv-x="408" d="M165 720 C165 656 152 609 132 604 L143 593 C166 599 181 654 181 731 C181 748 169 760 151 760 C121 760 120 713 151 713 C157 713 162 715 165 719 L165 720 L165 720 Z M92 719 C92 655 78 608 58 603 L69 592 C92 598 108 653 108 730 C108 747 96 759 78 759 C64 759 54 749 54 735 C54 716 79 702 92 718 L92 719 L92 719 Z " />
<glyph glyph-name="Euro" unicode="&#x20ac;" horiz-adv-x="713" d="M519 744 C489 755 455 761 414 761 C249 761 134 634 114 437 L60 437 L55 401 L111 401 C110 385 110 368 111 352 L55 352 L50 316 L114 316 C133 119 244 -8 404 -8 C472 -8 527 9 574 39 C619 67 652 76 656 61 L660 48 L667 48 L667 124 L660 130 C660 130 666 125 667 124 L667 173 L656 173 L647 155 C622 104 576 56 529 28 C492 8 452 -4 407 -4 C282 -4 195 121 180 316 L462 316 L467 352 L178 352 C178 368 178 385 179 401 L468 401 L473 437 L181 437 C197 632 288 757 419 757 C457 757 489 750 518 736 C569 712 622 658 650 599 L659 580 L670 580 L670 702 L663 702 L659 690 C655 677 623 687 578 717 C577 716 523 748 522 745 L519 744 L519 744 Z M663 623 L663 623 L663 623 L663 623 Z M577 38 C576 38 575 38 574 38 C575 38 576 38 577 38 L577 38 Z " />
<glyph glyph-name="F_sc" unicode="&#xa730;" horiz-adv-x="442" d="M322 207 L322 395 L313 395 L309 381 C295 334 248 303 191 303 L166 303 L166 581 L261 581 C318 581 369 550 389 503 L395 489 L404 489 C400 517 395 554 392 582 L392 583 L51 583 L51 576 L61 575 C92 573 113 538 113 487 L113 96 C113 45 92 10 61 8 L51 7 L51 0 L228 0 L228 7 L218 8 C187 10 166 45 166 96 L166 299 L191 299 C248 299 295 268 309 221 L313 207 L322 207 L322 207 Z " />
<glyph glyph-name="S_sc" unicode="&#xa731;" horiz-adv-x="461" d="M53 159 L53 11 L61 11 L65 27 C69 43 103 38 151 15 C170 5 193 -5 215 -10 L216 -7 C334 -28 423 39 423 140 C423 207 372 274 272 319 C170 365 117 421 117 469 C117 542 155 590 213 590 C271 590 329 545 359 477 L368 455 L380 455 L380 568 L372 568 L368 560 C365 554 338 560 300 575 C274 591 244 600 213 600 L213 594 C131 594 76 536 76 449 C76 383 132 313 240 265 C332 224 380 172 380 126 C380 29 301 -26 205 3 C153 21 102 72 75 137 L66 160 L53 159 L53 159 Z " />
<glyph glyph-name="X_sc" unicode="&#xf078;" horiz-adv-x="550" d="M549 583 L398 583 L398 576 L410 575 C447 573 454 544 426 502 L305 321 L189 509 C167 547 169 573 196 575 L205 576 L205 583 L58 583 L58 576 C78 571 101 548 130 502 L130 502 L268 280 L123 74 C95 36 60 10 34 8 L26 7 L26 0 L175 0 L175 7 L163 8 C126 10 121 40 148 81 L275 270 L396 75 C418 37 416 11 389 9 L380 8 L380 1 L527 1 L527 8 C507 13 484 36 455 82 L455 82 L309 318 L445 503 C476 545 514 574 542 576 L550 577 L549 583 L549 583 Z " />
</font>
</svg>
