<?xml version="1.0" encoding="UTF-8"?>
<svg xmlns="http://www.w3.org/2000/svg" xmlns:xlink="http://www.w3.org/1999/xlink" version="1.2" >
<font id="Warick Light Round">
<font-face  font-family="Warick" units-per-em="1024" ascent="975" descent="-300" font-style="normal" font-weight="300" font-stretch="normal" cap-height="1042" x-height="488" underline-position="-125" underline-thickness="50" />
<missing-glyph  horiz-adv-x="100" d="" />
<glyph glyph-name="NULL" d="" />
<glyph glyph-name="CR" unicode="&#xd;" horiz-adv-x="256" d="" />
<glyph glyph-name="space" unicode="&#x20;" horiz-adv-x="207" d="" />
<glyph glyph-name="exclam" unicode="&#x21;" horiz-adv-x="201" d="M136 30 C136 77 66 77 66 30 C66 -16 136 -16 136 30 L136 30 Z M101 755 C77 755 67 721 70 671 L95.7466 214.493 C95.8863 212.017 98.0201 210 100.5 210 C102.98 210 105.114 212.017 105.253 214.493 L131 671 C134 721 124 755 101 755 L101 755 Z " />
<glyph glyph-name="quotedbl" unicode="&#x22;" horiz-adv-x="290" d="M216 750 C204 750 198 732 201 705 L218.63 562.977 C218.833 561.346 220.357 560 222 560 C223.643 560 225.167 561.346 225.37 562.977 L243 705 C246 732 240 750 228 750 L216 750 L216 750 Z M96 750 C84 750 78 732 81 705 L98.6304 562.977 C98.8329 561.346 100.357 560 102 560 C103.643 560 105.167 561.346 105.37 562.977 L123 705 C126 732 120 750 108 750 L96 750 L96 750 Z " />
<glyph glyph-name="numbersign" unicode="&#x23;" horiz-adv-x="482" d="M359 681 L336.937 527.317 C333.147 500.918 307.857 479 281.188 479 L261.983 479 C226.478 479 201.189 508.179 206.235 543.323 L226 681 L221 681 L198.937 527.317 C195.147 500.918 169.857 479 143.188 479 L83.2354 479 C72.748 479 62.6356 470.359 61 460 C59.3644 449.641 66.748 441 77.2354 441 L122.5 441 C157.738 441 182.825 412.037 177.798 377.16 L161.96 267.285 C158.158 240.906 132.868 219 106.216 219 L44.2354 219 C33.748 219 23.6356 210.359 22 200 C20.3644 189.641 27.748 181 38.2354 181 L85.0117 181 C120.519 181 145.808 151.818 140.76 116.672 L124 0 L129 0 L148.06 132.688 C151.852 159.084 177.141 181 203.808 181 L223.012 181 C258.519 181 283.808 151.818 278.76 116.672 L262 0 L267 0 L286.06 132.688 C289.852 159.084 315.141 181 341.808 181 L392.836 181 C403.324 181 413.132 189.602 414.5 200 C415.868 210.398 408.324 219 397.836 219 L357.5 219 C324.994 219 301.851 245.718 306.489 277.891 L323.04 392.715 C326.842 419.094 352.132 441 378.784 441 L437.836 441 C448.324 441 458.132 449.602 459.5 460 C460.868 470.398 453.324 479 442.836 479 L398.5 479 C363.806 479 339.093 507.513 344.024 541.856 L364 681 L359 681 L359 681 Z M240.784 441 L259.98 441 C295.502 441 320.792 411.804 315.724 376.645 L299.96 267.285 C296.158 240.906 270.868 219 244.216 219 L225.02 219 C189.498 219 164.208 248.196 169.276 283.355 L185.04 392.715 C188.842 419.094 214.132 441 240.784 441 L240.784 441 Z " />
<glyph glyph-name="dollar" unicode="&#x24;" horiz-adv-x="512" d="M53 185.929 L53 48 C53 45.7921 54.7921 44 57 44 C59.142 44 61.4506 45.8026 61.9701 47.8806 L65 60 C69 75 100 66 144 37 C159.935 25.2581 178.157 16.154 196.6 7.62291 C201.995 5.12714 207.388 -3.38677 207.522 -9.32999 L208.809 -66.5022 C208.914 -71.1915 212.809 -75 217.5 -75 C222.192 -75 226 -71.1917 226 -66.5 L226 -13.9202 C226 -8.3883 231.771 -4.6386 237.171 -5.83733 C250.503 -8.7966 263.643 -10.1766 277.389 -10.243 C283.168 -10.271 289 -15.2315 289 -21.0114 L289 -66.5 C289 -71.1917 292.808 -75 297.5 -75 C302.192 -75 306 -71.1917 306 -66.5 L306 -42 C306 -26.5964 320.215 -7.71351 335.191 -4.11 C419.35 16.14 472 85.8 472 183 C472 257.7 425.83 332.4 337.135 385.23 C324.094 392.997 306 422.061 306 437.24 L306 713.495 C306 725.542 314.441 732.389 324.207 725.334 C358.063 700.875 388.45 663.05 408 618 L414.728 601.553 C415.889 598.716 419.935 596 423 596 C426.312 596 429 598.688 429 602 L429 705 C429 707.208 427.208 709 425 709 C423.025 709 420.094 707.189 419.211 705.422 L417 701 C414 696 385 707 345 730 L325.5 739.5 C315.824 744.214 306 759.928 306 770.691 L306 815.5 C306 820.192 302.192 824 297.5 824 C292.808 824 289 820.192 289 815.5 L289 765.607 C289 759.811 284.237 755.68 278.5 756.5 L268 758 C257.294 759.647 246.588 759.26 235.324 758.513 C231.487 758.259 228 761.172 228 765.018 L228 814.5 C228 819.192 224.192 823 219.5 823 C214.808 823 211 819.192 211 814.5 L211 789.5 C211 775.134 194.941 753.75 181.326 749.164 C115.578 727.016 75 662.375 75 574 C75 509.2 112.26 443.59 185.322 389.563 C195.456 382.069 211 353.608 211 341.004 L211 39.0042 C211 22.2144 200.62 13.1223 186.581 22.3312 C141.195 52.1025 100.65 106.8 76 168 L69.5767 184.415 C68.3388 187.579 63.3628 191.52 60 192 C56.175 192.546 53 189.793 53 185.929 L53 185.929 Z M291 734.343 L291 421.748 C291 415.313 285.77 411.494 280.027 414.396 C264.883 422.049 250.658 430.086 237.35 438.198 C232.742 441.006 228 449.84 228 455.236 L228 741.989 C228 748.514 233.324 753.28 239.847 753.111 C254.097 752.741 268.317 750.585 280.913 746.909 C286.297 745.338 291 739.952 291 734.343 L291 734.343 Z M237.886 355.747 C251.985 348.479 267.015 341.521 281.114 334.253 C286.244 331.608 291 323.359 291 317.587 L291 4.01136 C291 -2.47659 285.875 -7.28308 279.389 -7.15306 C265.643 -6.87755 252.503 -4.94898 239.171 -1.36735 C233.109 0.26121 228 6.79105 228 13.068 L228 349.587 C228 355.019 233.059 358.236 237.886 355.747 L237.886 355.747 Z M345.529 293.481 C399.094 252.172 427 205.725 427 162 C427 86.1 395.011 29.2575 343.385 4.94888 C321.369 -5.41802 308 6.16129 308 30.4966 L308 273.467 C308 296.337 327.419 307.447 345.529 293.481 L345.529 293.481 Z M182.175 479.516 C141.099 517.058 120 557.05 120 595 C120 664.3 144.503 716.584 183.962 740.061 C199.99 749.597 211 741.393 211 722.742 L211 493.202 C211 475.777 195.038 467.76 182.175 479.516 L182.175 479.516 Z " />
<glyph glyph-name="ampersand" unicode="&#x26;" horiz-adv-x="287" d="M313.5 468.5 C314.761 467.239 321.075 467.599 322.768 468.158 C410.012 496.951 468 554.5 468 613 C468 701 407 760 315 760 C218 760 153 697 153 603 C153 568 207 501 289 404 C289 404 356.594 327.849 475.163 188.211 C495.579 164.167 489.988 137.205 465.647 117.144 C403.092 65.5863 337.525 37 274 37 C170 37 101 109 101 217 C101 319.375 159.939 406.54 249.084 436.786 C250.496 437.266 252.915 440.028 251.5 440.5 C249.938 441.021 239.713 439.709 238.151 439.188 C124.099 401.193 49 307.3 49 202 C49 75 127 -9 245 -9 C333.725 -9 426.252 42.3337 510.533 132.025 C513.692 135.386 520.025 135.428 523 131.903 C532 121.24 541 110.455 550 99 C605 34 665 -10 700 -10 C765.325 -10 816.391 49.8894 830.025 140.935 C830.416 143.547 829.005 148.665 826.5 149.5 C824.111 150.296 821.638 148.136 821.267 145.645 C810.992 76.63 771.7 31 721 31 C692 31 641 69 594 125 L572 151.5 C560.677 165.139 559.444 189.917 569.883 204.243 C627.222 282.932 678.665 380.225 719.524 491.434 C720.604 494.374 720.132 501 717 501 C713.918 501 708.663 494.552 707.597 491.661 C669.857 389.324 622.045 300.054 568.65 228.346 C550.957 204.582 520.565 212.816 501.371 235.385 C393.56 362.15 332 431 332 431 C250 528 196 595 196 631 C196 702 243 749 314 749 C381 749 426 696 426 617 C426 552.65 382.747 495.43 315.704 473.145 C314.102 472.612 312.307 469.693 313.5 468.5 L313.5 468.5 Z " />
<glyph glyph-name="quotesingle" unicode="&#x27;" horiz-adv-x="188" d="M96 750 C84 750 78 732 81 705 L98.6304 562.977 C98.8329 561.346 100.357 560 102 560 C103.643 560 105.167 561.346 105.37 562.977 L123 705 C126 732 120 750 108 750 L96 750 L96 750 Z " />
<glyph glyph-name="parenleft" unicode="&#x28;" horiz-adv-x="354" d="M310.183 753.128 C183.655 661.245 100 470.925 100 273 C100 77 185 -118 313 -214 C314.281 -214.96 313.676 -212.873 314.5 -211.5 C315.287 -210.188 309.08 -203.611 307.895 -202.643 C203.445 -117.341 135 71.175 135 273 C135 486 210 678 323 754 C324.524 755.025 322.321 755.358 321.5 757 C320.654 758.692 311.714 754.239 310.183 753.128 L310.183 753.128 Z " />
<glyph glyph-name="parenright" unicode="&#x29;" horiz-adv-x="354" d="M36.9649 747.28 C165.394 657.394 250 469.95 250 273 C250 68 164 -125 34 -209 C32.6491 -209.873 34.6725 -210.121 35.5 -211.5 C36.3515 -212.919 46.7214 -207.489 48.0805 -206.545 C190.888 -107.299 285 81.9 285 273 C285 466 183 661 30 760 C28.4552 761 29.3229 758.646 28.5 757 C27.7092 755.418 35.5163 748.294 36.9649 747.28 L36.9649 747.28 Z " />
<glyph glyph-name="asterisk" unicode="&#x2a;" horiz-adv-x="268" d="M263 675 L263 675 L263 675 Z M249.448 554.054 C265.835 546.474 277.788 564.597 268.056 576.538 C262.816 582.967 265.067 588.986 260.894 581.819 C259.926 580.155 252.514 567.4 248.154 559.193 C246.77 556.588 246.771 555.293 249.448 554.054 L249.448 554.054 Z M266.101 677.055 C281.377 689.229 267.8 714.7 248 701.5 L199.561 664.919 C174.298 645.84 174.27 612.122 199.5 593 L235.039 566.065 C241.589 561.101 250.393 562.881 254.5 570 C258.608 577.121 255.746 585.639 248.173 588.835 L207.5 606 C185.952 615.094 185.955 642.899 207.505 651.988 L260.557 674.364 C261.623 674.814 265.195 676.334 266.101 677.055 L266.101 677.055 Z M97.06 606.737 L41 583 C20.2222 572.611 32.4475 545.721 51.5609 554.559 C54.2424 555.799 54.5586 557.171 53.0521 559.712 C47.7855 568.597 40 583 40 583 C40 583 45.2143 573.962 45.2545 573.892 L47.5 570 C51.6073 562.881 60.4107 561.101 66.9612 566.065 L102.6 593.076 C121.292 607.243 145.458 593.267 142.5 570 L135 511 C133 486 167 486 165 511 L158 570.25 C154.29 601.654 126.18 619.067 97.06 606.737 L97.06 606.737 Z M48.7292 694.864 L41.2348 681.874 C41.1613 681.746 40.603 681.064 40.6731 681.193 C45.436 689.986 54 704 54 704 C54 704 48.7659 694.928 48.7292 694.864 L48.7292 694.864 Z M54 704 C33 718 18 687.5 39 676.5 L94.5 653.25 C102.375 649.951 109.105 661.523 102.342 666.736 L54 704 L54 704 Z M157.5 690 L165 750 C167 775 133 775 135 750 L142.5 690 C143.519 681.848 156.481 681.848 157.5 690 L157.5 690 Z " />
<glyph glyph-name="plus" unicode="&#x2b;" horiz-adv-x="586" d="M274 424 L274 324.32 C274 293.233 248.767 268 217.68 268 L118 268 C108.065 268 100 259.935 100 250 C100 240.065 108.065 232 118 232 L217.68 232 C248.767 232 274 206.767 274 175.68 L274 76 C274 65.5126 282.513 57 293 57 C303.487 57 312 65.5126 312 76 L312 175.68 C312 206.767 337.233 232 368.32 232 L468 232 C477.935 232 486 240.065 486 250 C486 259.935 477.935 268 468 268 L368.32 268 C337.233 268 312 293.233 312 324.32 L312 424 C312 434.487 303.487 443 293 443 C282.513 443 274 434.487 274 424 L274 424 Z " />
<glyph glyph-name="comma" unicode="&#x2c;" horiz-adv-x="258" d="M176.772 30.2449 C188.768 -36.9771 156.54 -90.7911 99.5443 -106.109 C99.5443 -106.109 99.9896 -104.284 99.9896 -104.284 L100.979 -108.16 C100.979 -108.16 101.424 -106.335 101.424 -106.335 C154.649 -93.4134 188 -51.225 188 9 C188 51 177 84 159 101 C150 110 139 115 125 115 C89 115 65 91 65 55 C65 19 89 -5 125 -5 C147.5 -5 164.097 8.19444 171.319 29.375 C172.279 32.1885 176.25 33.1712 176.772 30.2449 L176.772 30.2449 Z " />
<glyph glyph-name="hyphen" unicode="&#x2d;" horiz-adv-x="396" d="M101 264 L295 264 C306.591 264 316 273.409 316 285 C316 296.591 306.591 306 295 306 L101 306 C89.4086 306 80 296.591 80 285 C80 273.409 89.4086 264 101 264 L101 264 Z " />
<glyph glyph-name="period" unicode="&#x2e;" horiz-adv-x="195" d="M160 30 C160 77 90 77 90 30 C90 -16 160 -16 160 30 L160 30 Z " />
<glyph glyph-name="slash" unicode="&#x2f;" horiz-adv-x="379" d="M314.277 755.763 L41.7233 -65.7631 C39.2488 -73.2217 44.1416 -80 52 -80 C59.8584 -80 69.2488 -73.2217 71.7233 -65.7631 L344.277 755.763 C346.751 763.222 341.858 770 334 770 C326.142 770 316.751 763.222 314.277 755.763 L314.277 755.763 Z " />
<glyph glyph-name="zero" unicode="0" horiz-adv-x="606" d="M73 250 C73 379 166 489 305 489 C430 489 537 393 537 250 C537 121 444 11 305 11 C180 11 73 107 73 250 L73 250 Z M49 250 C49 94 167 -10 305 -10 C459 -10 561 110 561 250 C561 406 443 510 305 510 C151 510 49 390 49 250 L49 250 Z " />
<glyph glyph-name="one" unicode="1" horiz-adv-x="196" d="M161.535 7.49497 L158 8 C137 10 123 37 123 76 L123 424 C123 463 137 490 158 492 L161.535 492.505 C163.428 492.775 165 494.588 165 496.5 C165 498.432 163.432 500 161.5 500 L34.5 500 C32.5681 500 31 498.432 31 496.5 C31 494.588 32.5716 492.775 34.4648 492.505 L38 492 C59 490 73 463 73 424 L73 76 C73 37 59 10 38 8 L34.4648 7.49497 C32.5716 7.22451 31 5.41248 31 3.5 C31 1.5681 32.5681 0 34.5 0 L161.5 0 C163.432 0 165 1.5681 165 3.5 C165 5.41248 163.428 7.22451 161.535 7.49497 L161.535 7.49497 Z " />
<glyph glyph-name="two" unicode="2" horiz-adv-x="493" d="M328 44 L203.352 44 C178.964 44 171.304 79.0158 191.701 92.3854 C310.283 170.111 394 255.375 394 342 C394 442 333 509 242 509 C152.3 509 74.9581 427.246 47.9756 302.667 C47.2947 299.523 48.3968 292.346 51.5 291.5 C54.4644 290.692 58.0066 295.102 58.6551 298.105 C81.2069 402.555 143.875 471 217 471 C293 471 344 415 344 330 C344 223.725 241.333 128.857 106.439 49.1049 C105.359 48.4663 85.9461 42.3091 84.7142 42.0705 C75.0234 40.1933 69.3854 35.419 61.2083 27.2593 C60.0865 26.1398 47.2429 16.6215 45.8254 15.9127 L26.8636 6.43178 C25.4284 5.71422 25.2471 4.00233 26.5 3 L26.6251 2.89994 C27.6011 2.1191 27.2329 0.70549 26 0.5 C25.7278 0.454628 25.7654 0 26.0414 0 L367.146 0 C378.186 0 397.984 10.7441 404 20 L417 40 L426.941 55.6446 C427.55 56.603 425.507 58.7721 424.524 58.2029 C407.253 48.1962 374.9 43.5 329 43.5 L328 44 Z " />
<glyph glyph-name="three" unicode="3" horiz-adv-x="374" d="M93 161 C93 158.347 98.7888 155.14 101.405 154.701 C209.753 136.538 282 68.8 282 -17 C282 -123 176 -205 18 -222 C15.213 -222.3 18.4503 -224.251 19 -227 C19.5622 -229.811 31.139 -230.728 33.9827 -230.366 C214.221 -207.384 334 -117.05 334 -2 C334 79.675 278.869 139.57 189.384 161.963 C174.863 165.596 168.968 191.139 182.048 198.417 C278.032 251.825 338 314.3 338 384 C338 460 281 510 195 510 C115.05 510 47.4581 449.16 23.7376 358.066 C22.9228 354.937 24.3807 350.351 27.5 349.5 C30.4535 348.695 33.6337 350.694 34.4208 353.653 C53.8075 426.518 108.7 475 175 475 C241 475 285 432 285 367 C285 282.175 207.049 216.362 101.197 169.563 C98.9193 168.556 93 163.49 93 161 L93 161 Z " />
<glyph glyph-name="four" unicode="4" horiz-adv-x="555" d="M523.5 -12 C526.03 -12 528.364 -10.4085 528.827 -7.92128 C530.418 0.632653 531.643 11.2857 532.5 19 C533.395 30.6316 535.49 46.2659 537.354 58.7402 C537.727 61.2363 535.197 63.6838 532.734 64.2344 C530.078 64.8281 528.859 64.8594 527.453 63.7031 C527.013 63.3416 523.73 59.2129 523.367 58.7742 C512.847 46.0533 485.108 38 452 38 L416 38 C396.129 38 380 54.1291 380 74 L380 527 C380 528.656 378.656 530 377 530 C375.638 530 373.069 528.653 372.295 527.532 L16.5581 12.7022 C15.7554 11.5405 14 5.912 14 4.5 C14 2.01613 16.0161 0 18.5 0 L273.68 0 C304.767 0 330 -25.233 330 -56.32 L330 -195 C330 -208.799 341.201 -220 355 -220 C368.799 -220 380 -208.799 380 -195 L380 -34 C380 -15.233 395.233 0 414 0 L448 0 C481.657 0 504.724 -3.13796 515.115 -9.41388 C515.854 -9.8603 522.636 -12 523.5 -12 L523.5 -12 Z M330 254.396 L330 94.32 C330 63.233 304.767 38 273.68 38 L164.555 38 C115.958 38 90.6461 85.8889 118.02 126.044 L227.144 286.12 C259.123 333.03 330 311.17 330 254.396 L330 254.396 Z " />
<glyph glyph-name="five" unicode="5" horiz-adv-x="394" d="M233 500 L149.739 500 C123.744 500 98.4378 478.549 94.1794 452.906 L56.9863 228.939 C56.5257 226.165 58.3983 220.868 60.5 219 C62.1502 217.533 68.8129 215 71.0208 215 L88 215 C227 215 320 141 320 30 C320 -103 216 -204 59 -223 C56.5191 -223.3 59.224 -225.016 59.5 -227.5 C59.7832 -230.049 70.9995 -230.557 73.5365 -230.182 C248.024 -204.379 364 -94.375 364 47 C364 180 256 268 93 268 L87 268 C83.73 268 81.4324 270.696 81.9504 273.924 L103.475 408.091 C107.569 433.613 132.659 455.222 158.506 455.487 L295.312 456.89 C301.096 456.95 306.918 461.818 308 467.5 L310 478 L316.093 507.592 C316.583 509.975 314.933 512 312.5 512 C311.675 512 305.106 509.705 304.395 509.288 C292.636 502.386 266 500 233 500 L233 500 Z " />
<glyph glyph-name="six" unicode="6" horiz-adv-x="533" d="M495.622 745.413 C232.964 682.728 59 501.5 59 287 C59 109 146 -10 277 -10 C399 -10 481 90 481 239 C481 372 395 461 267 461 C212.55 461 167.629 439.22 137.851 401.837 C135.352 398.698 127.208 399.289 128.374 403.128 C179.942 572.855 323.25 702.15 518 743 C519.961 743.411 517.551 744.573 517 746.5 C516.434 748.48 497.625 745.891 495.622 745.413 L495.622 745.413 Z M108 260 C108 378 171 457 265 457 C365 457 431 371 431 242 C431 93 369 -6 276 -6 C175 -6 108 100 108 260 L108 260 Z " />
<glyph glyph-name="seven" unicode="7" horiz-adv-x="405" d="M146 459 L374.789 459 C378.101 459 384.163 462.244 386 465 C386.451 465.676 387.612 465.064 387.309 464.31 L119.278 -201.909 C115.551 -211.173 121.514 -220 131.5 -220 C141.649 -220 154.114 -211.183 157.494 -201.613 L397.502 477.928 C397.961 479.228 400 491.121 400 492.5 C400 496.64 396.64 500 392.5 500 L162 500 C128.571 500 105.429 500.735 95.0904 502.834 C94.5727 502.939 87.784 503.357 87.2661 503.253 L86 503 C83.7921 502.558 79.7715 499.431 78.8 497.4 L71.3309 481.783 C71.2507 481.615 69.0424 476.264 68.981 476.089 L63.9306 461.659 C63.8793 461.512 61.8743 456.588 61.8087 456.447 L56 444 C61 444 65 442 65 442 C76 453 105.5 459 145.5 459 L146 459 Z " />
<glyph glyph-name="eight" unicode="8" horiz-adv-x="509" d="M228.5 380.5 L240 375 C354 325 430 276 430 197 C430 75 361 -7 258 -7 C158 -7 91 65 91 174 C91 262.35 136.125 340.772 205.798 380.117 C211.215 383.176 222.888 383.184 228.5 380.5 L228.5 380.5 Z M169.464 365.628 C93.9625 318.755 47 247.1 47 174 C47 64 131 -10 258 -10 C385 -10 469 65 469 177 C469 278.15 416.98 337.395 333.82 384.827 C317.378 394.205 317.139 423.231 333.168 433.299 C400.482 475.581 442 535.95 442 597 C442 695 368 760 257 760 C147 760 73 689 73 583 C73 516.175 110.094 457.517 170.806 413.766 C185.196 403.396 184.533 374.984 169.464 365.628 L169.464 365.628 Z M273 416 L261 422 C172 461 113 526 113 603 C113 697 171 759 259 759 C344 759 400 693 400 594 C400 519.9 359.388 451.666 295.31 415.877 C289.575 412.674 278.876 413.062 273 416 L273 416 Z " />
<glyph glyph-name="nine" unicode="9" horiz-adv-x="533" d="M37.3779 -245.413 C300.036 -182.728 474 -1.5 474 213 C474 391 387 510 256 510 C134 510 52 410 52 261 C52 128 138 39 266 39 C320.45 39 365.371 60.78 395.149 98.1633 C397.648 101.302 405.792 100.711 404.626 96.872 C353.057 -72.855 209.75 -202.15 15 -243 C13.0386 -243.411 15.4494 -244.573 16 -246.5 C16.5658 -248.48 35.3747 -245.891 37.3779 -245.413 L37.3779 -245.413 Z M425 240 C425 122 362 43 268 43 C168 43 102 129 102 258 C102 407 164 506 257 506 C358 506 425 400 425 240 L425 240 Z " />
<glyph glyph-name="colon" unicode="&#x3a;" horiz-adv-x="135" d="M160 420 C160 467 90 467 90 420 C90 374 160 374 160 420 L160 420 Z M160 30 C160 77 90 77 90 30 C90 -16 160 -16 160 30 L160 30 Z " />
<glyph glyph-name="semicolon" unicode="&#x3b;" horiz-adv-x="258" d="M160 420 C160 467 90 467 90 420 C90 374 160 374 160 420 L160 420 Z M176.772 30.2449 C188.768 -36.9771 156.54 -90.7911 99.5443 -106.109 C99.5443 -106.109 99.9896 -104.284 99.9896 -104.284 L100.979 -108.16 C100.979 -108.16 101.424 -106.335 101.424 -106.335 C154.649 -93.4134 188 -51.225 188 9 C188 51 177 84 159 101 C150 110 139 115 125 115 C89 115 65 91 65 55 C65 19 89 -5 125 -5 C147.5 -5 164.097 8.19444 171.319 29.375 C172.279 32.1885 176.25 33.1712 176.772 30.2449 L176.772 30.2449 Z " />
<glyph glyph-name="equal" unicode="&#x3d;" horiz-adv-x="494" d="M78 200 C78 193.928 82.9283 189 89 189 L413 189 C419.072 189 424 193.928 424 200 C424 206.072 419.072 211 413 211 L89 211 C82.9283 211 78 206.072 78 200 L78 200 Z M78 300 C78 293.928 82.9283 289 89 289 L413 289 C419.072 289 424 293.928 424 300 C424 306.072 419.072 311 413 311 L89 311 C82.9283 311 78 306.072 78 300 L78 300 Z " />
<glyph glyph-name="question" unicode="&#x3f;" horiz-adv-x="305" d="M160 30 C160 77 90 77 90 30 C90 -16 160 -16 160 30 L160 30 Z M121.004 175.339 C121.1 184.086 123.05 359.025 125 360 C209 360 243 397 281 453 C298 478 309 518 309 553 C309 677 243 760 145 760 C117 760 98 745 98 723 C98 708 109 698 125 698 C136 698 152 707 163 707 C242 707 295 643 295 547 C295 527 285 498 270 476 C243 436 214 410 108 410 C111 411 113 175 113 175 C113 175 114.773 175 117 175 C119.207 175 120.979 173.132 121.004 175.339 L121.004 175.339 Z " />
<glyph glyph-name="at" unicode="&#x40;" horiz-adv-x="1088" d="M986.77 -10.7093 C916.136 -148.74 743.025 -240 549 -240 C276 -240 94 -40 94 259 C94 558 274 757 544 757 C814 757 994 591 994 343 C994 140 919 4 806 4 C690 4 633 82 662 200 L726.179 456.717 C729.296 469.185 720.852 480 708 480 C695.14 480 681.325 469.186 678.238 456.702 L668.657 417.962 C667.1 411.663 655.145 411.82 652.804 417.871 C635.429 462.775 597.5 490 548 490 C390 490 285 373 285 197 C285 87 348 13 443 13 C499.1 13 550.436 44.9894 585.777 98.2993 C590.72 105.757 609.689 105.014 612.187 96.4226 C632.035 28.1825 697.4 -13 796 -13 C938 -13 1032 129 1032 343 C1032 599 836 770 543 770 C250 770 54 566 54 259 C54 -45 256 -248 559 -248 C754 -248 929.987 -153.888 1002.62 -11.0805 C1004.48 -7.42563 1004.1 0 1000 0 C996.23 0 988.488 -7.35289 986.77 -10.7093 L986.77 -10.7093 Z M650.318 349.274 L613 200 C589 105 531 41 468 41 C390 41 338 107 338 207 C338 368 421 476 546 476 C608.4 476 649.886 430.37 651.922 361.355 C651.956 360.192 650.601 350.403 650.318 349.274 L650.318 349.274 Z " />
<glyph glyph-name="A" unicode="A" horiz-adv-x="582" d="M159.979 9.28721 L150 10 C107 13 90 58 107 124 L143.508 254.819 C149.618 276.713 175.024 296 197.755 296 L344.962 296 C367.884 296 393.284 276.59 399.305 254.473 L437 116 C450 55 432 14 390 11 L380.489 10.3206 C378.017 10.1441 376 7.97755 376 5.5 C376 3.01613 378.016 1 380.5 1 L574.5 1 C576.984 1 579 3.01613 579 5.5 L579 5.96887 C579 8.17675 577.191 10.2261 575 10.5 L571 11 C545 14 515 58 496 123 L326 734 C326 734 318 772 315 772 L310 772 C312.806 754.226 298.11 739.952 272.461 734.91 C269.804 734.387 267.722 731.593 268.5 729 C268.944 727.52 269.004 720.463 268.585 718.975 L103 131 C84 62 39 14 -8 11 L-17.5114 10.3206 C-19.9827 10.1441 -22 7.97755 -22 5.5 C-22 3.01613 -19.9839 1 -17.5 1 L158.969 1 C161.177 1 163.226 2.80917 163.5 5 C163.776 7.20477 162.195 9.1289 159.979 9.28721 L159.979 9.28721 Z M175.071 371.534 L217.306 522.066 C232.896 577.628 310.483 577.456 325.825 521.824 L367.339 371.293 C377.801 333.358 352.397 300 313.046 300 L229.297 300 C189.812 300 164.404 333.518 175.071 371.534 L175.071 371.534 Z " />
<glyph glyph-name="B" unicode="B" horiz-adv-x="539" d="M286 1 L236 1 C197 1 171 41 171 101 L171 328.68 C171 359.767 196.233 385 227.32 385 L306 385 C383 385 434 309 434 194 C434 38 375 1 286 1 L286 1 Z M73.5 740.5 L77 740 C98 737 112 710 112 671 L112 79 C112 40 98 13 77 10 L73.5 9.5 C71.5875 9.22679 70 7.39636 70 5.46447 L70 4.5 C70 2.01613 72.0161 0 74.5 0 L291 0 C416 0 499 37 499 194 C499 293.45 445.535 364 361.328 382.927 C357.596 383.766 360.934 399.366 364.52 400.697 C438.079 428.007 483 488.975 483 569 C483 678 437 750 241 750 L74.5 750 C72.0161 750 70 747.984 70 745.5 L70 744.536 C70 742.604 71.5875 740.773 73.5 740.5 L73.5 740.5 Z M269 388 L220 388 C192.953 388 171 409.953 171 437 L171 715 C171 732.663 185.337 747 203 747 L235 747 C389 747 425 673 425 563 C425 458 363 388 269 388 L269 388 Z " />
<glyph glyph-name="C" unicode="C" horiz-adv-x="663" d="M466 745 C437 755 404 760 365 760 C183 760 62 606 62 375 C62 144 179 -10 355 -10 C395 -10 431 -4 463 7 C464 5 516 31 520 34 C567 62 602 73 607 59 L609.824 49.8231 C610.444 47.8062 612.89 46 615 46 C617.208 46 619 47.7921 619 50 L619 165 C619 168.312 616.312 171 613 171 C610.007 171 605.713 168.282 604.431 165.578 L598 152 C569 94 513 40 460 16 C429 2 395 -6 358 -6 C220 -6 128 146 128 375 C128 604 224 756 368 756 C404 756 435 749 463 736 C513 713 567 658 597 598 L603.431 584.422 C604.713 581.718 609.007 579 612 579 C615.312 579 618 581.688 618 585 L618 697 C618 699.208 616.208 701 614 701 C611.905 701 609.397 699.192 608.735 697.205 L606 689 C602 677 568 689 523 718 C522 717 467.5 748 466.5 745 L466 745 Z M611 622 L611 622 L611 622 L611 622 Z M611 128 L611 128 L611 128 L611 128 Z " />
<glyph glyph-name="D" unicode="D" horiz-adv-x="724" d="M233 3 C177 3 171 39 171 94 L171 703.5 C171 727.511 190.489 747 214.5 747 L258 747 C487 747 605 598 605 375 C605 129 456 3 233 3 L233 3 Z M73.4648 742.505 L77 742 C98 740 112 713 112 674 L112 76 C112 37 98 10 77 8 L73.4648 7.49497 C71.5716 7.22451 70 5.41248 70 3.5 C70 1.5681 71.5681 0 73.5 0 L237 0 C496 0 669 128 669 375 C669 600 533 750 270 750 L73.5 750 C71.5681 750 70 748.432 70 746.5 C70 744.588 71.5716 742.775 73.4648 742.505 L73.4648 742.505 Z " />
<glyph glyph-name="E" unicode="E" horiz-adv-x="522" d="M387 297.5 L387 476.5 C387 478.984 384.984 481 382.5 481 C380.112 481 377.42 478.97 376.764 476.673 L374 467 C360 420 313 389 256 389 L213.5 389 C190.041 389 171 408.041 171 431.5 L171 690.68 C171 721.767 196.233 747 227.32 747 L316 747 C373 747 424 716 444 669 L448.227 659.136 C449.127 657.038 452.217 655 454.5 655 C456.955 655 458.736 656.845 458.393 659.276 C455.119 682.474 451.301 711.72 448.475 736.262 C447.599 743.87 440.578 749.508 432.92 749.518 L53.5 749.996 C51.5681 749.998 50 748.432 50 746.5 C50 744.578 51.5699 742.843 53.4826 742.652 L60 742 C91 740 112 705 112 654 L112 96 C112 45 91 10 60 8 L53.4826 7.34826 C51.5699 7.15699 50 5.42231 50 3.5 C50 1.56811 51.5681 0.00278362 53.5 0.00621301 L459.752 0.727371 C466.684 0.739677 473.634 6.40813 474.965 13.2111 C479.207 34.8899 483.991 60.5134 487.348 80.9785 C487.747 83.4069 485.961 85 483.5 85 C481.245 85 478.059 82.9619 477.114 80.9142 L473 72 C452 31 390 3 318 3 L265 3 C180 3 171 39 171 94 L171 342.5 C171 365.959 190.041 385 213.5 385 L256 385 C313 385 360 354 374 307 L376.764 297.327 C377.42 295.03 380.112 293 382.5 293 C384.984 293 387 295.016 387 297.5 L387 297.5 Z " />
<glyph glyph-name="F" unicode="F" horiz-adv-x="497" d="M377 297.5 L377 476.5 C377 478.984 374.984 481 372.5 481 C370.112 481 367.42 478.97 366.764 476.673 L364 467 C350 420 303 389 246 389 L208.5 389 C187.801 389 171 405.801 171 426.5 L171 690.68 C171 721.767 196.233 747 227.32 747 L316 747 C373 747 424 716 444 669 L448.227 659.136 C449.127 657.038 452.217 655 454.5 655 C456.955 655 458.736 656.845 458.393 659.276 C455.119 682.474 451.301 711.72 448.475 736.262 C447.599 743.87 440.578 749.508 432.92 749.518 L53.5 749.996 C51.5681 749.998 50 748.432 50 746.5 C50 744.578 51.5699 742.843 53.4826 742.652 L60 742 C91 740 112 705 112 654 L112 96 C112 45 91 10 60 8 L53.4826 7.34826 C51.5699 7.15699 50 5.42231 50 3.5 C50 1.5681 51.5681 0 53.5 0 L229.5 0 C231.432 0 233 1.5681 233 3.5 C233 5.42231 231.43 7.15699 229.517 7.34826 L223 8 C192 10 171 45 171 96 L171 347.5 C171 368.199 187.801 385 208.5 385 L246 385 C303 385 350 354 364 307 L366.764 297.327 C367.42 295.03 370.112 293 372.5 293 C374.984 293 377 295.016 377 297.5 L377 297.5 Z " />
<glyph glyph-name="G" unicode="G" horiz-adv-x="696" d="M617 585.5 L617 697 C617 699.208 615.208 701 613 701 C610.905 701 608.397 699.192 607.735 697.205 L605 689 C601 677 567 689 522 718 C521 717 467 748 466 745 C437 755 404 760 365 760 C183 760 62 606 62 375 C62 144 182 -10 362 -10 C438 -10 504 1 565 20 L598 29.5 C619.667 37 640.292 47.2778 661.032 56.8611 C661.133 56.9077 661.21 57.0914 661.108 57.0482 C645.205 50.3249 629.011 44.4592 612.244 38.5996 C605.456 36.2274 599 40.5661 599 47.7568 L599 210 C599 270 617 311 643 314 L647 314.5 C649.191 314.774 651 316.823 651 319.031 L651 319.5 C651 321.984 648.984 324 646.5 324 L492.5 324 C490.016 324 488 321.984 488 319.5 L488 319.031 C488 316.823 489.809 314.774 492 314.5 L496 314 C522 311 540 270 540 210 L540 73.6612 C540 72.2592 539.152 65.0224 538.735 63.6836 C528.975 32.2939 480.415 10.1786 409.095 3.89888 C408.984 3.88915 407.66 3.51411 407.771 3.51994 C424.729 4.41211 443.528 5.71645 461.458 7.09439 C461.765 7.118 461.211 6.62673 460.904 6.59375 C432.453 3.53125 402.375 2 370 2 C224 2 126 151 126 375 C126 604 222 756 366 756 C402 756 433 749 461 736 C511 713 565 658 595 598 L601.217 584.874 C602.605 581.944 607.258 579 610.5 579 C614.088 579 617 581.912 617 585.5 L617 585.5 Z M609 622 L609 622 L609 622 L609 622 Z " />
<glyph glyph-name="H" unicode="H" horiz-adv-x="692" d="M629.535 7.49497 L626 8 C605 10 591 37 591 76 L591 674 C591 713 605 740 626 742 L629.535 742.505 C631.428 742.775 633 744.588 633 746.5 C633 748.432 631.432 750 629.5 750 L494.5 750 C492.568 750 491 748.432 491 746.5 C491 744.588 492.572 742.775 494.465 742.505 L498 742 C519 740 533 713 533 674 L533 443.32 C533 412.233 507.767 387 476.68 387 L263.32 387 C232.233 387 207 412.233 207 443.32 L207 674 C207 713 221 740 242 742 L245.535 742.505 C247.428 742.775 249 744.588 249 746.5 C249 748.432 247.432 750 245.5 750 L109.5 750 C107.568 750 106 748.432 106 746.5 C106 744.588 107.572 742.775 109.465 742.505 L113 742 C134 740 148 713 148 674 L148 76 C148 37 134 10 113 8 L109.465 7.49497 C107.572 7.22451 106 5.41248 106 3.5 C106 1.5681 107.568 0 109.5 0 L245.5 0 C247.432 0 249 1.5681 249 3.5 C249 5.41248 247.428 7.22451 245.535 7.49497 L242 8 C221 10 207 37 207 76 L207 326.68 C207 357.767 232.233 383 263.32 383 L476.68 383 C507.767 383 533 357.767 533 326.68 L533 76 C533 37 519 10 498 8 L494.465 7.49497 C492.572 7.22451 491 5.41248 491 3.5 C491 1.5681 492.568 0 494.5 0 L629.5 0 C631.432 0 633 1.5681 633 3.5 C633 5.41248 631.428 7.22451 629.535 7.49497 L629.535 7.49497 Z " />
<glyph glyph-name="I" unicode="I" horiz-adv-x="277" d="M214.535 7.49497 L211 8 C190 10 176 37 176 76 L176 674 C176 713 190 740 211 742 L214.535 742.505 C216.428 742.775 218 744.588 218 746.5 C218 748.432 216.432 750 214.5 750 L78.5 750 C76.5681 750 75 748.432 75 746.5 C75 744.588 76.5716 742.775 78.4648 742.505 L82 742 C103 740 117 713 117 674 L117 76 C117 37 103 10 82 8 L78.4648 7.49497 C76.5716 7.22451 75 5.41248 75 3.5 C75 1.5681 76.5681 0 78.5 0 L214.5 0 C216.432 0 218 1.5681 218 3.5 C218 5.41248 216.428 7.22451 214.535 7.49497 L214.535 7.49497 Z " />
<glyph glyph-name="J" unicode="J" horiz-adv-x="277" d="M214.5 750 L78.5 750 C76.5681 750 75 748.432 75 746.5 C75 744.588 76.5716 742.775 78.4648 742.505 L82 742 C103 740 117 713 117 674 L117 -34 C117 -185 51 -214 4 -214 C-25 -214 -11 -167 -40 -167 C-56 -167 -67 -177 -67 -193 C-67 -209 -40 -220 0 -220 C74 -220 176 -172 176 78 L176 674 C176 713 190 740 211 742 L214.535 742.505 C216.428 742.775 218 744.588 218 746.5 C218 748.432 216.432 750 214.5 750 L214.5 750 Z " />
<glyph glyph-name="K" unicode="K" horiz-adv-x="586" d="M209.36 750 L73.5 750 C71.5681 750 70 748.432 70 746.5 C70 744.588 71.5716 742.775 73.4648 742.505 L77 742 C98 740 112 713 112 674 L112 76 C112 37 98 10 77 8 L73.4648 7.49497 C71.5716 7.22451 70 5.41248 70 3.5 C70 1.5681 71.5681 0 73.5 0 L209.5 0 C211.432 0 213 1.5681 213 3.5 C213 5.41248 211.428 7.22451 209.535 7.49497 L206 8 C185 10 171 37 171 76 L171 225.5 C171 277.05 232.189 298.514 264.392 258.26 L454.09 21.1372 C461.379 12.0267 486.402 0 498.069 0 L577.5 0 C579.432 0 581 1.5681 581 3.5 C581 5.30826 578.434 7.37285 576.657 7.706 C549.187 12.855 522.35 31 491 69 L242.202 379.998 C227.671 398.162 227.139 430.25 241.059 448.886 L401 663 C437 709 481 740 513 742 L519.517 742.652 C521.43 742.843 523 744.578 523 746.5 C523 748.432 521.432 750 519.5 750 L336.5 750 C334.568 750 333 748.432 333 746.5 C333 744.572 334.569 742.902 336.493 742.782 L349 742 C401 740 403.5 693 353.5 624 L260.744 496.043 C232.318 456.83 173 476.068 173 524.5 L173 674 C173 713 187 740 208 742 L211.5 742.5 C213.414 742.773 214.56 744.541 214.029 746.4 L214 746.5 C213.469 748.358 211.292 750 209.36 750 L209.36 750 Z " />
<glyph glyph-name="L" unicode="L" horiz-adv-x="499" d="M214.5 750 L78.5 750 C76.5681 750 75 748.432 75 746.5 C75 744.588 76.5716 742.775 78.4648 742.505 L82 742 C103 740 117 713 117 674 L117 76 C117 37 103 10 82 8 L78.4648 7.49497 C76.5716 7.22451 75 5.41248 75 3.5 C75 1.5681 76.5681 0 78.5 0 L468 0 L468 5 C471.795 29.6667 477.39 62.4339 482.223 87.9314 C482.677 90.3227 480.934 92 478.5 92 C476.245 92 473.059 89.9619 472.114 87.9142 L468 79 C447 38 385 10 313 10 L270 10 C185 10 176 44 176 94 L176 674 C176 713 190 740 211 742 L214.535 742.505 C216.428 742.775 218 744.588 218 746.5 C218 748.432 216.432 750 214.5 750 L214.5 750 Z " />
<glyph glyph-name="M" unicode="M" horiz-adv-x="733" d="M695.838 750 L642.406 750 C620.591 750 595.156 731.3 588.65 710.479 L442.439 242.605 C425.681 188.98 353.495 188.058 335.373 241.237 L175.002 711.847 C168.209 731.78 142.752 750 121.692 750 L55.5 750 C53.5681 750 52 748.432 52 746.5 C52 744.69 54.1167 742.656 55.8901 742.292 C75.6973 738.229 91.056 727.756 105.224 704.358 C107.802 700.101 111.732 682.814 111.586 677.839 L94 76 C93 37 78 9 57 7 L54 6.5 C52.3666 6.22777 51 4.61453 51 2.95862 L51 2.5 C51 0.568105 52.5681 -1 54.5 -1 L151.5 -1 C153.432 -1 155 0.568105 155 2.5 C155 4.41248 153.428 6.22451 151.535 6.49497 L148 7 C127 9 115 37 115 75 L124.594 537.917 C125.077 561.234 160.977 561.366 169.005 539.469 C235.031 359.381 301.175 178.85 368 -1 C369.352 -4.63758 371.619 -1 375.5 -1 L380.45 -1 C381.83 -1 383.229 0.146872 383.5 1.5 C383.531 1.6561 384.731 6.27582 384.78 6.42739 L509.787 395.654 C526.969 449.152 610.541 437.171 612 381 L620 73 C620 36 607 10 587 8 L583.465 7.49497 C581.572 7.22451 580 5.41248 580 3.5 C580 1.5681 581.568 0 583.5 0 L717.5 0 C719.432 0 721 1.5681 721 3.5 L721 3.95862 C721 5.61453 719.633 7.22777 718 7.5 L715 8 C694 10 679 38 678 77 L660 683 C661 718 674 741 694 743 L697.87 743.553 C699.57 743.796 700.543 745.371 700 747 C699.476 748.571 697.494 750 695.838 750 L695.838 750 Z " />
<glyph glyph-name="N" unicode="N" horiz-adv-x="636" d="M20.328 742.286 C44.0137 737.732 65.7938 722.697 87.9141 692.688 C91.53 687.782 97.9825 667.502 97.9724 661.408 L97 77 C97 38 83 11 62 9 L58.4648 8.49497 C56.5716 8.22451 55 6.41248 55 4.5 C55 2.5681 56.5681 1 58.5 1 L153.5 1 C155.432 1 157 2.5681 157 4.5 C157 6.41248 155.428 8.22451 153.535 8.49497 L150 9 C129 11 115 39 115 78 L113.691 455.771 C113.491 513.344 187.581 534.566 217.892 485.618 L514.841 6.10109 C516.323 3.70728 521.184 1 524 1 C527.312 1 530.016 3.68819 530.036 6.99989 L534 675 C535 713 548 741 569 743 L572 743.5 C573.633 743.772 575 745.385 575 747.041 L575 747.5 C575 749.432 573.432 751 571.5 751 L478.5 751 C476.568 751 475 749.432 475 747.5 C475 745.588 476.572 743.775 478.465 743.505 L482 743 C503 741 517 714 517 675 L517.645 312.491 C517.747 254.907 443.574 233.824 413.373 282.853 L141.497 724.218 C133.744 736.805 108.328 751 93.5448 751 L19.0311 751 C16.8232 751 15.2261 749.191 15.5 747 C15.7484 745.013 18.3615 742.665 20.328 742.286 L20.328 742.286 Z M518 113 L518 113 L518 113 Z " />
<glyph glyph-name="O" unicode="O" horiz-adv-x="763" d="M125 375 C125 604 227 756 379 756 C538 756 644 604 644 375 C644 146 534 -6 370 -6 C223 -6 125 146 125 375 L125 375 Z M61 375 C61 144 185 -10 370 -10 C573 -10 708 144 708 375 C708 606 577 760 380 760 C189 760 61 606 61 375 L61 375 Z " />
<glyph glyph-name="P" unicode="P" horiz-adv-x="480" d="M223.535 7.49497 L220 8 C199 10 185 37 185 76 L185 332.5 C185 343.815 194.185 353 205.5 353 L226 353 C366 353 460 411 460 541 C460 666 383 750 268 750 L88.5 750 C86.5681 750 85 748.432 85 746.5 C85 744.588 86.5716 742.775 88.4648 742.505 L92 742 C113 740 127 713 127 674 L127 76 C127 37 113 10 92 8 L88.4648 7.49497 C86.5716 7.22451 85 5.41248 85 3.5 C85 1.5681 86.5681 0 88.5 0 L223.5 0 C225.432 0 227 1.5681 227 3.5 C227 5.41248 225.428 7.22451 223.535 7.49497 L223.535 7.49497 Z M185 385.5 L185 706 C185 724.767 200.233 740 219 740 L253 740 C344 740 405 664 405 550 C405 422 333 365 226 365 L205.5 365 C194.185 365 185 374.185 185 385.5 L185 385.5 Z " />
<glyph glyph-name="Q" unicode="Q" horiz-adv-x="758" d="M999.918 -60.418 C957.508 -80.1328 858.25 -92 741 -92 C569.4 -92 409.207 -59.6788 334.571 -10.7929 C333.211 -9.90163 333.965 -7.7145 335.579 -7.91667 C346.667 -9.30556 358.333 -10 370 -10 C573 -10 708 144 708 375 C708 606 577 760 380 760 C189 760 61 606 61 375 C61 189.75 140.852 53.9325 267.191 7.40245 C268.294 6.99595 284.217 -1.40524 285.168 -2.09709 C393.19 -80.6662 572.2 -132 736 -132 C839.6 -132 942.772 -104.192 1001.99 -62.8227 C1002.1 -62.7433 1000.04 -60.3595 999.918 -60.418 L999.918 -60.418 Z M126 374 C126 603 228 755 380 755 C539 755 645 603 645 374 C645 144 534 -9 367 -9 C222 -9 126 144 126 374 L126 374 Z " />
<glyph glyph-name="R" unicode="R" horiz-adv-x="590" d="M73.4648 742.505 L77 742 C98 740 112 713 112 674 L112 76 C112 37 98 10 77 8 L73.4648 7.49497 C71.5716 7.22451 70 5.41248 70 3.5 C70 1.5681 71.5681 0 73.5 0 L209.5 0 C211.432 0 213 1.5681 213 3.5 C213 5.41248 211.428 7.22451 209.535 7.49497 L206 8 C185 10 171 37 171 76 L171 314 C171 342.15 193.85 365 222 365 L254.972 365 C263.742 365 275.991 356.802 279.293 348.678 C298.078 302.453 345 200.625 408 72 C442 3 448 0 580 0 C581.932 0 580 1.5681 580 3.5 C580 5.42646 576.872 7.00108 574.945 7.0065 C510.784 7.18687 506.25 11.55 477 72 C413.125 203.25 364.563 303.875 341.361 351.768 C336.891 360.995 343.149 370.636 353.116 373.037 C433.374 392.37 483 445.65 483 540 C483 666 401 750 277 750 L73.5 750 C71.5681 750 70 748.432 70 746.5 C70 744.588 71.5716 742.775 73.4648 742.505 L73.4648 742.505 Z M171 433 L171 694 C171 718.287 190.713 738 215 738 L259 738 C354 738 418 664 418 552 C418 433 362 380 277 380 L224 380 C194.746 380 171 403.746 171 433 L171 433 Z " />
<glyph glyph-name="S" unicode="S" horiz-adv-x="512" d="M267 760 C150 777 74 698 74 576 C74 490 139 403 265 344 C371 294 426 227 426 165 C426 63 369 -5 283 -5 C255 -5 227 2 200 15 C152 41 103 101 75 169 L68.1864 186.413 C67.0625 189.285 63.0841 192 60 192 C56.6882 192 54 189.312 54 186 L54 47 C54 44.7921 55.7921 43 58 43 C60.142 43 62.4506 44.8026 62.9701 46.8806 L66 59 C70 74 101 65 145 36 C164 22 184.5 11.5 206.5 1.5 C231.5 -7.5 258 -12 284 -12 C398 -12 474 65 474 181 C474 266 415 351 301 404 C182 460 120 531 120 596 C120 711 183 775 282 747 C333 731 383 681 411 617 L417.728 600.553 C418.889 597.716 422.935 595 426 595 C429.312 595 432 597.688 432 601 L432 704 C432 706.208 430.208 708 428 708 C426.025 708 423.094 706.189 422.211 704.422 L420 700 C417 695 388 707 348 729 C325 742 295.5 756 268.5 761 L267 760 Z " />
<glyph glyph-name="T" unicode="T" horiz-adv-x="740" d="M679.875 752.25 C679.266 752.368 673.106 752.529 672.491 752.444 C648.955 749.195 600.6 751 536 751 L203 751 C137.45 751 89.95 749.195 66.5016 752.444 C66.3008 752.472 59.7028 753 59.5 753 C57.5768 753 55.8505 751.43 55.6682 749.516 L55.5 747.75 C55.4229 746.94 53.6393 739.143 53.3355 738.388 C43.2645 713.364 31.7355 682.184 21.6645 657.969 C20.7896 655.865 22.2217 654 24.5 654 C26.5422 654 30.399 656.021 31.5614 657.7 L38 667 C68 708 128 736 188 736 L285.68 736 C316.767 736 342 710.767 342 679.68 L342 77 C342 38 328 11 307 9 L303.465 8.49497 C301.572 8.22451 300 6.41248 300 4.5 C300 2.5681 301.568 1 303.5 1 L439.5 1 C441.432 1 443 2.5681 443 4.5 C443 6.41248 441.428 8.22451 439.535 8.49497 L436 9 C415 11 401 38 401 77 L401 679.68 C401 710.767 426.233 736 457.32 736 L548 736 C608 736 668 708 699 667 L705.439 657.7 C706.601 656.021 710.458 654 712.5 654 C714.823 654 716.371 655.677 715.559 657.854 C707.522 679.394 697.718 706.411 688.113 729.737 C687.518 731.181 685.694 741.439 685.75 743 L685.859 746.056 C685.936 748.207 681.988 751.841 679.875 752.25 L679.875 752.25 Z " />
<glyph glyph-name="U" unicode="U" horiz-adv-x="568" d="M535.535 27.505 L532 27 C511 24 497 47 497 86 L497 735.491 C497 743.495 490.499 750.224 482.5 750.5 L468 751 L400.5 751.951 C398.568 751.978 397 750.432 397 748.5 C397 746.588 398.572 744.775 400.465 744.505 L404 744 C425 742 439 715 439 676 L439 181.304 C439 177.655 434.511 159.691 432.795 156.471 C391.29 78.54 308.45 28 222 28 C170 28 136 102 136 213 L136 735.491 C136 743.495 129.499 750.224 121.5 750.5 L107 751 L38.4997 751.951 C36.5681 751.978 35 750.432 35 748.5 C35 746.588 36.5716 744.775 38.4648 744.505 L42 744 C63 742 77 715 77 676 L77 213 C77 79 126 -10 199 -10 C282.325 -10 362.247 31.5181 411.813 97.7089 C418.533 106.682 439 103.434 439 92.2235 L439 14.5 C439 6.49644 445.496 0 453.5 0 L459.916 0 C461.171 0 474.553 1.92072 475.757 2.27372 L497 8.5 L535.645 20.0016 C537.42 20.5298 539 22.6484 539 24.5 C539 26.4125 537.428 27.7755 535.535 27.505 L535.535 27.505 Z " />
<glyph glyph-name="V" unicode="V" horiz-adv-x="658" d="M605 750 L440.5 750 C438.016 750 436 747.984 436 745.5 C436 743.021 438.017 740.874 440.491 740.719 L452 740 C504 737 522 689 500 620 L292.887 -5.3043 C291.898 -8.28871 293.856 -11 297 -11 C300.128 -11 303.944 -8.28741 304.971 -5.33302 L527 633 C550 695 580 736 603 739 L606.5 739.5 C608.412 739.773 610 741.604 610 743.536 L610 745 C610 747.76 607.76 750 605 750 L605 750 Z M194.472 749 L16.5 749 C14.0161 749 12 746.984 12 744.5 L12 742.55 C12 741.17 13.1469 739.771 14.5 739.5 L17 739 C32 736 55 697 76 639 C143.359 433.128 211.618 228.156 279.069 22.377 C284.141 6.90534 300.449 21.0216 305.5 36.5 L315.33 66.6238 C317.168 72.2559 317.206 95.7563 315.386 101.394 L148 620 C127 688 141 736 185 739 L193.486 739.653 C195.934 739.841 198.229 742.06 198.5 744.5 C198.774 746.969 196.956 749 194.472 749 L194.472 749 Z " />
<glyph glyph-name="W" unicode="W" horiz-adv-x="907" d="M890 750 L725.5 750 C723.016 750 721 747.984 721 745.5 C721 743.022 723.017 740.866 725.49 740.701 L736 740 C784 737 807 701 796 648 L697.174 281.118 C682.105 225.174 603.616 225.098 588.439 281.013 L491 640 C477 696 493 736 535 739 L543.513 739.655 C545.983 739.845 548 742.023 548 744.5 C548 746.984 545.984 749 543.5 749 L366.5 749 C364.016 749 362 746.984 362 744.5 L362 743.041 C362 741.385 363.367 739.772 365 739.5 L368 739 C386 736 409 699 426 645 C438.25 602.125 451.266 559.25 463.707 517.045 C465.531 510.858 464.445 487.229 462.118 481.214 L363.061 225.219 C342.93 173.192 272.061 176.235 256.463 229.796 L137 640 C121 697 130 737 162 740 L167.522 740.552 C169.982 740.798 172 743.028 172 745.5 C172 747.984 169.984 750 167.5 750 L15.5 750 C13.0161 750 11 747.984 11 745.5 L11 743.55 C11 742.17 12.1469 740.771 13.5 740.5 L16 740 C33 737 56 697 73 640 C139 423 205 206 272 -11 C273.167 -14.7795 275.544 -11 279.5 -11 C283.348 -11 288.348 -7.60537 289.768 -4.02945 L447.228 392.506 C457.693 418.861 495.329 410.973 503.308 383.761 C541.872 252.237 580.436 120.282 619 -11 C620.119 -14.8109 622.528 -11 626.5 -11 C630.487 -11 634.946 -7.61663 636.019 -3.77696 L816 640 C833 696 860 736 887 739 L891 739.5 C893.191 739.774 895 741.823 895 744.031 L895 745 C895 747.76 892.76 750 890 750 L890 750 Z " />
<glyph glyph-name="X" unicode="X" horiz-adv-x="661" d="M613.969 750 L466.5 750 C464.568 750 463 748.432 463 746.5 C463 744.575 464.569 742.869 466.488 742.709 L475 742 C512 740 520 712 496 671 L387.768 492.211 C363.801 452.621 313.424 453.339 290.596 493.597 L190 671 C167 712 170 740 198 742 L203.521 742.613 C205.43 742.826 207 744.58 207 746.5 C207 748.432 205.432 750 203.5 750 L57.5 750 C55.5681 750 54 748.432 54 746.5 C54 744.803 55.2521 742.684 56.858 742.136 C75.0125 735.943 94.25 715.85 118 675 L279.428 389.327 C287.487 375.065 286.754 345.373 278 331.526 L119 80 C93 39 57 9 29 7 L24.473 6.43412 C22.5708 6.19635 21 4.41698 21 2.5 C21 0.568105 22.5681 -1 24.5 -1 L169.5 -1 C171.432 -1 173 0.568105 173 2.5 C173 4.42522 171.431 6.13078 169.512 6.29066 L161 7 C123 9 116 39 141 80 L254.074 265.219 C278.152 304.659 328.42 303.82 351.167 263.598 L455 80 C479 38 476 9 448 7 L442.479 6.38651 C440.57 6.17447 439 4.42008 439 2.5 C439 0.568105 440.568 -1 442.5 -1 L589.5 -1 C591.432 -1 593 0.568105 593 2.5 C593 4.18379 591.58 6.34766 589.985 6.88562 C570.79 13.3575 549.7 36.3 525 80 L358.138 373.823 C349.688 388.701 350.759 418.639 360.25 432.876 L521 674 C550.45 715.8 578.998 735.94 611.787 741.279 C613.792 741.606 617.248 743.984 617.5 746 C617.774 748.191 616.177 750 613.969 750 L613.969 750 Z " />
<glyph glyph-name="Y" unicode="Y" horiz-adv-x="576" d="M173.464 750 L25.5 750 C23.5681 750 22 748.432 22 746.5 C22 744.815 23.3998 742.73 25.015 742.25 C44.205 736.545 65.2 712.7 88 669 L263.334 341.454 C265.07 338.21 270 318.554 270 314.874 L270 96 C270 45 249 10 218 8 L211.483 7.34826 C209.57 7.15699 208 5.42231 208 3.5 C208 1.5681 209.568 0 211.5 0 L387.5 0 C389.432 0 391 1.5681 391 3.5 C391 5.42231 389.43 7.15699 387.517 7.34826 L381 8 C350 10 329 45 329 96 L329 324.982 C329 328.135 333.329 346.864 334.713 349.697 L497 682 C519.425 721 543.751 738.136 575.54 742.675 C577.393 742.94 578 744.628 578 746.5 C578 748.432 576.432 750 574.5 750 L443.5 750 C441.568 750 440 748.432 440 746.5 C440 744.575 441.569 742.869 443.488 742.709 L452 742 C491 740 502 710 483 669 L375.595 444.552 C354.13 399.695 297.899 398.709 274.873 442.785 L152 678 C135 715 141 740 167 742 L172.486 742.61 C174.364 742.818 176.233 744.629 176.5 746.5 C176.773 748.412 175.396 750 173.464 750 L173.464 750 Z " />
<glyph glyph-name="Z" unicode="Z" horiz-adv-x="596" d="M72.9327 657.638 L76 665 C93 706 152 734 224 735 L405.312 736.259 C453.935 736.597 479.576 688.829 452.425 648.492 L27.3503 16.9775 C26.3177 15.4433 24 7.84929 24 6 C24 2.68818 26.6882 0 30 0 L561.831 0 C566.799 0 571.802 4.1236 572.75 9 L574.5 18 L591.05 94.6015 C591.562 96.9746 589.928 99 587.5 99 C585.354 99 581.814 96.9662 580.733 95.113 L576 87 C553 47 496 20 429 16 L199.585 13.2689 C150.984 12.6903 125.104 60.2898 152.014 100.766 L571.678 732.003 C572.693 733.53 575 741.166 575 743 C575 746.312 572.312 749 569 749 L77.0156 749 C72.5998 749 68.7754 745.407 68.5 741 L68 733 C68 733 64.39 686.07 61.4569 656.513 C61.1895 653.819 63.3059 652.231 66 652.5 C68.4293 652.743 71.9937 655.385 72.9327 657.638 L72.9327 657.638 Z " />
<glyph glyph-name="bracketleft" unicode="&#x5b;" horiz-adv-x="285" d="M181.32 735 L327.5 735 C331.64 735 335 738.36 335 742.5 C335 746.64 331.64 750 327.5 750 L164.32 750 C133.233 750 108 724.767 108 693.68 L108 -138.68 C108 -169.767 133.233 -195 164.32 -195 L327.5 -195 C331.64 -195 335 -191.64 335 -187.5 C335 -183.36 331.64 -180 327.5 -180 L181.32 -180 C150.233 -180 125 -154.767 125 -123.68 L125 678.68 C125 709.767 150.233 735 181.32 735 L181.32 735 Z " />
<glyph glyph-name="backslash" unicode="&#x5c;" horiz-adv-x="337" d="M41.3876 755.656 L292.612 -65.656 C294.928 -73.2272 304.083 -80 312 -80 C319.917 -80 324.928 -73.2272 322.612 -65.656 L71.3876 755.656 C69.0717 763.227 59.9174 770 52 770 C44.0826 770 39.0717 763.227 41.3876 755.656 L41.3876 755.656 Z " />
<glyph glyph-name="bracketright" unicode="&#x5d;" horiz-adv-x="288" d="M161 678.68 L161 -123.68 C161 -154.767 135.767 -180 104.68 -180 L-41.5 -180 C-45.6398 -180 -49 -183.36 -49 -187.5 C-49 -191.64 -45.6398 -195 -41.5 -195 L121.68 -195 C152.767 -195 178 -169.767 178 -138.68 L178 693.68 C178 724.767 152.767 750 121.68 750 L-41.5 750 C-45.6398 750 -49 746.64 -49 742.5 C-49 738.36 -45.6398 735 -41.5 735 L104.68 735 C135.767 735 161 709.767 161 678.68 L161 678.68 Z " />
<glyph glyph-name="asciicircum" unicode="&#x5e;" horiz-adv-x="297" d="M163.895 767.799 C159.609 773.692 153.231 783 149 783 C143.923 783 137.414 773.692 133.108 767.799 C133.08 767.76 129.502 762.69 129.476 762.649 L2.12483 566.276 C0.960337 564.481 1.35588 561.87 3 560.5 C4.6559 559.12 7.12553 559.34 8.51216 560.99 L105.032 675.862 C128.408 703.683 167.673 703.751 191.145 676.01 L288.222 561.283 C289.75 559.477 292.575 559.125 294.5 560.5 C296.43 561.879 296.945 564.615 295.647 566.601 L167.479 762.737 C167.458 762.769 163.918 767.768 163.895 767.799 L163.895 767.799 Z " />
<glyph glyph-name="underscore" unicode="&#x5f;" horiz-adv-x="378" d="M5 -64 C5 -71.7276 11.2724 -78 19 -78 L359 -78 C366.728 -78 373 -71.7276 373 -64 C373 -56.2724 366.728 -50 359 -50 L19 -50 C11.2724 -50 5 -56.2724 5 -64 L5 -64 Z " />
<glyph glyph-name="grave" unicode="&#x60;" horiz-adv-x="297" d="M-57 755 C-57 749 -29 722 13 686 L148.548 566.055 C150.453 564.369 153.344 564.568 155 566.5 C156.639 568.413 156.621 571.571 154.959 573.465 L36 709 C0 751 -26 779 -32 779 C-45 779 -57 768 -57 755 L-57 755 Z " />
<glyph glyph-name="a" unicode="a" horiz-adv-x="477" d="M483.5 79.5 C481.722 80.2622 479.534 78.3483 479.09 76.4649 C472.623 49.0013 450.462 31 422 31 C388 31 365 51 365 81 L365 358 C365 463 316 510 242 510 C141 510 73 414 73 360 C73 339 83 325 98 325 C118 325 131 340 131 350 C131 363 111 382 111 392 C111 433 162 506 238 506 C284 506 315 466 315 377 L315 296.615 C315 281.052 302.758 256.979 289.274 249.207 C130.615 157.757 53 108.5 53 80 C53 26 94 -10 156 -10 C192 -10 237.72 11.87 294.618 67.274 C301.337 73.8162 314.802 68.6833 316.811 59.5232 C325.585 19.5025 354.625 -5 400 -5 C441.925 -5 475.77 26.3706 485.777 74.2821 C486.211 76.3572 485.448 78.6649 483.5 79.5 L483.5 79.5 Z M314 179.012 L314 111.684 C314 101.81 306.37 81.0859 299.152 74.348 C255.07 33.2 215.2 17 181 17 C134 17 103 45 103 86 C103 124.775 149.963 162.529 246.135 220.6 C280.06 241.084 314 218.642 314 179.012 L314 179.012 Z " />
<glyph glyph-name="b" unicode="b" horiz-adv-x="440" d="M32 660 L31.0059 128.162 C31.0049 127.607 31.8245 122.527 32 122 C32.1745 121.476 33 116.39 33 115.838 L33 75 L33.5 37.5 C33.5798 31.5129 42.7128 30.2874 44.3681 36.0417 L46.5273 43.5473 C49.8043 54.9387 66.6801 56.6843 74.7909 48.0403 C108.814 11.78 156.025 -10 208 -10 C320 -10 395 94 395 251 C395 403 319 505 204 505 C166.05 505 127.419 481.859 98.7769 444.56 C94.111 438.485 82 441.109 82 448.77 L82 736.5 C82 743.4 76.3996 749 69.5 749 L64.2801 749 C63.2259 749 51.7385 747.513 50.723 747.23 C37.6735 743.592 22 739.429 10 736 L10 731 C25 724 32 700.5 32 659.5 L32 660 Z M82 118.888 L82 395.46 C82 400.608 87.3963 419.31 90.233 423.605 C116.18 462.89 152.9 488 188 488 C279 488 339 391 339 245 C339 96 287 -4 209 -4 C159.6 -4 112.005 35.71 85.9346 98.8399 C85.0362 101.015 82 116.535 82 118.888 L82 118.888 Z " />
<glyph glyph-name="c" unicode="c" horiz-adv-x="422" d="M370.662 91.158 C335.072 36.6909 283.675 3 235 3 C151 3 95 107 95 264 C95 410 154 507 242 507 C280 507 320 466 342 405 C347 390 357 380 367 380 C387 380 397 390 392 405 C369 468 309 510 243 510 C124 510 45 402 45 239 C45 90 118 -10 228 -10 C280.7 -10 335.568 29.7375 373.565 92.6311 C373.58 92.6571 370.679 91.1834 370.662 91.158 L370.662 91.158 Z " />
<glyph glyph-name="d" unicode="d" horiz-adv-x="513" d="M495.5 23.5 L492 23 C471 19 457 42 457 81 L457 737.5 C457 744.4 451.4 750 444.5 750 L440.792 750 C439.313 750 425.035 747.771 423.627 747.321 L407 742 C399 740 391 737 384 735 L384 730 C399 723 406 699 406 658 L406 440.536 C406 433.376 393.741 431.628 389.738 437.564 C361.089 480.052 318.725 510 275 510 C123 510 44 408 44 254 C44 99 127 -5 252 -5 C299.025 -5 348.773 16.78 384.959 51.3557 C391.706 57.8033 406 54.3329 406 45 L406 12.5 C406 5.60037 411.6 0 418.5 0 L424.067 0 C425.01 0 436.501 1.38075 437.416 1.61151 C455.777 6.24167 478.263 12.0506 495.907 16.4758 C497.658 16.915 498.245 18.7129 498.5 20.5 C498.765 22.3546 497.355 23.7649 495.5 23.5 L495.5 23.5 Z M406 366.531 L406 99.1557 C406 90.1089 400.144 72.4667 393.764 66.0527 C363.016 35.1406 317.625 16 273 16 C166 16 95 116 95 267 C95 404 158 495 281 495 C331.35 495 380.797 445.363 402.764 384.669 C403.395 382.925 406 368.387 406 366.531 L406 366.531 Z " />
<glyph glyph-name="e" unicode="e" horiz-adv-x="483" d="M116.659 340 L391.016 340 C429.984 340 451.395 361.077 437.26 397.391 C406.146 477.33 345.9 510 270 510 C135 510 45 433 45 235 C45 88 127 -10 249 -10 C318.7 -10 382.981 31.905 420.349 97.9054 C420.357 97.9183 418.393 96.1522 418.385 96.1396 C382.545 39.3925 320.825 4 254 4 C160 4 98 104 98 255 C98 281.811 99.4039 305.814 102.212 327.597 C103.125 334.685 109.512 340 116.659 340 L116.659 340 Z M337.566 343.797 L162.773 343.201 C125.99 343.075 105.37 363.116 117.732 397.76 C145.054 474.33 198.7 507 268 507 C316.675 507 358.203 475.691 383.04 399.036 C394.116 364.85 373.501 343.92 337.566 343.797 L337.566 343.797 Z " />
<glyph glyph-name="f" unicode="f" horiz-adv-x="270" d="M153.332 7.9722 C141.612 11.7438 135 21 135 41 L135 417.68 C135 448.767 160.233 474 191.32 474 L247 474 C254.176 474 260 479.824 260 487 C260 494.176 254.176 500 247 500 L191.32 500 C158.349 500 134.498 518.746 136.496 551.656 C143.469 666.5 174.75 740 229 740 C260 740 289 635 314 635 C341 635 359 653 359 680 C359 725 314 755 247 755 C150.7 755 96.52 672.38 86.647 544.319 C84.8961 521.608 61.8693 495.465 39.5168 491.082 L-14.0561 480.577 C-15.6507 480.265 -17 478.625 -17 477 C-17 475.344 -15.6559 474 -14 474 L34 474 C62.1505 474 85 451.15 85 423 L85 41 C85 21 78.3884 11.7438 66.6679 7.9722 C65.0899 7.46441 63 5.1577 63 3.5 C63 1.5681 64.5681 0 66.5 0 L153.5 0 C155.432 0 157 1.5681 157 3.5 C157 5.1577 154.91 7.46441 153.332 7.9722 L153.332 7.9722 Z " />
<glyph glyph-name="g" unicode="g" horiz-adv-x="486" d="M505 459 C505 477 492 489 473 489 C440.825 489 411.372 474.026 391.942 449.694 C387.469 444.092 374.429 444.31 370.188 450.09 C342.516 487.797 298 510 242 510 C147 510 83 446 83 350 C83 278.225 117.712 224.146 174.221 200.679 C178.094 199.07 177.553 186.613 173.408 185.971 C103.073 175.085 59 146.1 59 107 C59 67.4 83.5025 37.3287 123.523 24.086 C129.083 22.2463 130.748 10.4404 125.478 7.88737 C80.1775 -14.0575 52 -51.5 52 -94 C52 -176 132 -231 251 -231 C370 -231 450 -171 450 -80 C450 8 403 66 281 66 L175 66 C123 66 88 88 88 121 C88 161 150 187 242 187 C337 187 400 252 400 349 C400 374.833 395.551 398.442 387.291 419.188 C384.986 424.978 385.741 432.988 390.144 437.398 C403.083 450.361 421 458 441 458 C453 458 470 438 482 438 C495 438 504 446.5 504 459.5 L505 459 Z M241 192 C176 192 132 256 132 351 C132 445 176 508 241 508 C306 508 349 445 349 351 C349 256 306 192 241 192 L241 192 Z M163 19 L171 19 L275 19 C371 19 408 -24 408 -88 C408 -170 345 -225 251 -225 C156 -225 92 -167 92 -79 C92 -37.375 112.963 -1.73937 146.182 15.2436 C148.448 16.4018 160.456 19 163 19 L163 19 Z " />
<glyph glyph-name="h" unicode="h" horiz-adv-x="410" d="M49 660 L49 41 C49 21 42.3884 11.7438 30.6679 7.9722 C29.0899 7.46441 27 5.1577 27 3.5 C27 1.5681 28.5681 0 30.5 0 L117.5 0 C119.432 0 121 1.5681 121 3.5 C121 5.1577 118.91 7.46441 117.332 7.9722 C105.612 11.7438 99 21 99 41 L99 363.154 C99 365.593 101.567 379.75 102.514 381.997 C126.107 437.997 174.7 475 226 475 C281 475 309 431 309 365 L309 41 C309 21 302.388 11.7438 290.668 7.9722 C289.09 7.46441 287 5.1577 287 3.5 C287 1.5681 288.568 0 290.5 0 L377.5 0 C379.432 0 381 1.5681 381 3.5 C381 5.1577 378.91 7.46441 377.332 7.9722 C365.612 11.7438 359 21 359 41 L359 365 C359 452 324 510 255 510 C201.375 510 149.792 473.246 117.096 415.461 C113.297 408.746 99 410.831 99 418.547 L99 737.5 C99 744.4 93.3996 750 86.5 750 L81.2801 750 C80.2259 750 68.7385 748.513 67.723 748.23 C54.6735 744.592 39 740.429 27 737 L27 732 C42 725 49 701 49 660 L49 660 Z " />
<glyph glyph-name="i" unicode="i" horiz-adv-x="160" d="M116 647 C116 690 52 690 52 647 C52 605 116 605 116 647 L116 647 Z M59 410 L59 41 C59 21 52.3884 11.7438 40.6679 7.9722 C39.0899 7.46441 37 5.1577 37 3.5 C37 1.5681 38.5681 0 40.5 0 L127.5 0 C129.432 0 131 1.5681 131 3.5 C131 5.1577 128.91 7.46441 127.332 7.9722 C115.612 11.7438 109 21 109 41 L109 487.5 C109 494.4 103.4 500 96.5 500 L91.2801 500 C90.2259 500 78.7385 498.513 77.723 498.23 C64.6735 494.592 49 490.429 37 487 L37 482 C52 475 59 451 59 410 L59 410 Z " />
<glyph glyph-name="j" unicode="j" horiz-adv-x="192" d="M109 647 C109 690 45 690 45 647 C45 605 109 605 109 647 L109 647 Z M52 410 L52 29 C52 -38.15 40.44 -93.0175 21.6189 -116.565 C12.0526 -128.533 12.5148 -127.225 -2.61807 -124.828 C-34.5976 -119.761 -73.359 -100 -103 -100 C-130 -100 -148 -116 -148 -140 C-148 -169 -124 -187 -88 -185 C-81 -185 -39 -163 17 -130 C68 -101 102 -37 102 29 L102 487.5 C102 494.4 96.3996 500 89.5 500 L84.2801 500 C83.2259 500 71.7385 498.513 70.723 498.23 C57.6735 494.592 42 490.429 30 487 L30 482 C45 475 52 451 52 410 L52 410 Z " />
<glyph glyph-name="k" unicode="k" horiz-adv-x="351" d="M353.5 500 L187.5 500 C185.568 500 184 498.432 184 496.5 C184 494.571 185.569 492.913 187.495 492.806 L202 492 C261 490 260 447 201 383 L150 331 C130.289 310.902 99 323.685 99 351.835 L99 736.5 C99 743.4 93.3996 749 86.5 749 L81.2801 749 C80.2259 749 68.7385 747.513 67.723 747.23 C54.6735 743.592 39 739.429 27 736 L27 731 C42 724 49 700 49 659 L49 40 C49 20 42.3884 10.7438 30.6679 6.9722 C29.0899 6.46441 27 4.1577 27 2.5 C27 0.568105 28.5681 -1 30.5 -1 L117.5 -1 C119.432 -1 121 0.568105 121 2.5 C121 4.1577 118.91 6.46441 117.332 6.9722 C105.612 10.7438 99 20 99 40 L99 159.5 C99 195.563 144.618 209.138 164.335 178.942 L242 60 C258.625 33.75 266.445 14.0078 263.451 8.14258 C263.395 8.03261 260.81 3.0517 260.786 2.93063 L260.75 2.75 C260.344 0.720308 261.754 -1 263.824 -1 L343.5 -1 C345.432 -1 347 0.568105 347 2.5 C347 3.5668 344.644 7.42321 343.82 8.10156 C335.125 15.2656 317.625 38.125 294 74 L161.883 268.83 C147.877 289.485 150.829 322.098 168.315 339.903 L246 419 C290.65 462.7 324.47 484.74 353.462 490.264 C355.727 490.696 358 493.194 358 495.5 C358 497.984 355.984 500 353.5 500 L353.5 500 Z " />
<glyph glyph-name="l" unicode="l" horiz-adv-x="150" d="M49 660 L49 41 C49 21 42.3884 11.7438 30.6679 7.9722 C29.0899 7.46441 27 5.1577 27 3.5 C27 1.5681 28.5681 0 30.5 0 L117.5 0 C119.432 0 121 1.5681 121 3.5 C121 5.1577 118.91 7.46441 117.332 7.9722 C105.612 11.7438 99 21 99 41 L99 737.5 C99 744.4 93.3996 750 86.5 750 L81.2801 750 C80.2259 750 68.7385 748.513 67.723 748.23 C54.6735 744.592 39 740.429 27 737 L27 732 C42 725 49 701 49 660 L49 660 Z " />
<glyph glyph-name="m" unicode="m" horiz-adv-x="668" d="M49 410 L49 41 C49 21 42.3884 11.7438 30.6679 7.9722 C29.0899 7.46441 27 5.1577 27 3.5 C27 1.5681 28.5681 0 30.5 0 L117.5 0 C119.432 0 121 1.5681 121 3.5 C121 5.1577 118.91 7.46441 117.332 7.9722 C105.612 11.7438 99 21 99 41 L99 368.406 C99 370.779 101.305 384.214 102.214 386.405 C123.91 438.705 170.65 473 221 473 C284 473 308 430 308 365 L308 41 C308 21 301.388 11.7438 289.668 7.9722 C288.09 7.46441 286 5.1577 286 3.5 C286 1.5681 287.568 0 289.5 0 L376.5 0 C378.432 0 380 1.5681 380 3.5 C380 5.1577 377.91 7.46441 376.332 7.9722 C364.612 11.7438 358 21 358 41 L358 365 L358 374.5 C358 377.035 360.286 389.512 361.35 391.813 C383.813 440.412 429.65 472 480 472 C543 472 567 429 567 364 L567 40 C567 20 560.388 10.7438 548.668 6.9722 C547.09 6.46441 545 4.1577 545 2.5 C545 0.568105 546.568 -1 548.5 -1 L635.5 -1 C637.432 -1 639 0.568105 639 2.5 C639 4.1577 636.91 6.46441 635.332 6.9722 C623.612 10.7438 617 20 617 40 L617 364 C617 451 584 509 500 509 C451.55 509 403.1 473.597 371.846 417.531 C367.924 410.498 353.515 414.951 351.636 422.782 C338.783 476.33 304.525 509 241 509 C193.975 509 146.95 473.608 116.209 417.983 C112.596 411.445 99 413.496 99 420.966 L99 486.5 C99 493.4 93.3996 499 86.5 499 L81.2801 499 C80.2259 499 68.7385 497.513 67.723 497.23 C54.6735 493.592 39 489.429 27 486 L27 481 C42 474 49 450.5 49 409.5 L49 410 Z " />
<glyph glyph-name="n" unicode="n" horiz-adv-x="409" d="M49 410 L49 41 C49 21 42.3884 11.7438 30.6679 7.9722 C29.0899 7.46441 27 5.1577 27 3.5 C27 1.5681 28.5681 0 30.5 0 L117.5 0 C119.432 0 121 1.5681 121 3.5 C121 5.1577 118.91 7.46441 117.332 7.9722 C105.612 11.7438 99 21 99 41 L99 364.078 C99 366.466 101.874 381.527 102.792 383.732 C128.007 444.29 175.65 484 226 484 C280 484 308 427 308 342 L308 41 C308 21 301.388 11.7438 289.668 7.9722 C288.09 7.46441 286 5.1577 286 3.5 C286 1.5681 287.568 0 289.5 0 L376.5 0 C378.432 0 380 1.5681 380 3.5 C380 5.1577 377.91 7.46441 376.332 7.9722 C364.612 11.7438 358 21 358 41 L358 342 C358 443 318 510 241 510 C193.15 510 146.661 475.288 116.133 419.902 C112.526 413.358 99 415.494 99 422.966 L99 487.5 C99 494.4 93.3996 500 86.5 500 L81.2801 500 C80.2259 500 68.7385 498.513 67.723 498.23 C54.6735 494.592 39 490.429 27 487 L27 482 C42 475 49 451 49 410 L49 410 Z " />
<glyph glyph-name="o" unicode="o" horiz-adv-x="570" d="M100 250 C100 404 174 506 285 506 C395 506 469 404 469 250 C469 96 395 -6 285 -6 C174 -6 100 96 100 250 L100 250 Z M45 250 C45 94 141 -10 285 -10 C429 -10 525 94 525 250 C525 406 429 510 285 510 C141 510 45 406 45 250 L45 250 Z " />
<glyph glyph-name="p" unicode="p" horiz-adv-x="446" d="M34 410 L34 -179 C34 -199 27.3884 -208.256 15.6679 -212.028 C14.0899 -212.536 12 -214.842 12 -216.5 C12 -218.432 13.5681 -220 15.5 -220 L102.5 -220 C104.432 -220 106 -218.432 106 -216.5 C106 -214.842 103.91 -212.536 102.332 -212.028 C90.6116 -208.256 84 -199 84 -179 L84 24.4072 C84 32.0083 94.1687 35.3935 99.9225 30.4265 C125.981 7.93187 156.65 -5 188 -5 C316 -5 401 114 401 254 C401 408 325 510 211 510 C172.225 510 131.408 489.581 101.464 456.605 C96.193 450.8 84 453.618 84 461.459 L84 486.5 C84 493.4 78.3996 499 71.5 499 L66.2801 499 C65.2259 499 53.7385 497.513 52.723 497.23 C39.6735 493.592 24 489.429 12 486 L12 481 C27 474 34 450.5 34 409.5 L34 410 Z M84 137.302 L84 396.424 C84 402.594 89.3529 421.09 93.042 426.035 C121.14 463.7 157.5 488 189 488 C284 488 347 388 347 237 C347 113 285 7 191 7 C151.025 7 108.673 53.5806 86.1899 123.57 C85.7343 124.989 84 135.813 84 137.302 L84 137.302 Z " />
<glyph glyph-name="q" unicode="q" horiz-adv-x="479" d="M471.332 -212.028 C459.612 -208.256 453 -199 453 -179 L451.569 468.75 C451.558 473.616 444.113 474.672 442.75 470 L435.782 446.109 C435.309 444.488 430.694 436.694 429.5 435.5 C427.095 433.095 424.337 431.947 422.259 434.639 C386.096 481.481 329.375 510 266 510 C114 510 36 408 36 254 C36 99 122 -5 252 -5 C268.5 -5 312.225 15.4187 365.768 48.395 C381.667 58.1867 401 48.2081 401 29.5362 L401 -179 C401 -199 394.388 -208.256 382.668 -212.028 C381.09 -212.536 379 -214.842 379 -216.5 C379 -218.432 380.568 -220 382.5 -220 L469.36 -220 C471.292 -220 473.469 -218.358 474 -216.5 C474.499 -214.753 473.061 -212.584 471.332 -212.028 L471.332 -212.028 Z M401 378.307 L401 119.393 C401 105.049 388.758 80.9559 376.672 73.2305 C321.875 38.2031 281.625 16 272 16 C161 16 87 116 87 267 C87 406 147 499 262 499 C319 499 370.134 459.29 397.396 398.732 C398.521 396.234 401 381.047 401 378.307 L401 378.307 Z " />
<glyph glyph-name="r" unicode="r" horiz-adv-x="278" d="M50 410 L50 41 C50 21 43.3884 11.7438 31.6679 7.9722 C30.0899 7.46441 28 5.1577 28 3.5 C28 1.5681 29.5681 0 31.5 0 L118.5 0 C120.432 0 122 1.5681 122 3.5 C122 5.1577 119.91 7.46441 118.332 7.9722 C106.612 11.7438 100 21 100 41 L100 388.521 C100 389.27 100.71 397.432 100.874 398.162 C112.858 451.777 149.225 486 197 486 C204 486 209 472 209 451 C209 414 268 413 268 451 C268 486 249 509 220 509 C168.85 509 128.59 480.414 108.766 433.349 C107.415 430.141 99 431.154 99 434.634 L99 487.5 C99 494.4 93.3996 500 86.5 500 L81.2801 500 C80.2259 500 68.7385 498.513 67.723 498.23 C54.6735 494.592 39 490.429 27 487 L27 482 C42 475 49.5 451 49.5 410 L50 410 Z " />
<glyph glyph-name="s" unicode="s" horiz-adv-x="387" d="M309 392 L309 462.464 C309 464.396 307.412 465.773 305.5 465.5 C304.727 465.39 302.857 466.497 302.795 467.275 C302.243 474.203 278.209 485.104 239.906 496.908 C239.655 496.986 226.844 502.167 226.605 502.276 C214.361 507.877 201.25 510.3 188.5 512 C111.5 518 61 465 61 390 C61 324 106 264 193 232 C262 207 298 159 298 108 C298 40 261 -6 205 -6 C186.667 -6 170.014 0.302083 156.582 7.51447 C156.379 7.62358 149.317 10.9323 149.102 11.0159 L148.5 11.25 C147.698 11.5621 139.774 16.0552 139.089 16.576 C108.235 40.0125 82.3 78.25 69 121 L66.0252 129.181 C65.4934 130.643 63.5562 132 62 132 C60.3441 132 59 130.656 59 129 L59 47 C59 45.3441 60.3441 44 62 44 L62.0845 44 C63.4644 44 65.79 45.3167 66.5 46.5 L68 49 C66.05 45.1 94.52 27.8912 140.434 7.5692 C140.598 7.49662 148.03 3.49075 148.186 3.401 C155.911 -1.06509 163.885 -3.96154 171.5 -6.5 C181.5 -9.5 193 -9 204 -9 C283 -9 335 43 335 122 C335 185 294 241 215 270 C136 299 96 351 96 407 C96 468 128 508 176 508 C177 508 186 508 186 507 C194 506 201.5 503 209.5 500 C215.5 498 221 495 227 492 C258 474 284 441 297 399 L299.633 391.759 C300.342 389.809 302.925 388 305 388 C307.208 388 309 389.792 309 392 L309 392 Z " />
<glyph glyph-name="t" unicode="t" horiz-adv-x="317" d="M264 500 L196.389 500 C165.82 500 140.586 524.817 140.077 555.381 L140 560 C139.615 583.103 113.702 593.134 97.8611 576.313 L29.4278 503.64 C28.1307 502.263 26 496.892 26 495 C26 492.24 28.2402 490 31 490 L58.5 490 C76.439 490 91 475.439 91 457.5 L91 129 C91 29 134 -10 199 -10 C233.125 -10 274.855 19.4694 304.726 64.5052 C305.63 65.8687 305.903 68.6582 304.5 69.5 C303.151 70.3097 301.208 69.774 300.326 68.4708 C278.253 35.8644 244.225 14 214 14 C169 14 139 43 139 118 L140.685 417.996 C140.859 448.908 166.092 474 197.004 474 L264 474 C271.176 474 277 479.824 277 487 C277 494.176 271.176 500 264 500 L264 500 Z " />
<glyph glyph-name="u" unicode="u" horiz-adv-x="385" d="M371 23 L366 23 C350 21 339 45 339 84 L339 487.498 C339 494.397 333.398 500.112 326.5 500.25 L314 500.5 L270.5 500.963 C268.568 500.983 267 499.432 267 497.5 C267 495.842 269.09 493.536 270.668 493.028 C282.388 489.256 289 480 289 460 L289 139.731 C289 136.675 286.146 121.623 284.825 118.867 C257.602 62.1 215.85 26 175 26 C126 26 94 78 94 156 L94 465 C94 484.871 77.8709 501 58 501 L25.5 501 C23.5681 501 22 499.432 22 497.5 C22 495.842 24.0899 493.536 25.6679 493.028 C37.3884 489.256 44 480 44 460 L44 156 C44 57 87 -9 152 -9 C193.25 -9 236.542 27.0731 269.522 85.1815 C274.028 93.1198 289 90.2046 289 81.0768 L289 13.5 C289 6.60037 294.6 1 301.5 1 L310.838 1 C311.571 1 316.95 2.07411 317.633 2.34035 C322.251 4.13899 328.047 6.56349 333.474 7.55222 C333.554 7.56678 341.763 9.09259 341.841 9.11524 L365.963 16.1183 C367.343 16.5188 369.546 18.6374 370 20 L371 23 L371 23 Z " />
<glyph glyph-name="v" unicode="v" horiz-adv-x="371" d="M99.1757 500 L10.5 500 C8.5681 500 7 498.432 7 496.5 C7 494.994 9.39316 492.284 10.7721 491.68 C23.8931 485.931 34.0286 468.743 45 434 L162.058 -2.75568 C163.094 -6.61801 167.501 -10 171.5 -10 C175.467 -10 180.01 -6.61445 181.144 -2.81308 L307 419 C317.8 456.8 333.055 484.475 344.746 491.09 C345.668 491.612 349.042 495.211 349.25 496.25 C349.656 498.28 348.246 500 346.176 500 L289.824 500 C287.754 500 286.344 498.28 286.75 496.25 C286.819 495.905 290.251 490.766 290.469 490.49 C296.43 482.93 295.5 455.75 285 419 L238.356 253.488 C225.242 206.955 160.089 207.322 147.5 254 L103 419 C93.375 455.75 92.5547 482.93 98.5293 490.49 C98.7484 490.767 102.181 495.903 102.25 496.25 C102.656 498.28 101.246 500 99.1757 500 L99.1757 500 Z " />
<glyph glyph-name="w" unicode="w" horiz-adv-x="584" d="M565.665 500 L507.824 500 C505.754 500 504.344 498.28 504.75 496.25 C504.842 495.79 507.568 491.409 507.885 491.063 C514.095 484.295 511.8 455.9 501 419 L450.5 253.5 C435.821 205.393 368.63 206.66 355.775 255.286 L308 436 C301.903 464.742 302.254 485.519 308.393 491.723 C308.769 492.103 312.145 496.726 312.25 497.25 C312.656 499.28 311.246 501 309.176 501 L218.881 501 C216.811 501 215.467 499.25 216 497.25 C216.232 496.381 219.68 492.543 220.441 492.063 C231.16 485.295 245.2 456.9 256 420 L270.205 364.759 C271.261 360.651 270.994 339.421 269.835 335.341 L174.05 -1.78554 C172.961 -5.6161 175.518 -9 179.5 -9 C183.47 -9 188 -5.61479 189.125 -1.80723 L235.382 154.793 C249.028 200.991 313.677 200.069 326 153.5 L367.209 -2.23291 C368.165 -5.84386 372.265 -9 376 -9 C379.673 -9 384.032 -5.8373 385.172 -2.34539 L523 420 C536.875 457.925 552.889 486.866 564.711 492.577 C565.637 493.024 568.019 495.748 568.25 496.75 C568.653 498.498 567.458 500 565.665 500 L565.665 500 Z M114.176 501 L24.5 501 C22.5681 501 21 499.432 21 497.5 C21 496.014 23.1723 493.388 24.5342 492.795 C38.8 486.576 49.9 464.7 61 424 L159.602 42.7976 C163.325 28.4042 183.471 28.1893 187.5 42.5 L197.87 79.3303 C199.019 83.4135 199.235 104.645 198.169 108.751 L115 429 C107.029 461.771 107.294 485.521 113.713 491.911 C114.101 492.298 117.142 496.712 117.25 497.25 C117.656 499.28 116.246 501 114.176 501 L114.176 501 Z " />
<glyph glyph-name="x" unicode="x" horiz-adv-x="387" d="M348.36 500 L292.824 500 C290.754 500 289.344 498.28 289.75 496.25 C289.774 496.13 292.765 490.599 292.82 490.49 C296.648 482.93 289.375 455.75 271 419 L239 354 C224.905 325.369 188.767 325.205 174.413 353.708 L137 428 C121.432 460 115.215 483.398 118.347 490.431 C118.38 490.505 121.198 495.99 121.214 496.069 L121.25 496.25 C121.656 498.28 120.246 500 118.176 500 L24.5 500 C22.5681 500 21 498.432 21 496.5 C21 494.976 23.4475 492.334 24.8596 491.762 C40.8725 485.276 58.725 461.55 80 419 L160.363 260.838 C166.771 248.228 164.322 218.551 156.854 206.538 C130.84 164.692 105.256 122.846 79 81 C53.1 38.45 33.1894 14.7237 16.8938 8.23834 C15.4655 7.6699 13 5.03725 13 3.5 C13 1.5681 14.5681 0 16.5 0 L70.1757 0 C72.2456 0 73.6559 1.72031 73.25 3.75 C73.2188 3.90584 70.7542 8.79809 70.677 8.937 C66.915 15.705 78.3 44.1 99 81 L140 152 C158.985 184.876 200.999 183.781 218.245 149.96 L258 72 C273.568 40 279.785 16.6019 276.653 9.56863 C276.62 9.49504 273.802 4.00963 273.786 3.93063 L273.75 3.75 C273.344 1.72031 274.754 0 276.824 0 L370.5 0 C372.432 0 374 1.5681 374 3.5 C374 5.02356 371.553 7.66641 370.14 8.23834 C354.128 14.7238 336.275 38.45 315 81 L229.316 249.772 C223.284 261.653 223.613 290.175 229.917 301.914 L303 438 C322.297 470.162 336.528 486.28 350.348 491.787 C351.997 492.444 353.488 494.793 353 496.5 C352.469 498.358 350.292 500 348.36 500 L348.36 500 Z " />
<glyph glyph-name="y" unicode="y" horiz-adv-x="408" d="M114.518 500 L25.5 500 C23.5681 500 22 498.432 22 496.5 C22 494.991 24.475 492.259 25.8586 491.655 C38.7803 486.021 48.0588 469.824 59 437 L171.364 17.3163 C172.829 11.8451 171.98 -10.8827 170.029 -16.2 C152.2 -64.8 135.1 -113.4 118 -162 C111 -181 97 -194 91 -194 C69 -194 64 -175 42 -175 C17 -175 1 -191 1 -216 C1 -242 19 -260 46 -260 C68 -260 111 -223 131 -168 L221 87 C260 198 298 310 338 420 C353.725 462.55 366.883 486.276 381.432 492.762 C382.771 493.359 385 496.033 385 497.5 C385 499.432 383.432 501 381.5 501 L324.824 501 C322.754 501 321.344 499.28 321.75 497.25 C321.838 496.812 324.559 492.396 324.856 492.063 C330.895 485.295 327.7 456.9 316 420 L260.645 251.903 C244.328 202.355 175.687 204.162 162 254.5 L117 420 C107.1 457.8 106.515 485.475 113.058 492.09 C113.27 492.304 116.642 496.469 116.75 496.75 C117.394 498.424 116.312 500 114.518 500 L114.518 500 Z " />
<glyph glyph-name="z" unicode="z" horiz-adv-x="441" d="M61 491 C59.0571 491 53.3396 468.352 43.8473 431.306 C43.1839 428.717 45.327 428 48 428 C50.077 428 54.9248 430.2 56.2925 431.763 L60 436 C80 461 127 480 179 484 L260.5 485.5 C298.012 486.19 318.395 449.873 298.265 418.212 L43.2192 17.0633 C42.2658 15.5638 40 7.77689 40 6 C40 2.68818 42.6882 0 46 0 L387 0 C391.968 0 396 4.03227 396 9 L396 14.8807 C396 15.0708 396.323 20.9112 396.344 21.1002 L401.448 67.0306 C401.751 69.7568 399.743 72 397 72 C394.792 72 390.325 69.7663 389 68 L386 64 C367 36 314 18 255 16 L178 14.5 C142.514 13.8087 123.172 48.1064 142.125 78.115 L397.796 482.927 C398.74 484.422 401 492.232 401 494 C401 497.312 398.312 500 395 500 L71.5 500 C69.0161 500 67 497.984 67 495.5 L67 494 C67 492.344 65.6559 491 64 491 L61 491 L61 491 Z M63.9388 499.501 C63.6939 497.612 62.7143 491 61 491 L62.2882 495.637 C62.3951 496.022 63.9901 499.898 63.9388 499.501 L63.9388 499.501 Z " />
<glyph glyph-name="bar" unicode="&#x7c;" horiz-adv-x="159" d="M60 780.5 L60 -230.5 C60 -241.263 68.7366 -250 79.5 -250 C90.2634 -250 99 -241.263 99 -230.5 L99 780.5 C99 791.263 90.2634 800 79.5 800 C68.7366 800 60 791.263 60 780.5 L60 780.5 Z " />
<glyph glyph-name="asciitilde" unicode="&#x7e;" horiz-adv-x="297" d="M27.6434 330.98 L31.6171 330.523 C31.6171 330.523 30.3406 329.649 30.3406 329.649 C34.495 358.304 48.025 376 67 376 C111 376 171 311 215 311 C244.7 311 264.68 341.78 268.379 389.489 C268.379 389.489 269.915 388.613 269.915 388.613 L265.95 389.142 C265.95 389.142 267.486 388.267 267.486 388.267 C262.805 362.335 247.625 346 227 346 C183 346 123 411 79 411 C51.875 411 33.1719 380.375 28.9199 331.854 C28.9199 331.854 27.6434 330.98 27.6434 330.98 L31.6171 330.523 C31.6171 330.523 30.3406 329.649 30.3406 329.649 L27.6434 330.98 Z " />
<glyph glyph-name="exclamdown" unicode="&#xa1;" horiz-adv-x="201" d="M65 470 C65 423 135 423 135 470 C135 516 65 516 65 470 L65 470 Z M100 -255 C124 -255 134 -221 131 -171 C131 -171 105 152 105 290 C105 292.484 102.984 290 100.5 290 C98.0376 290 95.9733 281.773 95.9521 279.311 C94.7162 136.052 70 -171 70 -171 C67 -221 77 -255 100 -255 L100 -255 Z " />
<glyph glyph-name="cent" unicode="&#xa2;" horiz-adv-x="422" d="M219 565.986 L219 541.5 C219 526.87 202.296 505.625 188.37 501.142 C100.08 472.72 45 374.8 45 238 C45 107.5 100.89 14.26 188.613 -6.728 C202.653 -10.087 219 -29.0641 219 -43.5 L219 -67 C219 -71.9677 223.032 -76 228 -76 C232.968 -76 237 -71.9677 237 -67 L237 -40.6057 C237 -28.3713 251.906 -9.31135 263.53 -5.49312 C304.63 8.00812 344.31 43.9269 373.65 93.6881 C373.749 93.8559 370.856 90.754 370.749 90.5911 C341.845 46.4659 302.736 15.7931 263.262 5.64613 C244.227 0.753198 237 11.3508 237 31.0043 L237 484.477 C237 499.953 241.029 507.837 256.039 504.068 C291.34 495.205 322.45 457.55 342 404 C347 389 357 379 367 379 C387 379 397 389 392 404 C371.6 459.25 324.467 497.882 267.798 507.001 C253.32 509.33 237 526.836 237 541.5 L237 564.986 C237 569.954 232.96 574.224 228 574.5 C223.04 574.776 219 570.954 219 565.986 L219 565.986 Z M187.083 14.2016 C130.402 46.0575 95 137.05 95 262 C95 375.05 130.403 458.477 187.083 490.788 C209.329 503.47 219 490.263 219 464.656 L219 40.977 C219 14.3444 210.3 1.15301 187.083 14.2016 L187.083 14.2016 Z " />
<glyph glyph-name="acute" unicode="&#xb4;" horiz-adv-x="297" d="M158.452 566.055 L294 686 C336 724 364 751 364 755 C364 768 353 779 339 779 C335 779 309 751 271 709 L152.041 573.465 C150.379 571.571 150.361 568.413 152 566.5 C153.656 564.568 156.547 564.369 158.452 566.055 L158.452 566.055 Z " />
<glyph glyph-name="questiondown" unicode="&#xbf;" horiz-adv-x="305" d="M145 470 C145 423 215 423 215 470 C215 516 145 516 145 470 L145 470 Z M183.996 324.661 C183.9 315.914 181.95 140.975 180 140 C96 140 62 103 24 47 C7 22 -4 -18 -4 -53 C-4 -177 62 -260 160 -260 C188 -260 207 -245 207 -223 C207 -208 196 -198 180 -198 C169 -198 153 -207 142 -207 C63 -207 10 -143 10 -47 C10 -27 20 2 35 24 C62 64 91 90 197 90 C194 89 192 325 192 325 C192 325 190.227 325 188 325 C185.793 325 184.021 326.868 183.996 324.661 L183.996 324.661 Z " />
<glyph glyph-name="Agrave" unicode="&#xc0;" horiz-adv-x="582" d="M92 1005 C92 999 120 972 162 936 L297.548 816.055 C299.453 814.369 302.344 814.568 304 816.5 C305.639 818.413 305.621 821.571 303.959 823.465 L185 959 C149 1001 123 1029 117 1029 C104 1029 92 1018 92 1005 L92 1005 Z M159.979 9.28721 L150 10 C107 13 90 58 107 124 L143.508 254.819 C149.618 276.713 175.024 296 197.755 296 L344.962 296 C367.884 296 393.284 276.59 399.305 254.473 L437 116 C450 55 432 14 390 11 L380.489 10.3206 C378.017 10.1441 376 7.97755 376 5.5 C376 3.01613 378.016 1 380.5 1 L574.5 1 C576.984 1 579 3.01613 579 5.5 L579 5.96887 C579 8.17675 577.191 10.2261 575 10.5 L571 11 C545 14 515 58 496 123 L326 734 C326 734 318 772 315 772 L310 772 C312.806 754.226 298.11 739.952 272.461 734.91 C269.804 734.387 267.722 731.593 268.5 729 C268.944 727.52 269.004 720.463 268.585 718.975 L103 131 C84 62 39 14 -8 11 L-17.5114 10.3206 C-19.9827 10.1441 -22 7.97755 -22 5.5 C-22 3.01613 -19.9839 1 -17.5 1 L158.969 1 C161.177 1 163.226 2.80917 163.5 5 C163.776 7.20477 162.195 9.1289 159.979 9.28721 L159.979 9.28721 Z M175.071 371.534 L217.306 522.066 C232.896 577.628 310.483 577.456 325.825 521.824 L367.339 371.293 C377.801 333.358 352.397 300 313.046 300 L229.297 300 C189.812 300 164.404 333.518 175.071 371.534 L175.071 371.534 Z " />
<glyph glyph-name="Aacute" unicode="&#xc1;" horiz-adv-x="582" d="M307.452 816.055 L443 936 C485 974 513 1001 513 1005 C513 1018 502 1029 488 1029 C484 1029 458 1001 420 959 L301.041 823.465 C299.379 821.571 299.361 818.413 301 816.5 C302.656 814.568 305.547 814.369 307.452 816.055 L307.452 816.055 Z M159.979 9.28721 L150 10 C107 13 90 58 107 124 L143.508 254.819 C149.618 276.713 175.024 296 197.755 296 L344.962 296 C367.884 296 393.284 276.59 399.305 254.473 L437 116 C450 55 432 14 390 11 L380.489 10.3206 C378.017 10.1441 376 7.97755 376 5.5 C376 3.01613 378.016 1 380.5 1 L574.5 1 C576.984 1 579 3.01613 579 5.5 L579 5.96887 C579 8.17675 577.191 10.2261 575 10.5 L571 11 C545 14 515 58 496 123 L326 734 C326 734 318 772 315 772 L310 772 C312.806 754.226 298.11 739.952 272.461 734.91 C269.804 734.387 267.722 731.593 268.5 729 C268.944 727.52 269.004 720.463 268.585 718.975 L103 131 C84 62 39 14 -8 11 L-17.5114 10.3206 C-19.9827 10.1441 -22 7.97755 -22 5.5 C-22 3.01613 -19.9839 1 -17.5 1 L158.969 1 C161.177 1 163.226 2.80917 163.5 5 C163.776 7.20477 162.195 9.1289 159.979 9.28721 L159.979 9.28721 Z M175.071 371.534 L217.306 522.066 C232.896 577.628 310.483 577.456 325.825 521.824 L367.339 371.293 C377.801 333.358 352.397 300 313.046 300 L229.297 300 C189.812 300 164.404 333.518 175.071 371.534 L175.071 371.534 Z " />
<glyph glyph-name="Acircumflex" unicode="&#xc2;" horiz-adv-x="582" d="M312.895 1017.8 C308.609 1023.69 302.231 1033 298 1033 C292.923 1033 286.414 1023.69 282.108 1017.8 C282.083 1017.77 278.544 1012.77 278.521 1012.74 L150.353 816.601 C149.055 814.615 149.57 811.879 151.5 810.5 C153.426 809.124 156.244 809.481 157.767 811.293 L254.032 925.862 C277.408 953.683 316.673 953.751 340.145 926.01 L437.222 811.283 C438.75 809.477 441.575 809.125 443.5 810.5 C445.43 811.879 445.945 814.615 444.647 816.601 L316.479 1012.74 C316.458 1012.77 312.918 1017.77 312.895 1017.8 L312.895 1017.8 Z M159.979 9.28721 L150 10 C107 13 90 58 107 124 L143.508 254.819 C149.618 276.713 175.024 296 197.755 296 L344.962 296 C367.884 296 393.284 276.59 399.305 254.473 L437 116 C450 55 432 14 390 11 L380.489 10.3206 C378.017 10.1441 376 7.97755 376 5.5 C376 3.01613 378.016 1 380.5 1 L574.5 1 C576.984 1 579 3.01613 579 5.5 L579 5.96887 C579 8.17675 577.191 10.2261 575 10.5 L571 11 C545 14 515 58 496 123 L326 734 C326 734 318 772 315 772 L310 772 C312.806 754.226 298.11 739.952 272.461 734.91 C269.804 734.387 267.722 731.593 268.5 729 C268.944 727.52 269.004 720.463 268.585 718.975 L103 131 C84 62 39 14 -8 11 L-17.5114 10.3206 C-19.9827 10.1441 -22 7.97755 -22 5.5 C-22 3.01613 -19.9839 1 -17.5 1 L158.969 1 C161.177 1 163.226 2.80917 163.5 5 C163.776 7.20477 162.195 9.1289 159.979 9.28721 L159.979 9.28721 Z M175.071 371.534 L217.306 522.066 C232.896 577.628 310.483 577.456 325.825 521.824 L367.339 371.293 C377.801 333.358 352.397 300 313.046 300 L229.297 300 C189.812 300 164.404 333.518 175.071 371.534 L175.071 371.534 Z " />
<glyph glyph-name="Atilde" unicode="&#xc3;" horiz-adv-x="582" d="M176.621 890.976 L180.596 890.527 C180.596 890.527 179.341 889.649 179.341 889.649 C183.495 918.304 197.025 936 216 936 C261 936 320 871 365 871 C393.8 871 413.69 901.78 417.38 949.489 C417.38 949.489 418.879 948.395 418.879 948.395 L414.916 948.939 C414.916 948.939 416.415 947.845 416.415 947.845 C411.672 922.158 396.692 906 377 906 C332 906 272 971 227 971 C199.875 971 181.938 940.375 177.877 891.854 C177.877 891.854 176.621 890.976 176.621 890.976 L180.596 890.527 C180.596 890.527 179.341 889.649 179.341 889.649 L176.621 890.976 Z M159.979 9.28721 L150 10 C107 13 90 58 107 124 L143.508 254.819 C149.618 276.713 175.024 296 197.755 296 L344.962 296 C367.884 296 393.284 276.59 399.305 254.473 L437 116 C450 55 432 14 390 11 L380.489 10.3206 C378.017 10.1441 376 7.97755 376 5.5 C376 3.01613 378.016 1 380.5 1 L574.5 1 C576.984 1 579 3.01613 579 5.5 L579 5.96887 C579 8.17675 577.191 10.2261 575 10.5 L571 11 C545 14 515 58 496 123 L326 734 C326 734 318 772 315 772 L310 772 C312.806 754.226 298.11 739.952 272.461 734.91 C269.804 734.387 267.722 731.593 268.5 729 C268.944 727.52 269.004 720.463 268.585 718.975 L103 131 C84 62 39 14 -8 11 L-17.5114 10.3206 C-19.9827 10.1441 -22 7.97755 -22 5.5 C-22 3.01613 -19.9839 1 -17.5 1 L158.969 1 C161.177 1 163.226 2.80917 163.5 5 C163.776 7.20477 162.195 9.1289 159.979 9.28721 L159.979 9.28721 Z M175.071 371.534 L217.306 522.066 C232.896 577.628 310.483 577.456 325.825 521.824 L367.339 371.293 C377.801 333.358 352.397 300 313.046 300 L229.297 300 C189.812 300 164.404 333.518 175.071 371.534 L175.071 371.534 Z " />
<glyph glyph-name="Adieresis" unicode="&#xc4;" horiz-adv-x="582" d="M397 897 C397 941 332 940 332 897 C332 856 397 855 397 897 L397 897 Z M263 897 C263 940 198 941 198 897 C198 855 263 856 263 897 L263 897 Z M159.979 9.28721 L150 10 C107 13 90 58 107 124 L143.508 254.819 C149.618 276.713 175.024 296 197.755 296 L344.962 296 C367.884 296 393.284 276.59 399.305 254.473 L437 116 C450 55 432 14 390 11 L380.489 10.3206 C378.017 10.1441 376 7.97755 376 5.5 C376 3.01613 378.016 1 380.5 1 L574.5 1 C576.984 1 579 3.01613 579 5.5 L579 5.96887 C579 8.17675 577.191 10.2261 575 10.5 L571 11 C545 14 515 58 496 123 L326 734 C326 734 318 772 315 772 L310 772 C312.806 754.226 298.11 739.952 272.461 734.91 C269.804 734.387 267.722 731.593 268.5 729 C268.944 727.52 269.004 720.463 268.585 718.975 L103 131 C84 62 39 14 -8 11 L-17.5114 10.3206 C-19.9827 10.1441 -22 7.97755 -22 5.5 C-22 3.01613 -19.9839 1 -17.5 1 L158.969 1 C161.177 1 163.226 2.80917 163.5 5 C163.776 7.20477 162.195 9.1289 159.979 9.28721 L159.979 9.28721 Z M175.071 371.534 L217.306 522.066 C232.896 577.628 310.483 577.456 325.825 521.824 L367.339 371.293 C377.801 333.358 352.397 300 313.046 300 L229.297 300 C189.812 300 164.404 333.518 175.071 371.534 L175.071 371.534 Z " />
<glyph glyph-name="Aring" unicode="&#xc5;" horiz-adv-x="582" d="M216 905 C216 955 249 988 298 988 C347 988 379 955 379 905 C379 860 342 822 298 822 C254 822 216 860 216 905 L216 905 Z M201 905 C201 854 246 810 298 810 C350 810 394 854 394 905 C394 962 356 1000 298 1000 C240 1000 201 962 201 905 L201 905 Z M159.979 9.28721 L150 10 C107 13 90 58 107 124 L143.508 254.819 C149.618 276.713 175.024 296 197.755 296 L344.962 296 C367.884 296 393.284 276.59 399.305 254.473 L437 116 C450 55 432 14 390 11 L380.489 10.3206 C378.017 10.1441 376 7.97755 376 5.5 C376 3.01613 378.016 1 380.5 1 L574.5 1 C576.984 1 579 3.01613 579 5.5 L579 5.96887 C579 8.17675 577.191 10.2261 575 10.5 L571 11 C545 14 515 58 496 123 L326 734 C326 734 318 772 315 772 L310 772 C312.806 754.226 298.11 739.952 272.461 734.91 C269.804 734.387 267.722 731.593 268.5 729 C268.944 727.52 269.004 720.463 268.585 718.975 L103 131 C84 62 39 14 -8 11 L-17.5114 10.3206 C-19.9827 10.1441 -22 7.97755 -22 5.5 C-22 3.01613 -19.9839 1 -17.5 1 L158.969 1 C161.177 1 163.226 2.80917 163.5 5 C163.776 7.20477 162.195 9.1289 159.979 9.28721 L159.979 9.28721 Z M175.071 371.534 L217.306 522.066 C232.896 577.628 310.483 577.456 325.825 521.824 L367.339 371.293 C377.801 333.358 352.397 300 313.046 300 L229.297 300 C189.812 300 164.404 333.518 175.071 371.534 L175.071 371.534 Z " />
<glyph glyph-name="Egrave" unicode="&#xc8;" horiz-adv-x="522" d="M75 1005 C75 999 103 972 145 936 L280.548 816.055 C282.453 814.369 285.344 814.568 287 816.5 C288.639 818.413 288.621 821.571 286.959 823.465 L168 959 C132 1001 106 1029 100 1029 C87 1029 75 1018 75 1005 L75 1005 Z M387 297.5 L387 476.5 C387 478.984 384.984 481 382.5 481 C380.112 481 377.42 478.97 376.764 476.673 L374 467 C360 420 313 389 256 389 L213.5 389 C190.041 389 171 408.041 171 431.5 L171 690.68 C171 721.767 196.233 747 227.32 747 L316 747 C373 747 424 716 444 669 L448.227 659.136 C449.127 657.038 452.217 655 454.5 655 C456.955 655 458.736 656.845 458.393 659.276 C455.119 682.474 451.301 711.72 448.475 736.262 C447.599 743.87 440.578 749.508 432.92 749.518 L53.5 749.996 C51.5681 749.998 50 748.432 50 746.5 C50 744.578 51.5699 742.843 53.4826 742.652 L60 742 C91 740 112 705 112 654 L112 96 C112 45 91 10 60 8 L53.4826 7.34826 C51.5699 7.15699 50 5.42231 50 3.5 C50 1.56811 51.5681 0.00278362 53.5 0.00621301 L459.752 0.727371 C466.684 0.739677 473.634 6.40813 474.965 13.2111 C479.207 34.8899 483.991 60.5134 487.348 80.9785 C487.747 83.4069 485.961 85 483.5 85 C481.245 85 478.059 82.9619 477.114 80.9142 L473 72 C452 31 390 3 318 3 L265 3 C180 3 171 39 171 94 L171 342.5 C171 365.959 190.041 385 213.5 385 L256 385 C313 385 360 354 374 307 L376.764 297.327 C377.42 295.03 380.112 293 382.5 293 C384.984 293 387 295.016 387 297.5 L387 297.5 Z " />
<glyph glyph-name="Eacute" unicode="&#xc9;" horiz-adv-x="522" d="M290.452 816.055 L426 936 C468 974 496 1001 496 1005 C496 1018 485 1029 471 1029 C467 1029 441 1001 403 959 L284.041 823.465 C282.379 821.571 282.361 818.413 284 816.5 C285.656 814.568 288.547 814.369 290.452 816.055 L290.452 816.055 Z M387 297.5 L387 476.5 C387 478.984 384.984 481 382.5 481 C380.112 481 377.42 478.97 376.764 476.673 L374 467 C360 420 313 389 256 389 L213.5 389 C190.041 389 171 408.041 171 431.5 L171 690.68 C171 721.767 196.233 747 227.32 747 L316 747 C373 747 424 716 444 669 L448.227 659.136 C449.127 657.038 452.217 655 454.5 655 C456.955 655 458.736 656.845 458.393 659.276 C455.119 682.474 451.301 711.72 448.475 736.262 C447.599 743.87 440.578 749.508 432.92 749.518 L53.5 749.996 C51.5681 749.998 50 748.432 50 746.5 C50 744.578 51.5699 742.843 53.4826 742.652 L60 742 C91 740 112 705 112 654 L112 96 C112 45 91 10 60 8 L53.4826 7.34826 C51.5699 7.15699 50 5.42231 50 3.5 C50 1.56811 51.5681 0.00278362 53.5 0.00621301 L459.752 0.727371 C466.684 0.739677 473.634 6.40813 474.965 13.2111 C479.207 34.8899 483.991 60.5134 487.348 80.9785 C487.747 83.4069 485.961 85 483.5 85 C481.245 85 478.059 82.9619 477.114 80.9142 L473 72 C452 31 390 3 318 3 L265 3 C180 3 171 39 171 94 L171 342.5 C171 365.959 190.041 385 213.5 385 L256 385 C313 385 360 354 374 307 L376.764 297.327 C377.42 295.03 380.112 293 382.5 293 C384.984 293 387 295.016 387 297.5 L387 297.5 Z " />
<glyph glyph-name="Ecircumflex" unicode="&#xca;" horiz-adv-x="522" d="M295.895 1017.8 C291.609 1023.69 285.231 1033 281 1033 C275.923 1033 269.414 1023.69 265.108 1017.8 C265.083 1017.77 261.544 1012.77 261.521 1012.74 L133.353 816.601 C132.055 814.615 132.57 811.879 134.5 810.5 C136.426 809.124 139.244 809.481 140.767 811.293 L237.032 925.862 C260.408 953.683 299.673 953.751 323.145 926.01 L420.222 811.283 C421.75 809.477 424.575 809.125 426.5 810.5 C428.43 811.879 428.945 814.615 427.647 816.601 L299.479 1012.74 C299.458 1012.77 295.918 1017.77 295.895 1017.8 L295.895 1017.8 Z M387 297.5 L387 476.5 C387 478.984 384.984 481 382.5 481 C380.112 481 377.42 478.97 376.764 476.673 L374 467 C360 420 313 389 256 389 L213.5 389 C190.041 389 171 408.041 171 431.5 L171 690.68 C171 721.767 196.233 747 227.32 747 L316 747 C373 747 424 716 444 669 L448.227 659.136 C449.127 657.038 452.217 655 454.5 655 C456.955 655 458.736 656.845 458.393 659.276 C455.119 682.474 451.301 711.72 448.475 736.262 C447.599 743.87 440.578 749.508 432.92 749.518 L53.5 749.996 C51.5681 749.998 50 748.432 50 746.5 C50 744.578 51.5699 742.843 53.4826 742.652 L60 742 C91 740 112 705 112 654 L112 96 C112 45 91 10 60 8 L53.4826 7.34826 C51.5699 7.15699 50 5.42231 50 3.5 C50 1.56811 51.5681 0.00278362 53.5 0.00621301 L459.752 0.727371 C466.684 0.739677 473.634 6.40813 474.965 13.2111 C479.207 34.8899 483.991 60.5134 487.348 80.9785 C487.747 83.4069 485.961 85 483.5 85 C481.245 85 478.059 82.9619 477.114 80.9142 L473 72 C452 31 390 3 318 3 L265 3 C180 3 171 39 171 94 L171 342.5 C171 365.959 190.041 385 213.5 385 L256 385 C313 385 360 354 374 307 L376.764 297.327 C377.42 295.03 380.112 293 382.5 293 C384.984 293 387 295.016 387 297.5 L387 297.5 Z " />
<glyph glyph-name="Edieresis" unicode="&#xcb;" horiz-adv-x="522" d="M380 897 C380 941 315 940 315 897 C315 856 380 855 380 897 L380 897 Z M246 897 C246 940 181 941 181 897 C181 855 246 856 246 897 L246 897 Z M387 297.5 L387 476.5 C387 478.984 384.984 481 382.5 481 C380.112 481 377.42 478.97 376.764 476.673 L374 467 C360 420 313 389 256 389 L213.5 389 C190.041 389 171 408.041 171 431.5 L171 690.68 C171 721.767 196.233 747 227.32 747 L316 747 C373 747 424 716 444 669 L448.227 659.136 C449.127 657.038 452.217 655 454.5 655 C456.955 655 458.736 656.845 458.393 659.276 C455.119 682.474 451.301 711.72 448.475 736.262 C447.599 743.87 440.578 749.508 432.92 749.518 L53.5 749.996 C51.5681 749.998 50 748.432 50 746.5 C50 744.578 51.5699 742.843 53.4826 742.652 L60 742 C91 740 112 705 112 654 L112 96 C112 45 91 10 60 8 L53.4826 7.34826 C51.5699 7.15699 50 5.42231 50 3.5 C50 1.56811 51.5681 0.00278362 53.5 0.00621301 L459.752 0.727371 C466.684 0.739677 473.634 6.40813 474.965 13.2111 C479.207 34.8899 483.991 60.5134 487.348 80.9785 C487.747 83.4069 485.961 85 483.5 85 C481.245 85 478.059 82.9619 477.114 80.9142 L473 72 C452 31 390 3 318 3 L265 3 C180 3 171 39 171 94 L171 342.5 C171 365.959 190.041 385 213.5 385 L256 385 C313 385 360 354 374 307 L376.764 297.327 C377.42 295.03 380.112 293 382.5 293 C384.984 293 387 295.016 387 297.5 L387 297.5 Z " />
<glyph glyph-name="Igrave" unicode="&#xcc;" horiz-adv-x="277" d="M-59 1005 C-59 999 -31 972 11 936 L146.293 816.28 C148.335 814.473 151.572 814.572 153.5 816.5 C155.428 818.428 155.527 821.665 153.72 823.707 L34 959 C-2 1001 -29 1029 -35 1029 C-48 1029 -59 1018 -59 1005 L-59 1005 Z M214.535 7.49497 L211 8 C190 10 176 37 176 76 L176 674 C176 713 190 740 211 742 L214.535 742.505 C216.428 742.775 218 744.588 218 746.5 C218 748.432 216.432 750 214.5 750 L78.5 750 C76.5681 750 75 748.432 75 746.5 C75 744.588 76.5716 742.775 78.4648 742.505 L82 742 C103 740 117 713 117 674 L117 76 C117 37 103 10 82 8 L78.4648 7.49497 C76.5716 7.22451 75 5.41248 75 3.5 C75 1.5681 76.5681 0 78.5 0 L214.5 0 C216.432 0 218 1.5681 218 3.5 C218 5.41248 216.428 7.22451 214.535 7.49497 L214.535 7.49497 Z " />
<glyph glyph-name="Iacute" unicode="&#xcd;" horiz-adv-x="277" d="M157.707 816.28 L293 936 C335 974 363 1001 363 1005 C363 1018 352 1029 339 1029 C335 1029 308 1001 270 959 L150.28 823.707 C148.473 821.665 148.572 818.428 150.5 816.5 C152.428 814.572 155.665 814.473 157.707 816.28 L157.707 816.28 Z M214.535 7.49497 L211 8 C190 10 176 37 176 76 L176 674 C176 713 190 740 211 742 L214.535 742.505 C216.428 742.775 218 744.588 218 746.5 C218 748.432 216.432 750 214.5 750 L78.5 750 C76.5681 750 75 748.432 75 746.5 C75 744.588 76.5716 742.775 78.4648 742.505 L82 742 C103 740 117 713 117 674 L117 76 C117 37 103 10 82 8 L78.4648 7.49497 C76.5716 7.22451 75 5.41248 75 3.5 C75 1.5681 76.5681 0 78.5 0 L214.5 0 C216.432 0 218 1.5681 218 3.5 C218 5.41248 216.428 7.22451 214.535 7.49497 L214.535 7.49497 Z " />
<glyph glyph-name="Icircumflex" unicode="&#xce;" horiz-adv-x="277" d="M162.892 1017.8 C158.586 1023.69 152.077 1033 147 1033 C141.923 1033 135.414 1023.69 131.108 1017.8 C131.08 1017.76 127.502 1012.69 127.476 1012.65 L0.340315 816.609 C-0.950166 814.619 -0.429946 811.879 1.5 810.5 C3.42549 809.125 6.24906 809.478 7.77655 811.285 L103.987 925.111 C127.397 952.808 166.603 952.808 190.013 925.111 L286.223 811.285 C287.751 809.478 290.575 809.125 292.5 810.5 C294.43 811.879 294.95 814.619 293.66 816.609 L166.524 1012.65 C166.498 1012.69 162.92 1017.76 162.892 1017.8 L162.892 1017.8 Z M214.535 7.49497 L211 8 C190 10 176 37 176 76 L176 674 C176 713 190 740 211 742 L214.535 742.505 C216.428 742.775 218 744.588 218 746.5 C218 748.432 216.432 750 214.5 750 L78.5 750 C76.5681 750 75 748.432 75 746.5 C75 744.588 76.5716 742.775 78.4648 742.505 L82 742 C103 740 117 713 117 674 L117 76 C117 37 103 10 82 8 L78.4648 7.49497 C76.5716 7.22451 75 5.41248 75 3.5 C75 1.5681 76.5681 0 78.5 0 L214.5 0 C216.432 0 218 1.5681 218 3.5 C218 5.41248 216.428 7.22451 214.535 7.49497 L214.535 7.49497 Z " />
<glyph glyph-name="Idieresis" unicode="&#xcf;" horiz-adv-x="277" d="M247 897 C247 940 182 941 182 897 C182 855 247 856 247 897 L247 897 Z M112 897 C112 941 47 940 47 897 C47 856 112 855 112 897 L112 897 Z M214.535 7.49497 L211 8 C190 10 176 37 176 76 L176 674 C176 713 190 740 211 742 L214.535 742.505 C216.428 742.775 218 744.588 218 746.5 C218 748.432 216.432 750 214.5 750 L78.5 750 C76.5681 750 75 748.432 75 746.5 C75 744.588 76.5716 742.775 78.4648 742.505 L82 742 C103 740 117 713 117 674 L117 76 C117 37 103 10 82 8 L78.4648 7.49497 C76.5716 7.22451 75 5.41248 75 3.5 C75 1.5681 76.5681 0 78.5 0 L214.5 0 C216.432 0 218 1.5681 218 3.5 C218 5.41248 216.428 7.22451 214.535 7.49497 L214.535 7.49497 Z " />
<glyph glyph-name="Ntilde" unicode="&#xd1;" horiz-adv-x="636" d="M195.382 890.979 L199.357 890.524 C199.357 890.524 198.341 889.649 198.341 889.649 C202.495 918.304 216.025 936 235 936 C279 936 339 871 383 871 C412.7 871 432.275 901.78 435.893 949.489 C435.893 949.489 437.364 948.391 437.364 948.391 L433.402 948.942 C433.402 948.942 434.872 947.845 434.872 947.845 C430.009 922.158 414.692 906 395 906 C350 906 291 971 246 971 C218.875 971 200.555 940.375 196.398 891.854 C196.398 891.854 195.382 890.979 195.382 890.979 L199.357 890.524 C199.357 890.524 198.341 889.649 198.341 889.649 L195.382 890.979 Z M20.328 742.286 C44.0137 737.732 65.7938 722.697 87.9141 692.688 C91.53 687.782 97.9825 667.502 97.9724 661.408 L97 77 C97 38 83 11 62 9 L58.4648 8.49497 C56.5716 8.22451 55 6.41248 55 4.5 C55 2.5681 56.5681 1 58.5 1 L153.5 1 C155.432 1 157 2.5681 157 4.5 C157 6.41248 155.428 8.22451 153.535 8.49497 L150 9 C129 11 115 39 115 78 L113.691 455.771 C113.491 513.344 187.581 534.566 217.892 485.618 L514.841 6.10109 C516.323 3.70728 521.184 1 524 1 C527.312 1 530.016 3.68819 530.036 6.99989 L534 675 C535 713 548 741 569 743 L572 743.5 C573.633 743.772 575 745.385 575 747.041 L575 747.5 C575 749.432 573.432 751 571.5 751 L478.5 751 C476.568 751 475 749.432 475 747.5 C475 745.588 476.572 743.775 478.465 743.505 L482 743 C503 741 517 714 517 675 L517.645 312.491 C517.747 254.907 443.574 233.824 413.373 282.853 L141.497 724.218 C133.744 736.805 108.328 751 93.5448 751 L19.0311 751 C16.8232 751 15.2261 749.191 15.5 747 C15.7484 745.013 18.3615 742.665 20.328 742.286 L20.328 742.286 Z M518 113 L518 113 L518 113 Z " />
<glyph glyph-name="Ograve" unicode="&#xd2;" horiz-adv-x="763" d="M125 375 C125 604 227 756 379 756 C538 756 644 604 644 375 C644 146 534 -6 370 -6 C223 -6 125 146 125 375 L125 375 Z M61 375 C61 144 185 -10 370 -10 C573 -10 708 144 708 375 C708 606 577 760 380 760 C189 760 61 606 61 375 L61 375 Z M174 1005 C174 999 202 972 244 936 L379.293 816.28 C381.335 814.473 384.572 814.572 386.5 816.5 C388.428 818.428 388.527 821.665 386.72 823.707 L267 959 C231 1001 204 1029 198 1029 C185 1029 174 1018 174 1005 L174 1005 Z " />
<glyph glyph-name="Oacute" unicode="&#xd3;" horiz-adv-x="763" d="M390.707 816.28 L526 936 C568 974 596 1001 596 1005 C596 1018 585 1029 572 1029 C568 1029 541 1001 503 959 L383.28 823.707 C381.473 821.665 381.572 818.428 383.5 816.5 C385.428 814.572 388.665 814.473 390.707 816.28 L390.707 816.28 Z M125 375 C125 604 227 756 379 756 C538 756 644 604 644 375 C644 146 534 -6 370 -6 C223 -6 125 146 125 375 L125 375 Z M61 375 C61 144 185 -10 370 -10 C573 -10 708 144 708 375 C708 606 577 760 380 760 C189 760 61 606 61 375 L61 375 Z " />
<glyph glyph-name="Ocircumflex" unicode="&#xd4;" horiz-adv-x="763" d="M125 375 C125 604 227 756 379 756 C538 756 644 604 644 375 C644 146 534 -6 370 -6 C223 -6 125 146 125 375 L125 375 Z M61 375 C61 144 185 -10 370 -10 C573 -10 708 144 708 375 C708 606 577 760 380 760 C189 760 61 606 61 375 L61 375 Z M395.892 1017.8 C391.586 1023.69 385.077 1033 380 1033 C374.923 1033 368.414 1023.69 364.108 1017.8 C364.08 1017.76 360.502 1012.69 360.476 1012.65 L233.34 816.609 C232.05 814.619 232.57 811.879 234.5 810.5 C236.425 809.125 239.249 809.478 240.777 811.285 L336.987 925.111 C360.397 952.808 399.603 952.808 423.013 925.111 L519.223 811.285 C520.751 809.478 523.575 809.125 525.5 810.5 C527.43 811.879 527.95 814.619 526.66 816.609 L399.524 1012.65 C399.498 1012.69 395.92 1017.76 395.892 1017.8 L395.892 1017.8 Z " />
<glyph glyph-name="Otilde" unicode="&#xd5;" horiz-adv-x="763" d="M259.382 890.979 L263.357 890.524 C263.357 890.524 262.341 889.649 262.341 889.649 C266.495 918.304 280.025 936 299 936 C343 936 403 871 447 871 C476.7 871 496.275 901.78 499.893 949.489 C499.893 949.489 501.364 948.391 501.364 948.391 L497.402 948.942 C497.402 948.942 498.872 947.845 498.872 947.845 C494.009 922.158 478.692 906 459 906 C414 906 355 971 310 971 C282.875 971 264.555 940.375 260.398 891.854 C260.398 891.854 259.382 890.979 259.382 890.979 L263.357 890.524 C263.357 890.524 262.341 889.649 262.341 889.649 L259.382 890.979 Z M125 375 C125 604 227 756 379 756 C538 756 644 604 644 375 C644 146 534 -6 370 -6 C223 -6 125 146 125 375 L125 375 Z M61 375 C61 144 185 -10 370 -10 C573 -10 708 144 708 375 C708 606 577 760 380 760 C189 760 61 606 61 375 L61 375 Z " />
<glyph glyph-name="Odieresis" unicode="&#xd6;" horiz-adv-x="763" d="M480 897 C480 940 415 941 415 897 C415 855 480 856 480 897 L480 897 Z M345 897 C345 941 280 940 280 897 C280 856 345 855 345 897 L345 897 Z M125 375 C125 604 227 756 379 756 C538 756 644 604 644 375 C644 146 534 -6 370 -6 C223 -6 125 146 125 375 L125 375 Z M61 375 C61 144 185 -10 370 -10 C573 -10 708 144 708 375 C708 606 577 760 380 760 C189 760 61 606 61 375 L61 375 Z " />
<glyph glyph-name="Oslash" unicode="&#xd8;" horiz-adv-x="763" d="M64.058 -11.9326 C65.295 -10.4956 86.276 13.8854 123.929 58.1384 C136.831 73.3015 166.402 72.109 181.328 58.9342 C232.029 14.1831 296.75 -11 371 -11 C574 -11 709 143 709 374 C709 468.05 687.22 549.168 648.152 612.301 C637.764 629.087 636.313 668.376 648.951 683.541 L708.692 755.23 C709.959 756.75 709.646 758.902 708 760 C706.355 761.097 704.017 760.82 702.75 759.302 C678.751 730.542 654.767 702.422 631.312 674.942 C623.832 666.179 610.841 663.148 602.773 671.373 C546.76 728.486 470.725 761 381 761 C190 761 62 607 62 376 C62 281.125 83.0994 199.182 120.806 135.786 C130.706 119.141 132.018 80.3869 119.491 65.6188 C80.0994 19.1831 59 -6 59 -6 C59 -6 59.8485 -7.01826 61.5 -9 C62.8613 -10.6336 62.6707 -13.5442 64.058 -11.9326 L64.058 -11.9326 Z M563.564 593.51 C410.91 411.641 285.626 261.929 197.762 157.771 C185.412 143.13 169.645 144.271 162.558 162.066 C139.005 221.215 126 293.55 126 376 C126 605 228 757 380 757 C458.75 757 524.867 719.867 570.982 654.311 C584.279 635.408 578.423 611.212 563.564 593.51 L563.564 593.51 Z M606.888 587.384 C631.273 529.085 645 457.6 645 376 C645 147 535 -5 371 -5 C301.3 -5 242.438 29.68 199.94 90.4422 C186.704 109.366 185.671 132.898 200.554 150.555 C287.674 253.908 412.98 403.256 566.422 585.871 C578.768 600.564 599.483 605.089 606.888 587.384 L606.888 587.384 Z " />
<glyph glyph-name="Ugrave" unicode="&#xd9;" horiz-adv-x="568" d="M81 1007 C81 1001 109 974 151 938 L286.293 818.28 C288.335 816.473 291.572 816.572 293.5 818.5 C295.428 820.428 295.527 823.665 293.72 825.707 L174 961 C138 1003 111 1031 105 1031 C92 1031 81 1020 81 1007 L81 1007 Z M535.535 27.505 L532 27 C511 24 497 47 497 86 L497 735.491 C497 743.495 490.499 750.224 482.5 750.5 L468 751 L400.5 751.951 C398.568 751.978 397 750.432 397 748.5 C397 746.588 398.572 744.775 400.465 744.505 L404 744 C425 742 439 715 439 676 L439 181.304 C439 177.655 434.511 159.691 432.795 156.471 C391.29 78.54 308.45 28 222 28 C170 28 136 102 136 213 L136 735.491 C136 743.495 129.499 750.224 121.5 750.5 L107 751 L38.4997 751.951 C36.5681 751.978 35 750.432 35 748.5 C35 746.588 36.5716 744.775 38.4648 744.505 L42 744 C63 742 77 715 77 676 L77 213 C77 79 126 -10 199 -10 C282.325 -10 362.247 31.5181 411.813 97.7089 C418.533 106.682 439 103.434 439 92.2235 L439 14.5 C439 6.49644 445.496 0 453.5 0 L459.916 0 C461.171 0 474.553 1.92072 475.757 2.27372 L497 8.5 L535.645 20.0016 C537.42 20.5298 539 22.6484 539 24.5 C539 26.4125 537.428 27.7755 535.535 27.505 L535.535 27.505 Z " />
<glyph glyph-name="Uacute" unicode="&#xda;" horiz-adv-x="568" d="M297.707 818.28 L433 938 C475 976 503 1003 503 1007 C503 1020 492 1031 479 1031 C475 1031 448 1003 410 961 L290.28 825.707 C288.473 823.665 288.572 820.428 290.5 818.5 C292.428 816.572 295.665 816.473 297.707 818.28 L297.707 818.28 Z M535.535 27.505 L532 27 C511 24 497 47 497 86 L497 735.491 C497 743.495 490.499 750.224 482.5 750.5 L468 751 L400.5 751.951 C398.568 751.978 397 750.432 397 748.5 C397 746.588 398.572 744.775 400.465 744.505 L404 744 C425 742 439 715 439 676 L439 181.304 C439 177.655 434.511 159.691 432.795 156.471 C391.29 78.54 308.45 28 222 28 C170 28 136 102 136 213 L136 735.491 C136 743.495 129.499 750.224 121.5 750.5 L107 751 L38.4997 751.951 C36.5681 751.978 35 750.432 35 748.5 C35 746.588 36.5716 744.775 38.4648 744.505 L42 744 C63 742 77 715 77 676 L77 213 C77 79 126 -10 199 -10 C282.325 -10 362.247 31.5181 411.813 97.7089 C418.533 106.682 439 103.434 439 92.2235 L439 14.5 C439 6.49644 445.496 0 453.5 0 L459.916 0 C461.171 0 474.553 1.92072 475.757 2.27372 L497 8.5 L535.645 20.0016 C537.42 20.5298 539 22.6484 539 24.5 C539 26.4125 537.428 27.7755 535.535 27.505 L535.535 27.505 Z " />
<glyph glyph-name="Ucircumflex" unicode="&#xdb;" horiz-adv-x="568" d="M302.892 1019.8 C298.586 1025.69 292.077 1035 287 1035 C281.923 1035 275.414 1025.69 271.108 1019.8 C271.08 1019.76 267.502 1014.69 267.476 1014.65 L140.34 818.609 C139.05 816.619 139.57 813.879 141.5 812.5 C143.425 811.125 146.249 811.478 147.777 813.285 L243.987 927.111 C267.397 954.808 306.603 954.808 330.013 927.111 L426.223 813.285 C427.751 811.478 430.575 811.125 432.5 812.5 C434.43 813.879 434.95 816.619 433.66 818.609 L306.524 1014.65 C306.498 1014.69 302.92 1019.76 302.892 1019.8 L302.892 1019.8 Z M535.535 27.505 L532 27 C511 24 497 47 497 86 L497 735.491 C497 743.495 490.499 750.224 482.5 750.5 L468 751 L400.5 751.951 C398.568 751.978 397 750.432 397 748.5 C397 746.588 398.572 744.775 400.465 744.505 L404 744 C425 742 439 715 439 676 L439 181.304 C439 177.655 434.511 159.691 432.795 156.471 C391.29 78.54 308.45 28 222 28 C170 28 136 102 136 213 L136 735.491 C136 743.495 129.499 750.224 121.5 750.5 L107 751 L38.4997 751.951 C36.5681 751.978 35 750.432 35 748.5 C35 746.588 36.5716 744.775 38.4648 744.505 L42 744 C63 742 77 715 77 676 L77 213 C77 79 126 -10 199 -10 C282.325 -10 362.247 31.5181 411.813 97.7089 C418.533 106.682 439 103.434 439 92.2235 L439 14.5 C439 6.49644 445.496 0 453.5 0 L459.916 0 C461.171 0 474.553 1.92072 475.757 2.27372 L497 8.5 L535.645 20.0016 C537.42 20.5298 539 22.6484 539 24.5 C539 26.4125 537.428 27.7755 535.535 27.505 L535.535 27.505 Z " />
<glyph glyph-name="Udieresis" unicode="&#xdc;" horiz-adv-x="568" d="M387 899 C387 942 322 943 322 899 C322 857 387 858 387 899 L387 899 Z M252 899 C252 943 187 942 187 899 C187 858 252 857 252 899 L252 899 Z M535.535 27.505 L532 27 C511 24 497 47 497 86 L497 735.491 C497 743.495 490.499 750.224 482.5 750.5 L468 751 L400.5 751.951 C398.568 751.978 397 750.432 397 748.5 C397 746.588 398.572 744.775 400.465 744.505 L404 744 C425 742 439 715 439 676 L439 181.304 C439 177.655 434.511 159.691 432.795 156.471 C391.29 78.54 308.45 28 222 28 C170 28 136 102 136 213 L136 735.491 C136 743.495 129.499 750.224 121.5 750.5 L107 751 L38.4997 751.951 C36.5681 751.978 35 750.432 35 748.5 C35 746.588 36.5716 744.775 38.4648 744.505 L42 744 C63 742 77 715 77 676 L77 213 C77 79 126 -10 199 -10 C282.325 -10 362.247 31.5181 411.813 97.7089 C418.533 106.682 439 103.434 439 92.2235 L439 14.5 C439 6.49644 445.496 0 453.5 0 L459.916 0 C461.171 0 474.553 1.92072 475.757 2.27372 L497 8.5 L535.645 20.0016 C537.42 20.5298 539 22.6484 539 24.5 C539 26.4125 537.428 27.7755 535.535 27.505 L535.535 27.505 Z " />
<glyph glyph-name="Yacute" unicode="&#xdd;" horiz-adv-x="565" d="M298.452 816.055 L434 936 C476 974 504 1001 504 1005 C504 1018 493 1029 479 1029 C475 1029 449 1001 411 959 L292.041 823.465 C290.379 821.571 290.361 818.413 292 816.5 C293.656 814.568 296.547 814.369 298.452 816.055 L298.452 816.055 Z M162.464 750 L14.5 750 C12.5681 750 11 748.432 11 746.5 C11 744.815 12.3998 742.73 14.015 742.25 C33.205 736.545 54.2 712.7 77 669 L252.334 341.454 C254.07 338.21 259 318.554 259 314.874 L259 96 C259 45 238 10 207 8 L200.483 7.34826 C198.57 7.15699 197 5.42231 197 3.5 C197 1.5681 198.568 0 200.5 0 L376.5 0 C378.432 0 380 1.5681 380 3.5 C380 5.42231 378.43 7.15699 376.517 7.34826 L370 8 C339 10 318 45 318 96 L318 324.982 C318 328.135 322.329 346.864 323.713 349.697 L486 682 C508.425 721 532.751 738.136 564.54 742.675 C566.393 742.94 567 744.628 567 746.5 C567 748.432 565.432 750 563.5 750 L432.5 750 C430.568 750 429 748.432 429 746.5 C429 744.575 430.569 742.869 432.488 742.709 L441 742 C480 740 491 710 472 669 L364.595 444.552 C343.13 399.695 286.899 398.709 263.873 442.785 L141 678 C124 715 130 740 156 742 L161.486 742.61 C163.364 742.818 165.233 744.629 165.5 746.5 C165.773 748.412 164.396 750 162.464 750 L162.464 750 Z " />
<glyph glyph-name="agrave" unicode="&#xe0;" horiz-adv-x="477" d="M483.5 79.5 C481.722 80.2622 479.534 78.3483 479.09 76.4649 C472.623 49.0013 450.462 31 422 31 C388 31 365 51 365 81 L365 358 C365 463 316 510 242 510 C141 510 73 414 73 360 C73 339 83 325 98 325 C118 325 131 340 131 350 C131 363 111 382 111 392 C111 433 162 506 238 506 C284 506 315 466 315 377 L315 296.615 C315 281.052 302.758 256.979 289.274 249.207 C130.615 157.757 53 108.5 53 80 C53 26 94 -10 156 -10 C192 -10 237.72 11.87 294.618 67.274 C301.337 73.8162 314.802 68.6833 316.811 59.5232 C325.585 19.5025 354.625 -5 400 -5 C441.925 -5 475.77 26.3706 485.777 74.2821 C486.211 76.3572 485.448 78.6649 483.5 79.5 L483.5 79.5 Z M35 755 C35 749 63 722 105 686 L240.293 566.28 C242.335 564.473 245.572 564.572 247.5 566.5 C249.428 568.428 249.527 571.665 247.72 573.707 L128 709 C92 751 65 779 59 779 C46 779 35 768 35 755 L35 755 Z M314 179.012 L314 111.684 C314 101.81 306.37 81.0859 299.152 74.348 C255.07 33.2 215.2 17 181 17 C134 17 103 45 103 86 C103 124.775 149.963 162.529 246.135 220.6 C280.06 241.084 314 218.642 314 179.012 L314 179.012 Z " />
<glyph glyph-name="aacute" unicode="&#xe1;" horiz-adv-x="477" d="M252.707 566.28 L388 686 C430 724 458 751 458 755 C458 768 447 779 434 779 C430 779 403 751 365 709 L245.28 573.707 C243.473 571.665 243.572 568.428 245.5 566.5 C247.428 564.572 250.665 564.473 252.707 566.28 L252.707 566.28 Z M483.5 79.5 C481.722 80.2622 479.534 78.3483 479.09 76.4649 C472.623 49.0013 450.462 31 422 31 C388 31 365 51 365 81 L365 358 C365 463 316 510 242 510 C141 510 73 414 73 360 C73 339 83 325 98 325 C118 325 131 340 131 350 C131 363 111 382 111 392 C111 433 162 506 238 506 C284 506 315 466 315 377 L315 296.615 C315 281.052 302.758 256.979 289.274 249.207 C130.615 157.757 53 108.5 53 80 C53 26 94 -10 156 -10 C192 -10 237.72 11.87 294.618 67.274 C301.337 73.8162 314.802 68.6833 316.811 59.5232 C325.585 19.5025 354.625 -5 400 -5 C441.925 -5 475.77 26.3706 485.777 74.2821 C486.211 76.3572 485.448 78.6649 483.5 79.5 L483.5 79.5 Z M314 179.012 L314 111.684 C314 101.81 306.37 81.0859 299.152 74.348 C255.07 33.2 215.2 17 181 17 C134 17 103 45 103 86 C103 124.775 149.963 162.529 246.135 220.6 C280.06 241.084 314 218.642 314 179.012 L314 179.012 Z " />
<glyph glyph-name="acircumflex" unicode="&#xe2;" horiz-adv-x="477" d="M483.5 79.5 C481.722 80.2622 479.534 78.3483 479.09 76.4649 C472.623 49.0013 450.462 31 422 31 C388 31 365 51 365 81 L365 358 C365 463 316 510 242 510 C141 510 73 414 73 360 C73 339 83 325 98 325 C118 325 131 340 131 350 C131 363 111 382 111 392 C111 433 162 506 238 506 C284 506 315 466 315 377 L315 296.615 C315 281.052 302.758 256.979 289.274 249.207 C130.615 157.757 53 108.5 53 80 C53 26 94 -10 156 -10 C192 -10 237.72 11.87 294.618 67.274 C301.337 73.8162 314.802 68.6833 316.811 59.5232 C325.585 19.5025 354.625 -5 400 -5 C441.925 -5 475.77 26.3706 485.777 74.2821 C486.211 76.3572 485.448 78.6649 483.5 79.5 L483.5 79.5 Z M256.892 767.799 C252.586 773.692 246.077 783 241 783 C235.923 783 229.414 773.692 225.108 767.799 C225.08 767.76 221.502 762.69 221.476 762.649 L94.3403 566.609 C93.0498 564.619 93.5701 561.879 95.5 560.5 C97.4255 559.125 100.249 559.478 101.777 561.285 L197.987 675.111 C221.397 702.808 260.603 702.808 284.013 675.111 L380.223 561.285 C381.751 559.478 384.575 559.125 386.5 560.5 C388.43 561.879 388.95 564.619 387.66 566.609 L260.524 762.649 C260.498 762.69 256.92 767.76 256.892 767.799 L256.892 767.799 Z M314 179.012 L314 111.684 C314 101.81 306.37 81.0859 299.152 74.348 C255.07 33.2 215.2 17 181 17 C134 17 103 45 103 86 C103 124.775 149.963 162.529 246.135 220.6 C280.06 241.084 314 218.642 314 179.012 L314 179.012 Z " />
<glyph glyph-name="atilde" unicode="&#xe3;" horiz-adv-x="477" d="M121.382 640.979 L125.357 640.524 C125.357 640.524 124.341 639.649 124.341 639.649 C128.495 668.304 142.025 686 161 686 C205 686 265 621 309 621 C338.7 621 358.275 651.78 361.893 699.489 C361.893 699.489 363.364 698.391 363.364 698.391 L359.402 698.942 C359.402 698.942 360.872 697.845 360.872 697.845 C356.009 672.158 340.692 656 321 656 C276 656 217 721 172 721 C144.875 721 126.555 690.375 122.398 641.854 C122.398 641.854 121.382 640.979 121.382 640.979 L125.357 640.524 C125.357 640.524 124.341 639.649 124.341 639.649 L121.382 640.979 Z M483.5 79.5 C481.722 80.2622 479.534 78.3483 479.09 76.4649 C472.623 49.0013 450.462 31 422 31 C388 31 365 51 365 81 L365 358 C365 463 316 510 242 510 C141 510 73 414 73 360 C73 339 83 325 98 325 C118 325 131 340 131 350 C131 363 111 382 111 392 C111 433 162 506 238 506 C284 506 315 466 315 377 L315 296.615 C315 281.052 302.758 256.979 289.274 249.207 C130.615 157.757 53 108.5 53 80 C53 26 94 -10 156 -10 C192 -10 237.72 11.87 294.618 67.274 C301.337 73.8162 314.802 68.6833 316.811 59.5232 C325.585 19.5025 354.625 -5 400 -5 C441.925 -5 475.77 26.3706 485.777 74.2821 C486.211 76.3572 485.448 78.6649 483.5 79.5 L483.5 79.5 Z M314 179.012 L314 111.684 C314 101.81 306.37 81.0859 299.152 74.348 C255.07 33.2 215.2 17 181 17 C134 17 103 45 103 86 C103 124.775 149.963 162.529 246.135 220.6 C280.06 241.084 314 218.642 314 179.012 L314 179.012 Z " />
<glyph glyph-name="adieresis" unicode="&#xe4;" horiz-adv-x="477" d="M342 647 C342 690 277 691 277 647 C277 605 342 606 342 647 L342 647 Z M207 647 C207 691 142 690 142 647 C142 606 207 605 207 647 L207 647 Z M483.5 79.5 C481.722 80.2622 479.534 78.3483 479.09 76.4649 C472.623 49.0013 450.462 31 422 31 C388 31 365 51 365 81 L365 358 C365 463 316 510 242 510 C141 510 73 414 73 360 C73 339 83 325 98 325 C118 325 131 340 131 350 C131 363 111 382 111 392 C111 433 162 506 238 506 C284 506 315 466 315 377 L315 296.615 C315 281.052 302.758 256.979 289.274 249.207 C130.615 157.757 53 108.5 53 80 C53 26 94 -10 156 -10 C192 -10 237.72 11.87 294.618 67.274 C301.337 73.8162 314.802 68.6833 316.811 59.5232 C325.585 19.5025 354.625 -5 400 -5 C441.925 -5 475.77 26.3706 485.777 74.2821 C486.211 76.3572 485.448 78.6649 483.5 79.5 L483.5 79.5 Z M314 179.012 L314 111.684 C314 101.81 306.37 81.0859 299.152 74.348 C255.07 33.2 215.2 17 181 17 C134 17 103 45 103 86 C103 124.775 149.963 162.529 246.135 220.6 C280.06 241.084 314 218.642 314 179.012 L314 179.012 Z " />
<glyph glyph-name="aring" unicode="&#xe5;" horiz-adv-x="477" d="M160 655 C160 705 193 738 242 738 C291 738 324 705 324 655 C324 610 286 572 242 572 C198 572 160 610 160 655 L160 655 Z M146 655 C146 604 190 560 242 560 C294 560 338 604 338 655 C338 712 300 750 242 750 C184 750 146 712 146 655 L146 655 Z M483.5 79.5 C481.722 80.2622 479.534 78.3483 479.09 76.4649 C472.623 49.0013 450.462 31 422 31 C388 31 365 51 365 81 L365 358 C365 463 316 510 242 510 C141 510 73 414 73 360 C73 339 83 325 98 325 C118 325 131 340 131 350 C131 363 111 382 111 392 C111 433 162 506 238 506 C284 506 315 466 315 377 L315 296.615 C315 281.052 302.758 256.979 289.274 249.207 C130.615 157.757 53 108.5 53 80 C53 26 94 -10 156 -10 C192 -10 237.72 11.87 294.618 67.274 C301.337 73.8162 314.802 68.6833 316.811 59.5232 C325.585 19.5025 354.625 -5 400 -5 C441.925 -5 475.77 26.3706 485.777 74.2821 C486.211 76.3572 485.448 78.6649 483.5 79.5 L483.5 79.5 Z M314 179.012 L314 111.684 C314 101.81 306.37 81.0859 299.152 74.348 C255.07 33.2 215.2 17 181 17 C134 17 103 45 103 86 C103 124.775 149.963 162.529 246.135 220.6 C280.06 241.084 314 218.642 314 179.012 L314 179.012 Z " />
<glyph glyph-name="egrave" unicode="&#xe8;" horiz-adv-x="483" d="M64 755 C64 749 92 722 134 686 L269.293 566.28 C271.335 564.473 274.572 564.572 276.5 566.5 C278.428 568.428 278.527 571.665 276.72 573.707 L157 709 C121 751 94 779 88 779 C75 779 64 768 64 755 L64 755 Z M116.659 340 L391.016 340 C429.984 340 451.395 361.077 437.26 397.391 C406.146 477.33 345.9 510 270 510 C135 510 45 433 45 235 C45 88 127 -10 249 -10 C318.7 -10 382.981 31.905 420.349 97.9054 C420.357 97.9183 418.393 96.1522 418.385 96.1396 C382.545 39.3925 320.825 4 254 4 C160 4 98 104 98 255 C98 281.811 99.4039 305.814 102.212 327.597 C103.125 334.685 109.512 340 116.659 340 L116.659 340 Z M337.566 343.797 L162.773 343.201 C125.99 343.075 105.37 363.116 117.732 397.76 C145.054 474.33 198.7 507 268 507 C316.675 507 358.203 475.691 383.04 399.036 C394.116 364.85 373.501 343.92 337.566 343.797 L337.566 343.797 Z " />
<glyph glyph-name="eacute" unicode="&#xe9;" horiz-adv-x="483" d="M280.707 566.28 L416 686 C458 724 486 751 486 755 C486 768 475 779 462 779 C458 779 431 751 393 709 L273.28 573.707 C271.473 571.665 271.572 568.428 273.5 566.5 C275.428 564.572 278.665 564.473 280.707 566.28 L280.707 566.28 Z M116.659 340 L391.016 340 C429.984 340 451.395 361.077 437.26 397.391 C406.146 477.33 345.9 510 270 510 C135 510 45 433 45 235 C45 88 127 -10 249 -10 C318.7 -10 382.981 31.905 420.349 97.9054 C420.357 97.9183 418.393 96.1522 418.385 96.1396 C382.545 39.3925 320.825 4 254 4 C160 4 98 104 98 255 C98 281.811 99.4039 305.814 102.212 327.597 C103.125 334.685 109.512 340 116.659 340 L116.659 340 Z M337.566 343.797 L162.773 343.201 C125.99 343.075 105.37 363.116 117.732 397.76 C145.054 474.33 198.7 507 268 507 C316.675 507 358.203 475.691 383.04 399.036 C394.116 364.85 373.501 343.92 337.566 343.797 L337.566 343.797 Z " />
<glyph glyph-name="ecircumflex" unicode="&#xea;" horiz-adv-x="483" d="M285.892 767.799 C281.586 773.692 275.077 783 270 783 C264.923 783 258.414 773.692 254.108 767.799 C254.08 767.76 250.502 762.69 250.476 762.649 L123.34 566.609 C122.05 564.619 122.57 561.879 124.5 560.5 C126.425 559.125 129.249 559.478 130.777 561.285 L226.987 675.111 C250.397 702.808 289.603 702.808 313.013 675.111 L409.223 561.285 C410.751 559.478 413.575 559.125 415.5 560.5 C417.43 561.879 417.95 564.619 416.66 566.609 L289.524 762.649 C289.498 762.69 285.92 767.76 285.892 767.799 L285.892 767.799 Z M116.659 340 L391.016 340 C429.984 340 451.395 361.077 437.26 397.391 C406.146 477.33 345.9 510 270 510 C135 510 45 433 45 235 C45 88 127 -10 249 -10 C318.7 -10 382.981 31.905 420.349 97.9054 C420.357 97.9183 418.393 96.1522 418.385 96.1396 C382.545 39.3925 320.825 4 254 4 C160 4 98 104 98 255 C98 281.811 99.4039 305.814 102.212 327.597 C103.125 334.685 109.512 340 116.659 340 L116.659 340 Z M337.566 343.797 L162.773 343.201 C125.99 343.075 105.37 363.116 117.732 397.76 C145.054 474.33 198.7 507 268 507 C316.675 507 358.203 475.691 383.04 399.036 C394.116 364.85 373.501 343.92 337.566 343.797 L337.566 343.797 Z " />
<glyph glyph-name="edieresis" unicode="&#xeb;" horiz-adv-x="483" d="M370 647 C370 690 305 691 305 647 C305 605 370 606 370 647 L370 647 Z M235 647 C235 691 170 690 170 647 C170 606 235 605 235 647 L235 647 Z M116.659 340 L391.016 340 C429.984 340 451.395 361.077 437.26 397.391 C406.146 477.33 345.9 510 270 510 C135 510 45 433 45 235 C45 88 127 -10 249 -10 C318.7 -10 382.981 31.905 420.349 97.9054 C420.357 97.9183 418.393 96.1522 418.385 96.1396 C382.545 39.3925 320.825 4 254 4 C160 4 98 104 98 255 C98 281.811 99.4039 305.814 102.212 327.597 C103.125 334.685 109.512 340 116.659 340 L116.659 340 Z M337.566 343.797 L162.773 343.201 C125.99 343.075 105.37 363.116 117.732 397.76 C145.054 474.33 198.7 507 268 507 C316.675 507 358.203 475.691 383.04 399.036 C394.116 364.85 373.501 343.92 337.566 343.797 L337.566 343.797 Z " />
<glyph glyph-name="igrave" unicode="&#xec;" horiz-adv-x="206" d="M-91 755 C-91 749 -63 722 -21 686 L114.293 566.28 C116.335 564.473 119.572 564.572 121.5 566.5 C123.428 568.428 123.527 571.665 121.72 573.707 L2 709 C-34 751 -61 779 -67 779 C-80 779 -91 768 -91 755 L-91 755 Z M72.0689 479.803 C84.2698 478.54 90 471 90 452 L90 41 C90 21 83.3884 11.7438 71.6679 7.9722 C70.0899 7.46441 68 5.1577 68 3.5 C68 1.5681 69.5681 0 71.5 0 L158.5 0 C160.432 0 162 1.5681 162 3.5 C162 5.1577 159.91 7.46441 158.332 7.9722 C146.612 11.7438 140 21 140 41 L140 487.5 C140 494.4 134.4 500 127.5 500 L122.28 500 C121.226 500 109.738 498.513 108.723 498.23 C97.1234 494.996 83.4506 491.347 72.1274 488.168 C70.3281 487.663 68 485.369 68 483.5 C68 481.767 70.3453 479.982 72.0689 479.803 L72.0689 479.803 Z " />
<glyph glyph-name="iacute" unicode="&#xed;" horiz-adv-x="206" d="M-91 755 C-91 749 -63 722 -21 686 L114.293 566.28 C116.335 564.473 119.572 564.572 121.5 566.5 C123.428 568.428 123.527 571.665 121.72 573.707 L2 709 C-34 751 -61 779 -67 779 C-80 779 -91 768 -91 755 L-91 755 Z M72.0689 479.803 C84.2698 478.54 90 471 90 452 L90 41 C90 21 83.3884 11.7438 71.6679 7.9722 C70.0899 7.46441 68 5.1577 68 3.5 C68 1.5681 69.5681 0 71.5 0 L158.5 0 C160.432 0 162 1.5681 162 3.5 C162 5.1577 159.91 7.46441 158.332 7.9722 C146.612 11.7438 140 21 140 41 L140 487.5 C140 494.4 134.4 500 127.5 500 L122.28 500 C121.226 500 109.738 498.513 108.723 498.23 C97.1234 494.996 83.4506 491.347 72.1274 488.168 C70.3281 487.663 68 485.369 68 483.5 C68 481.767 70.3453 479.982 72.0689 479.803 L72.0689 479.803 Z " />
<glyph glyph-name="icircumflex" unicode="&#xee;" horiz-adv-x="206" d="M130.892 767.799 C126.586 773.692 120.077 783 115 783 C109.923 783 103.414 773.692 99.1083 767.799 C99.0799 767.76 95.5018 762.69 95.4756 762.649 L-31.6597 566.609 C-32.9502 564.619 -32.4299 561.879 -30.5 560.5 C-28.5745 559.125 -25.7509 559.478 -24.2235 561.285 L71.9867 675.111 C95.3971 702.808 134.603 702.808 158.013 675.111 L254.223 561.285 C255.751 559.478 258.575 559.125 260.5 560.5 C262.43 561.879 262.95 564.619 261.66 566.609 L134.524 762.649 C134.498 762.69 130.92 767.76 130.892 767.799 L130.892 767.799 Z M72.0689 479.803 C84.2698 478.54 90 471 90 452 L90 41 C90 21 83.3884 11.7438 71.6679 7.9722 C70.0899 7.46441 68 5.1577 68 3.5 C68 1.5681 69.5681 0 71.5 0 L158.5 0 C160.432 0 162 1.5681 162 3.5 C162 5.1577 159.91 7.46441 158.332 7.9722 C146.612 11.7438 140 21 140 41 L140 487.5 C140 494.4 134.4 500 127.5 500 L122.28 500 C121.226 500 109.738 498.513 108.723 498.23 C97.1234 494.996 83.4506 491.347 72.1274 488.168 C70.3281 487.663 68 485.369 68 483.5 C68 481.767 70.3453 479.982 72.0689 479.803 L72.0689 479.803 Z " />
<glyph glyph-name="idieresis" unicode="&#xef;" horiz-adv-x="206" d="M215 647 C215 690 150 691 150 647 C150 605 215 606 215 647 L215 647 Z M80 647 C80 691 15 690 15 647 C15 606 80 605 80 647 L80 647 Z M72.0689 479.803 C84.2698 478.54 90 471 90 452 L90 41 C90 21 83.3884 11.7438 71.6679 7.9722 C70.0899 7.46441 68 5.1577 68 3.5 C68 1.5681 69.5681 0 71.5 0 L158.5 0 C160.432 0 162 1.5681 162 3.5 C162 5.1577 159.91 7.46441 158.332 7.9722 C146.612 11.7438 140 21 140 41 L140 487.5 C140 494.4 134.4 500 127.5 500 L122.28 500 C121.226 500 109.738 498.513 108.723 498.23 C97.1234 494.996 83.4506 491.347 72.1274 488.168 C70.3281 487.663 68 485.369 68 483.5 C68 481.767 70.3453 479.982 72.0689 479.803 L72.0689 479.803 Z " />
<glyph glyph-name="ntilde" unicode="&#xf1;" horiz-adv-x="409" d="M82.6215 640.976 L86.5961 640.527 C86.5961 640.527 85.3406 639.649 85.3406 639.649 C89.495 668.304 103.025 686 122 686 C167 686 226 621 271 621 C299.8 621 319.69 651.78 323.38 699.489 C323.38 699.489 324.879 698.395 324.879 698.395 L320.916 698.939 C320.916 698.939 322.415 697.845 322.415 697.845 C317.672 672.158 302.692 656 283 656 C238 656 178 721 133 721 C105.875 721 87.9375 690.375 83.877 641.854 C83.877 641.854 82.6215 640.976 82.6215 640.976 L86.5961 640.527 C86.5961 640.527 85.3406 639.649 85.3406 639.649 L82.6215 640.976 Z M49 410 L49 41 C49 21 42.3884 11.7438 30.6679 7.9722 C29.0899 7.46441 27 5.1577 27 3.5 C27 1.5681 28.5681 0 30.5 0 L117.5 0 C119.432 0 121 1.5681 121 3.5 C121 5.1577 118.91 7.46441 117.332 7.9722 C105.612 11.7438 99 21 99 41 L99 364.078 C99 366.466 101.874 381.527 102.792 383.732 C128.007 444.29 175.65 484 226 484 C280 484 308 427 308 342 L308 41 C308 21 301.388 11.7438 289.668 7.9722 C288.09 7.46441 286 5.1577 286 3.5 C286 1.5681 287.568 0 289.5 0 L376.5 0 C378.432 0 380 1.5681 380 3.5 C380 5.1577 377.91 7.46441 376.332 7.9722 C364.612 11.7438 358 21 358 41 L358 342 C358 443 318 510 241 510 C193.15 510 146.661 475.288 116.133 419.902 C112.526 413.358 99 415.494 99 422.966 L99 487.5 C99 494.4 93.3996 500 86.5 500 L81.2801 500 C80.2259 500 68.7385 498.513 67.723 498.23 C54.6735 494.592 39 490.429 27 487 L27 482 C42 475 49 451 49 410 L49 410 Z " />
<glyph glyph-name="ograve" unicode="&#xf2;" horiz-adv-x="570" d="M100 250 C100 404 174 506 285 506 C395 506 469 404 469 250 C469 96 395 -6 285 -6 C174 -6 100 96 100 250 L100 250 Z M45 250 C45 94 141 -10 285 -10 C429 -10 525 94 525 250 C525 406 429 510 285 510 C141 510 45 406 45 250 L45 250 Z M79 755 C79 749 107 722 149 686 L284.293 566.28 C286.335 564.473 289.572 564.572 291.5 566.5 C293.428 568.428 293.527 571.665 291.72 573.707 L172 709 C136 751 109 779 103 779 C90 779 79 768 79 755 L79 755 Z " />
<glyph glyph-name="oacute" unicode="&#xf3;" horiz-adv-x="570" d="M295.707 566.28 L431 686 C473 724 501 751 501 755 C501 768 490 779 477 779 C473 779 446 751 408 709 L288.28 573.707 C286.473 571.665 286.572 568.428 288.5 566.5 C290.428 564.572 293.665 564.473 295.707 566.28 L295.707 566.28 Z M100 250 C100 404 174 506 285 506 C395 506 469 404 469 250 C469 96 395 -6 285 -6 C174 -6 100 96 100 250 L100 250 Z M45 250 C45 94 141 -10 285 -10 C429 -10 525 94 525 250 C525 406 429 510 285 510 C141 510 45 406 45 250 L45 250 Z " />
<glyph glyph-name="ocircumflex" unicode="&#xf4;" horiz-adv-x="570" d="M100 250 C100 404 174 506 285 506 C395 506 469 404 469 250 C469 96 395 -6 285 -6 C174 -6 100 96 100 250 L100 250 Z M45 250 C45 94 141 -10 285 -10 C429 -10 525 94 525 250 C525 406 429 510 285 510 C141 510 45 406 45 250 L45 250 Z M300.892 767.799 C296.586 773.692 290.077 783 285 783 C279.923 783 273.414 773.692 269.108 767.799 C269.08 767.76 265.502 762.69 265.476 762.649 L138.34 566.609 C137.05 564.619 137.57 561.879 139.5 560.5 C141.425 559.125 144.249 559.478 145.777 561.285 L241.987 675.111 C265.397 702.808 304.603 702.808 328.013 675.111 L424.223 561.285 C425.751 559.478 428.575 559.125 430.5 560.5 C432.43 561.879 432.95 564.619 431.66 566.609 L304.524 762.649 C304.498 762.69 300.92 767.76 300.892 767.799 L300.892 767.799 Z " />
<glyph glyph-name="otilde" unicode="&#xf5;" horiz-adv-x="570" d="M164.382 640.979 L168.357 640.524 C168.357 640.524 167.341 639.649 167.341 639.649 C171.495 668.304 185.025 686 204 686 C248 686 308 621 352 621 C381.7 621 401.275 651.78 404.893 699.489 C404.893 699.489 406.364 698.391 406.364 698.391 L402.402 698.942 C402.402 698.942 403.872 697.845 403.872 697.845 C399.009 672.158 383.692 656 364 656 C319 656 260 721 215 721 C187.875 721 169.555 690.375 165.398 641.854 C165.398 641.854 164.382 640.979 164.382 640.979 L168.357 640.524 C168.357 640.524 167.341 639.649 167.341 639.649 L164.382 640.979 Z M100 250 C100 404 174 506 285 506 C395 506 469 404 469 250 C469 96 395 -6 285 -6 C174 -6 100 96 100 250 L100 250 Z M45 250 C45 94 141 -10 285 -10 C429 -10 525 94 525 250 C525 406 429 510 285 510 C141 510 45 406 45 250 L45 250 Z " />
<glyph glyph-name="odieresis" unicode="&#xf6;" horiz-adv-x="570" d="M385 647 C385 690 320 691 320 647 C320 605 385 606 385 647 L385 647 Z M250 647 C250 691 185 690 185 647 C185 606 250 605 250 647 L250 647 Z M100 250 C100 404 174 506 285 506 C395 506 469 404 469 250 C469 96 395 -6 285 -6 C174 -6 100 96 100 250 L100 250 Z M45 250 C45 94 141 -10 285 -10 C429 -10 525 94 525 250 C525 406 429 510 285 510 C141 510 45 406 45 250 L45 250 Z " />
<glyph glyph-name="oslash" unicode="&#xf8;" horiz-adv-x="570" d="M48.9257 -9.92839 L92.2929 36.7241 C102.113 47.2885 125.199 46.5318 136.585 37.6778 C176.017 7.01563 226.425 -10 285 -10 C429 -10 525 94 525 250 C525 313.525 509.346 368.202 480.844 410.662 C473.011 422.332 472.07 448.077 481.568 458.438 L525.089 505.915 C526.143 507.065 526.103 508.897 525 510 C523.897 511.103 522.137 511.071 521.074 509.928 L477.707 463.276 C467.887 452.711 444.801 453.468 433.415 462.322 C393.982 492.984 343.575 510 285 510 C141 510 45 406 45 250 C45 186.475 60.6544 131.798 89.1555 89.3385 C96.9893 77.6681 97.9298 51.9234 88.432 41.5622 L44.9112 -5.91501 C43.8573 -7.06478 43.8971 -8.8971 45 -10 C46.1032 -11.1032 47.8635 -11.0711 48.9257 -9.92839 L48.9257 -9.92839 Z M409.541 389.657 L150.075 108.424 C141.13 98.7285 128.278 101.888 123.379 114.136 C108.167 152.176 100 198.025 100 250 C100 404 174 506 285 506 C337.8 506 382.092 482.859 413.946 442.191 C427.073 425.433 423.976 405.303 409.541 389.657 L409.541 389.657 Z M446.621 385.869 C461.832 347.855 470 302.15 470 251 C470 97 396 -5 286 -5 C233.2 -5 188.568 18.1412 156.595 58.8086 C143.407 75.5824 146.004 95.6485 160.497 111.308 L419.898 391.601 C428.862 401.288 441.717 398.122 446.621 385.869 L446.621 385.869 Z " />
<glyph glyph-name="ugrave" unicode="&#xf9;" horiz-adv-x="385" d="M-14 756 C-14 750 14 723 56 687 L191.293 567.28 C193.335 565.473 196.572 565.572 198.5 567.5 C200.428 569.428 200.527 572.665 198.72 574.707 L79 710 C43 752 16 780 10 780 C-3 780 -14 769 -14 756 L-14 756 Z M371 23 L366 23 C350 21 339 45 339 84 L339 487.498 C339 494.397 333.398 500.112 326.5 500.25 L314 500.5 L270.5 500.963 C268.568 500.983 267 499.432 267 497.5 C267 495.842 269.09 493.536 270.668 493.028 C282.388 489.256 289 480 289 460 L289 139.731 C289 136.675 286.146 121.623 284.825 118.867 C257.602 62.1 215.85 26 175 26 C126 26 94 78 94 156 L94 465 C94 484.871 77.8709 501 58 501 L25.5 501 C23.5681 501 22 499.432 22 497.5 C22 495.842 24.0899 493.536 25.6679 493.028 C37.3884 489.256 44 480 44 460 L44 156 C44 57 87 -9 152 -9 C193.25 -9 236.542 27.0731 269.522 85.1815 C274.028 93.1198 289 90.2046 289 81.0768 L289 13.5 C289 6.60037 294.6 1 301.5 1 L310.838 1 C311.571 1 316.95 2.07411 317.633 2.34035 C322.251 4.13899 328.047 6.56349 333.474 7.55222 C333.554 7.56678 341.763 9.09259 341.841 9.11524 L365.963 16.1183 C367.343 16.5188 369.546 18.6374 370 20 L371 23 L371 23 Z " />
<glyph glyph-name="uacute" unicode="&#xfa;" horiz-adv-x="385" d="M202.707 567.28 L338 687 C380 725 408 752 408 756 C408 769 397 780 384 780 C380 780 353 752 315 710 L195.28 574.707 C193.473 572.665 193.572 569.428 195.5 567.5 C197.428 565.572 200.665 565.473 202.707 567.28 L202.707 567.28 Z M371 23 L366 23 C350 21 339 45 339 84 L339 487.498 C339 494.397 333.398 500.112 326.5 500.25 L314 500.5 L270.5 500.963 C268.568 500.983 267 499.432 267 497.5 C267 495.842 269.09 493.536 270.668 493.028 C282.388 489.256 289 480 289 460 L289 139.731 C289 136.675 286.146 121.623 284.825 118.867 C257.602 62.1 215.85 26 175 26 C126 26 94 78 94 156 L94 465 C94 484.871 77.8709 501 58 501 L25.5 501 C23.5681 501 22 499.432 22 497.5 C22 495.842 24.0899 493.536 25.6679 493.028 C37.3884 489.256 44 480 44 460 L44 156 C44 57 87 -9 152 -9 C193.25 -9 236.542 27.0731 269.522 85.1815 C274.028 93.1198 289 90.2046 289 81.0768 L289 13.5 C289 6.60037 294.6 1 301.5 1 L310.838 1 C311.571 1 316.95 2.07411 317.633 2.34035 C322.251 4.13899 328.047 6.56349 333.474 7.55222 C333.554 7.56678 341.763 9.09259 341.841 9.11524 L365.963 16.1183 C367.343 16.5188 369.546 18.6374 370 20 L371 23 L371 23 Z " />
<glyph glyph-name="ucircumflex" unicode="&#xfb;" horiz-adv-x="385" d="M207.892 768.799 C203.586 774.692 197.077 784 192 784 C186.923 784 180.414 774.692 176.108 768.799 C176.08 768.76 172.502 763.69 172.476 763.649 L45.3403 567.609 C44.0498 565.619 44.5701 562.879 46.5 561.5 C48.4255 560.125 51.2491 560.478 52.7765 562.285 L148.987 676.111 C172.397 703.808 211.603 703.808 235.013 676.111 L331.223 562.285 C332.751 560.478 335.575 560.125 337.5 561.5 C339.43 562.879 339.95 565.619 338.66 567.609 L211.524 763.649 C211.498 763.69 207.92 768.76 207.892 768.799 L207.892 768.799 Z M371 23 L366 23 C350 21 339 45 339 84 L339 487.498 C339 494.397 333.398 500.112 326.5 500.25 L314 500.5 L270.5 500.963 C268.568 500.983 267 499.432 267 497.5 C267 495.842 269.09 493.536 270.668 493.028 C282.388 489.256 289 480 289 460 L289 139.731 C289 136.675 286.146 121.623 284.825 118.867 C257.602 62.1 215.85 26 175 26 C126 26 94 78 94 156 L94 465 C94 484.871 77.8709 501 58 501 L25.5 501 C23.5681 501 22 499.432 22 497.5 C22 495.842 24.0899 493.536 25.6679 493.028 C37.3884 489.256 44 480 44 460 L44 156 C44 57 87 -9 152 -9 C193.25 -9 236.542 27.0731 269.522 85.1815 C274.028 93.1198 289 90.2046 289 81.0768 L289 13.5 C289 6.60037 294.6 1 301.5 1 L310.838 1 C311.571 1 316.95 2.07411 317.633 2.34035 C322.251 4.13899 328.047 6.56349 333.474 7.55222 C333.554 7.56678 341.763 9.09259 341.841 9.11524 L365.963 16.1183 C367.343 16.5188 369.546 18.6374 370 20 L371 23 L371 23 Z " />
<glyph glyph-name="udieresis" unicode="&#xfc;" horiz-adv-x="385" d="M292 648 C292 691 227 692 227 648 C227 606 292 607 292 648 L292 648 Z M157 648 C157 692 92 691 92 648 C92 607 157 606 157 648 L157 648 Z M371 23 L366 23 C350 21 339 45 339 84 L339 487.498 C339 494.397 333.398 500.112 326.5 500.25 L314 500.5 L270.5 500.963 C268.568 500.983 267 499.432 267 497.5 C267 495.842 269.09 493.536 270.668 493.028 C282.388 489.256 289 480 289 460 L289 139.731 C289 136.675 286.146 121.623 284.825 118.867 C257.602 62.1 215.85 26 175 26 C126 26 94 78 94 156 L94 465 C94 484.871 77.8709 501 58 501 L25.5 501 C23.5681 501 22 499.432 22 497.5 C22 495.842 24.0899 493.536 25.6679 493.028 C37.3884 489.256 44 480 44 460 L44 156 C44 57 87 -9 152 -9 C193.25 -9 236.542 27.0731 269.522 85.1815 C274.028 93.1198 289 90.2046 289 81.0768 L289 13.5 C289 6.60037 294.6 1 301.5 1 L310.838 1 C311.571 1 316.95 2.07411 317.633 2.34035 C322.251 4.13899 328.047 6.56349 333.474 7.55222 C333.554 7.56678 341.763 9.09259 341.841 9.11524 L365.963 16.1183 C367.343 16.5188 369.546 18.6374 370 20 L371 23 L371 23 Z " />
<glyph glyph-name="ydieresis" unicode="&#xff;" horiz-adv-x="377" d="M304 647 C304 691 239 690 239 647 C239 606 304 605 304 647 L304 647 Z M170 647 C170 690 105 691 105 647 C105 605 170 606 170 647 L170 647 Z M99.5179 500 L10.5 500 C8.5681 500 7 498.432 7 496.5 C7 494.991 9.47497 492.259 10.8586 491.655 C23.7803 486.021 33.0588 469.824 44 437 L156.364 17.3163 C157.829 11.8451 156.98 -10.8827 155.029 -16.2 C137.2 -64.8 120.1 -113.4 103 -162 C96 -181 82 -194 76 -194 C54 -194 49 -175 27 -175 C2 -175 -14 -191 -14 -216 C-14 -242 4 -260 31 -260 C53 -260 96 -223 116 -168 L206 87 C245 198 283 310 323 420 C338.725 462.55 351.883 486.276 366.432 492.762 C367.771 493.359 370 496.033 370 497.5 C370 499.432 368.432 501 366.5 501 L309.824 501 C307.754 501 306.344 499.28 306.75 497.25 C306.838 496.812 309.559 492.396 309.856 492.063 C315.895 485.295 312.7 456.9 301 420 L245.645 251.903 C229.328 202.355 160.687 204.162 147 254.5 L102 420 C92.1 457.8 91.515 485.475 98.058 492.09 C98.2695 492.304 101.642 496.469 101.75 496.75 C102.394 498.424 101.312 500 99.5179 500 L99.5179 500 Z " />
<glyph glyph-name="Amacron" unicode="&#x100;" horiz-adv-x="582" d="M190.5 901 L404.5 901 C414.159 901 422 908.841 422 918.5 C422 928.159 414.159 936 404.5 936 L190.5 936 C180.841 936 173 928.159 173 918.5 C173 908.841 180.841 901 190.5 901 L190.5 901 Z M159.979 9.28721 L150 10 C107 13 90 58 107 124 L143.508 254.819 C149.618 276.713 175.024 296 197.755 296 L344.962 296 C367.884 296 393.284 276.59 399.305 254.473 L437 116 C450 55 432 14 390 11 L380.489 10.3206 C378.017 10.1441 376 7.97755 376 5.5 C376 3.01613 378.016 1 380.5 1 L574.5 1 C576.984 1 579 3.01613 579 5.5 L579 5.96887 C579 8.17675 577.191 10.2261 575 10.5 L571 11 C545 14 515 58 496 123 L326 734 C326 734 318 772 315 772 L310 772 C312.806 754.226 298.11 739.952 272.461 734.91 C269.804 734.387 267.722 731.593 268.5 729 C268.944 727.52 269.004 720.463 268.585 718.975 L103 131 C84 62 39 14 -8 11 L-17.5114 10.3206 C-19.9827 10.1441 -22 7.97755 -22 5.5 C-22 3.01613 -19.9839 1 -17.5 1 L158.969 1 C161.177 1 163.226 2.80917 163.5 5 C163.776 7.20477 162.195 9.1289 159.979 9.28721 L159.979 9.28721 Z M175.071 371.534 L217.306 522.066 C232.896 577.628 310.483 577.456 325.825 521.824 L367.339 371.293 C377.801 333.358 352.397 300 313.046 300 L229.297 300 C189.812 300 164.404 333.518 175.071 371.534 L175.071 371.534 Z " />
<glyph glyph-name="amacron" unicode="&#x101;" horiz-adv-x="477" d="M135.5 651 L348.5 651 C358.159 651 366 658.841 366 668.5 C366 678.159 358.159 686 348.5 686 L135.5 686 C125.841 686 118 678.159 118 668.5 C118 658.841 125.841 651 135.5 651 L135.5 651 Z M483.5 79.5 C481.722 80.2622 479.534 78.3483 479.09 76.4649 C472.623 49.0013 450.462 31 422 31 C388 31 365 51 365 81 L365 358 C365 463 316 510 242 510 C141 510 73 414 73 360 C73 339 83 325 98 325 C118 325 131 340 131 350 C131 363 111 382 111 392 C111 433 162 506 238 506 C284 506 315 466 315 377 L315 296.615 C315 281.052 302.758 256.979 289.274 249.207 C130.615 157.757 53 108.5 53 80 C53 26 94 -10 156 -10 C192 -10 237.72 11.87 294.618 67.274 C301.337 73.8162 314.802 68.6833 316.811 59.5232 C325.585 19.5025 354.625 -5 400 -5 C441.925 -5 475.77 26.3706 485.777 74.2821 C486.211 76.3572 485.448 78.6649 483.5 79.5 L483.5 79.5 Z M314 179.012 L314 111.684 C314 101.81 306.37 81.0859 299.152 74.348 C255.07 33.2 215.2 17 181 17 C134 17 103 45 103 86 C103 124.775 149.963 162.529 246.135 220.6 C280.06 241.084 314 218.642 314 179.012 L314 179.012 Z " />
<glyph glyph-name="Abreve" unicode="&#x102;" horiz-adv-x="582" d="M192.3 990.242 C197.161 928.926 239.5 889 298 889 C356.5 889 397.889 928.926 402.702 989.315 C402.93 992.169 400.849 994.215 398 994.5 C395.471 994.753 392.77 991.184 392.432 988.664 C387.158 949.27 350.25 924 298 924 C245.75 924 207.94 950.172 202.575 989.657 C202.233 992.171 199.524 995.752 197 995.5 C194.15 995.215 192.073 993.097 192.3 990.242 L192.3 990.242 Z M159.979 9.28721 L150 10 C107 13 90 58 107 124 L143.508 254.819 C149.618 276.713 175.024 296 197.755 296 L344.962 296 C367.884 296 393.284 276.59 399.305 254.473 L437 116 C450 55 432 14 390 11 L380.489 10.3206 C378.017 10.1441 376 7.97755 376 5.5 C376 3.01613 378.016 1 380.5 1 L574.5 1 C576.984 1 579 3.01613 579 5.5 L579 5.96887 C579 8.17675 577.191 10.2261 575 10.5 L571 11 C545 14 515 58 496 123 L326 734 C326 734 318 772 315 772 L310 772 C312.806 754.226 298.11 739.952 272.461 734.91 C269.804 734.387 267.722 731.593 268.5 729 C268.944 727.52 269.004 720.463 268.585 718.975 L103 131 C84 62 39 14 -8 11 L-17.5114 10.3206 C-19.9827 10.1441 -22 7.97755 -22 5.5 C-22 3.01613 -19.9839 1 -17.5 1 L158.969 1 C161.177 1 163.226 2.80917 163.5 5 C163.776 7.20477 162.195 9.1289 159.979 9.28721 L159.979 9.28721 Z M175.071 371.534 L217.306 522.066 C232.896 577.628 310.483 577.456 325.825 521.824 L367.339 371.293 C377.801 333.358 352.397 300 313.046 300 L229.297 300 C189.812 300 164.404 333.518 175.071 371.534 L175.071 371.534 Z " />
<glyph glyph-name="abreve" unicode="&#x103;" horiz-adv-x="477" d="M136.3 740.242 C141.161 678.926 183.5 639 242 639 C300.5 639 341.889 678.926 346.702 739.315 C346.93 742.169 344.849 744.215 342 744.5 C339.471 744.753 336.77 741.184 336.432 738.664 C331.157 699.27 294.25 674 242 674 C189.75 674 152.842 700.173 147.568 739.657 C147.198 742.426 144.282 745.753 141.5 745.5 C138.365 745.215 136.051 743.38 136.3 740.242 L136.3 740.242 Z M483.5 79.5 C481.722 80.2622 479.534 78.3483 479.09 76.4649 C472.623 49.0013 450.462 31 422 31 C388 31 365 51 365 81 L365 358 C365 463 316 510 242 510 C141 510 73 414 73 360 C73 339 83 325 98 325 C118 325 131 340 131 350 C131 363 111 382 111 392 C111 433 162 506 238 506 C284 506 315 466 315 377 L315 296.615 C315 281.052 302.758 256.979 289.274 249.207 C130.615 157.757 53 108.5 53 80 C53 26 94 -10 156 -10 C192 -10 237.72 11.87 294.618 67.274 C301.337 73.8162 314.802 68.6833 316.811 59.5232 C325.585 19.5025 354.625 -5 400 -5 C441.925 -5 475.77 26.3706 485.777 74.2821 C486.211 76.3572 485.448 78.6649 483.5 79.5 L483.5 79.5 Z M314 179.012 L314 111.684 C314 101.81 306.37 81.0859 299.152 74.348 C255.07 33.2 215.2 17 181 17 C134 17 103 45 103 86 C103 124.775 149.963 162.529 246.135 220.6 C280.06 241.084 314 218.642 314 179.012 L314 179.012 Z " />
<glyph glyph-name="Cacute" unicode="&#x106;" horiz-adv-x="663" d="M374.707 816.28 L510 936 C552 974 580 1001 580 1005 C580 1018 569 1029 556 1029 C552 1029 525 1001 487 959 L367.28 823.707 C365.473 821.665 365.572 818.428 367.5 816.5 C369.428 814.572 372.665 814.473 374.707 816.28 L374.707 816.28 Z M466 745 C437 755 404 760 365 760 C183 760 62 606 62 375 C62 144 179 -10 355 -10 C395 -10 431 -4 463 7 C464 5 516 31 520 34 C567 62 602 73 607 59 L609.824 49.8231 C610.444 47.8062 612.89 46 615 46 C617.208 46 619 47.7921 619 50 L619 165 C619 168.312 616.312 171 613 171 C610.007 171 605.713 168.282 604.431 165.578 L598 152 C569 94 513 40 460 16 C429 2 395 -6 358 -6 C220 -6 128 146 128 375 C128 604 224 756 368 756 C404 756 435 749 463 736 C513 713 567 658 597 598 L603.431 584.422 C604.713 581.718 609.007 579 612 579 C615.312 579 618 581.688 618 585 L618 697 C618 699.208 616.208 701 614 701 C611.905 701 609.397 699.192 608.735 697.205 L606 689 C602 677 568 689 523 718 C522 717 467.5 748 466.5 745 L466 745 Z M611 622 L611 622 L611 622 L611 622 Z M611 128 L611 128 L611 128 L611 128 Z " />
<glyph glyph-name="Ccircumflex" unicode="&#x108;" horiz-adv-x="663" d="M466 745 C437 755 404 760 365 760 C183 760 62 606 62 375 C62 144 179 -10 355 -10 C395 -10 431 -4 463 7 C464 5 516 31 520 34 C567 62 602 73 607 59 L609.824 49.8231 C610.444 47.8062 612.89 46 615 46 C617.208 46 619 47.7921 619 50 L619 165 C619 168.312 616.312 171 613 171 C610.007 171 605.713 168.282 604.431 165.578 L598 152 C569 94 513 40 460 16 C429 2 395 -6 358 -6 C220 -6 128 146 128 375 C128 604 224 756 368 756 C404 756 435 749 463 736 C513 713 567 658 597 598 L603.431 584.422 C604.713 581.718 609.007 579 612 579 C615.312 579 618 581.688 618 585 L618 697 C618 699.208 616.208 701 614 701 C611.905 701 609.397 699.192 608.735 697.205 L606 689 C602 677 568 689 523 718 C522 717 467.5 748 466.5 745 L466 745 Z M380.892 1017.8 C376.586 1023.69 370.077 1033 365 1033 C359.923 1033 353.414 1023.69 349.108 1017.8 C349.08 1017.76 345.502 1012.69 345.476 1012.65 L218.34 816.609 C217.05 814.619 217.57 811.879 219.5 810.5 C221.425 809.125 224.249 809.478 225.777 811.285 L321.987 925.111 C345.397 952.808 384.603 952.808 408.013 925.111 L504.223 811.285 C505.751 809.478 508.575 809.125 510.5 810.5 C512.43 811.879 512.95 814.619 511.66 816.609 L384.524 1012.65 C384.498 1012.69 380.92 1017.76 380.892 1017.8 L380.892 1017.8 Z M611 622 L611 622 L611 622 L611 622 Z M611 128 L611 128 L611 128 L611 128 Z " />
<glyph glyph-name="Cdot" unicode="&#x10a;" horiz-adv-x="663" d="M396 897 C396 940 332 940 332 897 C332 855 396 855 396 897 L396 897 Z M466 745 C437 755 404 760 365 760 C183 760 62 606 62 375 C62 144 179 -10 355 -10 C395 -10 431 -4 463 7 C464 5 516 31 520 34 C567 62 602 73 607 59 L609.824 49.8231 C610.444 47.8062 612.89 46 615 46 C617.208 46 619 47.7921 619 50 L619 165 C619 168.312 616.312 171 613 171 C610.007 171 605.713 168.282 604.431 165.578 L598 152 C569 94 513 40 460 16 C429 2 395 -6 358 -6 C220 -6 128 146 128 375 C128 604 224 756 368 756 C404 756 435 749 463 736 C513 713 567 658 597 598 L603.431 584.422 C604.713 581.718 609.007 579 612 579 C615.312 579 618 581.688 618 585 L618 697 C618 699.208 616.208 701 614 701 C611.905 701 609.397 699.192 608.735 697.205 L606 689 C602 677 568 689 523 718 C522 717 467.5 748 466.5 745 L466 745 Z M611 622 L611 622 L611 622 L611 622 Z M611 128 L611 128 L611 128 L611 128 Z " />
<glyph glyph-name="cdot" unicode="&#x10b;" horiz-adv-x="422" d="M275 647 C275 690 211 690 211 647 C211 605 275 605 275 647 L275 647 Z M370.662 91.158 C335.072 36.6909 283.675 3 235 3 C151 3 95 107 95 264 C95 410 154 507 242 507 C280 507 320 466 342 405 C347 390 357 380 367 380 C387 380 397 390 392 405 C369 468 309 510 243 510 C124 510 45 402 45 239 C45 90 118 -10 228 -10 C280.7 -10 335.568 29.7375 373.565 92.6311 C373.58 92.6571 370.679 91.1834 370.662 91.158 L370.662 91.158 Z " />
<glyph glyph-name="Ccaron" unicode="&#x10c;" horiz-adv-x="663" d="M503.223 1038.72 L407.013 924.889 C383.603 897.192 344.397 897.192 320.987 924.889 L224.777 1038.72 C223.249 1040.52 220.425 1040.88 218.5 1039.5 C216.57 1038.12 216.05 1035.38 217.34 1033.39 L344.476 837.351 C344.502 837.31 348.08 832.24 348.108 832.201 C352.414 826.308 358.923 817 364 817 C369.077 817 375.586 826.308 379.892 832.201 C379.92 832.24 383.498 837.31 383.524 837.351 L510.66 1033.39 C511.95 1035.38 511.43 1038.12 509.5 1039.5 C507.575 1040.88 504.751 1040.52 503.223 1038.72 L503.223 1038.72 Z M466 745 C437 755 404 760 365 760 C183 760 62 606 62 375 C62 144 179 -10 355 -10 C395 -10 431 -4 463 7 C464 5 516 31 520 34 C567 62 602 73 607 59 L609.824 49.8231 C610.444 47.8062 612.89 46 615 46 C617.208 46 619 47.7921 619 50 L619 165 C619 168.312 616.312 171 613 171 C610.007 171 605.713 168.282 604.431 165.578 L598 152 C569 94 513 40 460 16 C429 2 395 -6 358 -6 C220 -6 128 146 128 375 C128 604 224 756 368 756 C404 756 435 749 463 736 C513 713 567 658 597 598 L603.431 584.422 C604.713 581.718 609.007 579 612 579 C615.312 579 618 581.688 618 585 L618 697 C618 699.208 616.208 701 614 701 C611.905 701 609.397 699.192 608.735 697.205 L606 689 C602 677 568 689 523 718 C522 717 467.5 748 466.5 745 L466 745 Z M611 622 L611 622 L611 622 L611 622 Z M611 128 L611 128 L611 128 L611 128 Z " />
<glyph glyph-name="ccaron" unicode="&#x10d;" horiz-adv-x="422" d="M382.223 788.715 L286.013 674.889 C262.603 647.192 223.397 647.192 199.987 674.889 L103.777 788.715 C102.249 790.522 99.4255 790.875 97.5 789.5 C95.5701 788.121 95.0498 785.381 96.3403 783.391 L223.476 587.351 C223.502 587.31 227.08 582.24 227.108 582.201 C231.414 576.308 237.923 567 243 567 C248.077 567 254.586 576.308 258.892 582.201 C258.92 582.24 262.498 587.31 262.524 587.351 L389.66 783.391 C390.95 785.381 390.43 788.121 388.5 789.5 C386.575 790.875 383.751 790.522 382.223 788.715 L382.223 788.715 Z M370.662 91.158 C335.072 36.6909 283.675 3 235 3 C151 3 95 107 95 264 C95 410 154 507 242 507 C280 507 320 466 342 405 C347 390 357 380 367 380 C387 380 397 390 392 405 C369 468 309 510 243 510 C124 510 45 402 45 239 C45 90 118 -10 228 -10 C280.7 -10 335.568 29.7375 373.565 92.6311 C373.58 92.6571 370.679 91.1834 370.662 91.158 L370.662 91.158 Z " />
<glyph glyph-name="Dcaron" unicode="&#x10e;" horiz-adv-x="724" d="M498.222 1038.72 L401.145 923.99 C377.673 896.249 338.408 896.317 315.032 924.138 L218.767 1038.71 C217.244 1040.52 214.426 1040.88 212.5 1039.5 C210.57 1038.12 210.055 1035.39 211.353 1033.4 L339.521 837.263 C339.544 837.228 343.083 832.235 343.108 832.201 C347.414 826.308 353.923 817 359 817 C363.231 817 369.609 826.308 373.895 832.201 C373.918 832.232 377.458 837.231 377.479 837.263 L505.647 1033.4 C506.945 1035.39 506.43 1038.12 504.5 1039.5 C502.575 1040.88 499.75 1040.52 498.222 1038.72 L498.222 1038.72 Z M233 3 C177 3 171 39 171 94 L171 703.5 C171 727.511 190.489 747 214.5 747 L258 747 C487 747 605 598 605 375 C605 129 456 3 233 3 L233 3 Z M73.4648 742.505 L77 742 C98 740 112 713 112 674 L112 76 C112 37 98 10 77 8 L73.4648 7.49497 C71.5716 7.22451 70 5.41248 70 3.5 C70 1.5681 71.5681 0 73.5 0 L237 0 C496 0 669 128 669 375 C669 600 533 750 270 750 L73.5 750 C71.5681 750 70 748.432 70 746.5 C70 744.588 71.5716 742.775 73.4648 742.505 L73.4648 742.505 Z " />
<glyph glyph-name="dcaron" unicode="&#x10f;" horiz-adv-x="513" d="M540 757 C529 757 520 695 516 650 L505.398 543.011 C505.178 540.798 506.793 538.776 509 538.5 C511.186 538.227 513.478 539.764 514.055 541.891 L542 645 C554 688 562 730 562 750 C562 755 553 757 540 757 L540 757 Z M495.5 23.5 L492 23 C471 19 457 42 457 81 L457 737.5 C457 744.4 451.4 750 444.5 750 L440.792 750 C439.313 750 425.035 747.771 423.627 747.321 L407 742 C399 740 391 737 384 735 L384 730 C399 723 406 699 406 658 L406 440.536 C406 433.376 393.741 431.628 389.738 437.564 C361.089 480.052 318.725 510 275 510 C123 510 44 408 44 254 C44 99 127 -5 252 -5 C299.025 -5 348.773 16.78 384.959 51.3557 C391.706 57.8033 406 54.3329 406 45 L406 12.5 C406 5.60037 411.6 0 418.5 0 L424.067 0 C425.01 0 436.501 1.38075 437.416 1.61151 C455.777 6.24167 478.263 12.0506 495.907 16.4758 C497.658 16.915 498.245 18.7129 498.5 20.5 C498.765 22.3546 497.355 23.7649 495.5 23.5 L495.5 23.5 Z M406 366.531 L406 99.1557 C406 90.1089 400.144 72.4667 393.764 66.0527 C363.016 35.1406 317.625 16 273 16 C166 16 95 116 95 267 C95 404 158 495 281 495 C331.35 495 380.797 445.363 402.764 384.669 C403.395 382.925 406 368.387 406 366.531 L406 366.531 Z " />
<glyph glyph-name="Emacron" unicode="&#x112;" horiz-adv-x="522" d="M173.5 901 L387.5 901 C397.159 901 405 908.841 405 918.5 C405 928.159 397.159 936 387.5 936 L173.5 936 C163.841 936 156 928.159 156 918.5 C156 908.841 163.841 901 173.5 901 L173.5 901 Z M387 297.5 L387 476.5 C387 478.984 384.984 481 382.5 481 C380.112 481 377.42 478.97 376.764 476.673 L374 467 C360 420 313 389 256 389 L213.5 389 C190.041 389 171 408.041 171 431.5 L171 690.68 C171 721.767 196.233 747 227.32 747 L316 747 C373 747 424 716 444 669 L448.227 659.136 C449.127 657.038 452.217 655 454.5 655 C456.955 655 458.736 656.845 458.393 659.276 C455.119 682.474 451.301 711.72 448.475 736.262 C447.599 743.87 440.578 749.508 432.92 749.518 L53.5 749.996 C51.5681 749.998 50 748.432 50 746.5 C50 744.578 51.5699 742.843 53.4826 742.652 L60 742 C91 740 112 705 112 654 L112 96 C112 45 91 10 60 8 L53.4826 7.34826 C51.5699 7.15699 50 5.42231 50 3.5 C50 1.56811 51.5681 0.00278362 53.5 0.00621301 L459.752 0.727371 C466.684 0.739677 473.634 6.40813 474.965 13.2111 C479.207 34.8899 483.991 60.5134 487.348 80.9785 C487.747 83.4069 485.961 85 483.5 85 C481.245 85 478.059 82.9619 477.114 80.9142 L473 72 C452 31 390 3 318 3 L265 3 C180 3 171 39 171 94 L171 342.5 C171 365.959 190.041 385 213.5 385 L256 385 C313 385 360 354 374 307 L376.764 297.327 C377.42 295.03 380.112 293 382.5 293 C384.984 293 387 295.016 387 297.5 L387 297.5 Z " />
<glyph glyph-name="emacron" unicode="&#x113;" horiz-adv-x="483" d="M163.5 651 L376.5 651 C386.159 651 394 658.841 394 668.5 C394 678.159 386.159 686 376.5 686 L163.5 686 C153.841 686 146 678.159 146 668.5 C146 658.841 153.841 651 163.5 651 L163.5 651 Z M116.659 340 L391.016 340 C429.984 340 451.395 361.077 437.26 397.391 C406.146 477.33 345.9 510 270 510 C135 510 45 433 45 235 C45 88 127 -10 249 -10 C318.7 -10 382.981 31.905 420.349 97.9054 C420.357 97.9183 418.393 96.1522 418.385 96.1396 C382.545 39.3925 320.825 4 254 4 C160 4 98 104 98 255 C98 281.811 99.4039 305.814 102.212 327.597 C103.125 334.685 109.512 340 116.659 340 L116.659 340 Z M337.566 343.797 L162.773 343.201 C125.99 343.075 105.37 363.116 117.732 397.76 C145.054 474.33 198.7 507 268 507 C316.675 507 358.203 475.691 383.04 399.036 C394.116 364.85 373.501 343.92 337.566 343.797 L337.566 343.797 Z " />
<glyph glyph-name="Ebreve" unicode="&#x114;" horiz-adv-x="522" d="M175.3 990.242 C180.161 928.926 222.5 889 281 889 C339.5 889 380.889 928.926 385.702 989.315 C385.93 992.169 383.849 994.215 381 994.5 C378.471 994.753 375.77 991.184 375.432 988.664 C370.157 949.27 333.25 924 281 924 C228.75 924 190.94 950.172 185.575 989.657 C185.233 992.171 182.524 995.752 180 995.5 C177.15 995.215 175.073 993.097 175.3 990.242 L175.3 990.242 Z M387 297.5 L387 476.5 C387 478.984 384.984 481 382.5 481 C380.112 481 377.42 478.97 376.764 476.673 L374 467 C360 420 313 389 256 389 L213.5 389 C190.041 389 171 408.041 171 431.5 L171 690.68 C171 721.767 196.233 747 227.32 747 L316 747 C373 747 424 716 444 669 L448.227 659.136 C449.127 657.038 452.217 655 454.5 655 C456.955 655 458.736 656.845 458.393 659.276 C455.119 682.474 451.301 711.72 448.475 736.262 C447.599 743.87 440.578 749.508 432.92 749.518 L53.5 749.996 C51.5681 749.998 50 748.432 50 746.5 C50 744.578 51.5699 742.843 53.4826 742.652 L60 742 C91 740 112 705 112 654 L112 96 C112 45 91 10 60 8 L53.4826 7.34826 C51.5699 7.15699 50 5.42231 50 3.5 C50 1.56811 51.5681 0.00278362 53.5 0.00621301 L459.752 0.727371 C466.684 0.739677 473.634 6.40813 474.965 13.2111 C479.207 34.8899 483.991 60.5134 487.348 80.9785 C487.747 83.4069 485.961 85 483.5 85 C481.245 85 478.059 82.9619 477.114 80.9142 L473 72 C452 31 390 3 318 3 L265 3 C180 3 171 39 171 94 L171 342.5 C171 365.959 190.041 385 213.5 385 L256 385 C313 385 360 354 374 307 L376.764 297.327 C377.42 295.03 380.112 293 382.5 293 C384.984 293 387 295.016 387 297.5 L387 297.5 Z " />
<glyph glyph-name="ebreve" unicode="&#x115;" horiz-adv-x="483" d="M164.3 740.242 C169.161 678.926 211.5 639 270 639 C328.5 639 369.889 678.926 374.702 739.315 C374.93 742.169 372.849 744.215 370 744.5 C367.471 744.753 364.77 741.184 364.432 738.664 C359.157 699.27 322.25 674 270 674 C217.75 674 180.843 700.173 175.568 739.657 C175.198 742.426 172.282 745.753 169.5 745.5 C166.365 745.215 164.051 743.38 164.3 740.242 L164.3 740.242 Z M116.659 340 L391.016 340 C429.984 340 451.395 361.077 437.26 397.391 C406.146 477.33 345.9 510 270 510 C135 510 45 433 45 235 C45 88 127 -10 249 -10 C318.7 -10 382.981 31.905 420.349 97.9054 C420.357 97.9183 418.393 96.1522 418.385 96.1396 C382.545 39.3925 320.825 4 254 4 C160 4 98 104 98 255 C98 281.811 99.4039 305.814 102.212 327.597 C103.125 334.685 109.512 340 116.659 340 L116.659 340 Z M337.566 343.797 L162.773 343.201 C125.99 343.075 105.37 363.116 117.732 397.76 C145.054 474.33 198.7 507 268 507 C316.675 507 358.203 475.691 383.04 399.036 C394.116 364.85 373.501 343.92 337.566 343.797 L337.566 343.797 Z " />
<glyph glyph-name="Edot" unicode="&#x116;" horiz-adv-x="522" d="M313 897 C313 941 248 940 248 897 C248 856 313 855 313 897 L313 897 Z M387 297.5 L387 476.5 C387 478.984 384.984 481 382.5 481 C380.112 481 377.42 478.97 376.764 476.673 L374 467 C360 420 313 389 256 389 L213.5 389 C190.041 389 171 408.041 171 431.5 L171 690.68 C171 721.767 196.233 747 227.32 747 L316 747 C373 747 424 716 444 669 L448.227 659.136 C449.127 657.038 452.217 655 454.5 655 C456.955 655 458.736 656.845 458.393 659.276 C455.119 682.474 451.301 711.72 448.475 736.262 C447.599 743.87 440.578 749.508 432.92 749.518 L53.5 749.996 C51.5681 749.998 50 748.432 50 746.5 C50 744.578 51.5699 742.843 53.4826 742.652 L60 742 C91 740 112 705 112 654 L112 96 C112 45 91 10 60 8 L53.4826 7.34826 C51.5699 7.15699 50 5.42231 50 3.5 C50 1.56811 51.5681 0.00278362 53.5 0.00621301 L459.752 0.727371 C466.684 0.739677 473.634 6.40813 474.965 13.2111 C479.207 34.8899 483.991 60.5134 487.348 80.9785 C487.747 83.4069 485.961 85 483.5 85 C481.245 85 478.059 82.9619 477.114 80.9142 L473 72 C452 31 390 3 318 3 L265 3 C180 3 171 39 171 94 L171 342.5 C171 365.959 190.041 385 213.5 385 L256 385 C313 385 360 354 374 307 L376.764 297.327 C377.42 295.03 380.112 293 382.5 293 C384.984 293 387 295.016 387 297.5 L387 297.5 Z " />
<glyph glyph-name="edot" unicode="&#x117;" horiz-adv-x="483" d="M302 647 C302 690 238 690 238 647 C238 605 302 605 302 647 L302 647 Z M116.659 340 L391.016 340 C429.984 340 451.395 361.077 437.26 397.391 C406.146 477.33 345.9 510 270 510 C135 510 45 433 45 235 C45 88 127 -10 249 -10 C318.7 -10 382.981 31.905 420.349 97.9054 C420.357 97.9183 418.393 96.1522 418.385 96.1396 C382.545 39.3925 320.825 4 254 4 C160 4 98 104 98 255 C98 281.811 99.4039 305.814 102.212 327.597 C103.125 334.685 109.512 340 116.659 340 L116.659 340 Z M337.566 343.797 L162.773 343.201 C125.99 343.075 105.37 363.116 117.732 397.76 C145.054 474.33 198.7 507 268 507 C316.675 507 358.203 475.691 383.04 399.036 C394.116 364.85 373.501 343.92 337.566 343.797 L337.566 343.797 Z " />
<glyph glyph-name="Ecaron" unicode="&#x11a;" horiz-adv-x="522" d="M420.222 1038.72 L323.145 923.99 C299.673 896.249 260.408 896.317 237.032 924.138 L140.767 1038.71 C139.244 1040.52 136.426 1040.88 134.5 1039.5 C132.57 1038.12 132.055 1035.39 133.353 1033.4 L261.521 837.263 C261.544 837.228 265.083 832.235 265.108 832.201 C269.414 826.308 275.923 817 281 817 C285.231 817 291.609 826.308 295.895 832.201 C295.918 832.232 299.458 837.231 299.479 837.263 L427.647 1033.4 C428.945 1035.39 428.43 1038.12 426.5 1039.5 C424.575 1040.88 421.75 1040.52 420.222 1038.72 L420.222 1038.72 Z M387 297.5 L387 476.5 C387 478.984 384.984 481 382.5 481 C380.112 481 377.42 478.97 376.764 476.673 L374 467 C360 420 313 389 256 389 L213.5 389 C190.041 389 171 408.041 171 431.5 L171 690.68 C171 721.767 196.233 747 227.32 747 L316 747 C373 747 424 716 444 669 L448.227 659.136 C449.127 657.038 452.217 655 454.5 655 C456.955 655 458.736 656.845 458.393 659.276 C455.119 682.474 451.301 711.72 448.475 736.262 C447.599 743.87 440.578 749.508 432.92 749.518 L53.5 749.996 C51.5681 749.998 50 748.432 50 746.5 C50 744.578 51.5699 742.843 53.4826 742.652 L60 742 C91 740 112 705 112 654 L112 96 C112 45 91 10 60 8 L53.4826 7.34826 C51.5699 7.15699 50 5.42231 50 3.5 C50 1.56811 51.5681 0.00278362 53.5 0.00621301 L459.752 0.727371 C466.684 0.739677 473.634 6.40813 474.965 13.2111 C479.207 34.8899 483.991 60.5134 487.348 80.9785 C487.747 83.4069 485.961 85 483.5 85 C481.245 85 478.059 82.9619 477.114 80.9142 L473 72 C452 31 390 3 318 3 L265 3 C180 3 171 39 171 94 L171 342.5 C171 365.959 190.041 385 213.5 385 L256 385 C313 385 360 354 374 307 L376.764 297.327 C377.42 295.03 380.112 293 382.5 293 C384.984 293 387 295.016 387 297.5 L387 297.5 Z " />
<glyph glyph-name="ecaron" unicode="&#x11b;" horiz-adv-x="483" d="M409.223 788.715 L313.013 674.889 C289.603 647.192 250.397 647.192 226.987 674.889 L130.777 788.715 C129.249 790.522 126.425 790.875 124.5 789.5 C122.57 788.121 122.05 785.381 123.34 783.391 L250.476 587.351 C250.502 587.31 254.08 582.24 254.108 582.201 C258.414 576.308 264.923 567 270 567 C275.077 567 281.586 576.308 285.892 582.201 C285.92 582.24 289.498 587.31 289.524 587.351 L416.66 783.391 C417.95 785.381 417.43 788.121 415.5 789.5 C413.575 790.875 410.751 790.522 409.223 788.715 L409.223 788.715 Z M116.659 340 L391.016 340 C429.984 340 451.395 361.077 437.26 397.391 C406.146 477.33 345.9 510 270 510 C135 510 45 433 45 235 C45 88 127 -10 249 -10 C318.7 -10 382.981 31.905 420.349 97.9054 C420.357 97.9183 418.393 96.1522 418.385 96.1396 C382.545 39.3925 320.825 4 254 4 C160 4 98 104 98 255 C98 281.811 99.4039 305.814 102.212 327.597 C103.125 334.685 109.512 340 116.659 340 L116.659 340 Z M337.566 343.797 L162.773 343.201 C125.99 343.075 105.37 363.116 117.732 397.76 C145.054 474.33 198.7 507 268 507 C316.675 507 358.203 475.691 383.04 399.036 C394.116 364.85 373.501 343.92 337.566 343.797 L337.566 343.797 Z " />
<glyph glyph-name="Gcircumflex" unicode="&#x11c;" horiz-adv-x="696" d="M617 585.5 L617 697 C617 699.208 615.208 701 613 701 C610.905 701 608.397 699.192 607.735 697.205 L605 689 C601 677 567 689 522 718 C521 717 467 748 466 745 C437 755 404 760 365 760 C183 760 62 606 62 375 C62 144 182 -10 362 -10 C438 -10 504 1 565 20 L598 29.5 C619.667 37 640.292 47.2778 661.032 56.8611 C661.133 56.9077 661.21 57.0914 661.108 57.0482 C645.205 50.3249 629.011 44.4592 612.244 38.5996 C605.456 36.2274 599 40.5661 599 47.7568 L599 210 C599 270 617 311 643 314 L647 314.5 C649.191 314.774 651 316.823 651 319.031 L651 319.5 C651 321.984 648.984 324 646.5 324 L492.5 324 C490.016 324 488 321.984 488 319.5 L488 319.031 C488 316.823 489.809 314.774 492 314.5 L496 314 C522 311 540 270 540 210 L540 73.6612 C540 72.2592 539.152 65.0224 538.735 63.6836 C528.975 32.2939 480.415 10.1786 409.095 3.89888 C408.984 3.88915 407.66 3.51411 407.771 3.51994 C424.729 4.41211 443.528 5.71645 461.458 7.09439 C461.765 7.118 461.211 6.62673 460.904 6.59375 C432.453 3.53125 402.375 2 370 2 C224 2 126 151 126 375 C126 604 222 756 366 756 C402 756 433 749 461 736 C511 713 565 658 595 598 L601.217 584.874 C602.605 581.944 607.258 579 610.5 579 C614.088 579 617 581.912 617 585.5 L617 585.5 Z M378.892 1017.8 C374.586 1023.69 368.077 1033 363 1033 C357.923 1033 351.414 1023.69 347.108 1017.8 C347.08 1017.76 343.502 1012.69 343.476 1012.65 L216.34 816.609 C215.05 814.619 215.57 811.879 217.5 810.5 C219.425 809.125 222.249 809.478 223.777 811.285 L319.987 925.111 C343.397 952.808 382.603 952.808 406.013 925.111 L502.223 811.285 C503.751 809.478 506.575 809.125 508.5 810.5 C510.43 811.879 510.95 814.619 509.66 816.609 L382.524 1012.65 C382.498 1012.69 378.92 1017.76 378.892 1017.8 L378.892 1017.8 Z M609 622 L609 622 L609 622 L609 622 Z " />
<glyph glyph-name="Gbreve" unicode="&#x11e;" horiz-adv-x="696" d="M258.3 990.242 C263.161 928.926 305.5 889 364 889 C422.5 889 463.889 928.926 468.702 989.315 C468.93 992.169 466.849 994.215 464 994.5 C461.471 994.753 458.77 991.184 458.432 988.664 C453.157 949.27 416.25 924 364 924 C311.75 924 274.843 950.172 269.568 989.657 C269.198 992.426 266.282 995.753 263.5 995.5 C260.365 995.215 258.051 993.38 258.3 990.242 L258.3 990.242 Z M617 585.5 L617 697 C617 699.208 615.208 701 613 701 C610.905 701 608.397 699.192 607.735 697.205 L605 689 C601 677 567 689 522 718 C521 717 467 748 466 745 C437 755 404 760 365 760 C183 760 62 606 62 375 C62 144 182 -10 362 -10 C438 -10 504 1 565 20 L598 29.5 C619.667 37 640.292 47.2778 661.032 56.8611 C661.133 56.9077 661.21 57.0914 661.108 57.0482 C645.205 50.3249 629.011 44.4592 612.244 38.5996 C605.456 36.2274 599 40.5661 599 47.7568 L599 210 C599 270 617 311 643 314 L647 314.5 C649.191 314.774 651 316.823 651 319.031 L651 319.5 C651 321.984 648.984 324 646.5 324 L492.5 324 C490.016 324 488 321.984 488 319.5 L488 319.031 C488 316.823 489.809 314.774 492 314.5 L496 314 C522 311 540 270 540 210 L540 73.6612 C540 72.2592 539.152 65.0224 538.735 63.6836 C528.975 32.2939 480.415 10.1786 409.095 3.89888 C408.984 3.88915 407.66 3.51411 407.771 3.51994 C424.729 4.41211 443.528 5.71645 461.458 7.09439 C461.765 7.118 461.211 6.62673 460.904 6.59375 C432.453 3.53125 402.375 2 370 2 C224 2 126 151 126 375 C126 604 222 756 366 756 C402 756 433 749 461 736 C511 713 565 658 595 598 L601.217 584.874 C602.605 581.944 607.258 579 610.5 579 C614.088 579 617 581.912 617 585.5 L617 585.5 Z M609 622 L609 622 L609 622 L609 622 Z " />
<glyph glyph-name="gbreve" unicode="&#x11f;" horiz-adv-x="486" d="M137.3 740.242 C142.161 678.926 184.5 639 243 639 C301.5 639 342.889 678.926 347.702 739.315 C347.93 742.169 345.849 744.215 343 744.5 C340.471 744.753 337.77 741.184 337.432 738.664 C332.157 699.27 295.25 674 243 674 C190.75 674 153.843 700.173 148.568 739.657 C148.198 742.426 145.282 745.753 142.5 745.5 C139.365 745.215 137.051 743.38 137.3 740.242 L137.3 740.242 Z M505 459 C505 477 492 489 473 489 C440.825 489 411.372 474.026 391.942 449.694 C387.469 444.092 374.429 444.31 370.188 450.09 C342.516 487.797 298 510 242 510 C147 510 83 446 83 350 C83 278.225 117.712 224.146 174.221 200.679 C178.094 199.07 177.553 186.613 173.408 185.971 C103.073 175.085 59 146.1 59 107 C59 67.4 83.5025 37.3287 123.523 24.086 C129.083 22.2463 130.748 10.4404 125.478 7.88737 C80.1775 -14.0575 52 -51.5 52 -94 C52 -176 132 -231 251 -231 C370 -231 450 -171 450 -80 C450 8 403 66 281 66 L175 66 C123 66 88 88 88 121 C88 161 150 187 242 187 C337 187 400 252 400 349 C400 374.833 395.551 398.442 387.291 419.188 C384.986 424.978 385.741 432.988 390.144 437.398 C403.083 450.361 421 458 441 458 C453 458 470 438 482 438 C495 438 504 446.5 504 459.5 L505 459 Z M241 192 C176 192 132 256 132 351 C132 445 176 508 241 508 C306 508 349 445 349 351 C349 256 306 192 241 192 L241 192 Z M163 19 L171 19 L275 19 C371 19 408 -24 408 -88 C408 -170 345 -225 251 -225 C156 -225 92 -167 92 -79 C92 -37.375 112.963 -1.73937 146.182 15.2436 C148.448 16.4018 160.456 19 163 19 L163 19 Z " />
<glyph glyph-name="Gdot" unicode="&#x120;" horiz-adv-x="696" d="M396 897 C396 940 332 940 332 897 C332 855 396 855 396 897 L396 897 Z M617 585.5 L617 697 C617 699.208 615.208 701 613 701 C610.905 701 608.397 699.192 607.735 697.205 L605 689 C601 677 567 689 522 718 C521 717 467 748 466 745 C437 755 404 760 365 760 C183 760 62 606 62 375 C62 144 182 -10 362 -10 C438 -10 504 1 565 20 L598 29.5 C619.667 37 640.292 47.2778 661.032 56.8611 C661.133 56.9077 661.21 57.0914 661.108 57.0482 C645.205 50.3249 629.011 44.4592 612.244 38.5996 C605.456 36.2274 599 40.5661 599 47.7568 L599 210 C599 270 617 311 643 314 L647 314.5 C649.191 314.774 651 316.823 651 319.031 L651 319.5 C651 321.984 648.984 324 646.5 324 L492.5 324 C490.016 324 488 321.984 488 319.5 L488 319.031 C488 316.823 489.809 314.774 492 314.5 L496 314 C522 311 540 270 540 210 L540 73.6612 C540 72.2592 539.152 65.0224 538.735 63.6836 C528.975 32.2939 480.415 10.1786 409.095 3.89888 C408.984 3.88915 407.66 3.51411 407.771 3.51994 C424.729 4.41211 443.528 5.71645 461.458 7.09439 C461.765 7.118 461.211 6.62673 460.904 6.59375 C432.453 3.53125 402.375 2 370 2 C224 2 126 151 126 375 C126 604 222 756 366 756 C402 756 433 749 461 736 C511 713 565 658 595 598 L601.217 584.874 C602.605 581.944 607.258 579 610.5 579 C614.088 579 617 581.912 617 585.5 L617 585.5 Z M609 622 L609 622 L609 622 L609 622 Z " />
<glyph glyph-name="gdot" unicode="&#x121;" horiz-adv-x="486" d="M275 647 C275 690 211 690 211 647 C211 605 275 605 275 647 L275 647 Z M505 459 C505 477 492 489 473 489 C440.825 489 411.372 474.026 391.942 449.694 C387.469 444.092 374.429 444.31 370.188 450.09 C342.516 487.797 298 510 242 510 C147 510 83 446 83 350 C83 278.225 117.712 224.146 174.221 200.679 C178.094 199.07 177.553 186.613 173.408 185.971 C103.073 175.085 59 146.1 59 107 C59 67.4 83.5025 37.3287 123.523 24.086 C129.083 22.2463 130.748 10.4404 125.478 7.88737 C80.1775 -14.0575 52 -51.5 52 -94 C52 -176 132 -231 251 -231 C370 -231 450 -171 450 -80 C450 8 403 66 281 66 L175 66 C123 66 88 88 88 121 C88 161 150 187 242 187 C337 187 400 252 400 349 C400 374.833 395.551 398.442 387.291 419.188 C384.986 424.978 385.741 432.988 390.144 437.398 C403.083 450.361 421 458 441 458 C453 458 470 438 482 438 C495 438 504 446.5 504 459.5 L505 459 Z M241 192 C176 192 132 256 132 351 C132 445 176 508 241 508 C306 508 349 445 349 351 C349 256 306 192 241 192 L241 192 Z M163 19 L171 19 L275 19 C371 19 408 -24 408 -88 C408 -170 345 -225 251 -225 C156 -225 92 -167 92 -79 C92 -37.375 112.963 -1.73937 146.182 15.2436 C148.448 16.4018 160.456 19 163 19 L163 19 Z " />
<glyph glyph-name="Hcircumflex" unicode="&#x124;" horiz-adv-x="692" d="M385.892 1017.8 C381.586 1023.69 375.077 1033 370 1033 C364.923 1033 358.414 1023.69 354.108 1017.8 C354.08 1017.76 350.502 1012.69 350.476 1012.65 L223.34 816.609 C222.05 814.619 222.57 811.879 224.5 810.5 C226.425 809.125 229.249 809.478 230.777 811.285 L326.987 925.111 C350.397 952.808 389.603 952.808 413.013 925.111 L509.223 811.285 C510.751 809.478 513.575 809.125 515.5 810.5 C517.43 811.879 517.95 814.619 516.66 816.609 L389.524 1012.65 C389.498 1012.69 385.92 1017.76 385.892 1017.8 L385.892 1017.8 Z M629.535 7.49497 L626 8 C605 10 591 37 591 76 L591 674 C591 713 605 740 626 742 L629.535 742.505 C631.428 742.775 633 744.588 633 746.5 C633 748.432 631.432 750 629.5 750 L494.5 750 C492.568 750 491 748.432 491 746.5 C491 744.588 492.572 742.775 494.465 742.505 L498 742 C519 740 533 713 533 674 L533 443.32 C533 412.233 507.767 387 476.68 387 L263.32 387 C232.233 387 207 412.233 207 443.32 L207 674 C207 713 221 740 242 742 L245.535 742.505 C247.428 742.775 249 744.588 249 746.5 C249 748.432 247.432 750 245.5 750 L109.5 750 C107.568 750 106 748.432 106 746.5 C106 744.588 107.572 742.775 109.465 742.505 L113 742 C134 740 148 713 148 674 L148 76 C148 37 134 10 113 8 L109.465 7.49497 C107.572 7.22451 106 5.41248 106 3.5 C106 1.5681 107.568 0 109.5 0 L245.5 0 C247.432 0 249 1.5681 249 3.5 C249 5.41248 247.428 7.22451 245.535 7.49497 L242 8 C221 10 207 37 207 76 L207 326.68 C207 357.767 232.233 383 263.32 383 L476.68 383 C507.767 383 533 357.767 533 326.68 L533 76 C533 37 519 10 498 8 L494.465 7.49497 C492.572 7.22451 491 5.41248 491 3.5 C491 1.5681 492.568 0 494.5 0 L629.5 0 C631.432 0 633 1.5681 633 3.5 C633 5.41248 631.428 7.22451 629.535 7.49497 L629.535 7.49497 Z " />
<glyph glyph-name="Itilde" unicode="&#x128;" horiz-adv-x="277" d="M26.3825 890.979 L30.3566 890.524 C30.3566 890.524 29.3406 889.649 29.3406 889.649 C33.495 918.304 47.025 936 66 936 C110 936 170 871 214 871 C243.7 871 263.275 901.78 266.893 949.489 C266.893 949.489 268.364 948.391 268.364 948.391 L264.402 948.942 C264.402 948.942 265.872 947.845 265.872 947.845 C261.009 922.158 245.692 906 226 906 C181 906 122 971 77 971 C49.875 971 31.5547 940.375 27.3984 891.854 C27.3984 891.854 26.3825 890.979 26.3825 890.979 L30.3566 890.524 C30.3566 890.524 29.3406 889.649 29.3406 889.649 L26.3825 890.979 Z M214.535 7.49497 L211 8 C190 10 176 37 176 76 L176 674 C176 713 190 740 211 742 L214.535 742.505 C216.428 742.775 218 744.588 218 746.5 C218 748.432 216.432 750 214.5 750 L78.5 750 C76.5681 750 75 748.432 75 746.5 C75 744.588 76.5716 742.775 78.4648 742.505 L82 742 C103 740 117 713 117 674 L117 76 C117 37 103 10 82 8 L78.4648 7.49497 C76.5716 7.22451 75 5.41248 75 3.5 C75 1.5681 76.5681 0 78.5 0 L214.5 0 C216.432 0 218 1.5681 218 3.5 C218 5.41248 216.428 7.22451 214.535 7.49497 L214.535 7.49497 Z " />
<glyph glyph-name="itilde" unicode="&#x129;" horiz-adv-x="206" d="M-5.61751 640.979 L-1.64345 640.524 C-1.64345 640.524 -2.65939 639.649 -2.65939 639.649 C1.495 668.304 15.025 686 34 686 C78 686 138 621 182 621 C211.7 621 231.275 651.78 234.893 699.489 C234.893 699.489 236.364 698.391 236.364 698.391 L232.402 698.942 C232.402 698.942 233.872 697.845 233.872 697.845 C229.009 672.158 213.692 656 194 656 C149 656 90 721 45 721 C17.875 721 -0.445313 690.375 -4.60156 641.854 C-4.60156 641.854 -5.61751 640.979 -5.61751 640.979 L-1.64345 640.524 C-1.64345 640.524 -2.65939 639.649 -2.65939 639.649 L-5.61751 640.979 Z M72.0689 479.803 C84.2698 478.54 90 471 90 452 L90 41 C90 21 83.3884 11.7438 71.6679 7.9722 C70.0899 7.46441 68 5.1577 68 3.5 C68 1.5681 69.5681 0 71.5 0 L158.5 0 C160.432 0 162 1.5681 162 3.5 C162 5.1577 159.91 7.46441 158.332 7.9722 C146.612 11.7438 140 21 140 41 L140 487.5 C140 494.4 134.4 500 127.5 500 L122.28 500 C121.226 500 109.738 498.513 108.723 498.23 C97.1234 494.996 83.4506 491.347 72.1274 488.168 C70.3281 487.663 68 485.369 68 483.5 C68 481.767 70.3453 479.982 72.0689 479.803 L72.0689 479.803 Z " />
<glyph glyph-name="Imacron" unicode="&#x12a;" horiz-adv-x="277" d="M40.5 901 L253.5 901 C263.159 901 271 908.841 271 918.5 C271 928.159 263.159 936 253.5 936 L40.5 936 C30.8405 936 23 928.159 23 918.5 C23 908.841 30.8405 901 40.5 901 L40.5 901 Z M214.535 7.49497 L211 8 C190 10 176 37 176 76 L176 674 C176 713 190 740 211 742 L214.535 742.505 C216.428 742.775 218 744.588 218 746.5 C218 748.432 216.432 750 214.5 750 L78.5 750 C76.5681 750 75 748.432 75 746.5 C75 744.588 76.5716 742.775 78.4648 742.505 L82 742 C103 740 117 713 117 674 L117 76 C117 37 103 10 82 8 L78.4648 7.49497 C76.5716 7.22451 75 5.41248 75 3.5 C75 1.5681 76.5681 0 78.5 0 L214.5 0 C216.432 0 218 1.5681 218 3.5 C218 5.41248 216.428 7.22451 214.535 7.49497 L214.535 7.49497 Z " />
<glyph glyph-name="imacron" unicode="&#x12b;" horiz-adv-x="206" d="M8.5 651 L221.5 651 C231.159 651 239 658.841 239 668.5 C239 678.159 231.159 686 221.5 686 L8.5 686 C-1.15948 686 -9 678.159 -9 668.5 C-9 658.841 -1.15948 651 8.5 651 L8.5 651 Z M72.0689 479.803 C84.2698 478.54 90 471 90 452 L90 41 C90 21 83.3884 11.7438 71.6679 7.9722 C70.0899 7.46441 68 5.1577 68 3.5 C68 1.5681 69.5681 0 71.5 0 L158.5 0 C160.432 0 162 1.5681 162 3.5 C162 5.1577 159.91 7.46441 158.332 7.9722 C146.612 11.7438 140 21 140 41 L140 487.5 C140 494.4 134.4 500 127.5 500 L122.28 500 C121.226 500 109.738 498.513 108.723 498.23 C97.1234 494.996 83.4506 491.347 72.1274 488.168 C70.3281 487.663 68 485.369 68 483.5 C68 481.767 70.3453 479.982 72.0689 479.803 L72.0689 479.803 Z " />
<glyph glyph-name="Ibreve" unicode="&#x12c;" horiz-adv-x="277" d="M41.2996 990.242 C46.1606 928.926 88.5 889 147 889 C205.5 889 246.889 928.926 251.702 989.315 C251.93 992.169 249.849 994.215 247 994.5 C244.471 994.753 241.77 991.184 241.432 988.664 C236.158 949.27 199.25 924 147 924 C94.75 924 57.8425 950.172 52.5676 989.657 C52.1977 992.426 49.2822 995.753 46.5 995.5 C43.3648 995.215 41.0508 993.38 41.2996 990.242 L41.2996 990.242 Z M214.535 7.49497 L211 8 C190 10 176 37 176 76 L176 674 C176 713 190 740 211 742 L214.535 742.505 C216.428 742.775 218 744.588 218 746.5 C218 748.432 216.432 750 214.5 750 L78.5 750 C76.5681 750 75 748.432 75 746.5 C75 744.588 76.5716 742.775 78.4648 742.505 L82 742 C103 740 117 713 117 674 L117 76 C117 37 103 10 82 8 L78.4648 7.49497 C76.5716 7.22451 75 5.41248 75 3.5 C75 1.5681 76.5681 0 78.5 0 L214.5 0 C216.432 0 218 1.5681 218 3.5 C218 5.41248 216.428 7.22451 214.535 7.49497 L214.535 7.49497 Z " />
<glyph glyph-name="ibreve" unicode="&#x12d;" horiz-adv-x="206" d="M9.29964 740.242 C14.1606 678.926 56.5 639 115 639 C173.5 639 214.889 678.926 219.702 739.315 C219.93 742.169 217.849 744.215 215 744.5 C212.471 744.753 209.77 741.184 209.432 738.664 C204.158 699.27 167.25 674 115 674 C62.75 674 25.8425 700.173 20.5676 739.657 C20.1977 742.426 17.2822 745.753 14.5 745.5 C11.3648 745.215 9.05084 743.38 9.29964 740.242 L9.29964 740.242 Z M72.0689 479.803 C84.2698 478.54 90 471 90 452 L90 41 C90 21 83.3884 11.7438 71.6679 7.9722 C70.0899 7.46441 68 5.1577 68 3.5 C68 1.5681 69.5681 0 71.5 0 L158.5 0 C160.432 0 162 1.5681 162 3.5 C162 5.1577 159.91 7.46441 158.332 7.9722 C146.612 11.7438 140 21 140 41 L140 487.5 C140 494.4 134.4 500 127.5 500 L122.28 500 C121.226 500 109.738 498.513 108.723 498.23 C97.1234 494.996 83.4506 491.347 72.1274 488.168 C70.3281 487.663 68 485.369 68 483.5 C68 481.767 70.3453 479.982 72.0689 479.803 L72.0689 479.803 Z " />
<glyph glyph-name="Idot" unicode="&#x130;" horiz-adv-x="277" d="M179 897 C179 940 115 940 115 897 C115 855 179 855 179 897 L179 897 Z M214.535 7.49497 L211 8 C190 10 176 37 176 76 L176 674 C176 713 190 740 211 742 L214.535 742.505 C216.428 742.775 218 744.588 218 746.5 C218 748.432 216.432 750 214.5 750 L78.5 750 C76.5681 750 75 748.432 75 746.5 C75 744.588 76.5716 742.775 78.4648 742.505 L82 742 C103 740 117 713 117 674 L117 76 C117 37 103 10 82 8 L78.4648 7.49497 C76.5716 7.22451 75 5.41248 75 3.5 C75 1.5681 76.5681 0 78.5 0 L214.5 0 C216.432 0 218 1.5681 218 3.5 C218 5.41248 216.428 7.22451 214.535 7.49497 L214.535 7.49497 Z " />
<glyph glyph-name="dotlessi" unicode="&#x131;" horiz-adv-x="206" d="M72.0689 479.803 C84.2698 478.54 90 471 90 452 L90 41 C90 21 83.3884 11.7438 71.6679 7.9722 C70.0899 7.46441 68 5.1577 68 3.5 C68 1.5681 69.5681 0 71.5 0 L158.5 0 C160.432 0 162 1.5681 162 3.5 C162 5.1577 159.91 7.46441 158.332 7.9722 C146.612 11.7438 140 21 140 41 L140 487.5 C140 494.4 134.4 500 127.5 500 L122.28 500 C121.226 500 109.738 498.513 108.723 498.23 C97.1234 494.996 83.4506 491.347 72.1274 488.168 C70.3281 487.663 68 485.369 68 483.5 C68 481.767 70.3453 479.982 72.0689 479.803 L72.0689 479.803 Z " />
<glyph glyph-name="Jcircumflex" unicode="&#x134;" horiz-adv-x="277" d="M162.892 1017.8 C158.586 1023.69 152.077 1033 147 1033 C141.923 1033 135.414 1023.69 131.108 1017.8 C131.08 1017.76 127.502 1012.69 127.476 1012.65 L0.340315 816.609 C-0.950166 814.619 -0.429946 811.879 1.5 810.5 C3.42549 809.125 6.24906 809.478 7.77655 811.285 L103.987 925.111 C127.397 952.808 166.603 952.808 190.013 925.111 L286.223 811.285 C287.751 809.478 290.575 809.125 292.5 810.5 C294.43 811.879 294.95 814.619 293.66 816.609 L166.524 1012.65 C166.498 1012.69 162.92 1017.76 162.892 1017.8 L162.892 1017.8 Z M214.5 750 L78.5 750 C76.5681 750 75 748.432 75 746.5 C75 744.588 76.5716 742.775 78.4648 742.505 L82 742 C103 740 117 713 117 674 L117 -34 C117 -185 51 -214 4 -214 C-25 -214 -11 -167 -40 -167 C-56 -167 -67 -177 -67 -193 C-67 -209 -40 -220 0 -220 C74 -220 176 -172 176 78 L176 674 C176 713 190 740 211 742 L214.535 742.505 C216.428 742.775 218 744.588 218 746.5 C218 748.432 216.432 750 214.5 750 L214.5 750 Z " />
<glyph glyph-name="Lacute" unicode="&#x139;" horiz-adv-x="499" d="M157.707 816.28 L293 936 C335 974 363 1001 363 1005 C363 1018 352 1029 339 1029 C335 1029 308 1001 270 959 L150.28 823.707 C148.473 821.665 148.572 818.428 150.5 816.5 C152.428 814.572 155.665 814.473 157.707 816.28 L157.707 816.28 Z M214.5 750 L78.5 750 C76.5681 750 75 748.432 75 746.5 C75 744.588 76.5716 742.775 78.4648 742.505 L82 742 C103 740 117 713 117 674 L117 76 C117 37 103 10 82 8 L78.4648 7.49497 C76.5716 7.22451 75 5.41248 75 3.5 C75 1.5681 76.5681 0 78.5 0 L468 0 L468 5 C471.795 29.6667 477.39 62.4339 482.223 87.9314 C482.677 90.3227 480.934 92 478.5 92 C476.245 92 473.059 89.9619 472.114 87.9142 L468 79 C447 38 385 10 313 10 L270 10 C185 10 176 44 176 94 L176 674 C176 713 190 740 211 742 L214.535 742.505 C216.428 742.775 218 744.588 218 746.5 C218 748.432 216.432 750 214.5 750 L214.5 750 Z " />
<glyph glyph-name="Lcaron" unicode="&#x13d;" horiz-adv-x="499" d="M314 809 C303 809 295 747 291 702 L280.447 595.506 C280.2 593.019 282.016 590.776 284.5 590.5 C286.958 590.227 289.52 591.988 290.146 594.38 L317 697 C328 739 336 781 336 802 C336 807 327 809 314 809 L314 809 Z M214.5 750 L78.5 750 C76.5681 750 75 748.432 75 746.5 C75 744.588 76.5716 742.775 78.4648 742.505 L82 742 C103 740 117 713 117 674 L117 76 C117 37 103 10 82 8 L78.4648 7.49497 C76.5716 7.22451 75 5.41248 75 3.5 C75 1.5681 76.5681 0 78.5 0 L468 0 L468 5 C471.795 29.6667 477.39 62.4339 482.223 87.9314 C482.677 90.3227 480.934 92 478.5 92 C476.245 92 473.059 89.9619 472.114 87.9142 L468 79 C447 38 385 10 313 10 L270 10 C185 10 176 44 176 94 L176 674 C176 713 190 740 211 742 L214.535 742.505 C216.428 742.775 218 744.588 218 746.5 C218 748.432 216.432 750 214.5 750 L214.5 750 Z " />
<glyph glyph-name="lcaron" unicode="&#x13e;" horiz-adv-x="150" d="M182 759 C171 759 162 697 158 652 L147.398 545.011 C147.178 542.798 148.793 540.776 151 540.5 C153.186 540.227 155.478 541.764 156.055 543.891 L184 647 C196 690 204 732 204 752 C204 757 195 759 182 759 L182 759 Z M49 660 L49 41 C49 21 42.3884 11.7438 30.6679 7.9722 C29.0899 7.46441 27 5.1577 27 3.5 C27 1.5681 28.5681 0 30.5 0 L117.5 0 C119.432 0 121 1.5681 121 3.5 C121 5.1577 118.91 7.46441 117.332 7.9722 C105.612 11.7438 99 21 99 41 L99 737.5 C99 744.4 93.3996 750 86.5 750 L81.2801 750 C80.2259 750 68.7385 748.513 67.723 748.23 C54.6735 744.592 39 740.429 27 737 L27 732 C42 725 49 701 49 660 L49 660 Z " />
<glyph glyph-name="Nacute" unicode="&#x143;" horiz-adv-x="636" d="M226.707 816.28 L362 936 C404 974 432 1001 432 1005 C432 1018 421 1029 408 1029 C404 1029 377 1001 339 959 L219.28 823.707 C217.473 821.665 217.572 818.428 219.5 816.5 C221.428 814.572 224.665 814.473 226.707 816.28 L226.707 816.28 Z M20.328 742.286 C44.0137 737.732 65.7938 722.697 87.9141 692.688 C91.53 687.782 97.9825 667.502 97.9724 661.408 L97 77 C97 38 83 11 62 9 L58.4648 8.49497 C56.5716 8.22451 55 6.41248 55 4.5 C55 2.5681 56.5681 1 58.5 1 L153.5 1 C155.432 1 157 2.5681 157 4.5 C157 6.41248 155.428 8.22451 153.535 8.49497 L150 9 C129 11 115 39 115 78 L113.691 455.771 C113.491 513.344 187.581 534.566 217.892 485.618 L514.841 6.10109 C516.323 3.70728 521.184 1 524 1 C527.312 1 530.016 3.68819 530.036 6.99989 L534 675 C535 713 548 741 569 743 L572 743.5 C573.633 743.772 575 745.385 575 747.041 L575 747.5 C575 749.432 573.432 751 571.5 751 L478.5 751 C476.568 751 475 749.432 475 747.5 C475 745.588 476.572 743.775 478.465 743.505 L482 743 C503 741 517 714 517 675 L517.645 312.491 C517.747 254.907 443.574 233.824 413.373 282.853 L141.497 724.218 C133.744 736.805 108.328 751 93.5448 751 L19.0311 751 C16.8232 751 15.2261 749.191 15.5 747 C15.7484 745.013 18.3615 742.665 20.328 742.286 L20.328 742.286 Z M518 113 L518 113 L518 113 Z " />
<glyph glyph-name="Ncaron" unicode="&#x147;" horiz-adv-x="636" d="M455.223 1038.72 L359.013 924.889 C335.603 897.192 296.397 897.192 272.987 924.889 L176.777 1038.72 C175.249 1040.52 172.425 1040.88 170.5 1039.5 C168.57 1038.12 168.05 1035.38 169.34 1033.39 L296.476 837.351 C296.502 837.31 300.08 832.24 300.108 832.201 C304.414 826.308 310.923 817 316 817 C321.077 817 327.586 826.308 331.892 832.201 C331.92 832.24 335.498 837.31 335.524 837.351 L462.66 1033.39 C463.95 1035.38 463.43 1038.12 461.5 1039.5 C459.575 1040.88 456.751 1040.52 455.223 1038.72 L455.223 1038.72 Z M20.328 742.286 C44.0137 737.732 65.7938 722.697 87.9141 692.688 C91.53 687.782 97.9825 667.502 97.9724 661.408 L97 77 C97 38 83 11 62 9 L58.4648 8.49497 C56.5716 8.22451 55 6.41248 55 4.5 C55 2.5681 56.5681 1 58.5 1 L153.5 1 C155.432 1 157 2.5681 157 4.5 C157 6.41248 155.428 8.22451 153.535 8.49497 L150 9 C129 11 115 39 115 78 L113.691 455.771 C113.491 513.344 187.581 534.566 217.892 485.618 L514.841 6.10109 C516.323 3.70728 521.184 1 524 1 C527.312 1 530.016 3.68819 530.036 6.99989 L534 675 C535 713 548 741 569 743 L572 743.5 C573.633 743.772 575 745.385 575 747.041 L575 747.5 C575 749.432 573.432 751 571.5 751 L478.5 751 C476.568 751 475 749.432 475 747.5 C475 745.588 476.572 743.775 478.465 743.505 L482 743 C503 741 517 714 517 675 L517.645 312.491 C517.747 254.907 443.574 233.824 413.373 282.853 L141.497 724.218 C133.744 736.805 108.328 751 93.5448 751 L19.0311 751 C16.8232 751 15.2261 749.191 15.5 747 C15.7484 745.013 18.3615 742.665 20.328 742.286 L20.328 742.286 Z M518 113 L518 113 L518 113 Z " />
<glyph glyph-name="ncaron" unicode="&#x148;" horiz-adv-x="409" d="M343.222 788.717 L246.145 673.99 C222.673 646.249 183.408 646.317 160.032 674.138 L63.7669 788.707 C62.2444 790.519 59.4259 790.876 57.5 789.5 C55.5698 788.121 55.0553 785.385 56.3528 783.399 L184.521 587.263 C184.544 587.228 188.083 582.235 188.108 582.201 C192.414 576.308 198.923 567 204 567 C208.231 567 214.609 576.308 218.895 582.201 C218.918 582.232 222.458 587.231 222.479 587.263 L350.647 783.399 C351.945 785.385 351.43 788.121 349.5 789.5 C347.575 790.875 344.75 790.523 343.222 788.717 L343.222 788.717 Z M49 410 L49 41 C49 21 42.3884 11.7438 30.6679 7.9722 C29.0899 7.46441 27 5.1577 27 3.5 C27 1.5681 28.5681 0 30.5 0 L117.5 0 C119.432 0 121 1.5681 121 3.5 C121 5.1577 118.91 7.46441 117.332 7.9722 C105.612 11.7438 99 21 99 41 L99 364.078 C99 366.466 101.874 381.527 102.792 383.732 C128.007 444.29 175.65 484 226 484 C280 484 308 427 308 342 L308 41 C308 21 301.388 11.7438 289.668 7.9722 C288.09 7.46441 286 5.1577 286 3.5 C286 1.5681 287.568 0 289.5 0 L376.5 0 C378.432 0 380 1.5681 380 3.5 C380 5.1577 377.91 7.46441 376.332 7.9722 C364.612 11.7438 358 21 358 41 L358 342 C358 443 318 510 241 510 C193.15 510 146.661 475.288 116.133 419.902 C112.526 413.358 99 415.494 99 422.966 L99 487.5 C99 494.4 93.3996 500 86.5 500 L81.2801 500 C80.2259 500 68.7385 498.513 67.723 498.23 C54.6735 494.592 39 490.429 27 487 L27 482 C42 475 49 451 49 410 L49 410 Z " />
<glyph glyph-name="Omacron" unicode="&#x14c;" horiz-adv-x="763" d="M273.5 901 L486.5 901 C496.159 901 504 908.841 504 918.5 C504 928.159 496.159 936 486.5 936 L273.5 936 C263.841 936 256 928.159 256 918.5 C256 908.841 263.841 901 273.5 901 L273.5 901 Z M125 375 C125 604 227 756 379 756 C538 756 644 604 644 375 C644 146 534 -6 370 -6 C223 -6 125 146 125 375 L125 375 Z M61 375 C61 144 185 -10 370 -10 C573 -10 708 144 708 375 C708 606 577 760 380 760 C189 760 61 606 61 375 L61 375 Z " />
<glyph glyph-name="omacron" unicode="&#x14d;" horiz-adv-x="570" d="M178.5 651 L391.5 651 C401.159 651 409 658.841 409 668.5 C409 678.159 401.159 686 391.5 686 L178.5 686 C168.841 686 161 678.159 161 668.5 C161 658.841 168.841 651 178.5 651 L178.5 651 Z M100 250 C100 404 174 506 285 506 C395 506 469 404 469 250 C469 96 395 -6 285 -6 C174 -6 100 96 100 250 L100 250 Z M45 250 C45 94 141 -10 285 -10 C429 -10 525 94 525 250 C525 406 429 510 285 510 C141 510 45 406 45 250 L45 250 Z " />
<glyph glyph-name="Obreve" unicode="&#x14e;" horiz-adv-x="763" d="M274.3 990.242 C279.161 928.926 321.5 889 380 889 C438.5 889 479.889 928.926 484.702 989.315 C484.93 992.169 482.849 994.215 480 994.5 C477.471 994.753 474.77 991.184 474.432 988.664 C469.157 949.27 432.25 924 380 924 C327.75 924 290.843 950.172 285.568 989.657 C285.198 992.426 282.282 995.753 279.5 995.5 C276.365 995.215 274.051 993.38 274.3 990.242 L274.3 990.242 Z M125 375 C125 604 227 756 379 756 C538 756 644 604 644 375 C644 146 534 -6 370 -6 C223 -6 125 146 125 375 L125 375 Z M61 375 C61 144 185 -10 370 -10 C573 -10 708 144 708 375 C708 606 577 760 380 760 C189 760 61 606 61 375 L61 375 Z " />
<glyph glyph-name="obreve" unicode="&#x14f;" horiz-adv-x="570" d="M179.3 740.242 C184.161 678.926 226.5 639 285 639 C343.5 639 384.889 678.926 389.702 739.315 C389.93 742.169 387.849 744.215 385 744.5 C382.471 744.753 379.77 741.184 379.432 738.664 C374.157 699.27 337.25 674 285 674 C232.75 674 195.843 700.173 190.568 739.657 C190.198 742.426 187.282 745.753 184.5 745.5 C181.365 745.215 179.051 743.38 179.3 740.242 L179.3 740.242 Z M100 250 C100 404 174 506 285 506 C395 506 469 404 469 250 C469 96 395 -6 285 -6 C174 -6 100 96 100 250 L100 250 Z M45 250 C45 94 141 -10 285 -10 C429 -10 525 94 525 250 C525 406 429 510 285 510 C141 510 45 406 45 250 L45 250 Z " />
<glyph glyph-name="Racute" unicode="&#x154;" horiz-adv-x="590" d="M275.707 816.28 L411 936 C453 974 481 1001 481 1005 C481 1018 470 1029 457 1029 C453 1029 426 1001 388 959 L268.28 823.707 C266.473 821.665 266.572 818.428 268.5 816.5 C270.428 814.572 273.665 814.473 275.707 816.28 L275.707 816.28 Z M73.4648 742.505 L77 742 C98 740 112 713 112 674 L112 76 C112 37 98 10 77 8 L73.4648 7.49497 C71.5716 7.22451 70 5.41248 70 3.5 C70 1.5681 71.5681 0 73.5 0 L209.5 0 C211.432 0 213 1.5681 213 3.5 C213 5.41248 211.428 7.22451 209.535 7.49497 L206 8 C185 10 171 37 171 76 L171 314 C171 342.15 193.85 365 222 365 L254.972 365 C263.742 365 275.991 356.802 279.293 348.678 C298.078 302.453 345 200.625 408 72 C442 3 448 0 580 0 C581.932 0 580 1.5681 580 3.5 C580 5.42646 576.872 7.00108 574.945 7.0065 C510.784 7.18687 506.25 11.55 477 72 C413.125 203.25 364.563 303.875 341.361 351.768 C336.891 360.995 343.149 370.636 353.116 373.037 C433.374 392.37 483 445.65 483 540 C483 666 401 750 277 750 L73.5 750 C71.5681 750 70 748.432 70 746.5 C70 744.588 71.5716 742.775 73.4648 742.505 L73.4648 742.505 Z M171 433 L171 694 C171 718.287 190.713 738 215 738 L259 738 C354 738 418 664 418 552 C418 433 362 380 277 380 L224 380 C194.746 380 171 403.746 171 433 L171 433 Z " />
<glyph glyph-name="Rcaron" unicode="&#x158;" horiz-adv-x="590" d="M404.223 1038.72 L308.013 924.889 C284.603 897.192 245.397 897.192 221.987 924.889 L125.777 1038.72 C124.249 1040.52 121.425 1040.88 119.5 1039.5 C117.57 1038.12 117.05 1035.38 118.34 1033.39 L245.476 837.351 C245.502 837.31 249.08 832.24 249.108 832.201 C253.414 826.308 259.923 817 265 817 C270.077 817 276.586 826.308 280.892 832.201 C280.92 832.24 284.498 837.31 284.524 837.351 L411.66 1033.39 C412.95 1035.38 412.43 1038.12 410.5 1039.5 C408.575 1040.88 405.751 1040.52 404.223 1038.72 L404.223 1038.72 Z M73.4648 742.505 L77 742 C98 740 112 713 112 674 L112 76 C112 37 98 10 77 8 L73.4648 7.49497 C71.5716 7.22451 70 5.41248 70 3.5 C70 1.5681 71.5681 0 73.5 0 L209.5 0 C211.432 0 213 1.5681 213 3.5 C213 5.41248 211.428 7.22451 209.535 7.49497 L206 8 C185 10 171 37 171 76 L171 314 C171 342.15 193.85 365 222 365 L254.972 365 C263.742 365 275.991 356.802 279.293 348.678 C298.078 302.453 345 200.625 408 72 C442 3 448 0 580 0 C581.932 0 580 1.5681 580 3.5 C580 5.42646 576.872 7.00108 574.945 7.0065 C510.784 7.18687 506.25 11.55 477 72 C413.125 203.25 364.563 303.875 341.361 351.768 C336.891 360.995 343.149 370.636 353.116 373.037 C433.374 392.37 483 445.65 483 540 C483 666 401 750 277 750 L73.5 750 C71.5681 750 70 748.432 70 746.5 C70 744.588 71.5716 742.775 73.4648 742.505 L73.4648 742.505 Z M171 433 L171 694 C171 718.287 190.713 738 215 738 L259 738 C354 738 418 664 418 552 C418 433 362 380 277 380 L224 380 C194.746 380 171 403.746 171 433 L171 433 Z " />
<glyph glyph-name="rcaron" unicode="&#x159;" horiz-adv-x="278" d="M294.222 788.717 L197.145 673.99 C173.673 646.249 134.408 646.317 111.032 674.138 L14.7669 788.707 C13.2444 790.519 10.4259 790.876 8.5 789.5 C6.56976 788.121 6.05526 785.385 7.35285 783.399 L135.521 587.263 C135.544 587.228 139.083 582.235 139.108 582.201 C143.414 576.308 149.923 567 155 567 C159.231 567 165.609 576.308 169.895 582.201 C169.918 582.232 173.458 587.231 173.479 587.263 L301.647 783.399 C302.945 785.385 302.43 788.121 300.5 789.5 C298.575 790.875 295.75 790.523 294.222 788.717 L294.222 788.717 Z M50 410 L50 41 C50 21 43.3884 11.7438 31.6679 7.9722 C30.0899 7.46441 28 5.1577 28 3.5 C28 1.5681 29.5681 0 31.5 0 L118.5 0 C120.432 0 122 1.5681 122 3.5 C122 5.1577 119.91 7.46441 118.332 7.9722 C106.612 11.7438 100 21 100 41 L100 388.521 C100 389.27 100.71 397.432 100.874 398.162 C112.858 451.777 149.225 486 197 486 C204 486 209 472 209 451 C209 414 268 413 268 451 C268 486 249 509 220 509 C168.85 509 128.59 480.414 108.766 433.349 C107.415 430.141 99 431.154 99 434.634 L99 487.5 C99 494.4 93.3996 500 86.5 500 L81.2801 500 C80.2259 500 68.7385 498.513 67.723 498.23 C54.6735 494.592 39 490.429 27 487 L27 482 C42 475 49.5 451 49.5 410 L50 410 Z " />
<glyph glyph-name="Sacute" unicode="&#x15a;" horiz-adv-x="512" d="M267.452 816.055 L403 936 C445 974 473 1001 473 1005 C473 1018 462 1029 448 1029 C444 1029 418 1001 380 959 L261.041 823.465 C259.379 821.571 259.361 818.413 261 816.5 C262.656 814.568 265.547 814.369 267.452 816.055 L267.452 816.055 Z M267 760 C150 777 74 698 74 576 C74 490 139 403 265 344 C371 294 426 227 426 165 C426 63 369 -5 283 -5 C255 -5 227 2 200 15 C152 41 103 101 75 169 L68.1864 186.413 C67.0625 189.285 63.0841 192 60 192 C56.6882 192 54 189.312 54 186 L54 47 C54 44.7921 55.7921 43 58 43 C60.142 43 62.4506 44.8026 62.9701 46.8806 L66 59 C70 74 101 65 145 36 C164 22 184.5 11.5 206.5 1.5 C231.5 -7.5 258 -12 284 -12 C398 -12 474 65 474 181 C474 266 415 351 301 404 C182 460 120 531 120 596 C120 711 183 775 282 747 C333 731 383 681 411 617 L417.728 600.553 C418.889 597.716 422.935 595 426 595 C429.312 595 432 597.688 432 601 L432 704 C432 706.208 430.208 708 428 708 C426.025 708 423.094 706.189 422.211 704.422 L420 700 C417 695 388 707 348 729 C325 742 295.5 756 268.5 761 L267 760 Z " />
<glyph glyph-name="Scircumflex" unicode="&#x15c;" horiz-adv-x="512" d="M267 760 C150 777 74 698 74 576 C74 490 139 403 265 344 C371 294 426 227 426 165 C426 63 369 -5 283 -5 C255 -5 227 2 200 15 C152 41 103 101 75 169 L68.1864 186.413 C67.0625 189.285 63.0841 192 60 192 C56.6882 192 54 189.312 54 186 L54 47 C54 44.7921 55.7921 43 58 43 C60.142 43 62.4506 44.8026 62.9701 46.8806 L66 59 C70 74 101 65 145 36 C164 22 184.5 11.5 206.5 1.5 C231.5 -7.5 258 -12 284 -12 C398 -12 474 65 474 181 C474 266 415 351 301 404 C182 460 120 531 120 596 C120 711 183 775 282 747 C333 731 383 681 411 617 L417.728 600.553 C418.889 597.716 422.935 595 426 595 C429.312 595 432 597.688 432 601 L432 704 C432 706.208 430.208 708 428 708 C426.025 708 423.094 706.189 422.211 704.422 L420 700 C417 695 388 707 348 729 C325 742 295.5 756 268.5 761 L267 760 Z M275.895 1015.8 C271.609 1021.69 265.231 1031 261 1031 C255.923 1031 249.414 1021.69 245.108 1015.8 C245.083 1015.77 241.544 1010.77 241.521 1010.74 L113.353 814.601 C112.055 812.615 112.57 809.879 114.5 808.5 C116.426 807.124 119.244 807.481 120.767 809.293 L217.032 923.862 C240.408 951.683 279.673 951.751 303.145 924.01 L400.222 809.283 C401.75 807.477 404.575 807.125 406.5 808.5 C408.43 809.879 408.945 812.615 407.647 814.601 L279.479 1010.74 C279.458 1010.77 275.918 1015.77 275.895 1015.8 L275.895 1015.8 Z " />
<glyph glyph-name="Scaron" unicode="&#x160;" horiz-adv-x="512" d="M397.222 1038.72 L300.145 923.99 C276.673 896.249 237.408 896.317 214.032 924.138 L117.767 1038.71 C116.244 1040.52 113.426 1040.88 111.5 1039.5 C109.57 1038.12 109.055 1035.39 110.353 1033.4 L238.521 837.263 C238.544 837.228 242.083 832.235 242.108 832.201 C246.414 826.308 252.923 817 258 817 C262.231 817 268.609 826.308 272.895 832.201 C272.918 832.232 276.458 837.231 276.479 837.263 L404.647 1033.4 C405.945 1035.39 405.43 1038.12 403.5 1039.5 C401.575 1040.88 398.75 1040.52 397.222 1038.72 L397.222 1038.72 Z M267 760 C150 777 74 698 74 576 C74 490 139 403 265 344 C371 294 426 227 426 165 C426 63 369 -5 283 -5 C255 -5 227 2 200 15 C152 41 103 101 75 169 L68.1864 186.413 C67.0625 189.285 63.0841 192 60 192 C56.6882 192 54 189.312 54 186 L54 47 C54 44.7921 55.7921 43 58 43 C60.142 43 62.4506 44.8026 62.9701 46.8806 L66 59 C70 74 101 65 145 36 C164 22 184.5 11.5 206.5 1.5 C231.5 -7.5 258 -12 284 -12 C398 -12 474 65 474 181 C474 266 415 351 301 404 C182 460 120 531 120 596 C120 711 183 775 282 747 C333 731 383 681 411 617 L417.728 600.553 C418.889 597.716 422.935 595 426 595 C429.312 595 432 597.688 432 601 L432 704 C432 706.208 430.208 708 428 708 C426.025 708 423.094 706.189 422.211 704.422 L420 700 C417 695 388 707 348 729 C325 742 295.5 756 268.5 761 L267 760 Z " />
<glyph glyph-name="scaron" unicode="&#x161;" horiz-adv-x="387" d="M345.223 788.715 L249.013 674.889 C225.603 647.192 186.397 647.192 162.987 674.889 L66.7765 788.715 C65.2491 790.522 62.4255 790.875 60.5 789.5 C58.5701 788.121 58.0498 785.381 59.3403 783.391 L186.476 587.351 C186.502 587.31 190.08 582.24 190.108 582.201 C194.414 576.308 200.923 567 206 567 C211.077 567 217.586 576.308 221.892 582.201 C221.92 582.24 225.498 587.31 225.524 587.351 L352.66 783.391 C353.95 785.381 353.43 788.121 351.5 789.5 C349.575 790.875 346.751 790.522 345.223 788.715 L345.223 788.715 Z M309 392 L309 462.464 C309 464.396 307.412 465.773 305.5 465.5 C304.727 465.39 302.857 466.497 302.795 467.275 C302.243 474.203 278.209 485.104 239.906 496.908 C239.655 496.986 226.844 502.167 226.605 502.276 C214.361 507.877 201.25 510.3 188.5 512 C111.5 518 61 465 61 390 C61 324 106 264 193 232 C262 207 298 159 298 108 C298 40 261 -6 205 -6 C186.667 -6 170.014 0.302083 156.582 7.51447 C156.379 7.62358 149.317 10.9323 149.102 11.0159 L148.5 11.25 C147.698 11.5621 139.774 16.0552 139.089 16.576 C108.235 40.0125 82.3 78.25 69 121 L66.0252 129.181 C65.4934 130.643 63.5562 132 62 132 C60.3441 132 59 130.656 59 129 L59 47 C59 45.3441 60.3441 44 62 44 L62.0845 44 C63.4644 44 65.79 45.3167 66.5 46.5 L68 49 C66.05 45.1 94.52 27.8912 140.434 7.5692 C140.598 7.49662 148.03 3.49075 148.186 3.401 C155.911 -1.06509 163.885 -3.96154 171.5 -6.5 C181.5 -9.5 193 -9 204 -9 C283 -9 335 43 335 122 C335 185 294 241 215 270 C136 299 96 351 96 407 C96 468 128 508 176 508 C177 508 186 508 186 507 C194 506 201.5 503 209.5 500 C215.5 498 221 495 227 492 C258 474 284 441 297 399 L299.633 391.759 C300.342 389.809 302.925 388 305 388 C307.208 388 309 389.792 309 392 L309 392 Z " />
<glyph glyph-name="Tcaron" unicode="&#x164;" horiz-adv-x="740" d="M505.223 1038.72 L409.013 924.889 C385.603 897.192 346.397 897.192 322.987 924.889 L226.777 1038.72 C225.249 1040.52 222.425 1040.88 220.5 1039.5 C218.57 1038.12 218.05 1035.38 219.34 1033.39 L346.476 837.351 C346.502 837.31 350.08 832.24 350.108 832.201 C354.414 826.308 360.923 817 366 817 C371.077 817 377.586 826.308 381.892 832.201 C381.92 832.24 385.498 837.31 385.524 837.351 L512.66 1033.39 C513.95 1035.38 513.43 1038.12 511.5 1039.5 C509.575 1040.88 506.751 1040.52 505.223 1038.72 L505.223 1038.72 Z M679.875 752.25 C679.266 752.368 673.106 752.529 672.491 752.444 C648.955 749.195 600.6 751 536 751 L203 751 C137.45 751 89.95 749.195 66.5016 752.444 C66.3008 752.472 59.7028 753 59.5 753 C57.5768 753 55.8505 751.43 55.6682 749.516 L55.5 747.75 C55.4229 746.94 53.6393 739.143 53.3355 738.388 C43.2645 713.364 31.7355 682.184 21.6645 657.969 C20.7896 655.865 22.2217 654 24.5 654 C26.5422 654 30.399 656.021 31.5614 657.7 L38 667 C68 708 128 736 188 736 L285.68 736 C316.767 736 342 710.767 342 679.68 L342 77 C342 38 328 11 307 9 L303.465 8.49497 C301.572 8.22451 300 6.41248 300 4.5 C300 2.5681 301.568 1 303.5 1 L439.5 1 C441.432 1 443 2.5681 443 4.5 C443 6.41248 441.428 8.22451 439.535 8.49497 L436 9 C415 11 401 38 401 77 L401 679.68 C401 710.767 426.233 736 457.32 736 L548 736 C608 736 668 708 699 667 L705.439 657.7 C706.601 656.021 710.458 654 712.5 654 C714.823 654 716.371 655.677 715.559 657.854 C707.522 679.394 697.718 706.411 688.113 729.737 C687.518 731.181 685.694 741.439 685.75 743 L685.859 746.056 C685.936 748.207 681.988 751.841 679.875 752.25 L679.875 752.25 Z " />
<glyph glyph-name="tcaron" unicode="&#x165;" horiz-adv-x="317" d="M264 500 L196.389 500 C165.82 500 140.586 524.817 140.077 555.381 L140 560 C139.615 583.103 113.702 593.134 97.8611 576.313 L29.4278 503.64 C28.1307 502.263 26 496.892 26 495 C26 492.24 28.2402 490 31 490 L58.5 490 C76.439 490 91 475.439 91 457.5 L91 129 C91 29 134 -10 199 -10 C233.125 -10 274.855 19.4694 304.726 64.5052 C305.63 65.8687 305.903 68.6582 304.5 69.5 C303.151 70.3097 301.208 69.774 300.326 68.4708 C278.253 35.8644 244.225 14 214 14 C169 14 139 43 139 118 L140.685 417.996 C140.859 448.908 166.092 474 197.004 474 L264 474 C271.176 474 277 479.824 277 487 C277 494.176 271.176 500 264 500 L264 500 Z M360 759 C349 759 340 697 336 652 L325.398 545.011 C325.178 542.798 326.793 540.776 329 540.5 C331.186 540.227 333.478 541.764 334.055 543.891 L362 647 C374 690 382 732 382 752 C382 757 373 759 360 759 L360 759 Z " />
<glyph glyph-name="Utilde" unicode="&#x168;" horiz-adv-x="568" d="M166.382 892.979 L170.357 892.524 C170.357 892.524 169.341 891.649 169.341 891.649 C173.495 920.304 187.025 938 206 938 C250 938 310 873 354 873 C383.7 873 403.275 903.78 406.893 951.489 C406.893 951.489 408.364 950.391 408.364 950.391 L404.402 950.942 C404.402 950.942 405.872 949.845 405.872 949.845 C401.009 924.158 385.692 908 366 908 C321 908 262 973 217 973 C189.875 973 171.555 942.375 167.398 893.854 C167.398 893.854 166.382 892.979 166.382 892.979 L170.357 892.524 C170.357 892.524 169.341 891.649 169.341 891.649 L166.382 892.979 Z M535.535 27.505 L532 27 C511 24 497 47 497 86 L497 735.491 C497 743.495 490.499 750.224 482.5 750.5 L468 751 L400.5 751.951 C398.568 751.978 397 750.432 397 748.5 C397 746.588 398.572 744.775 400.465 744.505 L404 744 C425 742 439 715 439 676 L439 181.304 C439 177.655 434.511 159.691 432.795 156.471 C391.29 78.54 308.45 28 222 28 C170 28 136 102 136 213 L136 735.491 C136 743.495 129.499 750.224 121.5 750.5 L107 751 L38.4997 751.951 C36.5681 751.978 35 750.432 35 748.5 C35 746.588 36.5716 744.775 38.4648 744.505 L42 744 C63 742 77 715 77 676 L77 213 C77 79 126 -10 199 -10 C282.325 -10 362.247 31.5181 411.813 97.7089 C418.533 106.682 439 103.434 439 92.2235 L439 14.5 C439 6.49644 445.496 0 453.5 0 L459.916 0 C461.171 0 474.553 1.92072 475.757 2.27372 L497 8.5 L535.645 20.0016 C537.42 20.5298 539 22.6484 539 24.5 C539 26.4125 537.428 27.7755 535.535 27.505 L535.535 27.505 Z " />
<glyph glyph-name="utilde" unicode="&#x169;" horiz-adv-x="385" d="M71.3825 641.979 L75.3566 641.524 C75.3566 641.524 74.3406 640.649 74.3406 640.649 C78.495 669.304 92.025 687 111 687 C155 687 215 622 259 622 C288.7 622 308.275 652.78 311.893 700.489 C311.893 700.489 313.364 699.391 313.364 699.391 L309.402 699.942 C309.402 699.942 310.872 698.845 310.872 698.845 C306.009 673.158 290.692 657 271 657 C226 657 167 722 122 722 C94.875 722 76.5547 691.375 72.3984 642.854 C72.3984 642.854 71.3825 641.979 71.3825 641.979 L75.3566 641.524 C75.3566 641.524 74.3406 640.649 74.3406 640.649 L71.3825 641.979 Z M371 23 L366 23 C350 21 339 45 339 84 L339 487.498 C339 494.397 333.398 500.112 326.5 500.25 L314 500.5 L270.5 500.963 C268.568 500.983 267 499.432 267 497.5 C267 495.842 269.09 493.536 270.668 493.028 C282.388 489.256 289 480 289 460 L289 139.731 C289 136.675 286.146 121.623 284.825 118.867 C257.602 62.1 215.85 26 175 26 C126 26 94 78 94 156 L94 465 C94 484.871 77.8709 501 58 501 L25.5 501 C23.5681 501 22 499.432 22 497.5 C22 495.842 24.0899 493.536 25.6679 493.028 C37.3884 489.256 44 480 44 460 L44 156 C44 57 87 -9 152 -9 C193.25 -9 236.542 27.0731 269.522 85.1815 C274.028 93.1198 289 90.2046 289 81.0768 L289 13.5 C289 6.60037 294.6 1 301.5 1 L310.838 1 C311.571 1 316.95 2.07411 317.633 2.34035 C322.251 4.13899 328.047 6.56349 333.474 7.55222 C333.554 7.56678 341.763 9.09259 341.841 9.11524 L365.963 16.1183 C367.343 16.5188 369.546 18.6374 370 20 L371 23 L371 23 Z " />
<glyph glyph-name="Umacron" unicode="&#x16a;" horiz-adv-x="568" d="M180.5 903 L393.5 903 C403.159 903 411 910.841 411 920.5 C411 930.159 403.159 938 393.5 938 L180.5 938 C170.841 938 163 930.159 163 920.5 C163 910.841 170.841 903 180.5 903 L180.5 903 Z M535.535 27.505 L532 27 C511 24 497 47 497 86 L497 735.491 C497 743.495 490.499 750.224 482.5 750.5 L468 751 L400.5 751.951 C398.568 751.978 397 750.432 397 748.5 C397 746.588 398.572 744.775 400.465 744.505 L404 744 C425 742 439 715 439 676 L439 181.304 C439 177.655 434.511 159.691 432.795 156.471 C391.29 78.54 308.45 28 222 28 C170 28 136 102 136 213 L136 735.491 C136 743.495 129.499 750.224 121.5 750.5 L107 751 L38.4997 751.951 C36.5681 751.978 35 750.432 35 748.5 C35 746.588 36.5716 744.775 38.4648 744.505 L42 744 C63 742 77 715 77 676 L77 213 C77 79 126 -10 199 -10 C282.325 -10 362.247 31.5181 411.813 97.7089 C418.533 106.682 439 103.434 439 92.2235 L439 14.5 C439 6.49644 445.496 0 453.5 0 L459.916 0 C461.171 0 474.553 1.92072 475.757 2.27372 L497 8.5 L535.645 20.0016 C537.42 20.5298 539 22.6484 539 24.5 C539 26.4125 537.428 27.7755 535.535 27.505 L535.535 27.505 Z " />
<glyph glyph-name="umacron" unicode="&#x16b;" horiz-adv-x="385" d="M85.5 652 L298.5 652 C308.159 652 316 659.841 316 669.5 C316 679.159 308.159 687 298.5 687 L85.5 687 C75.8405 687 68 679.159 68 669.5 C68 659.841 75.8405 652 85.5 652 L85.5 652 Z M371 23 L366 23 C350 21 339 45 339 84 L339 487.498 C339 494.397 333.398 500.112 326.5 500.25 L314 500.5 L270.5 500.963 C268.568 500.983 267 499.432 267 497.5 C267 495.842 269.09 493.536 270.668 493.028 C282.388 489.256 289 480 289 460 L289 139.731 C289 136.675 286.146 121.623 284.825 118.867 C257.602 62.1 215.85 26 175 26 C126 26 94 78 94 156 L94 465 C94 484.871 77.8709 501 58 501 L25.5 501 C23.5681 501 22 499.432 22 497.5 C22 495.842 24.0899 493.536 25.6679 493.028 C37.3884 489.256 44 480 44 460 L44 156 C44 57 87 -9 152 -9 C193.25 -9 236.542 27.0731 269.522 85.1815 C274.028 93.1198 289 90.2046 289 81.0768 L289 13.5 C289 6.60037 294.6 1 301.5 1 L310.838 1 C311.571 1 316.95 2.07411 317.633 2.34035 C322.251 4.13899 328.047 6.56349 333.474 7.55222 C333.554 7.56678 341.763 9.09259 341.841 9.11524 L365.963 16.1183 C367.343 16.5188 369.546 18.6374 370 20 L371 23 L371 23 Z " />
<glyph glyph-name="Ubreve" unicode="&#x16c;" horiz-adv-x="568" d="M181.3 992.242 C186.161 930.926 228.5 891 287 891 C345.5 891 386.889 930.926 391.702 991.315 C391.93 994.169 389.849 996.215 387 996.5 C384.471 996.753 381.77 993.184 381.432 990.664 C376.157 951.27 339.25 926 287 926 C234.75 926 197.843 952.173 192.568 991.657 C192.198 994.426 189.282 997.753 186.5 997.5 C183.365 997.215 181.051 995.38 181.3 992.242 L181.3 992.242 Z M535.535 27.505 L532 27 C511 24 497 47 497 86 L497 735.491 C497 743.495 490.499 750.224 482.5 750.5 L468 751 L400.5 751.951 C398.568 751.978 397 750.432 397 748.5 C397 746.588 398.572 744.775 400.465 744.505 L404 744 C425 742 439 715 439 676 L439 181.304 C439 177.655 434.511 159.691 432.795 156.471 C391.29 78.54 308.45 28 222 28 C170 28 136 102 136 213 L136 735.491 C136 743.495 129.499 750.224 121.5 750.5 L107 751 L38.4997 751.951 C36.5681 751.978 35 750.432 35 748.5 C35 746.588 36.5716 744.775 38.4648 744.505 L42 744 C63 742 77 715 77 676 L77 213 C77 79 126 -10 199 -10 C282.325 -10 362.247 31.5181 411.813 97.7089 C418.533 106.682 439 103.434 439 92.2235 L439 14.5 C439 6.49644 445.496 0 453.5 0 L459.916 0 C461.171 0 474.553 1.92072 475.757 2.27372 L497 8.5 L535.645 20.0016 C537.42 20.5298 539 22.6484 539 24.5 C539 26.4125 537.428 27.7755 535.535 27.505 L535.535 27.505 Z " />
</font>
</svg>
