<?xml version="1.0" encoding="UTF-8"?>
<svg xmlns="http://www.w3.org/2000/svg" xmlns:xlink="http://www.w3.org/1999/xlink" version="1.2" >
<font id="Warick Regular">
<font-face  font-family="Warick" units-per-em="1024" ascent="975" descent="-300" font-style="normal" font-weight="400" font-stretch="normal" cap-height="1043" x-height="488" underline-position="-125" underline-thickness="50" />
<missing-glyph  horiz-adv-x="100" d="" />
<glyph glyph-name="NULL" d="" />
<glyph glyph-name="CR" unicode="&#xd;" horiz-adv-x="256" d="" />
<glyph glyph-name="space" unicode="&#x20;" horiz-adv-x="207" d="" />
<glyph glyph-name="exclam" unicode="&#x21;" horiz-adv-x="220" d="M110 -5 C138 -5 156 13 156 41 C156 69 138 88 110 88 C82 88 64 69 64 41 C64 13 82 -5 110 -5 L110 -5 Z M110 755 C79 755 66 717 70 661 L104 210 L116 210 L150 661 C154 717 141 755 110 755 L110 755 Z " />
<glyph glyph-name="quotedbl" unicode="&#x22;" horiz-adv-x="290" d="M214 750 C199 750 191 732 195 705 L218 560 L226 560 L249 705 C253 732 245 750 230 750 L214 750 L214 750 Z M94 750 C79 750 71 732 75 705 L98 560 L106 560 L129 705 C133 732 125 750 110 750 L94 750 L94 750 Z " />
<glyph glyph-name="numbersign" unicode="&#x23;" horiz-adv-x="485" d="M359 675 L331 485 L200 485 L228 675 L221 675 L193 485 L65 485 L58 435 L186 435 L156 225 L26 225 L18 175 L148 175 L123 0 L130 0 L155 175 L286 175 L261 0 L268 0 L293 175 L412 175 L419 225 L301 225 L331 435 L458 435 L465 485 L338 485 L366 675 L359 675 L359 675 Z M193 435 L324 435 L294 225 L163 225 L193 435 L193 435 Z " />
<glyph glyph-name="dollar" unicode="&#x24;" horiz-adv-x="513" d="M51 195 L51 43 L59 43 L63 59 C67 74 99 64 144 34 C161 22 179 13 198 4 L199 5 C201 4 203 3 205 2 L205 -76 L228 -76 L228 -5 C247 -10 265 -12 285 -11 L285 -76 L308 -76 L308 -9 C408 4 473 79 473 187 C473 277 417 362 308 411 L308 736 C348 713 387 669 412 616 L421 595 L433 595 L433 711 L425 711 L421 703 C416 692 335 739 309 751 L309 825 L286 825 L286 760 C283 761 280 762 277 763 L275 757 C260 759 245 760 229 759 L229 824 L206 824 L206 756 C123 742 70 671 70 569 C70 489 116 411 206 358 L206 13 C153 39 105 101 73 172 L64 193 L51 195 L51 195 Z M64 151 L64 151 L64 151 L64 151 Z M229 345 C247 336 268 328 286 319 L286 -4 C265 -5 248 -2 229 4 L229 345 L229 345 Z M309 307 C378 266 413 215 413 166 C413 79 372 16 309 1 L309 307 L309 307 Z M229 453 L229 755 C249 757 267 754 285 748 L285 423 C264 433 245 444 228 455 L229 453 L229 453 Z M205 472 C155 512 129 558 129 603 C129 680 159 736 205 753 L205 472 L205 472 Z " />
<glyph glyph-name="ampersand" unicode="&#x26;" horiz-adv-x="289" d="M310 472 L318 464 C413 493 477 552 477 612 C477 701 412 760 315 760 C216 760 150 696 150 601 C150 565 188 513 248 440 L246 441 C125 404 45 308 45 200 C45 74 125 -10 245 -10 C334 -10 427 41 512 131 C522 119 532 107 542 94 C595 31 658 -11 699 -11 C767 -11 820 52 832 146 L820 150 C812 86 775 43 726 43 C693 43 643 77 600 128 C584 147 569 165 555 182 C621 266 680 374 725 499 L709 499 C665 378 606 275 540 198 C412 350 338 433 338 433 C258 528 205 593 205 635 C205 700 248 744 313 744 C378 744 422 692 422 615 C422 550 376 492 308 471 L310 472 L310 472 Z M494 150 C426 86 352 50 281 50 C180 50 112 118 112 219 C112 321 168 406 251 434 C298 377 322 354 494 150 L494 150 Z " />
<glyph glyph-name="quotesingle" unicode="&#x27;" horiz-adv-x="188" d="M94 750 C79 750 71 732 75 705 L98 560 L106 560 L129 705 C133 732 125 750 110 750 L94 750 L94 750 Z " />
<glyph glyph-name="parenleft" unicode="&#x28;" horiz-adv-x="370" d="M320 760 C188 671 100 476 100 273 C100 77 185 -118 313 -214 L317 -207 C214 -130 146 62 146 273 C146 489 217 681 324 753 L320 760 L320 760 Z " />
<glyph glyph-name="parenright" unicode="&#x29;" horiz-adv-x="370" d="M26 752 C160 665 250 473 250 273 C250 70 163 -122 33 -207 L37 -214 C192 -113 296 82 296 273 C296 462 190 656 30 760 L26 752 L26 752 Z " />
<glyph glyph-name="asterisk" unicode="&#x2a;" horiz-adv-x="282" d="M266 673 L266 673 L266 673 Z M266 673 C298 684 272 730 246 706 C246 706 260 682 266 672 L266 673 L266 673 Z M265 672 L245 707 L151 630 L151 630 L151 630 L171 749 C174 765 166 775 151 775 C136 775 128 765 131 749 L151 630 L57 707 L57 706 C45 717 32 715 25 702 C17 689 22 677 37 672 L150 629 L38 587 L58 552 L151 628 L131 509 C128 493 136 483 151 483 C166 483 174 493 171 509 C165 549 157 590 151 629 L245 552 C257 541 270 543 278 556 C286 569 281 581 266 586 C266 586 252 562 246 552 L245 552 L265 587 L153 629 L265 672 L265 672 Z M58 552 C52 562 38 586 38 586 C5 575 32 528 58 552 L58 552 Z " />
<glyph glyph-name="plus" unicode="&#x2b;" horiz-adv-x="586" d="M268 443 L268 273 L100 273 L100 227 L268 227 L268 57 L318 57 L318 227 L486 227 L486 273 L318 273 L318 443 L268 443 L268 443 Z " />
<glyph glyph-name="comma" unicode="&#x2c;" horiz-adv-x="259" d="M173 37 C192 -46 143 -107 64 -107 L64 -111 C138 -111 188 -63 188 10 C188 54 175 88 154 104 C146 111 136 115 124 115 C88 115 64 91 64 55 C64 19 88 -5 124 -5 C149 -5 167 11 173 37 L173 37 Z " />
<glyph glyph-name="hyphen" unicode="&#x2d;" horiz-adv-x="396" d="M80 258 L316 258 L316 312 L80 312 L80 258 L80 258 Z " />
<glyph glyph-name="period" unicode="&#x2e;" horiz-adv-x="195" d="M125 -5 C153 -5 171 13 171 41 C171 69 153 88 125 88 C97 88 79 69 79 41 C79 13 97 -5 125 -5 L125 -5 Z " />
<glyph glyph-name="slash" unicode="&#x2f;" horiz-adv-x="383" d="M315 770 L33 -80 L71 -80 L353 770 L315 770 L315 770 Z " />
<glyph glyph-name="zero" unicode="0" horiz-adv-x="608" d="M78 250 C78 376 169 483 305 483 C428 483 532 390 532 250 C532 124 441 17 305 17 C182 17 78 110 78 250 L78 250 Z M47 250 C47 94 166 -10 305 -10 C460 -10 563 110 563 250 C563 406 444 510 305 510 C150 510 47 390 47 250 L47 250 Z " />
<glyph glyph-name="one" unicode="1" horiz-adv-x="212" d="M181 7 L174 8 C153 10 139 37 139 76 L139 424 C139 463 153 490 174 492 L181 493 L181 500 L31 500 L31 493 L38 492 C59 490 73 463 73 424 L73 76 C73 37 59 10 38 8 L31 7 L31 0 L181 0 L181 7 L181 7 Z " />
<glyph glyph-name="two" unicode="2" horiz-adv-x="499" d="M338 58 L136 58 C286 146 399 244 399 344 C399 444 338 510 246 510 C151 510 70 424 45 294 L58 291 C78 392 139 460 212 460 C285 460 334 408 334 329 C334 226 239 135 113 58 C89 58 81 48 62 28 C49 21 36 14 22 7 L29 1 C27 0 25 -1 23 -1 L395 -1 L431 57 C431 57 444 76 445 77 L444 77 C442 78 442 79 442 79 C428 65 395 57 341 57 L338 58 L338 58 Z " />
<glyph glyph-name="three" unicode="3" horiz-adv-x="386" d="M18 -219 L20 -232 C216 -211 346 -118 346 2 C346 100 270 169 152 180 C268 237 342 306 342 385 C342 460 284 510 197 510 C114 510 44 446 22 351 L37 347 C53 417 107 464 171 464 C232 464 272 423 272 362 C272 284 214 225 125 181 C117 181 117 182 113 175 C108 173 103 171 98 169 L98 155 C99 155 100 155 101 155 C100 154 99 154 98 154 C206 139 278 70 278 -17 C278 -122 175 -203 20 -219 L18 -219 L18 -219 Z " />
<glyph glyph-name="four" unicode="4" horiz-adv-x="555" d="M519 -12 L528 -12 C530 -1 532 14 534 25 L533 25 C536 40 539 60 541 75 C532 77 532 78 528 73 C519 59 490 50 455 50 L380 50 L380 530 L372 530 L14 12 L14 0 L314 0 L314 -220 L380 -220 L380 0 L448 0 C486 0 510 -4 518 -12 L519 -12 L519 -12 Z M314 406 L314 50 L71 50 L314 406 L314 406 Z " />
<glyph glyph-name="five" unicode="5" horiz-adv-x="397" d="M236 500 L92 500 L46 213 L58 203 L87 203 C221 203 310 132 310 26 C310 -104 210 -203 59 -221 L60 -233 C244 -210 367 -98 367 49 C367 183 258 272 94 272 L78 272 L104 441 L307 443 L317 500 C318 504 319 508 320 512 L311 512 C302 503 274 500 237 500 L236 500 L236 500 Z " />
<glyph glyph-name="six" unicode="6" horiz-adv-x="533" d="M516 750 C239 691 55 507 55 289 C55 110 143 -10 275 -10 C399 -10 481 90 481 239 C481 372 397 461 272 461 C213 461 166 434 138 388 C185 565 326 699 519 740 L516 750 L516 750 Z M121 254 C121 375 181 456 271 456 C359 456 417 371 417 243 C417 94 360 -5 275 -5 C183 -5 121 99 121 254 L121 254 Z " />
<glyph glyph-name="seven" unicode="7" horiz-adv-x="406" d="M142 446 L377 446 L383 456 L109 -220 L160 -220 L401 485 L401 500 L163 500 C124 500 99 501 92 504 L83 504 C82 503 81 502 80 501 L79 501 L72 482 C71 479 70 476 69 474 L70 474 L60 447 L61 447 C59 442 57 437 55 432 C60 432 64 430 64 430 C75 441 104 447 144 447 L142 446 L142 446 Z " />
<glyph glyph-name="eight" unicode="8" horiz-adv-x="509" d="M207 382 C216 377 225 372 235 368 C344 320 417 274 417 202 C417 77 353 -6 256 -6 C163 -6 101 66 101 174 C101 265 142 344 207 381 L207 382 L207 382 Z M201 384 C105 339 43 258 43 174 C43 64 128 -10 255 -10 C383 -10 468 64 468 175 C468 299 400 362 295 414 C384 456 441 527 441 597 C441 695 366 760 253 760 C142 760 68 689 68 582 C68 500 120 430 201 385 L201 384 L201 384 Z M289 416 C280 420 270 424 260 428 C176 465 120 529 120 605 C120 696 174 757 256 757 C333 757 385 691 385 591 C385 516 347 449 288 415 L289 416 L289 416 Z " />
<glyph glyph-name="nine" unicode="9" horiz-adv-x="533" d="M17 -250 C294 -191 478 -7 478 211 C478 390 390 510 258 510 C134 510 52 410 52 261 C52 128 136 39 261 39 C320 39 367 66 395 112 C348 -65 207 -199 14 -240 L17 -250 L17 -250 Z M412 246 C412 125 352 44 262 44 C174 44 116 129 116 257 C116 406 173 505 258 505 C350 505 412 401 412 246 L412 246 Z " />
<glyph glyph-name="colon" unicode="&#x3a;" horiz-adv-x="135" d="M125 385 C153 385 171 403 171 431 C171 459 153 478 125 478 C97 478 79 459 79 431 C79 403 97 385 125 385 L125 385 Z M125 -5 C153 -5 171 13 171 41 C171 69 153 88 125 88 C97 88 79 69 79 41 C79 13 97 -5 125 -5 L125 -5 Z " />
<glyph glyph-name="semicolon" unicode="&#x3b;" horiz-adv-x="259" d="M125 385 C153 385 171 403 171 431 C171 459 153 478 125 478 C97 478 79 459 79 431 C79 403 97 385 125 385 L125 385 Z M173 37 C192 -46 143 -107 64 -107 L64 -111 C138 -111 188 -63 188 10 C188 54 175 88 154 104 C146 111 136 115 124 115 C88 115 64 91 64 55 C64 19 88 -5 124 -5 C149 -5 167 11 173 37 L173 37 Z " />
<glyph glyph-name="equal" unicode="&#x3d;" horiz-adv-x="496" d="M80 215 L80 185 L426 185 L426 215 L80 215 L80 215 Z M80 315 L80 285 L426 285 L426 315 L80 315 L80 315 Z " />
<glyph glyph-name="question" unicode="&#x3f;" horiz-adv-x="302" d="M125 -5 C153 -5 171 13 171 41 C171 69 153 88 125 88 C97 88 79 69 79 41 C79 13 97 -5 125 -5 L125 -5 Z M123 191 C123 191 124 360 125 360 C213 360 247 396 283 449 C300 475 312 517 312 554 C312 678 245 760 145 760 C108 760 83 740 83 711 C83 692 97 679 119 679 C134 679 154 691 169 691 C243 691 292 633 292 546 C292 528 282 501 268 480 C246 448 219 426 102 426 C107 428 111 191 111 191 L123 191 L123 191 Z " />
<glyph glyph-name="at" unicode="&#x40;" horiz-adv-x="1097" d="M991 0 C924 -143 750 -239 556 -239 C286 -239 106 -40 106 259 C106 557 283 755 549 755 C814 755 991 590 991 343 C991 141 918 6 808 6 C703 6 652 84 681 200 L751 480 L689 480 L668 396 C655 454 612 490 553 490 C390 490 281 372 281 195 C281 85 345 11 442 11 C513 11 576 54 612 124 C619 37 686 -17 796 -17 C944 -17 1042 127 1042 343 C1042 602 845 774 549 774 C253 774 55 568 55 259 C55 -46 261 -250 570 -250 C766 -250 943 -150 1013 0 L991 0 L991 0 Z M658 356 L619 200 C596 108 538 47 475 47 C402 47 353 111 353 207 C353 366 432 472 551 472 C615 472 658 425 658 356 L658 356 Z " />
<glyph glyph-name="A" unicode="A" horiz-adv-x="597" d="M165 9 L151 10 C108 13 91 57 107 122 L154 294 L384 294 L433 120 C448 56 432 13 389 10 L375 9 L375 0 L597 0 L597 9 L589 10 C564 13 535 54 515 116 L341 727 C341 727 333 770 329 770 L321 770 C325 750 301 732 263 727 L266 717 L105 129 C85 61 42 13 -5 10 L-19 9 L-19 0 L168 0 L165 9 L165 9 Z M157 299 L269 709 L384 299 L157 299 L157 299 Z " />
<glyph glyph-name="B" unicode="B" horiz-adv-x="562" d="M298 2 L248 2 C210 2 184 42 184 101 L184 385 L316 385 C389 385 437 309 437 195 C437 39 381 2 298 2 L298 2 Z M65 741 L72 740 C93 737 107 710 107 671 L107 79 C107 40 93 13 72 10 L65 9 L65 0 L304 0 C435 0 522 37 522 195 C522 309 447 386 334 388 C436 405 501 473 501 569 C501 677 454 749 254 749 L65 749 L65 741 L65 741 Z M282 388 L184 388 L184 745 L246 745 C390 745 424 671 424 560 C424 457 367 388 282 388 L282 388 Z " />
<glyph glyph-name="C" unicode="C" horiz-adv-x="678" d="M624 621 L624 621 L624 621 L624 621 Z M624 129 L624 129 L624 129 L624 129 Z M633 45 L633 174 L621 174 L612 156 C586 107 542 60 497 32 C458 9 416 -4 369 -4 C232 -4 140 148 140 376 C140 604 236 756 379 756 C416 756 448 748 477 734 C526 710 580 654 611 595 L620 577 L632 577 L632 703 L624 703 L620 691 C616 679 584 689 541 716 C498 744 447 760 376 760 C183 760 54 606 54 375 C54 144 179 -10 366 -10 C436 -10 492 8 539 38 C583 63 614 71 619 58 L623 45 L633 45 L633 45 Z " />
<glyph glyph-name="D" unicode="D" horiz-adv-x="742" d="M244 4 C190 4 184 40 184 94 L184 746 L267 746 C489 746 603 598 603 375 C603 130 459 4 244 4 L244 4 Z M65 743 L72 742 C93 740 107 713 107 674 L107 76 C107 37 93 10 72 8 L65 7 L65 0 L250 0 C512 0 687 128 687 375 C687 600 550 750 283 750 L65 750 L65 743 L65 743 Z " />
<glyph glyph-name="E" unicode="E" horiz-adv-x="535" d="M400 293 L400 482 L391 482 L387 468 C373 421 326 390 269 390 L184 390 L184 746 L330 746 C387 746 438 715 458 668 L464 654 L473 654 C469 682 464 720 461 748 L460 748 L460 750 L45 750 L45 743 L55 742 C86 740 107 705 107 654 L107 96 C107 45 86 10 55 8 L45 7 L45 0 L485 0 L485 2 L486 2 C491 27 497 61 501 86 L492 86 L486 73 C465 32 403 4 331 4 L278 4 C193 4 184 40 184 94 L184 385 L269 385 C326 385 373 354 387 307 L391 293 L400 293 L400 293 Z " />
<glyph glyph-name="F" unicode="F" horiz-adv-x="510" d="M390 293 L390 482 L381 482 L377 468 C363 421 316 390 259 390 L184 390 L184 746 L329 746 C386 746 437 715 457 668 L463 654 L472 654 C468 682 463 720 460 748 L460 750 L45 750 L45 743 L55 742 C86 740 107 705 107 654 L107 96 C107 45 86 10 55 8 L45 7 L45 0 L246 0 L246 7 L236 8 C205 10 184 45 184 96 L184 385 L259 385 C316 385 363 354 377 307 L381 293 L390 293 L390 293 Z " />
<glyph glyph-name="G" unicode="G" horiz-adv-x="713" d="M633 576 L633 702 L625 702 L621 690 C617 678 585 688 542 715 C499 743 448 759 377 759 C184 759 55 605 55 374 C55 143 183 -11 375 -11 C454 -11 521 1 584 21 L614 28 L614 31 C639 40 664 50 688 61 L686 64 C663 54 639 45 613 37 L613 211 C613 271 631 312 657 315 L665 316 L665 325 L484 325 L484 316 L492 315 C518 312 536 271 536 211 C536 168 536 120 536 82 C529 35 471 5 386 5 C238 5 139 153 139 374 C139 602 235 754 378 754 C415 754 447 746 476 732 C525 708 579 652 610 593 L619 575 L633 576 L633 576 Z M622 620 L622 620 L622 620 L622 620 Z M422 6 C410 6 398 6 385 6 C395 6 408 6 422 6 L422 6 Z " />
<glyph glyph-name="H" unicode="H" horiz-adv-x="710" d="M651 7 L644 8 C623 10 609 37 609 76 L609 674 C609 713 623 740 644 742 L651 743 L651 750 L490 750 L490 743 L497 742 C518 740 532 713 532 674 L532 388 L220 388 L220 674 C220 713 234 740 255 742 L262 743 L262 750 L101 750 L101 743 L108 742 C129 740 143 713 143 674 L143 76 C143 37 129 10 108 8 L101 7 L101 0 L262 0 L262 7 L255 8 C234 10 220 37 220 76 L220 383 L532 383 L532 76 C532 37 518 10 497 8 L490 7 L490 0 L651 0 L651 7 L651 7 Z " />
<glyph glyph-name="I" unicode="I" horiz-adv-x="286" d="M227 7 L220 8 C199 10 185 37 185 76 L185 674 C185 713 199 740 220 742 L227 743 L227 750 L66 750 L66 743 L73 742 C94 740 108 713 108 674 L108 76 C108 37 94 10 73 8 L66 7 L66 0 L227 0 L227 7 L227 7 Z " />
<glyph glyph-name="J" unicode="J" horiz-adv-x="286" d="M227 750 L66 750 L66 743 L73 742 C94 740 108 713 108 674 L108 -51 C108 -187 43 -213 -4 -213 C-42 -213 -24 -151 -62 -151 C-83 -151 -97 -165 -97 -186 C-97 -206 -62 -220 -9 -220 C72 -220 185 -170 185 95 L185 674 C185 713 199 740 220 742 L227 743 L227 750 L227 750 Z " />
<glyph glyph-name="K" unicode="K" horiz-adv-x="610" d="M605 7 C576 11 549 28 517 67 L240 425 L417 662 C453 708 497 739 529 741 L539 742 L539 749 L341 749 L341 742 L357 741 C409 739 412 694 366 627 L185 374 L185 673 C185 712 199 739 220 741 L227 742 L227 749 L66 749 L66 742 L73 741 C94 739 108 712 108 673 L108 75 C108 36 94 9 73 7 L66 6 L66 -1 L227 -1 L227 6 L220 7 C199 9 185 36 185 75 L185 374 L474 -1 L606 -1 L605 7 L605 7 Z " />
<glyph glyph-name="L" unicode="L" horiz-adv-x="508" d="M227 750 L66 750 L66 743 L73 742 C94 740 108 713 108 674 L108 76 C108 37 94 10 73 8 L66 7 L66 0 L477 0 L477 6 C481 33 487 68 492 95 L483 95 L477 82 C456 41 394 13 322 13 L279 13 C194 13 185 45 185 94 L185 674 C185 713 199 740 220 742 L227 743 L227 750 L227 750 Z " />
<glyph glyph-name="M" unicode="M" horiz-adv-x="749" d="M715 750 L600 750 L400 103 L183 750 L51 750 L51 743 C76 739 94 726 111 692 L93 76 C92 37 77 9 56 7 L50 6 L50 -1 L160 -1 L160 6 L153 7 C134 9 121 31 119 63 L130 644 C210 429 290 214 369 -1 L388 -1 L603 671 L618 75 C619 36 606 9 585 7 L578 6 L578 -1 L738 -1 L738 6 L732 7 C711 9 697 37 695 75 L676 683 C677 717 690 740 709 742 L716 743 L715 750 L715 750 Z " />
<glyph glyph-name="N" unicode="N" horiz-adv-x="645" d="M2 743 C31 739 58 720 86 679 L98 660 L97 76 C97 37 83 10 62 8 L55 7 L55 0 L162 0 L162 7 L155 8 C134 10 121 38 120 76 L118 630 C253 420 388 210 523 0 L539 0 L544 686 C547 719 561 741 580 743 L586 744 L586 751 L479 751 L479 744 L486 743 C507 741 521 713 521 674 L522 143 L520 145 L134 750 L2 750 L2 743 L2 743 Z " />
<glyph glyph-name="O" unicode="O" horiz-adv-x="783" d="M140 375 C140 603 238 755 386 755 C541 755 644 603 644 375 C644 147 538 -5 378 -5 C235 -5 140 147 140 375 L140 375 Z M56 375 C56 144 184 -10 377 -10 C588 -10 728 144 728 375 C728 606 592 760 387 760 C188 760 56 606 56 375 L56 375 Z " />
<glyph glyph-name="P" unicode="P" horiz-adv-x="503" d="M246 7 L239 8 C218 10 204 37 204 76 L204 349 L245 349 C388 349 483 408 483 540 C483 666 405 750 287 750 L85 750 L85 743 L92 742 C113 740 127 713 127 674 L127 76 C127 37 113 10 92 8 L85 7 L85 0 L246 0 L246 7 L246 7 Z M204 365 L204 737 L267 737 C353 737 411 663 411 553 C411 423 345 365 245 365 L204 365 L204 365 Z " />
<glyph glyph-name="Q" unicode="Q" horiz-adv-x="778" d="M1035 -52 L1034 -50 C1004 -75 892 -92 753 -92 C573 -92 406 -58 328 -7 C344 -9 360 -10 377 -10 C588 -10 728 144 728 375 C728 606 592 760 387 760 C188 760 56 606 56 375 C56 198 131 66 253 14 L253 14 C376 -80 573 -142 744 -142 C854 -142 971 -106 1035 -52 L1035 -52 Z M319 0 C210 34 140 175 140 374 C140 602 238 754 386 754 C541 754 644 602 644 374 C644 144 535 -9 372 -9 C354 -9 336 -6 319 -1 L319 -1 L319 0 L319 0 Z " />
<glyph glyph-name="R" unicode="R" horiz-adv-x="613" d="M65 743 L72 742 C93 740 107 713 107 674 L107 76 C107 37 93 10 72 8 L65 7 L65 0 L226 0 L226 7 L219 8 C198 10 184 37 184 76 L184 361 L270 361 C283 324 337 213 411 72 C447 3 455 0 602 0 L602 9 C538 9 534 12 502 72 C425 219 368 328 347 368 C441 385 500 440 500 539 C500 666 410 750 274 750 L64 750 L65 743 L65 743 Z M183 380 L183 735 C203 735 231 734 251 734 C349 734 415 662 415 554 C415 434 359 380 274 380 L183 380 L183 380 Z " />
<glyph glyph-name="S" unicode="S" horiz-adv-x="513" d="M51 195 L51 43 L59 43 L63 59 C67 74 99 64 144 34 C161 22 179 13 198 4 L199 5 C224 -5 250 -10 277 -10 C395 -10 473 69 473 188 C473 280 414 367 300 415 C187 463 129 532 129 600 C129 716 191 779 287 746 C334 728 382 678 411 616 L420 595 L432 595 L432 711 L424 711 L420 703 C417 697 388 709 348 731 C326 743 300 757 275 763 L273 757 C150 777 69 696 69 569 C69 475 132 385 254 334 C358 290 412 226 412 165 C412 64 358 -4 277 -4 C249 -4 220 5 193 21 C149 48 102 107 73 173 L64 194 L51 195 L51 195 Z M64 152 L64 152 L64 152 L64 152 Z " />
<glyph glyph-name="T" unicode="T" horiz-adv-x="740" d="M290 0 L451 0 L451 7 L444 8 C423 10 409 37 409 76 L409 731 L548 731 C608 731 668 703 699 662 L708 649 L717 649 C707 674 694 705 684 731 L686 731 L686 740 L688 740 L686 744 L686 750 L683 750 L682 752 L675 752 C653 748 603 750 535 750 L202 750 C133 750 84 748 62 752 L55 752 L49 740 L55 740 C44 712 29 677 18 649 L27 649 L36 662 C67 703 127 731 187 731 L332 731 L332 76 C332 37 318 10 297 8 L290 7 L290 0 L290 0 Z " />
<glyph glyph-name="U" unicode="U" horiz-adv-x="595" d="M566 28 L559 27 C538 24 524 47 524 86 L524 750 L405 750 L405 743 L412 742 C433 740 447 713 447 674 L447 175 C409 94 327 40 242 40 C186 40 149 109 149 213 L149 750 L30 750 L30 743 L37 742 C58 740 72 713 72 674 L72 213 C72 79 128 -10 211 -10 C311 -10 405 50 447 140 L447 0 L486 0 L524 10 C524 12 564 21 566 21 L566 28 L566 28 Z " />
<glyph glyph-name="V" unicode="V" horiz-adv-x="679" d="M631 750 L450 750 L450 741 L466 740 C516 737 535 693 515 628 L343 112 L167 621 C144 689 157 737 201 740 L214 741 L214 750 L5 750 L5 741 L10 740 C25 737 48 701 70 646 C147 428 224 209 302 -9 L317 -9 L547 637 C570 698 600 738 623 741 L630 742 L631 750 L631 750 Z " />
<glyph glyph-name="W" unicode="W" horiz-adv-x="927" d="M187 750 L7 750 L7 741 L12 740 C29 737 52 698 71 641 C143 424 215 207 287 -10 L306 -10 L484 463 C535 305 586 147 637 -10 L656 -10 L837 641 C853 698 881 738 908 741 L916 742 L916 751 L735 751 L735 742 L750 741 C800 738 822 698 808 642 L668 108 L506 653 C494 704 511 738 550 741 L563 742 L563 751 L357 751 L357 742 L363 741 C382 738 408 699 426 642 L472 500 L323 91 L324 94 L155 642 C138 698 147 738 178 741 L188 742 L187 750 L187 750 Z " />
<glyph glyph-name="X" unicode="X" horiz-adv-x="679" d="M176 7 L164 8 C127 10 118 37 141 77 L303 338 L451 81 C474 40 473 10 445 8 L436 7 L436 0 L612 0 L612 7 C593 12 573 31 548 71 L350 413 L535 677 C563 715 598 741 624 743 L632 744 L632 751 L469 751 L469 744 L481 743 C517 741 526 716 506 678 L345 419 L200 670 C176 712 178 741 206 743 L215 744 L215 751 L40 751 L40 744 C58 739 77 721 101 682 L290 355 L105 71 C75 30 46 12 12 8 L12 1 L172 1 L176 7 L176 7 Z " />
<glyph glyph-name="Y" unicode="Y" horiz-adv-x="594" d="M209 0 L410 0 L410 7 L400 8 C369 10 348 45 348 96 L348 337 L509 669 C529 711 561 740 588 742 L596 743 L596 750 L456 750 L456 743 L468 742 C504 740 518 715 503 677 L345 344 L173 669 C151 711 155 740 183 742 L192 743 L192 750 L17 750 L17 743 C36 738 58 715 83 669 L83 669 L270 326 L270 96 C270 45 249 10 218 8 L208 7 L209 0 L209 0 Z " />
<glyph glyph-name="Z" unicode="Z" horiz-adv-x="596" d="M70 647 L75 659 C93 701 152 729 224 730 L493 734 L25 15 L25 0 L572 0 L577 23 C577 23 590 78 596 104 L587 104 L580 92 C557 50 494 22 421 21 L421 21 L116 17 L577 736 L577 751 L71 751 L69 729 C68 714 66 685 63 648 L70 647 L70 647 Z " />
<glyph glyph-name="bracketleft" unicode="&#x5b;" horiz-adv-x="289" d="M129 731 L339 731 L339 750 L106 750 L106 -195 L339 -195 L339 -176 L129 -176 L129 731 L129 731 Z " />
<glyph glyph-name="backslash" unicode="&#x5c;" horiz-adv-x="341" d="M33 770 L293 -80 L331 -80 L71 770 L33 770 L33 770 Z " />
<glyph glyph-name="bracketright" unicode="&#x5d;" horiz-adv-x="292" d="M159 731 L159 -176 L-51 -176 L-51 -195 L182 -195 L182 750 L-51 750 L-51 731 L159 731 L159 731 Z " />
<glyph glyph-name="asciicircum" unicode="&#x5e;" horiz-adv-x="297" d="M172 760 C167 767 156 784 149 784 C142 784 130 768 126 761 L-2 564 L7 557 L149 712 L290 557 L299 564 L172 760 L172 760 Z " />
<glyph glyph-name="underscore" unicode="&#x5f;" horiz-adv-x="378" d="M5 -50 L5 -86 L373 -86 L373 -50 L5 -50 L5 -50 Z " />
<glyph glyph-name="grave" unicode="&#x60;" horiz-adv-x="297" d="M-57 751 C-57 744 -30 718 11 684 L152 563 L160 571 L41 715 C8 756 -17 783 -24 783 C-42 783 -57 768 -57 751 L-57 751 Z " />
<glyph glyph-name="a" unicode="a" horiz-adv-x="477" d="M487 89 L480 92 C475 62 451 42 421 42 C387 42 365 62 365 91 L365 357 C365 463 315 510 241 510 C138 510 69 414 69 360 C69 332 82 314 102 314 C124 314 139 333 139 347 C139 364 119 387 119 402 C119 439 165 505 234 505 C274 505 300 467 300 381 L300 264 C131 166 49 115 49 84 C49 28 90 -10 151 -10 C189 -10 238 16 300 84 C303 30 340 -5 394 -5 C440 -5 477 33 487 89 L487 89 Z M300 260 L300 91 C300 90 300 89 300 88 C258 42 219 25 186 25 C144 25 116 51 116 91 C116 146 176 188 300 260 L300 260 Z " />
<glyph glyph-name="b" unicode="b" horiz-adv-x="459" d="M32 658 L32 125 L30 125 C31 123 32 121 33 119 L33 75 L33 0 L36 0 L60 67 C96 19 153 -10 216 -10 C335 -10 415 95 415 252 C415 404 337 505 220 505 C174 505 127 474 99 426 L99 750 L67 750 C51 746 29 740 12 735 L12 730 C27 723 34 699 34 658 L32 658 L32 658 Z M99 110 L99 415 C124 457 163 484 200 484 C285 484 342 388 342 244 C342 97 293 -1 219 -1 C170 -1 123 42 98 110 L99 110 L99 110 Z " />
<glyph glyph-name="c" unicode="c" horiz-adv-x="439" d="M409 128 L407 129 C374 56 313 7 254 7 C169 7 112 112 112 269 C112 411 171 506 259 506 C288 506 322 466 344 405 C351 385 364 372 377 372 C403 372 416 385 409 405 C386 468 326 510 260 510 C131 510 45 401 45 237 C45 89 125 -10 245 -10 C307 -10 372 45 409 128 L409 128 Z " />
<glyph glyph-name="d" unicode="d" horiz-adv-x="517" d="M503 27 L496 26 C475 22 461 45 461 84 L461 750 L429 750 L396 741 L396 740 C388 738 380 736 373 734 L373 729 C388 722 395 698 395 657 L395 417 C367 470 318 510 268 510 C121 510 45 407 45 253 C45 98 125 -5 246 -5 C302 -5 361 26 397 73 L397 0 L430 0 L431 1 C453 7 482 15 504 21 L503 27 L503 27 Z M397 376 L397 81 C370 46 322 23 274 23 C177 23 113 122 113 271 C113 404 169 492 277 492 C328 492 378 439 397 376 L397 376 Z " />
<glyph glyph-name="e" unicode="e" horiz-adv-x="487" d="M119 340 L457 340 C435 462 365 510 272 510 C136 510 45 432 45 233 C45 87 127 -10 251 -10 C333 -10 409 48 441 135 L439 135 C411 59 339 8 258 8 C172 8 114 109 114 260 C114 290 116 317 119 341 L119 340 L119 340 Z M384 346 L120 345 C138 460 194 507 271 507 C321 507 363 462 384 346 L384 346 Z " />
<glyph glyph-name="f" unicode="f" horiz-adv-x="282" d="M169 7 C155 10 147 19 147 41 L147 465 L272 465 L272 500 L147 500 C147 641 177 735 236 735 C268 735 299 635 326 635 C353 635 371 653 371 680 C371 725 326 755 259 755 C142 755 81 653 81 500 L-17 473 L-17 465 L81 465 L81 41 C81 19 73 10 59 7 L59 0 L169 0 L169 7 L169 7 Z " />
<glyph glyph-name="g" unicode="g" horiz-adv-x="485" d="M506 468 C506 491 489 507 463 507 C429 507 395 484 373 448 C345 487 299 510 241 510 C144 510 80 446 80 350 C80 265 129 205 207 191 C116 185 57 153 57 106 C57 56 91 20 143 11 C86 -8 49 -48 49 -94 C49 -176 129 -230 250 -230 C370 -230 450 -168 450 -74 C450 15 402 75 280 75 L173 75 C127 75 96 95 96 126 C96 163 154 188 241 188 C337 188 401 253 401 350 C401 386 392 418 376 443 C389 457 407 466 426 466 C442 466 463 439 479 439 C496 439 507 451 507 468 L506 468 L506 468 Z M242 192 C184 192 146 255 146 350 C146 444 184 506 242 506 C299 506 337 444 337 350 C337 255 299 192 242 192 L242 192 Z M151 10 C157 9 163 9 169 9 L273 9 C362 9 396 -30 396 -89 C396 -171 338 -226 250 -226 C162 -226 104 -167 104 -78 C104 -38 122 -5 151 10 L151 10 Z " />
<glyph glyph-name="h" unicode="h" horiz-adv-x="434" d="M45 657 L45 41 C45 19 37 10 23 7 L23 0 L133 0 L133 7 C119 10 111 19 111 41 L111 376 C130 429 180 464 237 464 C290 464 317 418 317 349 L317 41 C317 19 309 10 295 7 L295 0 L405 0 L405 7 C391 10 383 19 383 41 L383 349 C383 446 346 510 274 510 C204 510 139 458 111 380 L111 750 L78 750 C69 747 56 741 44 741 L44 740 C36 738 28 736 21 734 L21 729 C36 722 43 698 43 657 L45 657 L45 657 Z " />
<glyph glyph-name="i" unicode="i" horiz-adv-x="172" d="M130 657 C130 683 113 700 88 700 C63 700 46 683 46 657 C46 602 130 602 130 657 L130 657 Z M55 407 L55 41 C55 19 47 10 33 7 L33 0 L143 0 L143 7 C129 10 121 19 121 41 L121 500 L88 500 C79 497 66 491 54 491 L54 490 C46 488 38 486 31 484 L31 479 C46 472 53 448 53 407 L55 407 L55 407 Z " />
<glyph glyph-name="j" unicode="j" horiz-adv-x="207" d="M85 615 C110 615 127 632 127 657 C127 683 110 700 85 700 C59 700 42 683 42 657 C42 632 59 615 85 615 L85 615 Z M52 408 L52 39 C52 -45 35 -110 9 -125 C-25 -125 -69 -100 -103 -100 C-130 -100 -148 -116 -148 -140 C-148 -169 -124 -187 -88 -185 C-81 -185 -39 -163 17 -130 C77 -95 117 -28 117 39 L117 500 L85 500 C69 496 47 490 30 485 L30 480 C45 473 52 449 52 408 L52 408 Z " />
<glyph glyph-name="k" unicode="k" horiz-adv-x="389" d="M384 6 L383 7 C380 8 371 19 358 37 L162 318 C194 348 226 379 258 409 C313 462 356 489 389 494 L389 501 L354 501 L355 502 L344 502 L343 501 L212 501 L212 494 L230 493 C287 491 284 450 223 388 L111 282 L111 752 L78 752 C69 749 56 743 44 743 L44 742 C36 740 28 738 21 736 L21 731 C36 724 43 700 43 659 L43 43 C43 21 35 12 21 9 L21 2 L131 2 L131 9 C117 12 109 21 109 43 L109 282 L254 67 L253 67 C275 34 286 11 279 9 L276 8 L276 1 L382 1 L384 6 L384 6 Z " />
<glyph glyph-name="l" unicode="l" horiz-adv-x="162" d="M45 657 L45 41 C45 19 37 10 23 7 L23 0 L133 0 L133 7 C119 10 111 19 111 41 L111 750 L78 750 C69 747 56 741 44 741 L44 740 C36 738 28 736 21 734 L21 729 C36 722 43 698 43 657 L45 657 L45 657 Z " />
<glyph glyph-name="m" unicode="m" horiz-adv-x="688" d="M659 6 C645 9 637 18 637 40 L637 349 C637 446 604 510 519 510 C457 510 399 462 371 390 C362 464 327 510 255 510 C195 510 137 460 110 385 L110 500 L77 500 C68 497 55 491 43 491 L43 490 C35 488 27 486 20 484 L20 479 C35 472 42 448 42 407 L42 41 C42 19 34 10 20 7 L20 0 L130 0 L130 7 C116 10 108 19 108 41 L108 381 C125 429 172 461 226 461 C283 461 305 416 305 349 L305 41 C305 19 297 10 283 7 L283 0 L393 0 L393 7 C379 10 371 19 371 41 L371 349 C371 362 370 375 369 387 C388 432 435 462 489 462 C546 462 568 417 568 350 L568 41 C568 19 560 10 546 7 L546 0 L656 0 L659 6 L659 6 Z " />
<glyph glyph-name="n" unicode="n" horiz-adv-x="425" d="M45 407 L45 41 C45 19 37 10 23 7 L23 0 L133 0 L133 7 C119 10 111 19 111 41 L111 376 C133 437 182 477 235 477 C283 477 308 423 308 342 L308 41 C308 19 300 10 286 7 L286 0 L396 0 L396 7 C382 10 374 19 374 41 L374 342 C374 443 334 510 256 510 C196 510 138 460 111 386 L111 500 L78 500 C69 497 56 491 44 491 L44 490 C36 488 28 486 21 484 L21 479 C36 472 43 448 43 407 L45 407 L45 407 Z " />
<glyph glyph-name="o" unicode="o" horiz-adv-x="574" d="M117 250 C117 403 185 505 287 505 C388 505 456 403 456 250 C456 97 388 -5 287 -5 C185 -5 117 97 117 250 L117 250 Z M45 250 C45 94 142 -10 287 -10 C432 -10 529 94 529 250 C529 406 432 510 287 510 C142 510 45 406 45 250 L45 250 Z " />
<glyph glyph-name="p" unicode="p" horiz-adv-x="462" d="M30 407 L30 -179 C30 -201 22 -210 8 -213 L8 -220 L118 -220 L118 -213 C104 -210 96 -201 96 -179 L96 35 C126 10 162 -5 201 -5 C331 -5 417 115 417 255 C417 408 340 510 224 510 C176 510 126 482 96 438 L96 500 L63 500 C54 497 41 491 29 491 L29 490 C21 488 13 486 6 484 L6 479 C21 472 28 448 28 407 L30 407 L30 407 Z M94 130 L94 411 C123 455 161 483 192 483 C283 483 343 384 343 235 C343 115 287 12 203 12 C159 12 116 59 94 130 L94 130 Z " />
<glyph glyph-name="q" unicode="q" horiz-adv-x="476" d="M472 -213 C458 -210 450 -201 450 -179 L450 500 L446 500 L425 440 L419 435 C383 482 326 511 263 511 C112 511 34 408 34 253 C34 99 117 -4 242 -4 C259 -4 315 26 383 71 L383 -178 C383 -200 375 -209 361 -212 L361 -219 L471 -219 L472 -213 L472 -213 Z M383 391 L383 94 C318 51 273 23 268 23 C168 23 101 123 101 272 C101 406 155 496 259 496 C310 496 359 454 383 390 L383 391 L383 391 Z " />
<glyph glyph-name="r" unicode="r" horiz-adv-x="304" d="M46 407 L46 41 C46 19 38 10 24 7 L24 0 L134 0 L134 7 C120 10 112 19 112 41 L112 397 C124 448 157 480 202 480 C211 480 217 466 217 445 C217 422 233 406 256 406 C279 406 294 422 294 445 C294 485 269 511 232 511 C171 511 126 471 112 408 L112 502 L79 502 C70 499 57 493 45 493 L45 492 C37 490 29 488 22 486 L22 481 C37 474 44 450 44 409 L46 407 L46 407 Z " />
<glyph glyph-name="s" unicode="s" horiz-adv-x="390" d="M313 387 L313 466 L307 466 L305 464 C312 472 285 486 235 501 C223 508 211 513 199 515 L198 510 C116 519 62 464 62 386 C62 314 105 253 188 226 C256 204 291 159 291 108 C291 40 256 -5 203 -5 C185 -5 168 2 156 10 L156 11 C153 12 150 13 147 14 C116 36 87 76 70 123 L66 132 L60 132 L60 42 L66 42 L69 47 C66 42 96 25 144 3 C152 -3 160 -7 168 -10 L170 -6 C181 -9 192 -11 203 -11 C286 -11 341 43 341 124 C341 190 299 248 217 274 C145 297 108 348 108 406 C108 476 156 525 218 498 L217 495 C223 493 229 491 235 488 C263 469 289 435 304 393 L308 384 L313 387 L313 387 Z M306 418 L306 418 L306 418 L306 418 Z " />
<glyph glyph-name="t" unicode="t" horiz-adv-x="335" d="M293 500 L156 500 L156 620 L152 620 L26 485 L26 475 L91 475 L91 143 C91 33 138 -10 208 -10 C251 -10 298 26 325 80 L318 84 C299 46 263 21 228 21 C184 21 155 51 155 128 L156 465 L293 465 L293 500 L293 500 Z " />
<glyph glyph-name="u" unicode="u" horiz-adv-x="401" d="M387 24 L382 24 C366 22 355 46 355 85 L355 500 L268 500 L268 493 C282 490 290 481 290 459 L290 129 C265 72 224 35 183 35 C137 35 106 83 106 154 L106 499 L18 499 L18 492 C32 489 40 480 40 458 L40 154 C40 55 85 -11 152 -11 C202 -11 255 42 289 123 L289 -1 L322 -1 L323 -1 C342 4 367 11 386 16 L387 24 L387 24 Z " />
<glyph glyph-name="v" unicode="v" horiz-adv-x="394" d="M373 500 L302 500 L302 493 L305 492 C314 490 313 463 302 424 L214 113 L119 429 C110 465 109 489 117 491 L120 492 L120 499 L8 499 L8 492 L11 491 C23 489 39 460 51 418 L179 -11 L198 -11 L333 429 C347 469 359 487 373 492 L373 500 L373 500 Z " />
<glyph glyph-name="w" unicode="w" horiz-adv-x="629" d="M136 500 L22 500 L22 493 L25 492 C36 490 51 465 63 428 L192 -9 L211 -9 L310 309 L405 -9 L424 -9 L568 420 C582 462 599 491 611 493 L614 494 L614 501 L542 501 L542 494 L545 493 C553 491 552 468 542 433 L441 111 L350 420 C338 462 336 491 345 493 L348 494 L348 501 L233 501 L233 494 L236 493 C248 491 264 462 276 420 L297 351 L228 116 L135 427 C125 465 124 491 133 493 L136 494 L136 500 L136 500 Z " />
<glyph glyph-name="x" unicode="x" horiz-adv-x="409" d="M141 500 L21 500 L21 493 C36 489 51 473 71 438 L177 232 L72 67 C46 29 28 11 12 7 L12 0 L81 0 L81 7 L78 8 C71 10 79 33 97 67 L184 219 L255 82 C275 41 286 11 278 9 L275 8 L275 1 L395 1 L395 8 C380 12 365 28 345 63 L231 285 C258 330 285 375 312 420 C339 466 361 489 377 494 L377 501 L308 501 L308 494 L311 493 C319 491 308 461 286 420 L222 301 L161 420 C141 461 130 491 138 493 L141 494 L141 500 L141 500 Z " />
<glyph glyph-name="y" unicode="y" horiz-adv-x="431" d="M408 500 L337 500 L337 493 L340 492 C349 490 345 460 332 419 L230 109 L131 438 C123 470 123 491 131 493 L134 494 L134 501 L22 501 L22 494 L25 493 C37 491 53 462 65 420 L190 1 C170 -52 151 -105 131 -158 C123 -179 109 -193 104 -193 C82 -193 77 -170 54 -170 C28 -170 11 -187 11 -213 C11 -241 30 -259 59 -259 C83 -259 128 -222 148 -167 L206 -9 C257 136 309 281 361 426 C377 469 391 490 407 494 L408 500 L408 500 Z " />
<glyph glyph-name="z" unicode="z" horiz-adv-x="441" d="M395 77 L389 69 C356 21 258 20 258 20 L119 17 L401 485 L401 500 L69 500 L69 489 L62 489 L62 490 L62 489 C60 489 54 464 43 423 L53 423 L60 431 C84 459 139 479 199 480 L199 480 L323 483 L39 15 L39 0 L395 0 L395 11 L397 11 C397 11 400 37 404 77 L395 77 L395 77 Z " />
<glyph glyph-name="bar" unicode="&#x7c;" horiz-adv-x="171" d="M60 800 L60 -250 L111 -250 L111 800 L60 800 L60 800 Z " />
<glyph glyph-name="asciitilde" unicode="&#x7e;" horiz-adv-x="297" d="M29 310 C29 348 44 373 66 373 C110 373 168 308 212 308 C247 308 271 351 271 415 L268 415 C268 379 252 355 227 355 C183 355 125 420 81 420 C48 420 26 376 26 310 L29 310 L29 310 Z " />
<glyph glyph-name="exclamdown" unicode="&#xa1;" horiz-adv-x="220" d="M110 505 C82 505 64 487 64 459 C64 431 82 412 110 412 C138 412 156 431 156 459 C156 487 138 505 110 505 L110 505 Z M110 -255 C141 -255 154 -217 150 -161 C150 -161 116 155 116 290 L104 290 C104 155 70 -161 70 -161 C66 -217 79 -255 110 -255 L110 -255 Z " />
<glyph glyph-name="cent" unicode="&#xa2;" horiz-adv-x="439" d="M233 575 L233 508 C119 494 45 389 45 237 C45 94 120 -3 233 -9 L233 -74 L257 -74 L257 -8 C315 -1 374 52 409 130 L407 131 C375 59 315 10 257 8 L257 507 C288 508 321 469 343 407 C350 387 363 374 376 374 C402 374 415 387 408 407 C385 471 324 513 256 512 L256 577 L233 575 L233 575 Z M232 11 C159 27 111 127 111 271 C111 399 159 489 232 506 L232 11 L232 11 Z " />
<glyph glyph-name="acute" unicode="&#xb4;" horiz-adv-x="297" d="M156 563 L296 684 C336 719 363 745 363 751 C363 768 348 783 331 783 C325 783 300 756 266 715 L147 571 L156 563 L156 563 Z " />
<glyph glyph-name="questiondown" unicode="&#xbf;" horiz-adv-x="302" d="M177 505 C149 505 131 487 131 459 C131 431 149 412 177 412 C205 412 223 431 223 459 C223 487 205 505 177 505 L177 505 Z M179 309 C179 309 178 140 177 140 C89 140 55 104 19 51 C2 25 -10 -17 -10 -54 C-10 -178 57 -260 157 -260 C194 -260 219 -240 219 -211 C219 -192 205 -179 183 -179 C168 -179 148 -191 133 -191 C59 -191 10 -133 10 -46 C10 -28 20 -1 34 20 C56 52 83 74 200 74 C195 72 191 309 191 309 L179 309 L179 309 Z " />
<glyph glyph-name="Agrave" unicode="&#xc0;" horiz-adv-x="597" d="M95 1001 C95 993 122 968 162 934 L303 813 L311 821 L193 965 C160 1006 135 1033 128 1033 C110 1033 95 1018 95 1001 L95 1001 Z M165 9 L151 10 C108 13 91 57 107 122 L154 294 L384 294 L433 120 C448 56 432 13 389 10 L375 9 L375 0 L597 0 L597 9 L589 10 C564 13 535 54 515 116 L341 727 C341 727 333 770 329 770 L321 770 C325 750 301 732 263 727 L266 717 L105 129 C85 61 42 13 -5 10 L-19 9 L-19 0 L168 0 L165 9 L165 9 Z M157 299 L269 709 L384 299 L157 299 L157 299 Z " />
<glyph glyph-name="Aacute" unicode="&#xc1;" horiz-adv-x="597" d="M307 813 L448 934 C488 969 515 995 515 1001 C515 1018 500 1033 482 1033 C476 1033 451 1006 417 965 L299 821 L307 813 L307 813 Z M165 9 L151 10 C108 13 91 57 107 122 L154 294 L384 294 L433 120 C448 56 432 13 389 10 L375 9 L375 0 L597 0 L597 9 L589 10 C564 13 535 54 515 116 L341 727 C341 727 333 770 329 770 L321 770 C325 750 301 732 263 727 L266 717 L105 129 C85 61 42 13 -5 10 L-19 9 L-19 0 L168 0 L165 9 L165 9 Z M157 299 L269 709 L384 299 L157 299 L157 299 Z " />
<glyph glyph-name="Acircumflex" unicode="&#xc2;" horiz-adv-x="597" d="M323 1010 C318 1017 307 1034 300 1034 C293 1034 281 1018 277 1011 L150 814 L159 807 L300 962 L441 807 L450 814 L323 1010 L323 1010 Z M165 9 L151 10 C108 13 91 57 107 122 L154 294 L384 294 L433 120 C448 56 432 13 389 10 L375 9 L375 0 L597 0 L597 9 L589 10 C564 13 535 54 515 116 L341 727 C341 727 333 770 329 770 L321 770 C325 750 301 732 263 727 L266 717 L105 129 C85 61 42 13 -5 10 L-19 9 L-19 0 L168 0 L165 9 L165 9 Z M157 299 L269 709 L384 299 L157 299 L157 299 Z " />
<glyph glyph-name="Atilde" unicode="&#xc3;" horiz-adv-x="597" d="M181 870 C181 908 196 933 218 933 C262 933 320 868 363 868 C398 868 422 911 422 975 L419 975 C419 939 403 915 378 915 C335 915 277 980 233 980 C200 980 178 936 178 870 L181 870 L181 870 Z M165 9 L151 10 C108 13 91 57 107 122 L154 294 L384 294 L433 120 C448 56 432 13 389 10 L375 9 L375 0 L597 0 L597 9 L589 10 C564 13 535 54 515 116 L341 727 C341 727 333 770 329 770 L321 770 C325 750 301 732 263 727 L266 717 L105 129 C85 61 42 13 -5 10 L-19 9 L-19 0 L168 0 L165 9 L165 9 Z M157 299 L269 709 L384 299 L157 299 L157 299 Z " />
<glyph glyph-name="Adieresis" unicode="&#xc4;" horiz-adv-x="597" d="M370 865 C395 865 412 882 412 907 C412 933 395 950 370 950 C344 950 327 933 327 907 C327 882 344 865 370 865 L370 865 Z M230 865 C256 865 273 882 273 907 C273 933 256 950 230 950 C205 950 188 933 188 907 C188 882 205 865 230 865 L230 865 Z M165 9 L151 10 C108 13 91 57 107 122 L154 294 L384 294 L433 120 C448 56 432 13 389 10 L375 9 L375 0 L597 0 L597 9 L589 10 C564 13 535 54 515 116 L341 727 C341 727 333 770 329 770 L321 770 C325 750 301 732 263 727 L266 717 L105 129 C85 61 42 13 -5 10 L-19 9 L-19 0 L168 0 L165 9 L165 9 Z M157 299 L269 709 L384 299 L157 299 L157 299 Z " />
<glyph glyph-name="Aring" unicode="&#xc5;" horiz-adv-x="597" d="M222 905 C222 953 253 985 300 985 C347 985 378 953 378 905 C378 862 342 825 300 825 C258 825 222 862 222 905 L222 905 Z M203 905 C203 854 248 810 300 810 C352 810 397 854 397 905 C397 962 358 1000 300 1000 C242 1000 203 962 203 905 L203 905 Z M165 9 L151 10 C108 13 91 57 107 122 L154 294 L384 294 L433 120 C448 56 432 13 389 10 L375 9 L375 0 L597 0 L597 9 L589 10 C564 13 535 54 515 116 L341 727 C341 727 333 770 329 770 L321 770 C325 750 301 732 263 727 L266 717 L105 129 C85 61 42 13 -5 10 L-19 9 L-19 0 L168 0 L165 9 L165 9 Z M157 299 L269 709 L384 299 L157 299 L157 299 Z " />
<glyph glyph-name="Egrave" unicode="&#xc8;" horiz-adv-x="535" d="M80 1001 C80 994 107 968 147 934 L287 813 L296 821 L177 965 C144 1006 119 1033 112 1033 C95 1033 80 1018 80 1001 L80 1001 Z M400 293 L400 482 L391 482 L387 468 C373 421 326 390 269 390 L184 390 L184 746 L330 746 C387 746 438 715 458 668 L464 654 L473 654 C469 682 464 720 461 748 L460 748 L460 750 L45 750 L45 743 L55 742 C86 740 107 705 107 654 L107 96 C107 45 86 10 55 8 L45 7 L45 0 L485 0 L485 2 L486 2 C491 27 497 61 501 86 L492 86 L486 73 C465 32 403 4 331 4 L278 4 C193 4 184 40 184 94 L184 385 L269 385 C326 385 373 354 387 307 L391 293 L400 293 L400 293 Z " />
<glyph glyph-name="Eacute" unicode="&#xc9;" horiz-adv-x="535" d="M292 813 L432 934 C472 969 499 995 499 1001 C499 1018 484 1033 467 1033 C461 1033 436 1006 402 965 L283 821 L292 813 L292 813 Z M400 293 L400 482 L391 482 L387 468 C373 421 326 390 269 390 L184 390 L184 746 L330 746 C387 746 438 715 458 668 L464 654 L473 654 C469 682 464 720 461 748 L460 748 L460 750 L45 750 L45 743 L55 742 C86 740 107 705 107 654 L107 96 C107 45 86 10 55 8 L45 7 L45 0 L485 0 L485 2 L486 2 C491 27 497 61 501 86 L492 86 L486 73 C465 32 403 4 331 4 L278 4 C193 4 184 40 184 94 L184 385 L269 385 C326 385 373 354 387 307 L391 293 L400 293 L400 293 Z " />
<glyph glyph-name="Ecircumflex" unicode="&#xca;" horiz-adv-x="535" d="M308 1010 C303 1017 292 1034 285 1034 C277 1034 265 1018 261 1011 L134 814 L143 807 L285 962 L426 807 L435 814 L308 1010 L308 1010 Z M400 293 L400 482 L391 482 L387 468 C373 421 326 390 269 390 L184 390 L184 746 L330 746 C387 746 438 715 458 668 L464 654 L473 654 C469 682 464 720 461 748 L460 748 L460 750 L45 750 L45 743 L55 742 C86 740 107 705 107 654 L107 96 C107 45 86 10 55 8 L45 7 L45 0 L485 0 L485 2 L486 2 C491 27 497 61 501 86 L492 86 L486 73 C465 32 403 4 331 4 L278 4 C193 4 184 40 184 94 L184 385 L269 385 C326 385 373 354 387 307 L391 293 L400 293 L400 293 Z " />
<glyph glyph-name="Edieresis" unicode="&#xcb;" horiz-adv-x="535" d="M354 865 C380 865 397 882 397 907 C397 933 380 950 354 950 C329 950 312 933 312 907 C312 882 329 865 354 865 L354 865 Z M215 865 C240 865 257 882 257 907 C257 933 240 950 215 950 C189 950 172 933 172 907 C172 882 189 865 215 865 L215 865 Z M400 293 L400 482 L391 482 L387 468 C373 421 326 390 269 390 L184 390 L184 746 L330 746 C387 746 438 715 458 668 L464 654 L473 654 C469 682 464 720 461 748 L460 748 L460 750 L45 750 L45 743 L55 742 C86 740 107 705 107 654 L107 96 C107 45 86 10 55 8 L45 7 L45 0 L485 0 L485 2 L486 2 C491 27 497 61 501 86 L492 86 L486 73 C465 32 403 4 331 4 L278 4 C193 4 184 40 184 94 L184 385 L269 385 C326 385 373 354 387 307 L391 293 L400 293 L400 293 Z " />
<glyph glyph-name="Igrave" unicode="&#xcc;" horiz-adv-x="286" d="M-58 1001 C-58 993 -31 968 9 934 L150 813 L158 821 L40 965 C7 1006 -18 1033 -25 1033 C-43 1033 -58 1018 -58 1001 L-58 1001 Z M227 7 L220 8 C199 10 185 37 185 76 L185 674 C185 713 199 740 220 742 L227 743 L227 750 L66 750 L66 743 L73 742 C94 740 108 713 108 674 L108 76 C108 37 94 10 73 8 L66 7 L66 0 L227 0 L227 7 L227 7 Z " />
<glyph glyph-name="Iacute" unicode="&#xcd;" horiz-adv-x="286" d="M154 813 L295 934 C335 969 362 995 362 1001 C362 1018 347 1033 329 1033 C323 1033 298 1006 264 965 L146 821 L154 813 L154 813 Z M227 7 L220 8 C199 10 185 37 185 76 L185 674 C185 713 199 740 220 742 L227 743 L227 750 L66 750 L66 743 L73 742 C94 740 108 713 108 674 L108 76 C108 37 94 10 73 8 L66 7 L66 0 L227 0 L227 7 L227 7 Z " />
<glyph glyph-name="Icircumflex" unicode="&#xce;" horiz-adv-x="286" d="M170 1010 C165 1017 154 1034 147 1034 C140 1034 128 1018 124 1011 L-3 814 L6 807 L147 962 L288 807 L297 814 L170 1010 L170 1010 Z M227 7 L220 8 C199 10 185 37 185 76 L185 674 C185 713 199 740 220 742 L227 743 L227 750 L66 750 L66 743 L73 742 C94 740 108 713 108 674 L108 76 C108 37 94 10 73 8 L66 7 L66 0 L227 0 L227 7 L227 7 Z " />
<glyph glyph-name="Idieresis" unicode="&#xcf;" horiz-adv-x="286" d="M217 865 C242 865 259 882 259 907 C259 933 242 950 217 950 C191 950 174 933 174 907 C174 882 191 865 217 865 L217 865 Z M77 865 C103 865 120 882 120 907 C120 933 103 950 77 950 C52 950 35 933 35 907 C35 882 52 865 77 865 L77 865 Z M227 7 L220 8 C199 10 185 37 185 76 L185 674 C185 713 199 740 220 742 L227 743 L227 750 L66 750 L66 743 L73 742 C94 740 108 713 108 674 L108 76 C108 37 94 10 73 8 L66 7 L66 0 L227 0 L227 7 L227 7 Z " />
<glyph glyph-name="Ntilde" unicode="&#xd1;" horiz-adv-x="645" d="M201 870 C201 908 216 933 238 933 C282 933 340 868 383 868 C418 868 442 911 442 975 L439 975 C439 939 423 915 398 915 C355 915 297 980 253 980 C220 980 198 936 198 870 L201 870 L201 870 Z M2 743 C31 739 58 720 86 679 L98 660 L97 76 C97 37 83 10 62 8 L55 7 L55 0 L162 0 L162 7 L155 8 C134 10 121 38 120 76 L118 630 C253 420 388 210 523 0 L539 0 L544 686 C547 719 561 741 580 743 L586 744 L586 751 L479 751 L479 744 L486 743 C507 741 521 713 521 674 L522 143 L520 145 L134 750 L2 750 L2 743 L2 743 Z " />
<glyph glyph-name="Ograve" unicode="&#xd2;" horiz-adv-x="783" d="M140 375 C140 603 238 755 386 755 C541 755 644 603 644 375 C644 147 538 -5 378 -5 C235 -5 140 147 140 375 L140 375 Z M56 375 C56 144 184 -10 377 -10 C588 -10 728 144 728 375 C728 606 592 760 387 760 C188 760 56 606 56 375 L56 375 Z M182 1001 C182 993 209 968 249 934 L390 813 L398 821 L280 965 C247 1006 222 1033 215 1033 C197 1033 182 1018 182 1001 L182 1001 Z " />
<glyph glyph-name="Oacute" unicode="&#xd3;" horiz-adv-x="783" d="M394 813 L535 934 C575 969 602 995 602 1001 C602 1018 587 1033 569 1033 C563 1033 538 1006 504 965 L386 821 L394 813 L394 813 Z M140 375 C140 603 238 755 386 755 C541 755 644 603 644 375 C644 147 538 -5 378 -5 C235 -5 140 147 140 375 L140 375 Z M56 375 C56 144 184 -10 377 -10 C588 -10 728 144 728 375 C728 606 592 760 387 760 C188 760 56 606 56 375 L56 375 Z " />
<glyph glyph-name="Ocircumflex" unicode="&#xd4;" horiz-adv-x="783" d="M140 375 C140 603 238 755 386 755 C541 755 644 603 644 375 C644 147 538 -5 378 -5 C235 -5 140 147 140 375 L140 375 Z M56 375 C56 144 184 -10 377 -10 C588 -10 728 144 728 375 C728 606 592 760 387 760 C188 760 56 606 56 375 L56 375 Z M410 1010 C405 1017 394 1034 387 1034 C380 1034 368 1018 364 1011 L237 814 L246 807 L387 962 L528 807 L537 814 L410 1010 L410 1010 Z " />
<glyph glyph-name="Otilde" unicode="&#xd5;" horiz-adv-x="783" d="M268 870 C268 908 283 933 305 933 C349 933 407 868 450 868 C485 868 509 911 509 975 L506 975 C506 939 490 915 465 915 C422 915 364 980 320 980 C287 980 265 936 265 870 L268 870 L268 870 Z M140 375 C140 603 238 755 386 755 C541 755 644 603 644 375 C644 147 538 -5 378 -5 C235 -5 140 147 140 375 L140 375 Z M56 375 C56 144 184 -10 377 -10 C588 -10 728 144 728 375 C728 606 592 760 387 760 C188 760 56 606 56 375 L56 375 Z " />
<glyph glyph-name="Odieresis" unicode="&#xd6;" horiz-adv-x="783" d="M457 865 C482 865 499 882 499 907 C499 933 482 950 457 950 C431 950 414 933 414 907 C414 882 431 865 457 865 L457 865 Z M317 865 C343 865 360 882 360 907 C360 933 343 950 317 950 C292 950 275 933 275 907 C275 882 292 865 317 865 L317 865 Z M140 375 C140 603 238 755 386 755 C541 755 644 603 644 375 C644 147 538 -5 378 -5 C235 -5 140 147 140 375 L140 375 Z M56 375 C56 144 184 -10 377 -10 C588 -10 728 144 728 375 C728 606 592 760 387 760 C188 760 56 606 56 375 L56 375 Z " />
<glyph glyph-name="Oslash" unicode="&#xd8;" horiz-adv-x="783" d="M59 -13 C59 -13 91 23 149 90 C205 26 283 -10 377 -10 C588 -10 728 144 728 375 C728 488 695 583 638 650 C668 685 699 721 731 758 L725 764 C693 728 662 693 632 659 C572 725 488 763 387 763 C188 763 56 609 56 378 C56 263 88 167 144 100 C86 33 54 -4 54 -4 L59 -13 L59 -13 Z M596 617 C421 416 279 253 184 145 C156 207 141 286 141 378 C141 606 239 758 387 758 C478 758 551 706 596 617 L596 617 Z M600 609 C629 547 645 469 645 379 C645 151 539 -1 379 -1 C296 -1 229 50 188 137 C282 245 424 408 600 609 L600 609 Z " />
<glyph glyph-name="Ugrave" unicode="&#xd9;" horiz-adv-x="595" d="M93 1001 C93 993 120 968 160 934 L301 813 L309 821 L191 965 C158 1006 133 1033 126 1033 C108 1033 93 1018 93 1001 L93 1001 Z M566 28 L559 27 C538 24 524 47 524 86 L524 750 L405 750 L405 743 L412 742 C433 740 447 713 447 674 L447 175 C409 94 327 40 242 40 C186 40 149 109 149 213 L149 750 L30 750 L30 743 L37 742 C58 740 72 713 72 674 L72 213 C72 79 128 -10 211 -10 C311 -10 405 50 447 140 L447 0 L486 0 L524 10 C524 12 564 21 566 21 L566 28 L566 28 Z " />
<glyph glyph-name="Uacute" unicode="&#xda;" horiz-adv-x="595" d="M305 813 L446 934 C486 969 513 995 513 1001 C513 1018 498 1033 480 1033 C474 1033 449 1006 415 965 L297 821 L305 813 L305 813 Z M566 28 L559 27 C538 24 524 47 524 86 L524 750 L405 750 L405 743 L412 742 C433 740 447 713 447 674 L447 175 C409 94 327 40 242 40 C186 40 149 109 149 213 L149 750 L30 750 L30 743 L37 742 C58 740 72 713 72 674 L72 213 C72 79 128 -10 211 -10 C311 -10 405 50 447 140 L447 0 L486 0 L524 10 C524 12 564 21 566 21 L566 28 L566 28 Z " />
<glyph glyph-name="Ucircumflex" unicode="&#xdb;" horiz-adv-x="595" d="M321 1010 C316 1017 305 1034 298 1034 C291 1034 279 1018 275 1011 L148 814 L157 807 L298 962 L439 807 L448 814 L321 1010 L321 1010 Z M566 28 L559 27 C538 24 524 47 524 86 L524 750 L405 750 L405 743 L412 742 C433 740 447 713 447 674 L447 175 C409 94 327 40 242 40 C186 40 149 109 149 213 L149 750 L30 750 L30 743 L37 742 C58 740 72 713 72 674 L72 213 C72 79 128 -10 211 -10 C311 -10 405 50 447 140 L447 0 L486 0 L524 10 C524 12 564 21 566 21 L566 28 L566 28 Z " />
<glyph glyph-name="Udieresis" unicode="&#xdc;" horiz-adv-x="595" d="M368 865 C393 865 410 882 410 907 C410 933 393 950 368 950 C342 950 325 933 325 907 C325 882 342 865 368 865 L368 865 Z M228 865 C254 865 271 882 271 907 C271 933 254 950 228 950 C203 950 186 933 186 907 C186 882 203 865 228 865 L228 865 Z M566 28 L559 27 C538 24 524 47 524 86 L524 750 L405 750 L405 743 L412 742 C433 740 447 713 447 674 L447 175 C409 94 327 40 242 40 C186 40 149 109 149 213 L149 750 L30 750 L30 743 L37 742 C58 740 72 713 72 674 L72 213 C72 79 128 -10 211 -10 C311 -10 405 50 447 140 L447 0 L486 0 L524 10 C524 12 564 21 566 21 L566 28 L566 28 Z " />
<glyph glyph-name="Yacute" unicode="&#xdd;" horiz-adv-x="583" d="M306 813 L446 934 C486 969 513 995 513 1001 C513 1018 498 1033 481 1033 C475 1033 450 1006 416 965 L297 821 L306 813 L306 813 Z M198 0 L399 0 L399 7 L389 8 C358 10 337 45 337 96 L337 337 L498 669 C518 711 550 740 577 742 L585 743 L585 750 L445 750 L445 743 L457 742 C493 740 507 715 492 677 L334 344 L162 669 C140 711 144 740 172 742 L181 743 L181 750 L6 750 L6 743 C25 738 47 715 72 669 L72 669 L259 326 L259 96 C259 45 238 10 207 8 L197 7 L198 0 L198 0 Z " />
<glyph glyph-name="agrave" unicode="&#xe0;" horiz-adv-x="477" d="M487 89 L480 92 C475 62 451 42 421 42 C387 42 365 62 365 91 L365 357 C365 463 315 510 241 510 C138 510 69 414 69 360 C69 332 82 314 102 314 C124 314 139 333 139 347 C139 364 119 387 119 402 C119 439 165 505 234 505 C274 505 300 467 300 381 L300 264 C131 166 49 115 49 84 C49 28 90 -10 151 -10 C189 -10 238 16 300 84 C303 30 340 -5 394 -5 C440 -5 477 33 487 89 L487 89 Z M36 751 C36 743 63 718 103 684 L244 563 L252 571 L134 715 C101 756 76 783 69 783 C51 783 36 768 36 751 L36 751 Z M300 260 L300 91 C300 90 300 89 300 88 C258 42 219 25 186 25 C144 25 116 51 116 91 C116 146 176 188 300 260 L300 260 Z " />
<glyph glyph-name="aacute" unicode="&#xe1;" horiz-adv-x="477" d="M248 563 L389 684 C429 719 456 745 456 751 C456 768 441 783 423 783 C417 783 392 756 358 715 L240 571 L248 563 L248 563 Z M487 89 L480 92 C475 62 451 42 421 42 C387 42 365 62 365 91 L365 357 C365 463 315 510 241 510 C138 510 69 414 69 360 C69 332 82 314 102 314 C124 314 139 333 139 347 C139 364 119 387 119 402 C119 439 165 505 234 505 C274 505 300 467 300 381 L300 264 C131 166 49 115 49 84 C49 28 90 -10 151 -10 C189 -10 238 16 300 84 C303 30 340 -5 394 -5 C440 -5 477 33 487 89 L487 89 Z M300 260 L300 91 C300 90 300 89 300 88 C258 42 219 25 186 25 C144 25 116 51 116 91 C116 146 176 188 300 260 L300 260 Z " />
<glyph glyph-name="acircumflex" unicode="&#xe2;" horiz-adv-x="477" d="M487 89 L480 92 C475 62 451 42 421 42 C387 42 365 62 365 91 L365 357 C365 463 315 510 241 510 C138 510 69 414 69 360 C69 332 82 314 102 314 C124 314 139 333 139 347 C139 364 119 387 119 402 C119 439 165 505 234 505 C274 505 300 467 300 381 L300 264 C131 166 49 115 49 84 C49 28 90 -10 151 -10 C189 -10 238 16 300 84 C303 30 340 -5 394 -5 C440 -5 477 33 487 89 L487 89 Z M264 760 C259 767 248 784 241 784 C234 784 222 768 218 761 L91 564 L100 557 L241 712 L382 557 L391 564 L264 760 L264 760 Z M300 260 L300 91 C300 90 300 89 300 88 C258 42 219 25 186 25 C144 25 116 51 116 91 C116 146 176 188 300 260 L300 260 Z " />
<glyph glyph-name="atilde" unicode="&#xe3;" horiz-adv-x="477" d="M122 620 C122 658 137 683 159 683 C203 683 261 618 304 618 C339 618 363 661 363 725 L360 725 C360 689 344 665 319 665 C276 665 218 730 174 730 C141 730 119 686 119 620 L122 620 L122 620 Z M487 89 L480 92 C475 62 451 42 421 42 C387 42 365 62 365 91 L365 357 C365 463 315 510 241 510 C138 510 69 414 69 360 C69 332 82 314 102 314 C124 314 139 333 139 347 C139 364 119 387 119 402 C119 439 165 505 234 505 C274 505 300 467 300 381 L300 264 C131 166 49 115 49 84 C49 28 90 -10 151 -10 C189 -10 238 16 300 84 C303 30 340 -5 394 -5 C440 -5 477 33 487 89 L487 89 Z M300 260 L300 91 C300 90 300 89 300 88 C258 42 219 25 186 25 C144 25 116 51 116 91 C116 146 176 188 300 260 L300 260 Z " />
<glyph glyph-name="adieresis" unicode="&#xe4;" horiz-adv-x="477" d="M311 615 C336 615 353 632 353 657 C353 683 336 700 311 700 C285 700 268 683 268 657 C268 632 285 615 311 615 L311 615 Z M171 615 C197 615 214 632 214 657 C214 683 197 700 171 700 C146 700 129 683 129 657 C129 632 146 615 171 615 L171 615 Z M487 89 L480 92 C475 62 451 42 421 42 C387 42 365 62 365 91 L365 357 C365 463 315 510 241 510 C138 510 69 414 69 360 C69 332 82 314 102 314 C124 314 139 333 139 347 C139 364 119 387 119 402 C119 439 165 505 234 505 C274 505 300 467 300 381 L300 264 C131 166 49 115 49 84 C49 28 90 -10 151 -10 C189 -10 238 16 300 84 C303 30 340 -5 394 -5 C440 -5 477 33 487 89 L487 89 Z M300 260 L300 91 C300 90 300 89 300 88 C258 42 219 25 186 25 C144 25 116 51 116 91 C116 146 176 188 300 260 L300 260 Z " />
<glyph glyph-name="aring" unicode="&#xe5;" horiz-adv-x="477" d="M163 655 C163 703 194 735 241 735 C288 735 319 703 319 655 C319 612 283 575 241 575 C199 575 163 612 163 655 L163 655 Z M144 655 C144 604 189 560 241 560 C293 560 338 604 338 655 C338 712 299 750 241 750 C183 750 144 712 144 655 L144 655 Z M487 89 L480 92 C475 62 451 42 421 42 C387 42 365 62 365 91 L365 357 C365 463 315 510 241 510 C138 510 69 414 69 360 C69 332 82 314 102 314 C124 314 139 333 139 347 C139 364 119 387 119 402 C119 439 165 505 234 505 C274 505 300 467 300 381 L300 264 C131 166 49 115 49 84 C49 28 90 -10 151 -10 C189 -10 238 16 300 84 C303 30 340 -5 394 -5 C440 -5 477 33 487 89 L487 89 Z M300 260 L300 91 C300 90 300 89 300 88 C258 42 219 25 186 25 C144 25 116 51 116 91 C116 146 176 188 300 260 L300 260 Z " />
<glyph glyph-name="egrave" unicode="&#xe8;" horiz-adv-x="487" d="M67 751 C67 743 94 718 134 684 L275 563 L283 571 L165 715 C132 756 107 783 100 783 C82 783 67 768 67 751 L67 751 Z M119 340 L457 340 C435 462 365 510 272 510 C136 510 45 432 45 233 C45 87 127 -10 251 -10 C333 -10 409 48 441 135 L439 135 C411 59 339 8 258 8 C172 8 114 109 114 260 C114 290 116 317 119 341 L119 340 L119 340 Z M384 346 L120 345 C138 460 194 507 271 507 C321 507 363 462 384 346 L384 346 Z " />
<glyph glyph-name="eacute" unicode="&#xe9;" horiz-adv-x="487" d="M279 563 L420 684 C460 719 487 745 487 751 C487 768 472 783 454 783 C448 783 423 756 389 715 L271 571 L279 563 L279 563 Z M119 340 L457 340 C435 462 365 510 272 510 C136 510 45 432 45 233 C45 87 127 -10 251 -10 C333 -10 409 48 441 135 L439 135 C411 59 339 8 258 8 C172 8 114 109 114 260 C114 290 116 317 119 341 L119 340 L119 340 Z M384 346 L120 345 C138 460 194 507 271 507 C321 507 363 462 384 346 L384 346 Z " />
<glyph glyph-name="ecircumflex" unicode="&#xea;" horiz-adv-x="487" d="M295 760 C290 767 279 784 272 784 C265 784 253 768 249 761 L122 564 L131 557 L272 712 L413 557 L422 564 L295 760 L295 760 Z M119 340 L457 340 C435 462 365 510 272 510 C136 510 45 432 45 233 C45 87 127 -10 251 -10 C333 -10 409 48 441 135 L439 135 C411 59 339 8 258 8 C172 8 114 109 114 260 C114 290 116 317 119 341 L119 340 L119 340 Z M384 346 L120 345 C138 460 194 507 271 507 C321 507 363 462 384 346 L384 346 Z " />
<glyph glyph-name="edieresis" unicode="&#xeb;" horiz-adv-x="487" d="M342 615 C367 615 384 632 384 657 C384 683 367 700 342 700 C316 700 299 683 299 657 C299 632 316 615 342 615 L342 615 Z M202 615 C228 615 245 632 245 657 C245 683 228 700 202 700 C177 700 160 683 160 657 C160 632 177 615 202 615 L202 615 Z M119 340 L457 340 C435 462 365 510 272 510 C136 510 45 432 45 233 C45 87 127 -10 251 -10 C333 -10 409 48 441 135 L439 135 C411 59 339 8 258 8 C172 8 114 109 114 260 C114 290 116 317 119 341 L119 340 L119 340 Z M384 346 L120 345 C138 460 194 507 271 507 C321 507 363 462 384 346 L384 346 Z " />
<glyph glyph-name="igrave" unicode="&#xec;" horiz-adv-x="218" d="M-86 750 C-86 742 -59 717 -19 683 L122 562 L130 570 L12 714 C-21 755 -46 782 -53 782 C-71 782 -86 767 -86 750 L-86 750 Z M64 477 C79 477 86 470 86 449 L86 41 C86 19 78 10 64 7 L64 0 L174 0 L174 7 C160 10 152 19 152 41 L152 500 L119 500 C110 497 97 491 85 491 L85 490 C77 488 69 486 62 484 L64 477 L64 477 Z " />
<glyph glyph-name="iacute" unicode="&#xed;" horiz-adv-x="218" d="M-86 750 C-86 742 -59 717 -19 683 L122 562 L130 570 L12 714 C-21 755 -46 782 -53 782 C-71 782 -86 767 -86 750 L-86 750 Z M64 477 C79 477 86 470 86 449 L86 41 C86 19 78 10 64 7 L64 0 L174 0 L174 7 C160 10 152 19 152 41 L152 500 L119 500 C110 497 97 491 85 491 L85 490 C77 488 69 486 62 484 L64 477 L64 477 Z " />
<glyph glyph-name="icircumflex" unicode="&#xee;" horiz-adv-x="218" d="M142 759 C137 766 126 783 119 783 C112 783 100 767 96 760 L-31 563 L-22 556 L119 711 L260 556 L269 563 L142 759 L142 759 Z M64 477 C79 477 86 470 86 449 L86 41 C86 19 78 10 64 7 L64 0 L174 0 L174 7 C160 10 152 19 152 41 L152 500 L119 500 C110 497 97 491 85 491 L85 490 C77 488 69 486 62 484 L64 477 L64 477 Z " />
<glyph glyph-name="idieresis" unicode="&#xef;" horiz-adv-x="218" d="M189 614 C214 614 231 631 231 656 C231 682 214 699 189 699 C163 699 146 682 146 656 C146 631 163 614 189 614 L189 614 Z M49 614 C75 614 92 631 92 656 C92 682 75 699 49 699 C24 699 7 682 7 656 C7 631 24 614 49 614 L49 614 Z M64 477 C79 477 86 470 86 449 L86 41 C86 19 78 10 64 7 L64 0 L174 0 L174 7 C160 10 152 19 152 41 L152 500 L119 500 C110 497 97 491 85 491 L85 490 C77 488 69 486 62 484 L64 477 L64 477 Z " />
<glyph glyph-name="ntilde" unicode="&#xf1;" horiz-adv-x="425" d="M90 619 C90 657 105 682 127 682 C171 682 229 617 273 617 C308 617 332 660 332 724 L329 724 C329 688 313 664 288 664 C244 664 186 729 142 729 C109 729 87 685 87 619 L90 619 L90 619 Z M45 407 L45 41 C45 19 37 10 23 7 L23 0 L133 0 L133 7 C119 10 111 19 111 41 L111 376 C133 437 182 477 235 477 C283 477 308 423 308 342 L308 41 C308 19 300 10 286 7 L286 0 L396 0 L396 7 C382 10 374 19 374 41 L374 342 C374 443 334 510 256 510 C196 510 138 460 111 386 L111 500 L78 500 C69 497 56 491 44 491 L44 490 C36 488 28 486 21 484 L21 479 C36 472 43 448 43 407 L45 407 L45 407 Z " />
<glyph glyph-name="ograve" unicode="&#xf2;" horiz-adv-x="574" d="M117 250 C117 403 185 505 287 505 C388 505 456 403 456 250 C456 97 388 -5 287 -5 C185 -5 117 97 117 250 L117 250 Z M45 250 C45 94 142 -10 287 -10 C432 -10 529 94 529 250 C529 406 432 510 287 510 C142 510 45 406 45 250 L45 250 Z M82 751 C82 743 109 718 149 684 L290 563 L298 571 L180 715 C147 756 122 783 115 783 C97 783 82 768 82 751 L82 751 Z " />
<glyph glyph-name="oacute" unicode="&#xf3;" horiz-adv-x="574" d="M294 563 L435 684 C475 719 502 745 502 751 C502 768 487 783 469 783 C463 783 438 756 404 715 L286 571 L294 563 L294 563 Z M117 250 C117 403 185 505 287 505 C388 505 456 403 456 250 C456 97 388 -5 287 -5 C185 -5 117 97 117 250 L117 250 Z M45 250 C45 94 142 -10 287 -10 C432 -10 529 94 529 250 C529 406 432 510 287 510 C142 510 45 406 45 250 L45 250 Z " />
<glyph glyph-name="ocircumflex" unicode="&#xf4;" horiz-adv-x="574" d="M117 250 C117 403 185 505 287 505 C388 505 456 403 456 250 C456 97 388 -5 287 -5 C185 -5 117 97 117 250 L117 250 Z M45 250 C45 94 142 -10 287 -10 C432 -10 529 94 529 250 C529 406 432 510 287 510 C142 510 45 406 45 250 L45 250 Z M310 760 C305 767 294 784 287 784 C280 784 268 768 264 761 L137 564 L146 557 L287 712 L428 557 L437 564 L310 760 L310 760 Z " />
<glyph glyph-name="otilde" unicode="&#xf5;" horiz-adv-x="574" d="M168 620 C168 658 183 683 205 683 C249 683 307 618 350 618 C385 618 409 661 409 725 L406 725 C406 689 390 665 365 665 C322 665 264 730 220 730 C187 730 165 686 165 620 L168 620 L168 620 Z M117 250 C117 403 185 505 287 505 C388 505 456 403 456 250 C456 97 388 -5 287 -5 C185 -5 117 97 117 250 L117 250 Z M45 250 C45 94 142 -10 287 -10 C432 -10 529 94 529 250 C529 406 432 510 287 510 C142 510 45 406 45 250 L45 250 Z " />
<glyph glyph-name="odieresis" unicode="&#xf6;" horiz-adv-x="574" d="M357 615 C382 615 399 632 399 657 C399 683 382 700 357 700 C331 700 314 683 314 657 C314 632 331 615 357 615 L357 615 Z M217 615 C243 615 260 632 260 657 C260 683 243 700 217 700 C192 700 175 683 175 657 C175 632 192 615 217 615 L217 615 Z M117 250 C117 403 185 505 287 505 C388 505 456 403 456 250 C456 97 388 -5 287 -5 C185 -5 117 97 117 250 L117 250 Z M45 250 C45 94 142 -10 287 -10 C432 -10 529 94 529 250 C529 406 432 510 287 510 C142 510 45 406 45 250 L45 250 Z " />
<glyph glyph-name="oslash" unicode="&#xf8;" horiz-adv-x="574" d="M47 -12 C47 -12 71 13 114 59 C156 15 216 -10 287 -10 C432 -10 529 94 529 250 C529 327 506 391 465 436 C487 459 509 483 532 508 L528 512 C505 488 483 464 461 441 C419 485 359 510 288 510 C143 510 46 406 46 250 C46 173 70 109 111 64 C68 18 44 -7 44 -7 L47 -12 L47 -12 Z M428 405 C310 278 213 174 146 102 C128 143 118 194 118 252 C118 405 186 507 288 507 C349 507 398 470 427 406 L428 405 L428 405 Z M429 400 C446 360 456 310 456 252 C456 99 388 -3 287 -3 C225 -3 176 34 147 97 C214 168 311 272 430 399 L429 400 L429 400 Z " />
<glyph glyph-name="ugrave" unicode="&#xf9;" horiz-adv-x="401" d="M-6 751 C-6 744 21 718 61 684 L201 563 L210 571 L91 715 C58 756 33 783 26 783 C9 783 -6 768 -6 751 L-6 751 Z M387 24 L382 24 C366 22 355 46 355 85 L355 500 L268 500 L268 493 C282 490 290 481 290 459 L290 129 C265 72 224 35 183 35 C137 35 106 83 106 154 L106 499 L18 499 L18 492 C32 489 40 480 40 458 L40 154 C40 55 85 -11 152 -11 C202 -11 255 42 289 123 L289 -1 L322 -1 L323 -1 C342 4 367 11 386 16 L387 24 L387 24 Z " />
<glyph glyph-name="uacute" unicode="&#xfa;" horiz-adv-x="401" d="M206 563 L346 684 C386 719 413 745 413 751 C413 768 398 783 381 783 C375 783 350 756 316 715 L197 571 L206 563 L206 563 Z M387 24 L382 24 C366 22 355 46 355 85 L355 500 L268 500 L268 493 C282 490 290 481 290 459 L290 129 C265 72 224 35 183 35 C137 35 106 83 106 154 L106 499 L18 499 L18 492 C32 489 40 480 40 458 L40 154 C40 55 85 -11 152 -11 C202 -11 255 42 289 123 L289 -1 L322 -1 L323 -1 C342 4 367 11 386 16 L387 24 L387 24 Z " />
<glyph glyph-name="ucircumflex" unicode="&#xfb;" horiz-adv-x="401" d="M222 760 C217 767 206 784 199 784 C191 784 179 768 175 761 L48 564 L57 557 L199 712 L340 557 L349 564 L222 760 L222 760 Z M387 24 L382 24 C366 22 355 46 355 85 L355 500 L268 500 L268 493 C282 490 290 481 290 459 L290 129 C265 72 224 35 183 35 C137 35 106 83 106 154 L106 499 L18 499 L18 492 C32 489 40 480 40 458 L40 154 C40 55 85 -11 152 -11 C202 -11 255 42 289 123 L289 -1 L322 -1 L323 -1 C342 4 367 11 386 16 L387 24 L387 24 Z " />
<glyph glyph-name="udieresis" unicode="&#xfc;" horiz-adv-x="401" d="M268 615 C294 615 311 632 311 657 C311 683 294 700 268 700 C243 700 226 683 226 657 C226 632 243 615 268 615 L268 615 Z M129 615 C154 615 171 632 171 657 C171 683 154 700 129 700 C103 700 86 683 86 657 C86 632 103 615 129 615 L129 615 Z M387 24 L382 24 C366 22 355 46 355 85 L355 500 L268 500 L268 493 C282 490 290 481 290 459 L290 129 C265 72 224 35 183 35 C137 35 106 83 106 154 L106 499 L18 499 L18 492 C32 489 40 480 40 458 L40 154 C40 55 85 -11 152 -11 C202 -11 255 42 289 123 L289 -1 L322 -1 L323 -1 C342 4 367 11 386 16 L387 24 L387 24 Z " />
<glyph glyph-name="ydieresis" unicode="&#xff;" horiz-adv-x="400" d="M291 615 C316 615 333 632 333 657 C333 683 316 700 291 700 C265 700 248 683 248 657 C248 632 265 615 291 615 L291 615 Z M151 615 C177 615 194 632 194 657 C194 683 177 700 151 700 C126 700 109 683 109 657 C109 632 126 615 151 615 L151 615 Z M393 500 L322 500 L322 493 L325 492 C334 490 330 460 317 419 L215 109 L116 438 C108 470 108 491 116 493 L119 494 L119 501 L7 501 L7 494 L10 493 C22 491 38 462 50 420 L175 1 C155 -52 136 -105 116 -158 C108 -179 94 -193 89 -193 C67 -193 62 -170 39 -170 C13 -170 -4 -187 -4 -213 C-4 -241 15 -259 44 -259 C68 -259 113 -222 133 -167 L191 -9 C242 136 294 281 346 426 C362 469 376 490 392 494 L393 500 L393 500 Z " />
<glyph glyph-name="Amacron" unicode="&#x100;" horiz-adv-x="597" d="M176 899 L424 899 L424 944 L176 944 L176 899 L176 899 Z M165 9 L151 10 C108 13 91 57 107 122 L154 294 L384 294 L433 120 C448 56 432 13 389 10 L375 9 L375 0 L597 0 L597 9 L589 10 C564 13 535 54 515 116 L341 727 C341 727 333 770 329 770 L321 770 C325 750 301 732 263 727 L266 717 L105 129 C85 61 42 13 -5 10 L-19 9 L-19 0 L168 0 L165 9 L165 9 Z M157 299 L269 709 L384 299 L157 299 L157 299 Z " />
<glyph glyph-name="amacron" unicode="&#x101;" horiz-adv-x="477" d="M117 649 L365 649 L365 694 L117 694 L117 649 L117 649 Z M487 89 L480 92 C475 62 451 42 421 42 C387 42 365 62 365 91 L365 357 C365 463 315 510 241 510 C138 510 69 414 69 360 C69 332 82 314 102 314 C124 314 139 333 139 347 C139 364 119 387 119 402 C119 439 165 505 234 505 C274 505 300 467 300 381 L300 264 C131 166 49 115 49 84 C49 28 90 -10 151 -10 C189 -10 238 16 300 84 C303 30 340 -5 394 -5 C440 -5 477 33 487 89 L487 89 Z M300 260 L300 91 C300 90 300 89 300 88 C258 42 219 25 186 25 C144 25 116 51 116 91 C116 146 176 188 300 260 L300 260 Z " />
<glyph glyph-name="Abreve" unicode="&#x102;" horiz-adv-x="597" d="M190 995 C195 926 239 880 300 880 C361 880 405 925 410 993 L396 995 C393 954 355 927 300 927 C245 927 207 955 204 996 L190 995 L190 995 Z M165 9 L151 10 C108 13 91 57 107 122 L154 294 L384 294 L433 120 C448 56 432 13 389 10 L375 9 L375 0 L597 0 L597 9 L589 10 C564 13 535 54 515 116 L341 727 C341 727 333 770 329 770 L321 770 C325 750 301 732 263 727 L266 717 L105 129 C85 61 42 13 -5 10 L-19 9 L-19 0 L168 0 L165 9 L165 9 Z M157 299 L269 709 L384 299 L157 299 L157 299 Z " />
<glyph glyph-name="abreve" unicode="&#x103;" horiz-adv-x="477" d="M131 745 C136 676 180 630 241 630 C302 630 346 675 351 743 L337 745 C334 704 296 677 241 677 C186 677 148 705 145 746 L131 745 L131 745 Z M487 89 L480 92 C475 62 451 42 421 42 C387 42 365 62 365 91 L365 357 C365 463 315 510 241 510 C138 510 69 414 69 360 C69 332 82 314 102 314 C124 314 139 333 139 347 C139 364 119 387 119 402 C119 439 165 505 234 505 C274 505 300 467 300 381 L300 264 C131 166 49 115 49 84 C49 28 90 -10 151 -10 C189 -10 238 16 300 84 C303 30 340 -5 394 -5 C440 -5 477 33 487 89 L487 89 Z M300 260 L300 91 C300 90 300 89 300 88 C258 42 219 25 186 25 C144 25 116 51 116 91 C116 146 176 188 300 260 L300 260 Z " />
<glyph glyph-name="Cacute" unicode="&#x106;" horiz-adv-x="678" d="M385 813 L526 934 C566 969 593 995 593 1001 C593 1018 578 1033 560 1033 C554 1033 529 1006 495 965 L377 821 L385 813 L385 813 Z M624 621 L624 621 L624 621 L624 621 Z M624 129 L624 129 L624 129 L624 129 Z M633 45 L633 174 L621 174 L612 156 C586 107 542 60 497 32 C458 9 416 -4 369 -4 C232 -4 140 148 140 376 C140 604 236 756 379 756 C416 756 448 748 477 734 C526 710 580 654 611 595 L620 577 L632 577 L632 703 L624 703 L620 691 C616 679 584 689 541 716 C498 744 447 760 376 760 C183 760 54 606 54 375 C54 144 179 -10 366 -10 C436 -10 492 8 539 38 C583 63 614 71 619 58 L623 45 L633 45 L633 45 Z " />
<glyph glyph-name="Ccircumflex" unicode="&#x108;" horiz-adv-x="678" d="M401 1010 C396 1017 385 1034 378 1034 C371 1034 359 1018 355 1011 L228 814 L237 807 L378 962 L519 807 L528 814 L401 1010 L401 1010 Z M624 621 L624 621 L624 621 L624 621 Z M624 129 L624 129 L624 129 L624 129 Z M633 45 L633 174 L621 174 L612 156 C586 107 542 60 497 32 C458 9 416 -4 369 -4 C232 -4 140 148 140 376 C140 604 236 756 379 756 C416 756 448 748 477 734 C526 710 580 654 611 595 L620 577 L632 577 L632 703 L624 703 L620 691 C616 679 584 689 541 716 C498 744 447 760 376 760 C183 760 54 606 54 375 C54 144 179 -10 366 -10 C436 -10 492 8 539 38 C583 63 614 71 619 58 L623 45 L633 45 L633 45 Z " />
<glyph glyph-name="Cdot" unicode="&#x10a;" horiz-adv-x="678" d="M420 907 C420 933 403 950 378 950 C353 950 336 933 336 907 C336 852 420 852 420 907 L420 907 Z M624 621 L624 621 L624 621 L624 621 Z M624 129 L624 129 L624 129 L624 129 Z M633 45 L633 174 L621 174 L612 156 C586 107 542 60 497 32 C458 9 416 -4 369 -4 C232 -4 140 148 140 376 C140 604 236 756 379 756 C416 756 448 748 477 734 C526 710 580 654 611 595 L620 577 L632 577 L632 703 L624 703 L620 691 C616 679 584 689 541 716 C498 744 447 760 376 760 C183 760 54 606 54 375 C54 144 179 -10 366 -10 C436 -10 492 8 539 38 C583 63 614 71 619 58 L623 45 L633 45 L633 45 Z " />
<glyph glyph-name="cdot" unicode="&#x10b;" horiz-adv-x="439" d="M302 657 C302 683 285 700 260 700 C235 700 218 683 218 657 C218 602 302 602 302 657 L302 657 Z M409 128 L407 129 C374 56 313 7 254 7 C169 7 112 112 112 269 C112 411 171 506 259 506 C288 506 322 466 344 405 C351 385 364 372 377 372 C403 372 416 385 409 405 C386 468 326 510 260 510 C131 510 45 401 45 237 C45 89 125 -10 245 -10 C307 -10 372 45 409 128 L409 128 Z " />
<glyph glyph-name="Ccaron" unicode="&#x10c;" horiz-adv-x="678" d="M519 1043 L378 888 L237 1043 L228 1036 L355 839 C359 832 371 816 378 816 C385 816 396 833 401 840 L528 1036 L519 1043 L519 1043 Z M624 621 L624 621 L624 621 L624 621 Z M624 129 L624 129 L624 129 L624 129 Z M633 45 L633 174 L621 174 L612 156 C586 107 542 60 497 32 C458 9 416 -4 369 -4 C232 -4 140 148 140 376 C140 604 236 756 379 756 C416 756 448 748 477 734 C526 710 580 654 611 595 L620 577 L632 577 L632 703 L624 703 L620 691 C616 679 584 689 541 716 C498 744 447 760 376 760 C183 760 54 606 54 375 C54 144 179 -10 366 -10 C436 -10 492 8 539 38 C583 63 614 71 619 58 L623 45 L633 45 L633 45 Z " />
<glyph glyph-name="ccaron" unicode="&#x10d;" horiz-adv-x="439" d="M401 793 L260 638 L119 793 L110 786 L237 589 C241 582 253 566 260 566 C267 566 278 583 283 590 L410 786 L401 793 L401 793 Z M409 128 L407 129 C374 56 313 7 254 7 C169 7 112 112 112 269 C112 411 171 506 259 506 C288 506 322 466 344 405 C351 385 364 372 377 372 C403 372 416 385 409 405 C386 468 326 510 260 510 C131 510 45 401 45 237 C45 89 125 -10 245 -10 C307 -10 372 45 409 128 L409 128 Z " />
<glyph glyph-name="Dcaron" unicode="&#x10e;" horiz-adv-x="742" d="M496 1043 L355 888 L214 1043 L205 1036 L332 839 C336 832 348 816 355 816 C362 816 373 833 378 840 L505 1036 L496 1043 L496 1043 Z M244 4 C190 4 184 40 184 94 L184 746 L267 746 C489 746 603 598 603 375 C603 130 459 4 244 4 L244 4 Z M65 743 L72 742 C93 740 107 713 107 674 L107 76 C107 37 93 10 72 8 L65 7 L65 0 L250 0 C512 0 687 128 687 375 C687 600 550 750 283 750 L65 750 L65 743 L65 743 Z " />
<glyph glyph-name="dcaron" unicode="&#x10f;" horiz-adv-x="517" d="M544 757 C530 757 522 695 518 650 L508 539 L520 536 L552 643 C565 684 573 725 573 747 C573 754 561 757 544 757 L544 757 Z M503 27 L496 26 C475 22 461 45 461 84 L461 750 L429 750 L396 741 L396 740 C388 738 380 736 373 734 L373 729 C388 722 395 698 395 657 L395 417 C367 470 318 510 268 510 C121 510 45 407 45 253 C45 98 125 -5 246 -5 C302 -5 361 26 397 73 L397 0 L430 0 L431 1 C453 7 482 15 504 21 L503 27 L503 27 Z M397 376 L397 81 C370 46 322 23 274 23 C177 23 113 122 113 271 C113 404 169 492 277 492 C328 492 378 439 397 376 L397 376 Z " />
<glyph glyph-name="Emacron" unicode="&#x112;" horiz-adv-x="535" d="M160 899 L409 899 L409 944 L160 944 L160 899 L160 899 Z M400 293 L400 482 L391 482 L387 468 C373 421 326 390 269 390 L184 390 L184 746 L330 746 C387 746 438 715 458 668 L464 654 L473 654 C469 682 464 720 461 748 L460 748 L460 750 L45 750 L45 743 L55 742 C86 740 107 705 107 654 L107 96 C107 45 86 10 55 8 L45 7 L45 0 L485 0 L485 2 L486 2 C491 27 497 61 501 86 L492 86 L486 73 C465 32 403 4 331 4 L278 4 C193 4 184 40 184 94 L184 385 L269 385 C326 385 373 354 387 307 L391 293 L400 293 L400 293 Z " />
<glyph glyph-name="emacron" unicode="&#x113;" horiz-adv-x="487" d="M148 649 L396 649 L396 694 L148 694 L148 649 L148 649 Z M119 340 L457 340 C435 462 365 510 272 510 C136 510 45 432 45 233 C45 87 127 -10 251 -10 C333 -10 409 48 441 135 L439 135 C411 59 339 8 258 8 C172 8 114 109 114 260 C114 290 116 317 119 341 L119 340 L119 340 Z M384 346 L120 345 C138 460 194 507 271 507 C321 507 363 462 384 346 L384 346 Z " />
<glyph glyph-name="Ebreve" unicode="&#x114;" horiz-adv-x="535" d="M174 995 C179 926 223 880 285 880 C346 880 390 925 395 993 L381 995 C378 954 340 927 285 927 C230 927 191 955 188 996 L174 995 L174 995 Z M400 293 L400 482 L391 482 L387 468 C373 421 326 390 269 390 L184 390 L184 746 L330 746 C387 746 438 715 458 668 L464 654 L473 654 C469 682 464 720 461 748 L460 748 L460 750 L45 750 L45 743 L55 742 C86 740 107 705 107 654 L107 96 C107 45 86 10 55 8 L45 7 L45 0 L485 0 L485 2 L486 2 C491 27 497 61 501 86 L492 86 L486 73 C465 32 403 4 331 4 L278 4 C193 4 184 40 184 94 L184 385 L269 385 C326 385 373 354 387 307 L391 293 L400 293 L400 293 Z " />
<glyph glyph-name="ebreve" unicode="&#x115;" horiz-adv-x="487" d="M162 745 C167 676 211 630 272 630 C333 630 377 675 382 743 L368 745 C365 704 327 677 272 677 C217 677 179 705 176 746 L162 745 L162 745 Z M119 340 L457 340 C435 462 365 510 272 510 C136 510 45 432 45 233 C45 87 127 -10 251 -10 C333 -10 409 48 441 135 L439 135 C411 59 339 8 258 8 C172 8 114 109 114 260 C114 290 116 317 119 341 L119 340 L119 340 Z M384 346 L120 345 C138 460 194 507 271 507 C321 507 363 462 384 346 L384 346 Z " />
<glyph glyph-name="Edot" unicode="&#x116;" horiz-adv-x="535" d="M285 865 C310 865 327 882 327 907 C327 933 310 950 285 950 C259 950 242 933 242 907 C242 882 259 865 285 865 L285 865 Z M400 293 L400 482 L391 482 L387 468 C373 421 326 390 269 390 L184 390 L184 746 L330 746 C387 746 438 715 458 668 L464 654 L473 654 C469 682 464 720 461 748 L460 748 L460 750 L45 750 L45 743 L55 742 C86 740 107 705 107 654 L107 96 C107 45 86 10 55 8 L45 7 L45 0 L485 0 L485 2 L486 2 C491 27 497 61 501 86 L492 86 L486 73 C465 32 403 4 331 4 L278 4 C193 4 184 40 184 94 L184 385 L269 385 C326 385 373 354 387 307 L391 293 L400 293 L400 293 Z " />
<glyph glyph-name="edot" unicode="&#x117;" horiz-adv-x="487" d="M314 657 C314 683 297 700 272 700 C247 700 230 683 230 657 C230 602 314 602 314 657 L314 657 Z M119 340 L457 340 C435 462 365 510 272 510 C136 510 45 432 45 233 C45 87 127 -10 251 -10 C333 -10 409 48 441 135 L439 135 C411 59 339 8 258 8 C172 8 114 109 114 260 C114 290 116 317 119 341 L119 340 L119 340 Z M384 346 L120 345 C138 460 194 507 271 507 C321 507 363 462 384 346 L384 346 Z " />
<glyph glyph-name="Ecaron" unicode="&#x11a;" horiz-adv-x="535" d="M426 1043 L285 888 L143 1043 L134 1036 L261 839 C265 832 277 816 285 816 C292 816 303 833 308 840 L435 1036 L426 1043 L426 1043 Z M400 293 L400 482 L391 482 L387 468 C373 421 326 390 269 390 L184 390 L184 746 L330 746 C387 746 438 715 458 668 L464 654 L473 654 C469 682 464 720 461 748 L460 748 L460 750 L45 750 L45 743 L55 742 C86 740 107 705 107 654 L107 96 C107 45 86 10 55 8 L45 7 L45 0 L485 0 L485 2 L486 2 C491 27 497 61 501 86 L492 86 L486 73 C465 32 403 4 331 4 L278 4 C193 4 184 40 184 94 L184 385 L269 385 C326 385 373 354 387 307 L391 293 L400 293 L400 293 Z " />
<glyph glyph-name="ecaron" unicode="&#x11b;" horiz-adv-x="487" d="M413 793 L272 638 L131 793 L122 786 L249 589 C253 582 265 566 272 566 C279 566 290 583 295 590 L422 786 L413 793 L413 793 Z M119 340 L457 340 C435 462 365 510 272 510 C136 510 45 432 45 233 C45 87 127 -10 251 -10 C333 -10 409 48 441 135 L439 135 C411 59 339 8 258 8 C172 8 114 109 114 260 C114 290 116 317 119 341 L119 340 L119 340 Z M384 346 L120 345 C138 460 194 507 271 507 C321 507 363 462 384 346 L384 346 Z " />
<glyph glyph-name="Gcircumflex" unicode="&#x11c;" horiz-adv-x="713" d="M633 576 L633 702 L625 702 L621 690 C617 678 585 688 542 715 C499 743 448 759 377 759 C184 759 55 605 55 374 C55 143 183 -11 375 -11 C454 -11 521 1 584 21 L614 28 L614 31 C639 40 664 50 688 61 L686 64 C663 54 639 45 613 37 L613 211 C613 271 631 312 657 315 L665 316 L665 325 L484 325 L484 316 L492 315 C518 312 536 271 536 211 C536 168 536 120 536 82 C529 35 471 5 386 5 C238 5 139 153 139 374 C139 602 235 754 378 754 C415 754 447 746 476 732 C525 708 579 652 610 593 L619 575 L633 576 L633 576 Z M399 1009 C394 1016 383 1033 376 1033 C369 1033 357 1017 353 1010 L226 813 L235 806 L376 961 L517 806 L526 813 L399 1009 L399 1009 Z M622 620 L622 620 L622 620 L622 620 Z M422 6 C410 6 398 6 385 6 C395 6 408 6 422 6 L422 6 Z " />
<glyph glyph-name="Gbreve" unicode="&#x11e;" horiz-adv-x="713" d="M268 995 C273 926 317 880 378 880 C439 880 483 925 488 993 L474 995 C471 954 433 927 378 927 C323 927 285 955 282 996 L268 995 L268 995 Z M633 576 L633 702 L625 702 L621 690 C617 678 585 688 542 715 C499 743 448 759 377 759 C184 759 55 605 55 374 C55 143 183 -11 375 -11 C454 -11 521 1 584 21 L614 28 L614 31 C639 40 664 50 688 61 L686 64 C663 54 639 45 613 37 L613 211 C613 271 631 312 657 315 L665 316 L665 325 L484 325 L484 316 L492 315 C518 312 536 271 536 211 C536 168 536 120 536 82 C529 35 471 5 386 5 C238 5 139 153 139 374 C139 602 235 754 378 754 C415 754 447 746 476 732 C525 708 579 652 610 593 L619 575 L633 576 L633 576 Z M622 620 L622 620 L622 620 L622 620 Z M422 6 C410 6 398 6 385 6 C395 6 408 6 422 6 L422 6 Z " />
<glyph glyph-name="gbreve" unicode="&#x11f;" horiz-adv-x="485" d="M131 745 C136 676 180 630 241 630 C302 630 346 675 351 743 L337 745 C334 704 296 677 241 677 C186 677 148 705 145 746 L131 745 L131 745 Z M506 468 C506 491 489 507 463 507 C429 507 395 484 373 448 C345 487 299 510 241 510 C144 510 80 446 80 350 C80 265 129 205 207 191 C116 185 57 153 57 106 C57 56 91 20 143 11 C86 -8 49 -48 49 -94 C49 -176 129 -230 250 -230 C370 -230 450 -168 450 -74 C450 15 402 75 280 75 L173 75 C127 75 96 95 96 126 C96 163 154 188 241 188 C337 188 401 253 401 350 C401 386 392 418 376 443 C389 457 407 466 426 466 C442 466 463 439 479 439 C496 439 507 451 507 468 L506 468 L506 468 Z M242 192 C184 192 146 255 146 350 C146 444 184 506 242 506 C299 506 337 444 337 350 C337 255 299 192 242 192 L242 192 Z M151 10 C157 9 163 9 169 9 L273 9 C362 9 396 -30 396 -89 C396 -171 338 -226 250 -226 C162 -226 104 -167 104 -78 C104 -38 122 -5 151 10 L151 10 Z " />
<glyph glyph-name="Gdot" unicode="&#x120;" horiz-adv-x="713" d="M420 907 C420 933 403 950 378 950 C353 950 336 933 336 907 C336 852 420 852 420 907 L420 907 Z M633 576 L633 702 L625 702 L621 690 C617 678 585 688 542 715 C499 743 448 759 377 759 C184 759 55 605 55 374 C55 143 183 -11 375 -11 C454 -11 521 1 584 21 L614 28 L614 31 C639 40 664 50 688 61 L686 64 C663 54 639 45 613 37 L613 211 C613 271 631 312 657 315 L665 316 L665 325 L484 325 L484 316 L492 315 C518 312 536 271 536 211 C536 168 536 120 536 82 C529 35 471 5 386 5 C238 5 139 153 139 374 C139 602 235 754 378 754 C415 754 447 746 476 732 C525 708 579 652 610 593 L619 575 L633 576 L633 576 Z M622 620 L622 620 L622 620 L622 620 Z M422 6 C410 6 398 6 385 6 C395 6 408 6 422 6 L422 6 Z " />
<glyph glyph-name="gdot" unicode="&#x121;" horiz-adv-x="485" d="M283 657 C283 683 266 700 241 700 C216 700 199 683 199 657 C199 602 283 602 283 657 L283 657 Z M506 468 C506 491 489 507 463 507 C429 507 395 484 373 448 C345 487 299 510 241 510 C144 510 80 446 80 350 C80 265 129 205 207 191 C116 185 57 153 57 106 C57 56 91 20 143 11 C86 -8 49 -48 49 -94 C49 -176 129 -230 250 -230 C370 -230 450 -168 450 -74 C450 15 402 75 280 75 L173 75 C127 75 96 95 96 126 C96 163 154 188 241 188 C337 188 401 253 401 350 C401 386 392 418 376 443 C389 457 407 466 426 466 C442 466 463 439 479 439 C496 439 507 451 507 468 L506 468 L506 468 Z M242 192 C184 192 146 255 146 350 C146 444 184 506 242 506 C299 506 337 444 337 350 C337 255 299 192 242 192 L242 192 Z M151 10 C157 9 163 9 169 9 L273 9 C362 9 396 -30 396 -89 C396 -171 338 -226 250 -226 C162 -226 104 -167 104 -78 C104 -38 122 -5 151 10 L151 10 Z " />
<glyph glyph-name="Hcircumflex" unicode="&#x124;" horiz-adv-x="710" d="M400 1010 C395 1017 384 1034 377 1034 C369 1034 357 1018 353 1011 L226 814 L235 807 L377 962 L518 807 L527 814 L400 1010 L400 1010 Z M651 7 L644 8 C623 10 609 37 609 76 L609 674 C609 713 623 740 644 742 L651 743 L651 750 L490 750 L490 743 L497 742 C518 740 532 713 532 674 L532 388 L220 388 L220 674 C220 713 234 740 255 742 L262 743 L262 750 L101 750 L101 743 L108 742 C129 740 143 713 143 674 L143 76 C143 37 129 10 108 8 L101 7 L101 0 L262 0 L262 7 L255 8 C234 10 220 37 220 76 L220 383 L532 383 L532 76 C532 37 518 10 497 8 L490 7 L490 0 L651 0 L651 7 L651 7 Z " />
<glyph glyph-name="Itilde" unicode="&#x128;" horiz-adv-x="286" d="M28 870 C28 908 43 933 65 933 C109 933 167 868 210 868 C245 868 269 911 269 975 L266 975 C266 939 250 915 225 915 C182 915 124 980 80 980 C47 980 25 936 25 870 L28 870 L28 870 Z M227 7 L220 8 C199 10 185 37 185 76 L185 674 C185 713 199 740 220 742 L227 743 L227 750 L66 750 L66 743 L73 742 C94 740 108 713 108 674 L108 76 C108 37 94 10 73 8 L66 7 L66 0 L227 0 L227 7 L227 7 Z " />
<glyph glyph-name="itilde" unicode="&#x129;" horiz-adv-x="218" d="M0 619 C0 657 15 682 37 682 C81 682 139 617 182 617 C217 617 241 660 241 724 L238 724 C238 688 222 664 197 664 C154 664 96 729 52 729 C19 729 -3 685 -3 619 L0 619 L0 619 Z M64 477 C79 477 86 470 86 449 L86 41 C86 19 78 10 64 7 L64 0 L174 0 L174 7 C160 10 152 19 152 41 L152 500 L119 500 C110 497 97 491 85 491 L85 490 C77 488 69 486 62 484 L64 477 L64 477 Z " />
<glyph glyph-name="Imacron" unicode="&#x12a;" horiz-adv-x="286" d="M23 899 L271 899 L271 944 L23 944 L23 899 L23 899 Z M227 7 L220 8 C199 10 185 37 185 76 L185 674 C185 713 199 740 220 742 L227 743 L227 750 L66 750 L66 743 L73 742 C94 740 108 713 108 674 L108 76 C108 37 94 10 73 8 L66 7 L66 0 L227 0 L227 7 L227 7 Z " />
<glyph glyph-name="imacron" unicode="&#x12b;" horiz-adv-x="218" d="M-5 648 L243 648 L243 693 L-5 693 L-5 648 L-5 648 Z M64 477 C79 477 86 470 86 449 L86 41 C86 19 78 10 64 7 L64 0 L174 0 L174 7 C160 10 152 19 152 41 L152 500 L119 500 C110 497 97 491 85 491 L85 490 C77 488 69 486 62 484 L64 477 L64 477 Z " />
<glyph glyph-name="Ibreve" unicode="&#x12c;" horiz-adv-x="286" d="M37 995 C42 926 86 880 147 880 C208 880 252 925 257 993 L243 995 C240 954 202 927 147 927 C92 927 54 955 51 996 L37 995 L37 995 Z M227 7 L220 8 C199 10 185 37 185 76 L185 674 C185 713 199 740 220 742 L227 743 L227 750 L66 750 L66 743 L73 742 C94 740 108 713 108 674 L108 76 C108 37 94 10 73 8 L66 7 L66 0 L227 0 L227 7 L227 7 Z " />
<glyph glyph-name="ibreve" unicode="&#x12d;" horiz-adv-x="218" d="M9 744 C14 675 58 629 119 629 C180 629 224 674 229 742 L215 744 C212 703 174 676 119 676 C64 676 26 704 23 745 L9 744 L9 744 Z M64 477 C79 477 86 470 86 449 L86 41 C86 19 78 10 64 7 L64 0 L174 0 L174 7 C160 10 152 19 152 41 L152 500 L119 500 C110 497 97 491 85 491 L85 490 C77 488 69 486 62 484 L64 477 L64 477 Z " />
<glyph glyph-name="Idot" unicode="&#x130;" horiz-adv-x="286" d="M189 907 C189 933 172 950 147 950 C122 950 105 933 105 907 C105 852 189 852 189 907 L189 907 Z M227 7 L220 8 C199 10 185 37 185 76 L185 674 C185 713 199 740 220 742 L227 743 L227 750 L66 750 L66 743 L73 742 C94 740 108 713 108 674 L108 76 C108 37 94 10 73 8 L66 7 L66 0 L227 0 L227 7 L227 7 Z " />
<glyph glyph-name="dotlessi" unicode="&#x131;" horiz-adv-x="218" d="M64 477 C79 477 86 470 86 449 L86 41 C86 19 78 10 64 7 L64 0 L174 0 L174 7 C160 10 152 19 152 41 L152 500 L119 500 C110 497 97 491 85 491 L85 490 C77 488 69 486 62 484 L64 477 L64 477 Z " />
<glyph glyph-name="Jcircumflex" unicode="&#x134;" horiz-adv-x="286" d="M170 1010 C165 1017 154 1034 147 1034 C140 1034 128 1018 124 1011 L-3 814 L6 807 L147 962 L288 807 L297 814 L170 1010 L170 1010 Z M227 750 L66 750 L66 743 L73 742 C94 740 108 713 108 674 L108 -51 C108 -187 43 -213 -4 -213 C-42 -213 -24 -151 -62 -151 C-83 -151 -97 -165 -97 -186 C-97 -206 -62 -220 -9 -220 C72 -220 185 -170 185 95 L185 674 C185 713 199 740 220 742 L227 743 L227 750 L227 750 Z " />
<glyph glyph-name="Lacute" unicode="&#x139;" horiz-adv-x="508" d="M154 813 L295 934 C335 969 362 995 362 1001 C362 1018 347 1033 329 1033 C323 1033 298 1006 264 965 L146 821 L154 813 L154 813 Z M227 750 L66 750 L66 743 L73 742 C94 740 108 713 108 674 L108 76 C108 37 94 10 73 8 L66 7 L66 0 L477 0 L477 6 C481 33 487 68 492 95 L483 95 L477 82 C456 41 394 13 322 13 L279 13 C194 13 185 45 185 94 L185 674 C185 713 199 740 220 742 L227 743 L227 750 L227 750 Z " />
<glyph glyph-name="Lcaron" unicode="&#x13d;" horiz-adv-x="508" d="M323 808 C309 808 301 746 298 701 L289 590 L300 587 L332 694 C345 735 353 776 353 798 C353 805 341 808 323 808 L323 808 Z M227 750 L66 750 L66 743 L73 742 C94 740 108 713 108 674 L108 76 C108 37 94 10 73 8 L66 7 L66 0 L477 0 L477 6 C481 33 487 68 492 95 L483 95 L477 82 C456 41 394 13 322 13 L279 13 C194 13 185 45 185 94 L185 674 C185 713 199 740 220 742 L227 743 L227 750 L227 750 Z " />
<glyph glyph-name="lcaron" unicode="&#x13e;" horiz-adv-x="162" d="M194 757 C180 757 172 695 168 650 L158 539 L170 536 L202 643 C215 684 223 725 223 747 C223 754 211 757 194 757 L194 757 Z M45 657 L45 41 C45 19 37 10 23 7 L23 0 L133 0 L133 7 C119 10 111 19 111 41 L111 750 L78 750 C69 747 56 741 44 741 L44 740 C36 738 28 736 21 734 L21 729 C36 722 43 698 43 657 L45 657 L45 657 Z " />
<glyph glyph-name="Nacute" unicode="&#x143;" horiz-adv-x="645" d="M227 813 L368 934 C408 969 435 995 435 1001 C435 1018 420 1033 402 1033 C396 1033 371 1006 337 965 L219 821 L227 813 L227 813 Z M2 743 C31 739 58 720 86 679 L98 660 L97 76 C97 37 83 10 62 8 L55 7 L55 0 L162 0 L162 7 L155 8 C134 10 121 38 120 76 L118 630 C253 420 388 210 523 0 L539 0 L544 686 C547 719 561 741 580 743 L586 744 L586 751 L479 751 L479 744 L486 743 C507 741 521 713 521 674 L522 143 L520 145 L134 750 L2 750 L2 743 L2 743 Z " />
<glyph glyph-name="Ncaron" unicode="&#x147;" horiz-adv-x="645" d="M461 1043 L320 888 L179 1043 L170 1036 L297 839 C301 832 313 816 320 816 C327 816 338 833 343 840 L470 1036 L461 1043 L461 1043 Z M2 743 C31 739 58 720 86 679 L98 660 L97 76 C97 37 83 10 62 8 L55 7 L55 0 L162 0 L162 7 L155 8 C134 10 121 38 120 76 L118 630 C253 420 388 210 523 0 L539 0 L544 686 C547 719 561 741 580 743 L586 744 L586 751 L479 751 L479 744 L486 743 C507 741 521 713 521 674 L522 143 L520 145 L134 750 L2 750 L2 743 L2 743 Z " />
<glyph glyph-name="ncaron" unicode="&#x148;" horiz-adv-x="425" d="M351 792 L210 637 L68 792 L59 785 L186 588 C190 581 202 565 210 565 C217 565 228 582 233 589 L360 785 L351 792 L351 792 Z M45 407 L45 41 C45 19 37 10 23 7 L23 0 L133 0 L133 7 C119 10 111 19 111 41 L111 376 C133 437 182 477 235 477 C283 477 308 423 308 342 L308 41 C308 19 300 10 286 7 L286 0 L396 0 L396 7 C382 10 374 19 374 41 L374 342 C374 443 334 510 256 510 C196 510 138 460 111 386 L111 500 L78 500 C69 497 56 491 44 491 L44 490 C36 488 28 486 21 484 L21 479 C36 472 43 448 43 407 L45 407 L45 407 Z " />
<glyph glyph-name="Omacron" unicode="&#x14c;" horiz-adv-x="783" d="M263 899 L511 899 L511 944 L263 944 L263 899 L263 899 Z M140 375 C140 603 238 755 386 755 C541 755 644 603 644 375 C644 147 538 -5 378 -5 C235 -5 140 147 140 375 L140 375 Z M56 375 C56 144 184 -10 377 -10 C588 -10 728 144 728 375 C728 606 592 760 387 760 C188 760 56 606 56 375 L56 375 Z " />
<glyph glyph-name="omacron" unicode="&#x14d;" horiz-adv-x="574" d="M163 649 L411 649 L411 694 L163 694 L163 649 L163 649 Z M117 250 C117 403 185 505 287 505 C388 505 456 403 456 250 C456 97 388 -5 287 -5 C185 -5 117 97 117 250 L117 250 Z M45 250 C45 94 142 -10 287 -10 C432 -10 529 94 529 250 C529 406 432 510 287 510 C142 510 45 406 45 250 L45 250 Z " />
<glyph glyph-name="Obreve" unicode="&#x14e;" horiz-adv-x="783" d="M277 995 C282 926 326 880 387 880 C448 880 492 925 497 993 L483 995 C480 954 442 927 387 927 C332 927 294 955 291 996 L277 995 L277 995 Z M140 375 C140 603 238 755 386 755 C541 755 644 603 644 375 C644 147 538 -5 378 -5 C235 -5 140 147 140 375 L140 375 Z M56 375 C56 144 184 -10 377 -10 C588 -10 728 144 728 375 C728 606 592 760 387 760 C188 760 56 606 56 375 L56 375 Z " />
<glyph glyph-name="obreve" unicode="&#x14f;" horiz-adv-x="574" d="M177 745 C182 676 226 630 287 630 C348 630 392 675 397 743 L383 745 C380 704 342 677 287 677 C232 677 194 705 191 746 L177 745 L177 745 Z M117 250 C117 403 185 505 287 505 C388 505 456 403 456 250 C456 97 388 -5 287 -5 C185 -5 117 97 117 250 L117 250 Z M45 250 C45 94 142 -10 287 -10 C432 -10 529 94 529 250 C529 406 432 510 287 510 C142 510 45 406 45 250 L45 250 Z " />
<glyph glyph-name="Racute" unicode="&#x154;" horiz-adv-x="613" d="M269 813 L409 934 C449 969 476 995 476 1001 C476 1018 461 1033 444 1033 C438 1033 413 1006 379 965 L260 821 L269 813 L269 813 Z M65 743 L72 742 C93 740 107 713 107 674 L107 76 C107 37 93 10 72 8 L65 7 L65 0 L226 0 L226 7 L219 8 C198 10 184 37 184 76 L184 361 L270 361 C283 324 337 213 411 72 C447 3 455 0 602 0 L602 9 C538 9 534 12 502 72 C425 219 368 328 347 368 C441 385 500 440 500 539 C500 666 410 750 274 750 L64 750 L65 743 L65 743 Z M183 380 L183 735 C203 735 231 734 251 734 C349 734 415 662 415 554 C415 434 359 380 274 380 L183 380 L183 380 Z " />
<glyph glyph-name="Rcaron" unicode="&#x158;" horiz-adv-x="613" d="M403 1043 L262 888 L120 1043 L111 1036 L238 839 C242 832 254 816 262 816 C269 816 280 833 285 840 L412 1036 L403 1043 L403 1043 Z M65 743 L72 742 C93 740 107 713 107 674 L107 76 C107 37 93 10 72 8 L65 7 L65 0 L226 0 L226 7 L219 8 C198 10 184 37 184 76 L184 361 L270 361 C283 324 337 213 411 72 C447 3 455 0 602 0 L602 9 C538 9 534 12 502 72 C425 219 368 328 347 368 C441 385 500 440 500 539 C500 666 410 750 274 750 L64 750 L65 743 L65 743 Z M183 380 L183 735 C203 735 231 734 251 734 C349 734 415 662 415 554 C415 434 359 380 274 380 L183 380 L183 380 Z " />
<glyph glyph-name="rcaron" unicode="&#x159;" horiz-adv-x="304" d="M306 792 L165 637 L23 792 L14 785 L141 588 C145 581 157 565 165 565 C172 565 183 582 188 589 L315 785 L306 792 L306 792 Z M46 407 L46 41 C46 19 38 10 24 7 L24 0 L134 0 L134 7 C120 10 112 19 112 41 L112 397 C124 448 157 480 202 480 C211 480 217 466 217 445 C217 422 233 406 256 406 C279 406 294 422 294 445 C294 485 269 511 232 511 C171 511 126 471 112 408 L112 502 L79 502 C70 499 57 493 45 493 L45 492 C37 490 29 488 22 486 L22 481 C37 474 44 450 44 409 L46 407 L46 407 Z " />
<glyph glyph-name="Sacute" unicode="&#x15a;" horiz-adv-x="513" d="M264 813 L404 934 C444 969 471 995 471 1001 C471 1018 456 1033 439 1033 C433 1033 408 1006 374 965 L255 821 L264 813 L264 813 Z M51 195 L51 43 L59 43 L63 59 C67 74 99 64 144 34 C161 22 179 13 198 4 L199 5 C224 -5 250 -10 277 -10 C395 -10 473 69 473 188 C473 280 414 367 300 415 C187 463 129 532 129 600 C129 716 191 779 287 746 C334 728 382 678 411 616 L420 595 L432 595 L432 711 L424 711 L420 703 C417 697 388 709 348 731 C326 743 300 757 275 763 L273 757 C150 777 69 696 69 569 C69 475 132 385 254 334 C358 290 412 226 412 165 C412 64 358 -4 277 -4 C249 -4 220 5 193 21 C149 48 102 107 73 173 L64 194 L51 195 L51 195 Z M64 152 L64 152 L64 152 L64 152 Z " />
<glyph glyph-name="Scircumflex" unicode="&#x15c;" horiz-adv-x="513" d="M51 195 L51 43 L59 43 L63 59 C67 74 99 64 144 34 C161 22 179 13 198 4 L199 5 C224 -5 250 -10 277 -10 C395 -10 473 69 473 188 C473 280 414 367 300 415 C187 463 129 532 129 600 C129 716 191 779 287 746 C334 728 382 678 411 616 L420 595 L432 595 L432 711 L424 711 L420 703 C417 697 388 709 348 731 C326 743 300 757 275 763 L273 757 C150 777 69 696 69 569 C69 475 132 385 254 334 C358 290 412 226 412 165 C412 64 358 -4 277 -4 C249 -4 220 5 193 21 C149 48 102 107 73 173 L64 194 L51 195 L51 195 Z M281 1009 C276 1016 265 1033 258 1033 C250 1033 238 1017 234 1010 L107 813 L116 806 L258 961 L399 806 L408 813 L281 1009 L281 1009 Z M64 152 L64 152 L64 152 L64 152 Z " />
<glyph glyph-name="Scaron" unicode="&#x160;" horiz-adv-x="513" d="M398 1043 L257 888 L115 1043 L106 1036 L233 839 C237 832 249 816 257 816 C264 816 275 833 280 840 L407 1036 L398 1043 L398 1043 Z M51 195 L51 43 L59 43 L63 59 C67 74 99 64 144 34 C161 22 179 13 198 4 L199 5 C224 -5 250 -10 277 -10 C395 -10 473 69 473 188 C473 280 414 367 300 415 C187 463 129 532 129 600 C129 716 191 779 287 746 C334 728 382 678 411 616 L420 595 L432 595 L432 711 L424 711 L420 703 C417 697 388 709 348 731 C326 743 300 757 275 763 L273 757 C150 777 69 696 69 569 C69 475 132 385 254 334 C358 290 412 226 412 165 C412 64 358 -4 277 -4 C249 -4 220 5 193 21 C149 48 102 107 73 173 L64 194 L51 195 L51 195 Z M64 152 L64 152 L64 152 L64 152 Z " />
<glyph glyph-name="scaron" unicode="&#x161;" horiz-adv-x="390" d="M343 793 L202 638 L61 793 L52 786 L179 589 C183 582 195 566 202 566 C209 566 220 583 225 590 L352 786 L343 793 L343 793 Z M313 387 L313 466 L307 466 L305 464 C312 472 285 486 235 501 C223 508 211 513 199 515 L198 510 C116 519 62 464 62 386 C62 314 105 253 188 226 C256 204 291 159 291 108 C291 40 256 -5 203 -5 C185 -5 168 2 156 10 L156 11 C153 12 150 13 147 14 C116 36 87 76 70 123 L66 132 L60 132 L60 42 L66 42 L69 47 C66 42 96 25 144 3 C152 -3 160 -7 168 -10 L170 -6 C181 -9 192 -11 203 -11 C286 -11 341 43 341 124 C341 190 299 248 217 274 C145 297 108 348 108 406 C108 476 156 525 218 498 L217 495 C223 493 229 491 235 488 C263 469 289 435 304 393 L308 384 L313 387 L313 387 Z M306 418 L306 418 L306 418 L306 418 Z " />
<glyph glyph-name="Tcaron" unicode="&#x164;" horiz-adv-x="740" d="M507 1043 L366 888 L225 1043 L216 1036 L343 839 C347 832 359 816 366 816 C373 816 384 833 389 840 L516 1036 L507 1043 L507 1043 Z M290 0 L451 0 L451 7 L444 8 C423 10 409 37 409 76 L409 731 L548 731 C608 731 668 703 699 662 L708 649 L717 649 C707 674 694 705 684 731 L686 731 L686 740 L688 740 L686 744 L686 750 L683 750 L682 752 L675 752 C653 748 603 750 535 750 L202 750 C133 750 84 748 62 752 L55 752 L49 740 L55 740 C44 712 29 677 18 649 L27 649 L36 662 C67 703 127 731 187 731 L332 731 L332 76 C332 37 318 10 297 8 L290 7 L290 0 L290 0 Z " />
<glyph glyph-name="tcaron" unicode="&#x165;" horiz-adv-x="335" d="M293 500 L156 500 L156 620 L152 620 L26 485 L26 475 L91 475 L91 143 C91 33 138 -10 208 -10 C251 -10 298 26 325 80 L318 84 C299 46 263 21 228 21 C184 21 155 51 155 128 L156 465 L293 465 L293 500 L293 500 Z M378 758 C364 758 356 696 352 651 L342 540 L354 537 L386 644 C399 685 407 726 407 748 C407 755 395 758 378 758 L378 758 Z " />
<glyph glyph-name="Utilde" unicode="&#x168;" horiz-adv-x="595" d="M179 870 C179 908 194 933 216 933 C260 933 318 868 361 868 C396 868 420 911 420 975 L417 975 C417 939 401 915 376 915 C333 915 275 980 231 980 C198 980 176 936 176 870 L179 870 L179 870 Z M566 28 L559 27 C538 24 524 47 524 86 L524 750 L405 750 L405 743 L412 742 C433 740 447 713 447 674 L447 175 C409 94 327 40 242 40 C186 40 149 109 149 213 L149 750 L30 750 L30 743 L37 742 C58 740 72 713 72 674 L72 213 C72 79 128 -10 211 -10 C311 -10 405 50 447 140 L447 0 L486 0 L524 10 C524 12 564 21 566 21 L566 28 L566 28 Z " />
<glyph glyph-name="utilde" unicode="&#x169;" horiz-adv-x="401" d="M79 620 C79 658 94 683 116 683 C160 683 218 618 262 618 C297 618 321 661 321 725 L318 725 C318 689 302 665 277 665 C233 665 175 730 131 730 C98 730 76 686 76 620 L79 620 L79 620 Z M387 24 L382 24 C366 22 355 46 355 85 L355 500 L268 500 L268 493 C282 490 290 481 290 459 L290 129 C265 72 224 35 183 35 C137 35 106 83 106 154 L106 499 L18 499 L18 492 C32 489 40 480 40 458 L40 154 C40 55 85 -11 152 -11 C202 -11 255 42 289 123 L289 -1 L322 -1 L323 -1 C342 4 367 11 386 16 L387 24 L387 24 Z " />
<glyph glyph-name="Umacron" unicode="&#x16a;" horiz-adv-x="595" d="M174 899 L422 899 L422 944 L174 944 L174 899 L174 899 Z M566 28 L559 27 C538 24 524 47 524 86 L524 750 L405 750 L405 743 L412 742 C433 740 447 713 447 674 L447 175 C409 94 327 40 242 40 C186 40 149 109 149 213 L149 750 L30 750 L30 743 L37 742 C58 740 72 713 72 674 L72 213 C72 79 128 -10 211 -10 C311 -10 405 50 447 140 L447 0 L486 0 L524 10 C524 12 564 21 566 21 L566 28 L566 28 Z " />
<glyph glyph-name="umacron" unicode="&#x16b;" horiz-adv-x="401" d="M74 649 L323 649 L323 694 L74 694 L74 649 L74 649 Z M387 24 L382 24 C366 22 355 46 355 85 L355 500 L268 500 L268 493 C282 490 290 481 290 459 L290 129 C265 72 224 35 183 35 C137 35 106 83 106 154 L106 499 L18 499 L18 492 C32 489 40 480 40 458 L40 154 C40 55 85 -11 152 -11 C202 -11 255 42 289 123 L289 -1 L322 -1 L323 -1 C342 4 367 11 386 16 L387 24 L387 24 Z " />
<glyph glyph-name="Ubreve" unicode="&#x16c;" horiz-adv-x="595" d="M188 995 C193 926 237 880 298 880 C359 880 403 925 408 993 L394 995 C391 954 353 927 298 927 C243 927 205 955 202 996 L188 995 L188 995 Z M566 28 L559 27 C538 24 524 47 524 86 L524 750 L405 750 L405 743 L412 742 C433 740 447 713 447 674 L447 175 C409 94 327 40 242 40 C186 40 149 109 149 213 L149 750 L30 750 L30 743 L37 742 C58 740 72 713 72 674 L72 213 C72 79 128 -10 211 -10 C311 -10 405 50 447 140 L447 0 L486 0 L524 10 C524 12 564 21 566 21 L566 28 L566 28 Z " />
<glyph glyph-name="ubreve" unicode="&#x16d;" horiz-adv-x="401" d="M88 745 C93 676 137 630 199 630 C260 630 304 675 309 743 L295 745 C292 704 254 677 199 677 C144 677 105 705 102 746 L88 745 L88 745 Z M387 24 L382 24 C366 22 355 46 355 85 L355 500 L268 500 L268 493 C282 490 290 481 290 459 L290 129 C265 72 224 35 183 35 C137 35 106 83 106 154 L106 499 L18 499 L18 492 C32 489 40 480 40 458 L40 154 C40 55 85 -11 152 -11 C202 -11 255 42 289 123 L289 -1 L322 -1 L323 -1 C342 4 367 11 386 16 L387 24 L387 24 Z " />
<glyph glyph-name="Uring" unicode="&#x16e;" horiz-adv-x="595" d="M220 905 C220 953 251 985 298 985 C345 985 376 953 376 905 C376 862 340 825 298 825 C256 825 220 862 220 905 L220 905 Z M201 905 C201 854 246 810 298 810 C350 810 395 854 395 905 C395 962 356 1000 298 1000 C240 1000 201 962 201 905 L201 905 Z M566 28 L559 27 C538 24 524 47 524 86 L524 750 L405 750 L405 743 L412 742 C433 740 447 713 447 674 L447 175 C409 94 327 40 242 40 C186 40 149 109 149 213 L149 750 L30 750 L30 743 L37 742 C58 740 72 713 72 674 L72 213 C72 79 128 -10 211 -10 C311 -10 405 50 447 140 L447 0 L486 0 L524 10 C524 12 564 21 566 21 L566 28 L566 28 Z " />
<glyph glyph-name="uring" unicode="&#x16f;" horiz-adv-x="401" d="M120 655 C120 703 152 735 199 735 C246 735 277 703 277 655 C277 612 241 575 199 575 C156 575 120 612 120 655 L120 655 Z M101 655 C101 604 146 560 199 560 C251 560 296 604 296 655 C296 712 257 750 199 750 C140 750 101 712 101 655 L101 655 Z M387 24 L382 24 C366 22 355 46 355 85 L355 500 L268 500 L268 493 C282 490 290 481 290 459 L290 129 C265 72 224 35 183 35 C137 35 106 83 106 154 L106 499 L18 499 L18 492 C32 489 40 480 40 458 L40 154 C40 55 85 -11 152 -11 C202 -11 255 42 289 123 L289 -1 L322 -1 L323 -1 C342 4 367 11 386 16 L387 24 L387 24 Z " />
<glyph glyph-name="Wcircumflex" unicode="&#x174;" horiz-adv-x="927" d="M187 750 L7 750 L7 741 L12 740 C29 737 52 698 71 641 C143 424 215 207 287 -10 L306 -10 L484 463 C535 305 586 147 637 -10 L656 -10 L837 641 C853 698 881 738 908 741 L916 742 L916 751 L735 751 L735 742 L750 741 C800 738 822 698 808 642 L668 108 L506 653 C494 704 511 738 550 741 L563 742 L563 751 L357 751 L357 742 L363 741 C382 738 408 699 426 642 L472 500 L323 91 L324 94 L155 642 C138 698 147 738 178 741 L188 742 L187 750 L187 750 Z M475 1011 C470 1018 459 1035 452 1035 C444 1035 432 1019 428 1012 L301 815 L310 808 L452 963 L593 808 L602 815 L475 1011 L475 1011 Z " />
<glyph glyph-name="Ycircumflex" unicode="&#x176;" horiz-adv-x="583" d="M198 0 L399 0 L399 7 L389 8 C358 10 337 45 337 96 L337 337 L498 669 C518 711 550 740 577 742 L585 743 L585 750 L445 750 L445 743 L457 742 C493 740 507 715 492 677 L334 344 L162 669 C140 711 144 740 172 742 L181 743 L181 750 L6 750 L6 743 C25 738 47 715 72 669 L72 669 L259 326 L259 96 C259 45 238 10 207 8 L197 7 L198 0 L198 0 Z M321 1010 C316 1017 305 1034 298 1034 C290 1034 278 1018 274 1011 L147 814 L156 807 L298 962 L439 807 L448 814 L321 1010 L321 1010 Z " />
<glyph glyph-name="Ydieresis" unicode="&#x178;" horiz-adv-x="583" d="M368 865 C394 865 411 882 411 907 C411 933 394 950 368 950 C343 950 326 933 326 907 C326 882 343 865 368 865 L368 865 Z M229 865 C254 865 271 882 271 907 C271 933 254 950 229 950 C203 950 186 933 186 907 C186 882 203 865 229 865 L229 865 Z M198 0 L399 0 L399 7 L389 8 C358 10 337 45 337 96 L337 337 L498 669 C518 711 550 740 577 742 L585 743 L585 750 L445 750 L445 743 L457 742 C493 740 507 715 492 677 L334 344 L162 669 C140 711 144 740 172 742 L181 743 L181 750 L6 750 L6 743 C25 738 47 715 72 669 L72 669 L259 326 L259 96 C259 45 238 10 207 8 L197 7 L198 0 L198 0 Z " />
<glyph glyph-name="Zacute" unicode="&#x179;" horiz-adv-x="596" d="M331 813 L472 934 C512 969 539 995 539 1001 C539 1018 524 1033 506 1033 C500 1033 475 1006 441 965 L323 821 L331 813 L331 813 Z M70 647 L75 659 C93 701 152 729 224 730 L493 734 L25 15 L25 0 L572 0 L577 23 C577 23 590 78 596 104 L587 104 L580 92 C557 50 494 22 421 21 L421 21 L116 17 L577 736 L577 751 L71 751 L69 729 C68 714 66 685 63 648 L70 647 L70 647 Z " />
<glyph glyph-name="Zdot" unicode="&#x17b;" horiz-adv-x="596" d="M366 907 C366 933 349 950 324 950 C299 950 282 933 282 907 C282 852 366 852 366 907 L366 907 Z M70 647 L75 659 C93 701 152 729 224 730 L493 734 L25 15 L25 0 L572 0 L577 23 C577 23 590 78 596 104 L587 104 L580 92 C557 50 494 22 421 21 L421 21 L116 17 L577 736 L577 751 L71 751 L69 729 C68 714 66 685 63 648 L70 647 L70 647 Z " />
<glyph glyph-name="zdot" unicode="&#x17c;" horiz-adv-x="441" d="M276 657 C276 683 259 700 234 700 C209 700 192 683 192 657 C192 602 276 602 276 657 L276 657 Z M395 77 L389 69 C356 21 258 20 258 20 L119 17 L401 485 L401 500 L69 500 L69 489 L62 489 L62 490 L62 489 C60 489 54 464 43 423 L53 423 L60 431 C84 459 139 479 199 480 L199 480 L323 483 L39 15 L39 0 L395 0 L395 11 L397 11 C397 11 400 37 404 77 L395 77 L395 77 Z " />
<glyph glyph-name="Zcaron" unicode="&#x17d;" horiz-adv-x="596" d="M465 1043 L324 888 L183 1043 L174 1036 L301 839 C305 832 317 816 324 816 C331 816 342 833 347 840 L474 1036 L465 1043 L465 1043 Z M70 647 L75 659 C93 701 152 729 224 730 L493 734 L25 15 L25 0 L572 0 L577 23 C577 23 590 78 596 104 L587 104 L580 92 C557 50 494 22 421 21 L421 21 L116 17 L577 736 L577 751 L71 751 L69 729 C68 714 66 685 63 648 L70 647 L70 647 Z " />
<glyph glyph-name="zcaron" unicode="&#x17e;" horiz-adv-x="441" d="M375 793 L234 638 L93 793 L84 786 L211 589 C215 582 227 566 234 566 C241 566 252 583 257 590 L384 786 L375 793 L375 793 Z M395 77 L389 69 C356 21 258 20 258 20 L119 17 L401 485 L401 500 L69 500 L69 489 L62 489 L62 490 L62 489 C60 489 54 464 43 423 L53 423 L60 431 C84 459 139 479 199 480 L199 480 L323 483 L39 15 L39 0 L395 0 L395 11 L397 11 C397 11 400 37 404 77 L395 77 L395 77 Z " />
<glyph glyph-name="oogonek" unicode="&#x1eb;" horiz-adv-x="708" d="M903 -52 L902 -50 C872 -75 775 -92 660 -92 C517 -92 374 -58 297 -7 C312 -9 327 -10 343 -10 C532 -10 658 111 658 292 C658 473 536 593 353 593 C176 593 58 473 58 292 C58 157 122 55 226 12 C349 -77 520 -137 653 -137 C743 -137 843 -103 904 -52 L903 -52 L903 -52 Z M135 292 C135 470 222 589 353 589 C491 589 583 470 583 292 C583 112 486 -8 340 -8 C217 -8 135 112 135 292 L135 292 Z " />
<glyph glyph-name="Adotabove" unicode="&#x226;" horiz-adv-x="597" d="M342 907 C342 933 325 950 300 950 C275 950 258 933 258 907 C258 852 342 852 342 907 L342 907 Z M165 9 L151 10 C108 13 91 57 107 122 L154 294 L384 294 L433 120 C448 56 432 13 389 10 L375 9 L375 0 L597 0 L597 9 L589 10 C564 13 535 54 515 116 L341 727 C341 727 333 770 329 770 L321 770 C325 750 301 732 263 727 L266 717 L105 129 C85 61 42 13 -5 10 L-19 9 L-19 0 L168 0 L165 9 L165 9 Z M157 299 L269 709 L384 299 L157 299 L157 299 Z " />
<glyph glyph-name="G_sc" unicode="&#x262;" horiz-adv-x="643" d="M563 438 L563 563 L555 563 L551 551 C544 531 468 571 436 580 C426 585 416 589 407 591 L406 587 C199 623 57 493 57 291 C57 110 171 -11 341 -11 C385 -11 427 -5 469 6 C474 6 477 6 477 6 L544 24 L544 30 C568 39 593 50 618 62 L617 65 C593 54 569 44 544 35 L544 139 C544 199 562 240 588 243 L596 244 L596 253 L422 253 L422 244 L430 243 C456 240 474 199 474 139 L475 139 C475 116 475 92 475 71 C469 30 422 4 353 4 C221 4 133 119 133 292 C133 470 216 589 341 589 C368 589 392 585 414 578 C462 561 512 514 541 458 L550 439 L563 438 L563 438 Z " />
<glyph glyph-name="I_sc" unicode="&#x26a;" horiz-adv-x="282" d="M223 7 L216 8 C195 10 181 37 181 76 L181 507 C181 546 195 573 216 575 L223 576 L223 583 L70 583 L70 576 L77 575 C98 573 112 546 112 507 L112 76 C112 37 98 10 77 8 L70 7 L70 0 L223 0 L223 7 L223 7 Z " />
<glyph glyph-name="N_sc" unicode="&#x274;" horiz-adv-x="579" d="M8 576 L14 575 C37 573 69 547 97 509 L96 76 C96 37 82 10 61 8 L54 7 L54 0 L159 0 L159 7 L152 8 C131 10 118 38 117 76 L116 483 C231 322 346 161 461 0 L474 0 L479 517 C481 551 495 574 514 576 L520 577 L520 584 L416 584 L416 577 L423 576 C444 574 457 546 458 508 L459 93 C350 257 240 420 130 584 L8 584 L8 576 L8 576 Z " />
<glyph glyph-name="R_sc" unicode="&#x280;" horiz-adv-x="501" d="M67 576 L74 575 C95 573 109 546 109 507 L109 76 C109 37 95 10 74 8 L67 7 L67 0 L221 0 L221 7 L214 8 C193 10 179 37 179 76 L179 278 L224 278 C235 248 278 164 336 56 C365 2 371 0 491 0 L491 8 C445 8 442 10 417 56 C357 166 313 249 295 283 C380 297 433 341 433 419 C433 517 351 583 228 583 L67 583 L67 576 L67 576 Z M179 296 L179 569 L207 569 C297 569 357 514 357 432 C357 338 305 296 228 296 L179 296 L179 296 Z " />
<glyph glyph-name="Y_sc" unicode="&#x28f;" horiz-adv-x="513" d="M175 583 L9 583 L9 576 C29 571 52 548 79 502 L228 251 L228 96 C228 45 207 10 176 8 L166 7 L166 0 L360 0 L360 7 L350 8 C319 10 298 45 298 96 L298 261 L431 514 C456 555 482 572 515 576 L515 583 L376 583 L376 576 L388 575 C426 573 437 544 416 502 L417 502 L297 267 L161 502 C137 544 139 573 167 575 L176 576 L175 583 L175 583 Z " />
<glyph glyph-name="B_sc" unicode="&#x299;" horiz-adv-x="482" d="M312 300 C344 300 366 241 366 152 C366 30 337 2 293 2 L243 2 C205 2 179 42 179 101 L179 299 L279 299 C290 299 312 300 312 300 L312 300 Z M67 574 L74 573 C95 570 109 543 109 504 L109 79 C109 40 95 13 74 10 L67 9 L67 0 L299 0 C385 0 442 29 442 152 C442 243 395 303 324 303 L317 303 C382 317 424 370 424 443 C424 527 387 583 229 583 L68 583 L67 574 L67 574 Z M278 303 L180 303 L180 580 L222 580 C330 580 355 522 355 436 C355 356 324 303 278 303 L278 303 Z " />
<glyph glyph-name="H_sc" unicode="&#x29c;" horiz-adv-x="645" d="M586 7 L579 8 C558 10 544 37 544 76 L544 507 C544 546 558 573 579 575 L586 576 L586 583 L432 583 L432 576 L439 575 C460 573 474 546 474 507 L474 303 L215 303 L215 507 C215 546 229 573 250 575 L257 576 L257 583 L103 583 L103 576 L110 575 C131 573 145 546 145 507 L145 76 C145 37 131 10 110 8 L103 7 L103 0 L257 0 L257 7 L250 8 C229 10 215 37 215 76 L215 298 L474 298 L474 76 C474 37 460 10 439 8 L432 7 L432 0 L586 0 L586 7 L586 7 Z " />
<glyph glyph-name="L_sc" unicode="&#x29f;" horiz-adv-x="442" d="M223 583 L70 583 L70 576 L77 575 C98 573 112 546 112 507 L112 76 C112 37 98 10 77 8 L70 7 L70 0 L411 0 L411 6 C415 32 421 68 426 94 L417 94 L411 81 C391 42 333 15 265 13 C189 15 181 47 181 94 L181 507 C181 546 195 573 216 575 L223 576 L223 583 L223 583 Z " />
<glyph glyph-name="circumflex" unicode="&#x2c6;" horiz-adv-x="297" d="M172 760 C167 767 156 784 149 784 C142 784 130 768 126 761 L-2 564 L7 557 L149 712 L290 557 L299 564 L172 760 L172 760 Z " />
<glyph glyph-name="caron" unicode="&#x2c7;" horiz-adv-x="297" d="M290 793 L149 638 L7 793 L-2 786 L126 589 C130 582 142 566 149 566 C156 566 167 583 172 590 L299 786 L290 793 L290 793 Z " />
<glyph glyph-name="firsttonechinese" unicode="&#x2c9;" horiz-adv-x="297" d="M24 649 L273 649 L273 694 L24 694 L24 649 L24 649 Z " />
<glyph glyph-name="breve" unicode="&#x2d8;" horiz-adv-x="297" d="M39 745 C44 676 88 630 149 630 C210 630 254 675 259 743 L245 745 C242 704 204 677 149 677 C94 677 55 705 52 746 L39 745 L39 745 Z " />
<glyph glyph-name="dotaccent" unicode="&#x2d9;" horiz-adv-x="297" d="M149 615 C174 615 191 632 191 657 C191 683 174 700 149 700 C123 700 106 683 106 657 C106 632 123 615 149 615 L149 615 Z " />
<glyph glyph-name="ring" unicode="&#x2da;" horiz-adv-x="297" d="M71 655 C71 703 102 735 149 735 C196 735 227 703 227 655 C227 612 191 575 149 575 C107 575 71 612 71 655 L71 655 Z M51 655 C51 604 96 560 149 560 C201 560 246 604 246 655 C246 712 207 750 149 750 C90 750 51 712 51 655 L51 655 Z " />
<glyph glyph-name="A_sc" unicode="&#x1d00;" horiz-adv-x="533" d="M317 0 L531 0 L531 9 L523 10 C498 13 468 54 446 116 L303 567 C303 567 295 603 292 603 L285 603 C288 586 268 572 234 567 C235 564 236 561 237 558 L106 130 C84 62 38 14 -9 11 L-23 10 L-23 1 L164 1 L164 10 L150 11 C106 14 90 61 111 130 L141 229 L338 229 L369 130 C390 61 376 13 332 10 L318 9 L317 0 L317 0 Z M144 233 L240 551 L338 233 L144 233 L144 233 Z " />
<glyph glyph-name="C_sc" unicode="&#x1d04;" horiz-adv-x="609" d="M563 438 L563 563 L555 563 L551 551 C544 531 468 571 436 580 C426 585 416 589 407 591 L406 587 C199 623 57 493 57 291 C57 87 199 -46 404 -4 L405 -8 C435 1 542 56 549 30 L553 17 L561 17 L561 144 L549 144 L540 126 C510 68 454 19 400 3 C401 -1 340 -7 331 -7 C211 -7 131 112 131 291 C131 469 214 588 339 588 C366 588 390 584 412 577 C460 560 510 513 539 457 L548 438 L563 438 L563 438 Z " />
<glyph glyph-name="D_sc" unicode="&#x1d05;" horiz-adv-x="673" d="M220 4 C183 4 179 40 179 94 L179 580 C179 580 234 580 234 579 C437 579 542 464 542 292 C542 102 413 4 220 4 L220 4 Z M67 576 L74 575 C95 573 109 546 109 507 L109 76 C109 37 95 10 74 8 L67 7 L67 0 L225 0 C461 0 618 99 618 292 C618 467 493 583 249 583 L67 583 L67 576 L67 576 Z " />
<glyph glyph-name="E_sc" unicode="&#x1d07;" horiz-adv-x="480" d="M179 94 L179 299 L214 299 C271 299 318 268 332 221 L336 207 L345 207 L345 396 L336 396 L332 382 C318 335 271 304 214 304 L179 304 L179 579 L274 579 C331 579 382 548 402 501 L408 487 L417 487 C413 515 408 553 405 581 L405 583 L47 583 L47 576 L57 575 C88 573 109 538 109 487 L109 96 C109 45 88 10 57 8 L47 7 L47 0 L430 0 L430 2 L431 2 C436 27 442 61 446 86 L437 86 L431 73 C410 32 348 4 276 4 C189 4 179 38 179 94 L179 94 Z " />
<glyph glyph-name="J_sc" unicode="&#x1d0a;" horiz-adv-x="282" d="M223 583 L70 583 L70 576 L77 575 C98 573 112 546 112 507 L112 -44 C112 -186 53 -213 10 -213 C-24 -213 -8 -157 -42 -157 C-61 -157 -73 -170 -73 -189 C-73 -208 -41 -220 6 -220 C80 -220 181 -171 181 88 L181 507 C181 546 195 573 216 575 L223 576 L223 583 L223 583 Z " />
<glyph glyph-name="K_sc" unicode="&#x1d0b;" horiz-adv-x="536" d="M221 583 L67 583 L67 576 L74 575 C95 573 109 546 109 507 L109 76 C109 37 95 10 74 8 L67 7 L67 0 L221 0 L221 7 L214 8 C193 10 179 37 179 76 L179 292 L413 0 L531 0 L531 7 C502 11 475 28 443 66 L228 339 L353 505 C387 546 428 573 458 575 L468 576 L468 583 L276 583 L276 576 L292 575 C344 573 346 526 297 457 L298 457 L179 292 L179 507 C179 546 193 573 214 575 L221 576 L221 583 L221 583 Z " />
<glyph glyph-name="M_sc" unicode="&#x1d0d;" horiz-adv-x="681" d="M516 0 L668 0 L668 7 L662 8 C643 10 628 33 625 68 L608 507 C607 546 619 573 640 575 L647 576 L647 583 L539 583 L370 96 L173 583 L52 583 L52 576 C75 572 92 561 110 531 L93 68 C90 33 75 10 56 8 L50 7 L50 0 L158 0 L158 7 L151 8 C130 10 117 37 118 76 L129 494 C199 329 269 164 339 0 L356 0 L543 522 L558 65 C556 32 544 10 525 8 L518 7 L516 0 L516 0 Z " />
<glyph glyph-name="O_sc" unicode="&#x1d0f;" horiz-adv-x="713" d="M134 292 C134 470 221 589 352 589 C490 589 582 470 582 292 C582 114 487 -5 344 -5 C218 -5 134 114 134 292 L134 292 Z M58 292 C58 111 172 -10 343 -10 C532 -10 658 111 658 292 C658 473 536 593 353 593 C176 593 58 473 58 292 L58 292 Z " />
<glyph glyph-name="P_sc" unicode="&#x1d18;" horiz-adv-x="415" d="M238 7 L231 8 C210 10 196 37 196 76 L196 269 L225 269 C327 269 395 316 395 419 C395 517 339 583 254 583 L85 583 L85 576 L92 575 C113 573 127 546 127 507 L127 76 C127 37 113 10 92 8 L85 7 L85 0 L238 0 L238 7 L238 7 Z M196 284 L196 572 C196 572 224 571 236 571 C292 571 330 515 330 431 C330 330 288 284 225 284 L196 284 L196 284 Z " />
<glyph glyph-name="T_sc" unicode="&#x1d1b;" horiz-adv-x="691" d="M487 583 L202 583 C133 583 84 581 62 585 L55 585 C54 582 52 577 51 574 L55 574 L55 570 C44 544 30 510 20 485 L29 485 L38 498 C68 539 128 567 188 567 L311 567 L311 77 C311 38 297 11 276 9 L269 8 L269 1 L422 1 L422 8 L415 9 C394 11 380 38 380 77 L380 567 L500 567 C560 567 620 539 651 498 L660 485 L669 485 C667 490 636 567 636 567 L636 575 L639 575 C638 577 637 579 636 581 L636 584 L635 584 C635 585 635 586 635 587 L628 587 C606 583 556 585 488 585 L487 583 L487 583 Z " />
<glyph glyph-name="U_sc" unicode="&#x1d1c;" horiz-adv-x="522" d="M493 27 L486 26 C465 23 451 46 451 85 L451 583 L340 583 L340 576 L347 575 C368 573 382 546 382 507 L382 157 C348 84 277 35 206 35 C169 35 144 100 144 198 L144 583 L32 583 L32 576 L39 575 C60 573 74 546 74 507 L74 198 C74 73 116 -10 179 -10 C263 -10 344 44 382 126 L382 0 L417 0 L451 9 C466 13 481 17 493 20 L493 27 L493 27 Z " />
<glyph glyph-name="V_sc" unicode="&#x1d20;" horiz-adv-x="578" d="M560 583 L382 583 L382 574 L398 573 C449 570 465 522 441 454 L270 -10 L284 -10 L473 471 C499 531 530 571 553 574 L560 575 L560 583 L560 583 Z M208 584 L9 584 L9 575 L14 574 C29 571 55 532 80 474 C143 313 206 152 269 -9 L313 111 L169 455 C140 524 150 571 194 574 L207 575 L208 584 L208 584 Z " />
<glyph glyph-name="W_sc" unicode="&#x1d21;" horiz-adv-x="819" d="M807 583 L629 583 L629 574 L644 573 C691 570 713 535 701 484 L585 96 L454 480 C438 534 452 570 492 573 L505 574 L505 583 L309 583 L309 574 C333 570 354 543 375 490 L411 389 L291 84 L151 476 C132 532 139 570 170 573 L180 574 L180 583 L8 583 L8 574 L13 573 C30 570 55 530 76 474 C136 313 196 152 255 -10 L272 -10 L423 359 C467 236 511 113 555 -10 L572 -10 L724 474 C742 531 772 570 799 573 L807 574 L807 583 L807 583 Z " />
<glyph glyph-name="Z_sc" unicode="&#x1d22;" horiz-adv-x="546" d="M68 564 C67 550 65 521 62 483 L71 483 L76 495 C93 535 146 562 212 566 L450 569 L25 15 L25 1 L522 1 L527 22 L526 22 C530 37 537 66 546 103 L537 103 L530 91 C506 49 443 21 371 20 L109 16 L527 570 L527 584 L71 584 C71 582 69 565 69 565 L68 564 L68 564 Z " />
<glyph glyph-name="Wgrave" unicode="&#x1e80;" horiz-adv-x="927" d="M187 750 L7 750 L7 741 L12 740 C29 737 52 698 71 641 C143 424 215 207 287 -10 L306 -10 L484 463 C535 305 586 147 637 -10 L656 -10 L837 641 C853 698 881 738 908 741 L916 742 L916 751 L735 751 L735 742 L750 741 C800 738 822 698 808 642 L668 108 L506 653 C494 704 511 738 550 741 L563 742 L563 751 L357 751 L357 742 L363 741 C382 738 408 699 426 642 L472 500 L323 91 L324 94 L155 642 C138 698 147 738 178 741 L188 742 L187 750 L187 750 Z M247 1002 C247 995 274 969 314 935 L454 814 L463 822 L344 966 C311 1007 286 1034 279 1034 C262 1034 247 1019 247 1002 L247 1002 Z " />
<glyph glyph-name="Wacute" unicode="&#x1e82;" horiz-adv-x="927" d="M458 813 L598 934 C638 969 665 995 665 1001 C665 1018 650 1033 633 1033 C627 1033 602 1006 568 965 L449 821 L458 813 L458 813 Z M187 750 L7 750 L7 741 L12 740 C29 737 52 698 71 641 C143 424 215 207 287 -10 L306 -10 L484 463 C535 305 586 147 637 -10 L656 -10 L837 641 C853 698 881 738 908 741 L916 742 L916 751 L735 751 L735 742 L750 741 C800 738 822 698 808 642 L668 108 L506 653 C494 704 511 738 550 741 L563 742 L563 751 L357 751 L357 742 L363 741 C382 738 408 699 426 642 L472 500 L323 91 L324 94 L155 642 C138 698 147 738 178 741 L188 742 L187 750 L187 750 Z " />
<glyph glyph-name="Wdieresis" unicode="&#x1e84;" horiz-adv-x="927" d="M520 865 C546 865 563 882 563 907 C563 933 546 950 520 950 C495 950 478 933 478 907 C478 882 495 865 520 865 L520 865 Z M381 865 C406 865 423 882 423 907 C423 933 406 950 381 950 C355 950 338 933 338 907 C338 882 355 865 381 865 L381 865 Z M187 750 L7 750 L7 741 L12 740 C29 737 52 698 71 641 C143 424 215 207 287 -10 L306 -10 L484 463 C535 305 586 147 637 -10 L656 -10 L837 641 C853 698 881 738 908 741 L916 742 L916 751 L735 751 L735 742 L750 741 C800 738 822 698 808 642 L668 108 L506 653 C494 704 511 738 550 741 L563 742 L563 751 L357 751 L357 742 L363 741 C382 738 408 699 426 642 L472 500 L323 91 L324 94 L155 642 C138 698 147 738 178 741 L188 742 L187 750 L187 750 Z " />
<glyph glyph-name="Etilde" unicode="&#x1ebc;" horiz-adv-x="535" d="M165 870 C165 908 180 933 202 933 C246 933 304 868 348 868 C383 868 407 911 407 975 L404 975 C404 939 388 915 363 915 C319 915 261 980 217 980 C184 980 162 936 162 870 L165 870 L165 870 Z M400 293 L400 482 L391 482 L387 468 C373 421 326 390 269 390 L184 390 L184 746 L330 746 C387 746 438 715 458 668 L464 654 L473 654 C469 682 464 720 461 748 L460 748 L460 750 L45 750 L45 743 L55 742 C86 740 107 705 107 654 L107 96 C107 45 86 10 55 8 L45 7 L45 0 L485 0 L485 2 L486 2 C491 27 497 61 501 86 L492 86 L486 73 C465 32 403 4 331 4 L278 4 C193 4 184 40 184 94 L184 385 L269 385 C326 385 373 354 387 307 L391 293 L400 293 L400 293 Z " />
<glyph glyph-name="Ygrave" unicode="&#x1ef2;" horiz-adv-x="583" d="M198 0 L399 0 L399 7 L389 8 C358 10 337 45 337 96 L337 337 L498 669 C518 711 550 740 577 742 L585 743 L585 750 L445 750 L445 743 L457 742 C493 740 507 715 492 677 L334 344 L162 669 C140 711 144 740 172 742 L181 743 L181 750 L6 750 L6 743 C25 738 47 715 72 669 L72 669 L259 326 L259 96 C259 45 238 10 207 8 L197 7 L198 0 L198 0 Z M93 1001 C93 994 120 968 160 934 L300 813 L309 821 L190 965 C157 1006 132 1033 125 1033 C108 1033 93 1018 93 1001 L93 1001 Z " />
<glyph glyph-name="quoteleft" unicode="&#x2018;" horiz-adv-x="439" d="M90 640 C82 640 75 637 71 631 C67 691 97 741 130 749 L120 760 C79 749 51 693 51 621 C51 595 67 578 90 578 C131 578 131 640 90 640 L90 640 Z " />
<glyph glyph-name="quoteright" unicode="&#x2019;" horiz-adv-x="58" d="M97 708 C97 644 79 596 51 589 L62 578 C95 587 117 644 117 722 C117 745 101 760 78 760 C37 760 37 698 78 698 C86 698 93 701 97 707 L97 708 L97 708 Z " />
<glyph glyph-name="quotedblleft" unicode="&#x201c;" horiz-adv-x="439" d="M180 640 C173 640 167 637 163 631 C160 691 188 740 221 749 L211 760 C170 749 143 693 143 621 C143 595 158 578 181 578 C222 578 222 640 181 640 L180 640 L180 640 Z M79 640 C71 640 64 637 60 631 C56 691 86 741 119 749 L109 760 C68 749 40 693 40 621 C40 595 56 578 79 578 C120 578 120 640 79 640 L79 640 Z " />
<glyph glyph-name="quotedblright" unicode="&#x201d;" horiz-adv-x="439" d="M199 708 C199 644 181 596 154 589 L165 578 C197 587 219 644 219 722 C219 745 203 760 180 760 C141 760 141 698 180 698 C188 698 195 701 199 707 L199 708 L199 708 Z M97 707 C97 643 79 595 51 588 L62 577 C95 586 117 643 117 721 C117 744 101 759 78 759 C37 759 37 697 78 697 C86 697 93 700 97 706 L97 707 L97 707 Z " />
<glyph glyph-name="Euro" unicode="&#x20ac;" horiz-adv-x="728" d="M683 576 L683 702 L676 702 L672 690 C668 677 638 687 597 713 C553 743 501 760 428 760 C256 760 135 637 111 447 L63 447 L56 400 L108 400 C107 384 107 367 108 351 L57 351 L50 304 L112 304 C135 114 252 -9 419 -9 C493 -9 551 10 600 43 C641 67 670 73 674 59 L678 46 L685 46 L685 122 C680 116 675 110 670 104 C675 110 680 116 685 122 L676 130 L676 130 L685 122 L685 175 L674 175 L665 158 C636 102 582 48 530 22 C497 5 461 -4 422 -4 C300 -4 214 117 197 304 L475 304 L482 351 L194 351 C194 367 194 384 195 400 L483 400 L490 447 L198 447 C216 634 306 755 433 755 C472 755 505 746 535 731 C584 706 636 651 666 594 L675 576 L683 576 L683 576 Z M677 621 L677 621 L677 621 L677 621 Z M596 39 C594 38 592 37 590 36 C592 37 594 38 596 39 L596 39 Z " />
<glyph glyph-name="F_sc" unicode="&#xa730;" horiz-adv-x="455" d="M335 207 L335 396 L326 396 L322 382 C308 335 261 304 204 304 L179 304 L179 580 L274 580 C331 580 382 549 402 502 L408 488 L417 488 C413 516 408 554 405 582 L405 583 L47 583 L47 576 L57 575 C88 573 109 538 109 487 L109 96 C109 45 88 10 57 8 L47 7 L47 0 L241 0 L241 7 L231 8 C200 10 179 45 179 96 L179 299 L204 299 C261 299 308 268 322 221 L326 207 L335 207 L335 207 Z " />
<glyph glyph-name="S_sc" unicode="&#xa731;" horiz-adv-x="463" d="M52 161 L52 10 L60 10 L64 27 C68 42 102 37 148 15 C167 5 189 -5 210 -10 L211 -6 C333 -29 424 42 424 146 C424 217 372 286 272 328 C176 368 126 421 126 470 C126 541 162 589 216 589 C271 589 329 543 361 475 L370 454 L382 454 L382 568 L374 568 L370 560 C367 554 339 560 300 576 C274 591 245 600 215 600 L215 593 C128 593 70 533 70 443 C70 371 124 300 229 256 C320 218 367 169 367 126 C367 35 302 -22 212 1 C160 14 104 69 73 139 L64 161 L52 161 L52 161 Z " />
<glyph glyph-name="X_sc" unicode="&#xf078;" horiz-adv-x="566" d="M565 583 L406 583 L406 576 L418 575 C453 573 460 547 437 509 L313 328 L200 507 C177 547 178 574 205 576 L214 577 L214 584 L49 584 L49 577 C68 572 89 554 115 514 L264 276 L124 82 C94 40 56 10 28 8 L20 7 L20 0 L175 0 L175 7 L164 8 C126 10 121 39 149 81 L273 261 L386 81 C412 39 412 10 385 8 L376 7 L376 0 L543 0 L543 7 C523 11 499 35 470 81 L470 81 L318 322 L466 514 C501 555 533 573 567 577 L565 583 L565 583 Z " />
</font>
</svg>
