<?xml version="1.0" encoding="UTF-8"?>
<svg xmlns="http://www.w3.org/2000/svg" xmlns:xlink="http://www.w3.org/1999/xlink" version="1.2" >
<font id="Warick Round">
<font-face  font-family="Warick" units-per-em="1024" ascent="975" descent="-300" font-style="normal" font-weight="400" font-stretch="normal" cap-height="1043" x-height="488" underline-position="-125" underline-thickness="50" />
<missing-glyph  horiz-adv-x="100" d="" />
<glyph glyph-name="NULL" d="" />
<glyph glyph-name="CR" unicode="&#xd;" horiz-adv-x="256" d="" />
<glyph glyph-name="space" unicode="&#x20;" horiz-adv-x="207" d="" />
<glyph glyph-name="exclam" unicode="&#x21;" horiz-adv-x="220" d="M110 -5 C138 -5 156 13 156 41 C156 69 138 88 110 88 C82 88 64 69 64 41 C64 13 82 -5 110 -5 L110 -5 Z M110 755 C79 755 66 717 70 661 L103.549 215.983 C103.797 212.69 106.698 210 110 210 C113.302 210 116.203 212.69 116.451 215.983 L150 661 C154 717 141 755 110 755 L110 755 Z " />
<glyph glyph-name="quotedbl" unicode="&#x22;" horiz-adv-x="290" d="M214 750 C199 750 191 732 195 705 L217.373 563.951 C217.715 561.797 219.819 560 222 560 C224.181 560 226.285 561.797 226.627 563.951 L249 705 C253 732 245 750 230 750 L214 750 L214 750 Z M94 750 C79 750 71 732 75 705 L97.3734 563.951 C97.715 561.797 99.8194 560 102 560 C104.181 560 106.285 561.797 106.627 563.951 L129 705 C133 732 125 750 110 750 L94 750 L94 750 Z " />
<glyph glyph-name="numbersign" unicode="&#x23;" horiz-adv-x="485" d="M358.49 671.537 L338.09 533.109 C334.218 506.838 308.926 485 282.372 485 L265.228 485 C229.609 485 204.317 514.292 209.51 549.531 L227.49 671.537 C227.768 673.428 226.411 675 224.5 675 C222.589 675 220.768 673.428 220.49 671.537 L200.09 533.109 C196.218 506.838 170.926 485 144.372 485 L90.2438 485 C76.4446 485 63.4132 473.666 61.5 460 C59.5868 446.334 69.4446 435 83.2438 435 L122 435 C156.971 435 181.895 406.263 176.949 371.643 L162.908 273.355 C159.133 246.933 133.845 225 107.154 225 L51.318 225 C37.5187 225 24.1802 213.626 22 200 C19.8198 186.374 29.5187 175 43.318 175 L83.0625 175 C118.546 175 143.835 145.842 138.816 110.715 L123.495 3.46482 C123.225 1.57157 124.588 0 126.5 0 C128.412 0 130.225 1.57157 130.495 3.46482 L148.092 126.645 C151.867 153.067 177.155 175 203.846 175 L221.062 175 C256.546 175 281.835 145.842 276.816 110.715 L261.495 3.46482 C261.225 1.57157 262.588 0 264.5 0 C266.412 0 268.225 1.57157 268.495 3.46482 L286.092 126.645 C289.867 153.067 315.155 175 341.846 175 L386.756 175 C400.555 175 413.587 186.334 415.5 200 C417.413 213.666 407.555 225 393.756 225 L360 225 C327.761 225 304.785 251.492 309.344 283.407 L324.092 386.645 C327.867 413.067 353.155 435 379.846 435 L432.756 435 C446.555 435 459.587 446.334 461.5 460 C463.413 473.666 453.555 485 439.756 485 L401.5 485 C366.824 485 342.202 513.516 347.258 547.822 L365.49 671.537 C365.768 673.428 364.411 675 362.5 675 C360.589 675 358.768 673.428 358.49 671.537 L358.49 671.537 Z M241.846 435 L259.062 435 C294.546 435 319.835 405.842 314.816 370.715 L300.908 273.355 C297.133 246.933 271.845 225 245.154 225 L227.938 225 C192.454 225 167.165 254.158 172.184 289.285 L186.092 386.645 C189.867 413.067 215.155 435 241.846 435 L241.846 435 Z " />
<glyph glyph-name="dollar" unicode="&#x24;" horiz-adv-x="513" d="M51 188.424 L51 47 C51 44.7921 52.7921 43 55 43 C57.142 43 59.4506 44.8026 59.9701 46.8806 L63 59 C67 74 99 64 144 34 C161 22 179.5 13.5 198.5 4.5 L201.75 3.25 C203.424 2.60603 205 0.311805 205 -1.4821 L205 -64.5 C205 -70.8477 210.152 -76 216.5 -76 C222.848 -76 228 -70.8477 228 -64.5 L228 -14.8234 C228 -9.76337 232.109 -6.10415 237.055 -7.1696 C249.81 -9.9168 262.324 -11.2768 275.541 -11.2496 C280.809 -11.2388 285 -15.7445 285 -21.0125 L285 -64.5 C285 -70.8477 290.152 -76 296.5 -76 C302.848 -76 308 -70.8477 308 -64.5 L308 -42.5 C308 -27.6633 329.625 -5.65493 343.801 -1.27539 C423.234 23.2656 473 92.5 473 187 C473 268 427.64 344.95 339.107 395.251 C325.43 403.022 308 431.701 308 447.431 L308 712.929 C308 724.666 316.439 731.234 325.889 724.273 C359.385 699.597 390.75 661.05 412 616 L418.636 600.515 C419.836 597.717 423.956 595 427 595 C430.312 595 433 597.688 433 601 L433 707 C433 709.208 431.208 711 429 711 C427.025 711 424.094 709.189 423.211 707.422 L421 703 C416.625 693.375 354.063 728.156 321.072 745.041 C315.087 748.105 309 758.594 309 765.318 L309 813.5 C309 819.848 303.848 825 297.5 825 C291.152 825 286 819.848 286 813.5 L286 764.743 C286 762.26 283.856 760.715 281.5 761.5 L280 762 C278.344 762.552 276.552 761.656 276 760 C275.462 758.387 274.437 757.079 272.75 757.292 C260.748 758.81 248.714 759.656 236.136 759.318 C231.869 759.204 229 762.747 229 767.016 L229 812.5 C229 818.848 223.848 824 217.5 824 C211.152 824 206 818.848 206 812.5 L206 790 C206 775.515 189.908 753.162 176.326 748.129 C110.578 723.766 70 658.25 70 569 C70 497 107.26 426.62 180.322 374.627 C190.965 367.053 206 338.869 206 325.806 L206 42.5169 C206 26.5045 195.605 17.8024 182.525 27.0389 C138.96 57.8025 100.2 111.65 73 172 L66.5906 186.955 C65.3772 189.786 60.5445 193.532 57.5 194 C53.9539 194.546 51 192.011 51 188.424 L51 188.424 Z M64 151 L64 151 L64 151 L64 151 Z M237.178 341.059 C250.378 334.904 264.622 329.096 277.822 322.941 C282.524 320.748 286 314.126 286 308.938 L286 6.5119 C286 0.348884 282.365 -4.25578 276.203 -4.1769 C262.689 -4.0039 250.58 -2.0553 237.991 1.3545 C232.642 2.80324 229 8.42083 229 13.9624 L229 334.938 C229 339.821 232.752 343.123 237.178 341.059 L237.178 341.059 Z M342.096 284.621 C389.178 248.211 413 206.425 413 166 C413 94.225 385.094 38.785 339.952 13.1564 C321.614 2.74547 309 12.2935 309 33.3805 L309 266.869 C309 287.184 326.026 297.048 342.096 284.621 L342.096 284.621 Z M229 463.124 L229 744.95 C229 750.937 232.469 755.445 238.455 755.584 C251.654 755.891 264.077 754.034 276.352 750.641 C281.489 749.222 285 743.843 285 738.513 L285 434.63 C285 428.769 279.229 425.75 273.983 428.363 C261.037 434.812 249.05 441.335 237.756 448.197 C233.536 450.761 229 458.186 229 463.124 L229 463.124 Z M180.966 493.514 C146.696 528.069 129 565.875 129 603 C129 668.45 150.675 718.727 185.427 742.778 C197.591 751.196 205 743.272 205 728.48 L205 504.016 C205 489.491 191.193 483.201 180.966 493.514 L180.966 493.514 Z " />
<glyph glyph-name="ampersand" unicode="&#x26;" horiz-adv-x="289" d="M314 468 C316.011 465.989 322.362 465.349 325.066 466.231 C416.16 495.951 477 553.5 477 612 C477 701 412 760 315 760 C216 760 150 696 150 601 C150 571.3 175.183 531.05 217.688 476.882 C230.952 459.979 223.09 432.972 203.58 423.973 C107.016 379.43 45 294.5 45 200 C45 74 125 -10 245 -10 C331.775 -10 422.353 38.4819 505.61 124.323 C508.557 127.362 513.578 129.108 516.286 125.854 C524.857 115.551 533.429 105.143 542 94 C595 31 658 -11 699 -11 C765.3 -11 817.341 48.8894 831.024 139.009 C831.553 142.493 829.343 146.886 826 148 C822.818 149.061 819.843 148.557 819.346 145.24 C810.142 83.8769 773.775 43 726 43 C693 43 643 77 600 128 L577.5 155 C565.909 168.909 563.934 193.271 574.583 207.913 C631.047 285.552 681.615 381.03 721.599 489.657 C723.041 493.576 721.176 499 717 499 C712.897 499 707.105 493.804 705.672 489.959 C668.757 390.88 621.769 304.19 569.2 234.378 C551.742 211.193 522.004 219.374 503.24 241.516 C397.94 365.77 338 433 338 433 C258 528 205 593 205 635 C205 700 248 744 313 744 C378 744 422 692 422 615 C422 551.625 379.222 495.38 314.057 473.143 C311.49 472.267 312.082 469.918 314 468 L314 468 Z M457.797 119.015 C400.192 74.5025 339.575 50 281 50 C180 50 112 118 112 219 C112 305.7 152.46 380.117 215.57 417.688 C236.686 430.258 258.509 424.725 274.478 406.046 C308.723 365.991 347.127 323.758 469.289 179.269 C487.635 157.57 480.282 136.39 457.797 119.015 L457.797 119.015 Z " />
<glyph glyph-name="quotesingle" unicode="&#x27;" horiz-adv-x="188" d="M94 750 C79 750 71 732 75 705 L97.3734 563.951 C97.715 561.797 99.8194 560 102 560 C104.181 560 106.285 561.797 106.627 563.951 L129 705 C133 732 125 750 110 750 L94 750 L94 750 Z " />
<glyph glyph-name="parenleft" unicode="&#x28;" horiz-adv-x="370" d="M310.183 753.128 C183.655 661.245 100 470.925 100 273 C100 77 185 -118 313 -214 C314.766 -215.325 313.905 -212.417 315 -210.5 C316.043 -208.676 310.968 -202.34 309.341 -201.011 C210.643 -120.388 146 67.275 146 273 C146 489 217 681 324 753 C325.841 754.239 323.101 754.573 322 756.5 C320.864 758.489 312.037 754.474 310.183 753.128 L310.183 753.128 Z " />
<glyph glyph-name="parenright" unicode="&#x29;" horiz-adv-x="370" d="M35.9668 745.28 C164.444 655.395 250 468 250 273 C250 70 163 -122 33 -207 C31.141 -208.215 33.898 -208.572 35 -210.5 C36.1317 -212.481 46.6538 -207.55 48.5285 -206.25 C197.135 -103.253 296 86.775 296 273 C296 462 190 656 30 760 C27.9435 761.337 29.0969 758.194 28 756 C26.9454 753.891 34.0346 746.631 35.9668 745.28 L35.9668 745.28 Z " />
<glyph glyph-name="asterisk" unicode="&#x2a;" horiz-adv-x="282" d="M266 673 L266 673 L266 673 Z M277.782 681.428 C286.542 694.45 275.085 714.497 259.339 712.731 C242.435 710.836 246.35 705.414 255.069 690.809 L257.327 687.027 C265.739 672.937 268.623 667.812 277.782 681.428 L277.782 681.428 Z M255 689.5 C249.557 699.025 237.894 701.179 229.408 694.228 L197.674 668.233 C180.726 654.35 157.369 667.894 161 689.5 L171 749 C174 765 166 775 151 775 C136 775 128 765 131 749 L141 689.5 C144.644 667.816 121.259 654.204 104.204 668.084 L57 706.5 C45 717.5 32 715 25 702 C17 689 22 677 37 672 L94.1023 650.271 C114.502 642.508 114.437 615.664 94 608 L56.8723 594.077 C46.589 590.221 42.5511 579.036 48 569.5 C53.4438 559.973 65.1109 557.811 73.6071 564.754 L104.5 590 C121.408 603.817 144.666 590.312 141.047 568.779 L131 509 C128 493 136 483 151 483 C166 483 174 493 171 509 C166.05 542 159.739 575.681 154.312 608.357 C153.115 615.569 160.607 621.13 166.262 616.498 L245 552 C257 541 270 543 278 556 C284.737 566.947 282.255 577.186 272.346 583.132 C267.681 585.931 264.727 583.889 261.918 579.23 L255.75 569 C255.556 568.679 254.979 569.013 255.162 569.341 L255.25 569.5 C260.572 579.052 256.481 590.195 246.243 594.034 L209 608 C188.494 615.69 188.389 642.587 208.834 650.436 L246.183 664.776 C256.449 668.717 260.456 679.953 255 689.5 L255 689.5 Z M55.2927 556.543 C48.586 567.853 38 586 38 586 C38 586 33.0835 586.194 26.9941 578.981 C13.8961 563.467 33.3421 535.185 54.1001 548.919 C57.2374 550.995 57.2115 553.308 55.2927 556.543 L55.2927 556.543 Z " />
<glyph glyph-name="plus" unicode="&#x2b;" horiz-adv-x="586" d="M268 418 L268 329.32 C268 298.233 242.767 273 211.68 273 L123 273 C110.305 273 100 262.695 100 250 C100 237.305 110.305 227 123 227 L211.68 227 C242.767 227 268 201.767 268 170.68 L268 82 C268 68.2007 279.201 57 293 57 C306.799 57 318 68.2007 318 82 L318 170.68 C318 201.767 343.233 227 374.32 227 L463 227 C475.695 227 486 237.305 486 250 C486 262.695 475.695 273 463 273 L374.32 273 C343.233 273 318 298.233 318 329.32 L318 418 C318 431.799 306.799 443 293 443 C279.201 443 268 431.799 268 418 L268 418 Z " />
<glyph glyph-name="comma" unicode="&#x2c;" horiz-adv-x="259" d="M175.345 24.7054 C185.181 -40.0086 152.713 -90.5466 97.3967 -104.893 C97.3967 -104.893 98.468 -102.943 98.468 -102.943 L99.4344 -106.825 C99.4344 -106.825 100.506 -104.876 100.506 -104.876 C153.969 -92.0731 188 -50.225 188 10 C188 54 175 88 154 104 C146 111 136 115 124 115 C88 115 64 91 64 55 C64 19 88 -5 124 -5 C144.455 -5 160.223 5.71074 168.567 23.846 C169.866 26.6681 174.878 27.7766 175.345 24.7054 L175.345 24.7054 Z " />
<glyph glyph-name="hyphen" unicode="&#x2d;" horiz-adv-x="396" d="M107 258 L289 258 C303.903 258 316 270.097 316 285 C316 299.903 303.903 312 289 312 L107 312 C92.0968 312 80 299.903 80 285 C80 270.097 92.0968 258 107 258 L107 258 Z " />
<glyph glyph-name="period" unicode="&#x2e;" horiz-adv-x="195" d="M125 -5 C153 -5 171 13 171 41 C171 69 153 88 125 88 C97 88 79 69 79 41 C79 13 97 -5 125 -5 L125 -5 Z " />
<glyph glyph-name="slash" unicode="&#x2f;" horiz-adv-x="383" d="M309.017 751.967 L38.9829 -61.9665 C35.8485 -71.4141 42.0461 -80 52 -80 C61.9539 -80 73.8485 -71.4141 76.9829 -61.9665 L347.017 751.967 C350.152 761.414 343.954 770 334 770 C324.046 770 312.152 761.414 309.017 751.967 L309.017 751.967 Z " />
<glyph glyph-name="zero" unicode="0" horiz-adv-x="608" d="M78 250 C78 376 169 483 305 483 C428 483 532 390 532 250 C532 124 441 17 305 17 C182 17 78 110 78 250 L78 250 Z M47 250 C47 94 166 -10 305 -10 C460 -10 563 110 563 250 C563 406 444 510 305 510 C150 510 47 390 47 250 L47 250 Z " />
<glyph glyph-name="one" unicode="1" horiz-adv-x="212" d="M177.535 7.49497 L174 8 C153 10 139 37 139 76 L139 424 C139 463 153 490 174 492 L177.535 492.505 C179.428 492.775 181 494.588 181 496.5 C181 498.432 179.432 500 177.5 500 L34.5 500 C32.5681 500 31 498.432 31 496.5 C31 494.588 32.5716 492.775 34.4648 492.505 L38 492 C59 490 73 463 73 424 L73 76 C73 37 59 10 38 8 L34.4648 7.49497 C32.5716 7.22451 31 5.41248 31 3.5 C31 1.5681 32.5681 0 34.5 0 L177.5 0 C179.432 0 181 1.5681 181 3.5 C181 5.41248 179.428 7.22451 177.535 7.49497 L177.535 7.49497 Z " />
<glyph glyph-name="two" unicode="2" horiz-adv-x="499" d="M338 58 L222.954 58 C199.118 58 191.209 91.7085 210.943 105.076 C322.089 180.361 399 261.5 399 344 C399 444 338 510 246 510 C153.375 510 74.0588 428.246 46.9793 303.667 C46.1783 299.981 47.8251 293.348 51.5 292.5 C55.0068 291.691 58.7971 294.999 59.5764 298.513 C81.0575 395.358 140.825 460 212 460 C285 460 334 408 334 329 C334 228.575 243.691 139.558 122.391 63.8012 C120.957 62.9055 103.539 57.4058 101.875 57.1082 C87.9094 54.6112 79.8931 46.8704 67.5733 33.8859 C66.4311 32.682 55.2278 24.4446 53.7585 23.6732 L26.0815 9.14278 C23.9883 8.04384 23.705 5.53857 25.5 4 L26.599 3.05798 C27.7354 2.08392 27.4199 0.47331 26 1.11022e-016 C25.4764 -0.174548 25.6103 -1 26.1623 -1 L363.67 -1 C378.363 -1 403.774 13.1353 411.522 25.6189 L431 57 L438.262 69.449 C438.927 70.5895 436.638 72.8617 435.494 72.2029 C418.114 62.1962 385.4 57.5 339.5 57.5 L338 58 Z " />
<glyph glyph-name="three" unicode="3" horiz-adv-x="386" d="M19 -225.5 C19.563 -229.16 30.9024 -230.759 34.5753 -230.291 C222.419 -206.333 346 -115 346 2 C346 82.85 294.273 143.962 209.909 169.052 C195.051 173.471 187.904 198.579 201.257 206.453 C288.535 257.925 342 317.85 342 385 C342 460 284 510 197 510 C116.075 510 47.5081 449.16 23.7395 358.066 C22.6274 353.804 25.2441 350.135 29.5 349 C33.5195 347.928 37.2248 348.18 38.2708 352.207 C55.7062 419.321 108.6 464 171 464 C232 464 272 423 272 362 C272 285.95 216.864 227.962 131.616 184.328 C130.693 183.855 121.758 181.049 120.72 181.049 C117.922 181.049 116.77 180.741 115.206 178.58 C114.627 177.78 110.174 173.87 109.257 173.503 L104.74 171.696 C101.219 170.288 98.1791 165.537 98.375 161.75 C98.5716 157.949 103.027 153.899 106.781 153.273 C210.268 136.014 278 67.825 278 -17 C278 -119.375 179.135 -198.935 30.5285 -217.679 C27.0089 -218.123 18.4606 -221.994 19 -225.5 L19 -225.5 Z " />
<glyph glyph-name="four" unicode="4" horiz-adv-x="555" d="M523.5 -12 C526.012 -12 528.384 -9.88647 528.776 -7.40563 C530.409 2.92889 531.767 15.4667 533.5 25 C536.227 38.6364 538.541 56.405 540.442 70.7926 C540.773 73.2991 538.202 75.6828 535.734 76.2344 C533.078 76.8281 531.859 76.8594 530.453 75.7031 C530.013 75.3416 526.73 71.2129 526.367 70.7742 C515.847 58.0533 488.108 50 455 50 L417.5 50 C396.801 50 380 66.8011 380 87.5 L380 526 C380 528.208 378.208 530 376 530 C374.184 530 370.758 528.204 369.726 526.709 L17.4113 16.9359 C16.3408 15.3869 14 7.88293 14 6 C14 2.68818 16.6882 0 20 0 L257.68 0 C288.767 0 314 -25.233 314 -56.32 L314 -187 C314 -205.215 328.785 -220 347 -220 C365.215 -220 380 -205.215 380 -187 L380 -34 C380 -15.233 395.233 0 414 0 L448 0 C481.657 0 504.724 -3.13796 515.115 -9.41388 C515.854 -9.8603 522.636 -12 523.5 -12 L523.5 -12 Z M314 228 L314 106.32 C314 75.233 288.767 50 257.68 50 L177.633 50 C129.02 50 103.71 97.9206 131.116 138.071 L213.649 258.984 C244.877 304.733 314 283.391 314 228 L314 228 Z " />
<glyph glyph-name="five" unicode="5" horiz-adv-x="397" d="M236 500 L140.012 500 C113.845 500 88.5429 478.431 84.4017 452.593 L47.236 220.712 C46.6494 217.052 49.1523 210.373 52 208 C54.1202 206.233 63.0504 203 65.8102 203 L87 203 C221 203 310 132 310 26 C310 -100.75 214.938 -198.031 70.2286 -219.499 C67.0408 -219.972 59.2324 -223.788 59.5 -227 C59.7826 -230.392 70.3197 -231.619 73.6847 -231.109 C250.073 -204.378 367 -94.325 367 49 C367 183 258 272 94 272 L86 272 C81.6356 272 78.5528 275.593 79.2165 279.907 L96.7258 393.718 C100.688 419.472 125.78 441.215 151.836 441.471 L278.066 442.715 C293.769 442.87 309.286 456.033 312 471.5 L317 500 L318.909 507.634 C319.493 509.972 317.91 512 315.5 512 C314.682 512 307.999 509.63 307.293 509.218 C295.562 502.37 269.389 500 236.5 500 L236 500 Z " />
<glyph glyph-name="six" unicode="6" horiz-adv-x="533" d="M495.401 745.342 C229.915 681.779 55 501.55 55 289 C55 110 143 -10 275 -10 C399 -10 481 90 481 239 C481 372 397 461 272 461 C223.325 461 182.818 442.623 154.408 410.361 C151.683 407.267 144.471 410.301 145.75 414.221 C199.23 578.168 335.65 701.05 519 740 C521.809 740.597 518.325 742.249 517.5 745 C516.652 747.826 498.27 746.029 495.401 745.342 L495.401 745.342 Z M121 254 C121 375 181 456 271 456 C359 456 417 371 417 243 C417 94 360 -5 275 -5 C183 -5 121 99 121 254 L121 254 Z " />
<glyph glyph-name="seven" unicode="7" horiz-adv-x="406" d="M142 446 L371.169 446 C373.929 446 378.58 448.633 380 451 C380.256 451.427 380.997 451.058 380.81 450.596 L118.579 -196.367 C113.679 -208.457 121.456 -220 134.5 -220 C147.819 -220 163.94 -208.473 168.248 -195.871 L398.574 477.903 C399.007 479.17 401 491.161 401 492.5 C401 496.64 397.64 500 393.5 500 L163 500 C129.571 500 106.429 500.735 96.0904 502.834 C95.5863 502.936 88.7652 503.381 88.2601 503.284 L86.125 502.875 C83.4212 502.357 79.0055 498.771 77.9444 496.23 L73.008 484.413 C72.9565 484.29 71.2598 479.631 71.2199 479.504 L69.5 474 L60.5 447 L55 432 C60 432 64 430 64 430 C75 441 103 446.5 143 446.5 L142 446 Z " />
<glyph glyph-name="eight" unicode="8" horiz-adv-x="509" d="M210.86 379.86 C218.592 375.592 226.429 371.429 235 368 C344 320 417 274 417 202 C417 77 353 -6 256 -6 C163 -6 101 66 101 174 C101 262.725 139.976 340.518 202.17 378.646 C204.351 379.983 208.621 381.096 210.86 379.86 L210.86 379.86 Z M160.19 361.431 C87.795 314.632 43 245.4 43 174 C43 64 128 -10 255 -10 C383 -10 468 64 468 175 C468 280.4 418.87 341.727 339.648 389.689 C323.633 399.384 323.063 428.187 338.651 438.554 C402.204 480.819 441 539.25 441 597 C441 695 366 760 253 760 C142 760 68 689 68 582 C68 514.35 103.393 454.527 161.263 410.393 C175.182 399.777 174.891 370.935 160.19 361.431 L160.19 361.431 Z M274.5 422 L260 428 C176 465 120 529 120 605 C120 696 174 757 256 757 C333 757 385 691 385 591 C385 521.625 352.914 459.523 301.405 423.688 C294.766 419.069 281.974 418.907 274.5 422 L274.5 422 Z " />
<glyph glyph-name="nine" unicode="9" horiz-adv-x="533" d="M37.5992 -245.342 C303.085 -181.779 478 -1.55 478 211 C478 390 390 510 258 510 C134 510 52 410 52 261 C52 128 136 39 261 39 C309.675 39 350.183 57.3769 378.592 89.6385 C381.317 92.7331 388.529 89.6988 387.25 85.7787 C333.77 -78.1675 197.35 -201.05 14 -240 C11.191 -240.597 14.6748 -242.249 15.5 -245 C16.3477 -247.826 34.7301 -246.029 37.5992 -245.342 L37.5992 -245.342 Z M412 246 C412 125 352 44 262 44 C174 44 116 129 116 257 C116 406 173 505 258 505 C350 505 412 401 412 246 L412 246 Z " />
<glyph glyph-name="colon" unicode="&#x3a;" horiz-adv-x="135" d="M125 385 C153 385 171 403 171 431 C171 459 153 478 125 478 C97 478 79 459 79 431 C79 403 97 385 125 385 L125 385 Z M125 -5 C153 -5 171 13 171 41 C171 69 153 88 125 88 C97 88 79 69 79 41 C79 13 97 -5 125 -5 L125 -5 Z " />
<glyph glyph-name="semicolon" unicode="&#x3b;" horiz-adv-x="259" d="M125 385 C153 385 171 403 171 431 C171 459 153 478 125 478 C97 478 79 459 79 431 C79 403 97 385 125 385 L125 385 Z M175.345 24.7054 C185.181 -40.0086 152.713 -90.5466 97.3967 -104.893 C97.3967 -104.893 98.468 -102.943 98.468 -102.943 L99.4344 -106.825 C99.4344 -106.825 100.506 -104.876 100.506 -104.876 C153.969 -92.0731 188 -50.225 188 10 C188 54 175 88 154 104 C146 111 136 115 124 115 C88 115 64 91 64 55 C64 19 88 -5 124 -5 C144.455 -5 160.223 5.71074 168.567 23.846 C169.866 26.6681 174.878 27.7766 175.345 24.7054 L175.345 24.7054 Z " />
<glyph glyph-name="equal" unicode="&#x3d;" horiz-adv-x="496" d="M80 200 C80 191.72 86.7205 185 95 185 L411 185 C419.28 185 426 191.72 426 200 C426 208.28 419.28 215 411 215 L95 215 C86.7205 215 80 208.28 80 200 L80 200 Z M80 300 C80 291.72 86.7205 285 95 285 L411 285 C419.28 285 426 291.72 426 300 C426 308.28 419.28 315 411 315 L95 315 C86.7205 315 80 308.28 80 300 L80 300 Z " />
<glyph glyph-name="question" unicode="&#x3f;" horiz-adv-x="302" d="M125 -5 C153 -5 171 13 171 41 C171 69 153 88 125 88 C97 88 79 69 79 41 C79 13 97 -5 125 -5 L125 -5 Z M123.002 191.312 C123.05 199.344 124.025 360 125 360 C213 360 247 396 283 449 C300 475 312 517 312 554 C312 678 245 760 145 760 C108 760 83 740 83 711 C83 692 97 679 119 679 C134 679 154 691 169 691 C243 691 292 633 292 546 C292 528 282 501 268 480 C246 448 219 426 102 426 C101.583 426 102.183 426.08 102.373 425.709 C107.197 416.298 111 191 111 191 C111 191 113.632 191 117 191 C120.312 191 122.982 188 123.002 191.312 L123.002 191.312 Z " />
<glyph glyph-name="at" unicode="&#x40;" horiz-adv-x="1097" d="M985.776 -10.6361 C915.287 -147.74 745.15 -239 556 -239 C286 -239 106 -40 106 259 C106 557 283 755 549 755 C814 755 991 590 991 343 C991 141 918 6 808 6 C703 6 652 84 681 200 L743.481 449.926 C747.508 466.03 736.6 480 720 480 C703.4 480 685.508 466.03 681.481 449.926 L675.208 424.832 C673.531 418.123 661.398 418.077 658.494 424.354 C639.46 465.497 601.675 490 553 490 C390 490 281 372 281 195 C281 85 345 11 442 11 C500.575 11 553.705 40.2669 590.721 89.8164 C596.575 97.652 616.151 96.4604 619.143 87.1484 C640.067 22.015 702.5 -17 796 -17 C944 -17 1042 127 1042 343 C1042 602 845 774 549 774 C253 774 55 568 55 259 C55 -46 261 -250 570 -250 C761.1 -250 934.138 -154.938 1007.55 -11.1555 C1010.11 -6.14551 1007.63 0 1002 0 C996.817 0 988.146 -6.02633 985.776 -10.6361 L985.776 -10.6361 Z M656.318 349.274 L619 200 C596 108 538 47 475 47 C402 47 353 111 353 207 C353 366 432 472 551 472 C613.4 472 655.837 427.321 657.92 361.133 C657.957 359.954 656.605 350.419 656.318 349.274 L656.318 349.274 Z " />
<glyph glyph-name="A" unicode="A" horiz-adv-x="597" d="M160.269 9.33795 L151 10 C108 13 91 57 107 122 L142.667 252.525 C148.701 274.609 174.102 294 196.995 294 L341.35 294 C364.01 294 389.419 274.758 395.561 252.946 L433 120 C448 56 432 13 389 10 L379.489 9.32061 C377.017 9.14409 375 6.97755 375 4.5 C375 2.01613 377.016 0 379.5 0 L592.5 0 C594.984 0 597 2.01613 597 4.5 L597 4.96887 C597 7.17675 595.191 9.22615 593 9.5 L589 10 C564 13 535 54 515 116 L341.722 724.466 C341.686 724.593 341.003 726.987 340.978 727.116 C340.519 729.567 332.879 770 329 770 L325 770 C323.201 770 321.445 767.337 321.433 765.538 C321.327 748.355 300.588 733.335 268.593 727.846 C265.883 727.381 263.71 724.633 264.5 722 C264.939 720.537 265.025 713.438 264.621 711.965 L105 129 C85 61 42 13 -5 10 L-14.5114 9.32061 C-16.9827 9.14409 -19 6.97755 -19 4.5 C-19 2.01613 -16.9839 0 -14.5 0 L163.257 0 C165.74 0 167.285 2.1436 166.5 4.5 C165.735 6.79445 162.681 9.16564 160.269 9.33795 L160.269 9.33795 Z M176.439 370.161 L215.388 512.742 C230.606 568.449 308.349 568.713 323.945 513.111 L363.937 370.53 C374.6 332.515 349.192 299 309.709 299 L230.769 299 C191.49 299 166.089 332.271 176.439 370.161 L176.439 370.161 Z " />
<glyph glyph-name="B" unicode="B" horiz-adv-x="562" d="M298 2 L248 2 C210 2 184 42 184 101 L184 328.68 C184 359.767 209.233 385 240.32 385 L316 385 C389 385 437 309 437 195 C437 39 381 2 298 2 L298 2 Z M68.5 740.5 L72 740 C93 737 107 710 107 671 L107 79 C107 40 93 13 72 10 L68.5 9.5 C66.5875 9.22679 65 7.39636 65 5.46447 L65 4.5 C65 2.01613 67.0161 0 69.5 0 L304 0 C435 0 522 37 522 195 C522 291.9 467.813 362.068 382.16 382.166 C377.51 383.257 379.547 399.763 384.001 401.487 C456.759 429.657 501 489.8 501 569 C501 677 454 749 254 749 L69 749 C66.7921 749 65 747.208 65 745 L65 744.536 C65 742.604 66.5875 740.773 68.5 740.5 L68.5 740.5 Z M282 388 L233 388 C205.953 388 184 409.953 184 437 L184 714 C184 731.111 197.889 745 215 745 L246 745 C390 745 424 671 424 560 C424 457 367 388 282 388 L282 388 Z " />
<glyph glyph-name="C" unicode="C" horiz-adv-x="678" d="M624 621 L624 621 L624 621 L624 621 Z M624 129 L624 129 L624 129 L624 129 Z M633 50 L633 168 C633 171.312 630.312 174 627 174 C624.038 174 619.641 171.283 618.317 168.633 L612 156 C586 107 542 60 497 32 C458 9 416 -4 369 -4 C232 -4 140 148 140 376 C140 604 236 756 379 756 C416 756 448 748 477 734 C526 710 580 654 611 595 L617.317 582.367 C618.641 579.717 623.038 577 626 577 C629.312 577 632 579.688 632 583 L632 699 C632 701.208 630.208 703 628 703 C625.905 703 623.397 701.192 622.735 699.205 L620 691 C616 679 584 689 541 716 C498 744 447 760 376 760 C183 760 54 606 54 375 C54 144 179 -10 366 -10 C436 -10 492 8 539 38 C583 63 614 71 619 58 L621.53 49.7789 C622.305 47.2577 625.362 45 628 45 C630.76 45 633 47.2402 633 50 L633 50 Z " />
<glyph glyph-name="D" unicode="D" horiz-adv-x="742" d="M244 4 C190 4 184 40 184 94 L184 704.5 C184 727.407 202.593 746 225.5 746 L267 746 C489 746 603 598 603 375 C603 130 459 4 244 4 L244 4 Z M68.4648 742.505 L72 742 C93 740 107 713 107 674 L107 76 C107 37 93 10 72 8 L68.4648 7.49497 C66.5716 7.22451 65 5.41248 65 3.5 C65 1.5681 66.5681 0 68.5 0 L250 0 C512 0 687 128 687 375 C687 600 550 750 283 750 L68.5 750 C66.5681 750 65 748.432 65 746.5 C65 744.588 66.5716 742.775 68.4648 742.505 L68.4648 742.505 Z " />
<glyph glyph-name="E" unicode="E" horiz-adv-x="535" d="M400 297.5 L400 477.5 C400 479.984 397.984 482 395.5 482 C393.112 482 390.42 479.97 389.764 477.673 L387 468 C373 421 326 390 269 390 L226.5 390 C203.041 390 184 409.041 184 432.5 L184 689.68 C184 720.767 209.233 746 240.32 746 L330 746 C387 746 438 715 458 668 L462.227 658.136 C463.127 656.038 466.217 654 468.5 654 C470.96 654 472.737 655.845 472.387 658.28 C469.056 681.516 464.749 711.088 461.77 735.732 C460.857 743.286 453.779 749.016 446.17 749.034 L48.5 749.992 C46.5681 749.996 45 748.432 45 746.5 C45 744.578 46.5699 742.843 48.4826 742.652 L55 742 C86 740 107 705 107 654 L107 96 C107 45 86 10 55 8 L48.4826 7.34826 C46.5699 7.15699 45 5.42231 45 3.5 C45 1.56812 46.5681 0.00533975 48.5 0.0119182 L472.753 1.45659 C479.686 1.4802 486.636 7.17267 487.965 13.9778 C492.207 35.7091 496.991 61.4917 500.348 81.9765 C500.746 84.4046 498.961 86 496.5 86 C494.245 86 491.059 83.9619 490.114 81.9142 L486 73 C465 32 403 4 331 4 L278 4 C193 4 184 40 184 94 L184 342.5 C184 365.959 203.041 385 226.5 385 L269 385 C326 385 373 354 387 307 L389.764 297.327 C390.42 295.03 393.112 293 395.5 293 C397.984 293 400 295.016 400 297.5 L400 297.5 Z " />
<glyph glyph-name="F" unicode="F" horiz-adv-x="510" d="M390 297.5 L390 477.5 C390 479.984 387.984 482 385.5 482 C383.112 482 380.42 479.97 379.764 477.673 L377 468 C363 421 316 390 259 390 L221.5 390 C200.801 390 184 406.801 184 427.5 L184 689.68 C184 720.767 209.233 746 240.32 746 L329 746 C386 746 437 715 457 668 L461.227 658.136 C462.127 656.038 465.217 654 467.5 654 C469.955 654 471.735 655.849 471.393 658.28 C468.119 681.516 464.301 711.088 461.475 735.732 C460.602 743.343 453.581 749.015 445.92 749.034 L48.5 749.992 C46.5681 749.996 45 748.432 45 746.5 C45 744.578 46.5699 742.843 48.4826 742.652 L55 742 C86 740 107 705 107 654 L107 96 C107 45 86 10 55 8 L48.4826 7.34826 C46.5699 7.15699 45 5.42231 45 3.5 C45 1.5681 46.5681 0 48.5 0 L242.5 0 C244.432 0 246 1.5681 246 3.5 C246 5.42231 244.43 7.15699 242.517 7.34826 L236 8 C205 10 184 45 184 96 L184 347.5 C184 368.199 200.801 385 221.5 385 L259 385 C316 385 363 354 377 307 L379.764 297.327 C380.42 295.03 383.112 293 385.5 293 C387.984 293 390 295.016 390 297.5 L390 297.5 Z " />
<glyph glyph-name="G" unicode="G" horiz-adv-x="713" d="M633 583.018 L633 698 C633 700.208 631.208 702 629 702 C626.905 702 624.397 700.192 623.735 698.205 L621 690 C617 678 585 688 542 715 C499 743 448 759 377 759 C184 759 55 605 55 374 C55 143 183 -11 375 -11 C454 -11 521 1 584 21 L614 29.5 C634.714 36.9571 654.742 47.1604 674.652 56.6968 C674.775 56.7554 674.769 57.4722 674.642 57.423 C659.323 51.4629 643.241 46.3278 626.666 41.2051 C619.804 39.0843 613 43.4192 613 50.6015 L613 211 C613 271 631 312 657 315 L661 315.5 C663.191 315.774 665 317.823 665 320.031 L665 320.5 C665 322.984 662.984 325 660.5 325 L488.5 325 C486.016 325 484 322.984 484 320.5 L484 320.031 C484 317.823 485.809 315.774 488 315.5 L492 315 C518 312 536 271 536 211 L536 86.171 C536 85.5278 535.51 79.137 535.38 78.5071 C526.083 33.5187 468.875 5 386 5 C238 5 139 153 139 374 C139 602 235 754 378 754 C415 754 447 746 476 732 C525 708 579 652 610 593 L615.862 581.277 C617.462 578.076 622.43 575.245 626 575.5 C629.854 575.775 633 579.154 633 583.018 L633 583.018 Z M622 620 L622 620 L622 620 L622 620 Z " />
<glyph glyph-name="H" unicode="H" horiz-adv-x="710" d="M647.535 7.49497 L644 8 C623 10 609 37 609 76 L609 674 C609 713 623 740 644 742 L647.535 742.505 C649.428 742.775 651 744.588 651 746.5 C651 748.432 649.432 750 647.5 750 L493.5 750 C491.568 750 490 748.432 490 746.5 C490 744.588 491.572 742.775 493.465 742.505 L497 742 C518 740 532 713 532 674 L532 444.32 C532 413.233 506.767 388 475.68 388 L276.32 388 C245.233 388 220 413.233 220 444.32 L220 674 C220 713 234 740 255 742 L258.535 742.505 C260.428 742.775 262 744.588 262 746.5 C262 748.432 260.432 750 258.5 750 L104.5 750 C102.568 750 101 748.432 101 746.5 C101 744.588 102.572 742.775 104.465 742.505 L108 742 C129 740 143 713 143 674 L143 76 C143 37 129 10 108 8 L104.465 7.49497 C102.572 7.22451 101 5.41248 101 3.5 C101 1.5681 102.568 0 104.5 0 L258.5 0 C260.432 0 262 1.5681 262 3.5 C262 5.41248 260.428 7.22451 258.535 7.49497 L255 8 C234 10 220 37 220 76 L220 326.68 C220 357.767 245.233 383 276.32 383 L475.68 383 C506.767 383 532 357.767 532 326.68 L532 76 C532 37 518 10 497 8 L493.465 7.49497 C491.572 7.22451 490 5.41248 490 3.5 C490 1.5681 491.568 0 493.5 0 L647.5 0 C649.432 0 651 1.5681 651 3.5 C651 5.41248 649.428 7.22451 647.535 7.49497 L647.535 7.49497 Z " />
<glyph glyph-name="I" unicode="I" horiz-adv-x="286" d="M223.535 7.49497 L220 8 C199 10 185 37 185 76 L185 674 C185 713 199 740 220 742 L223.535 742.505 C225.428 742.775 227 744.588 227 746.5 C227 748.432 225.432 750 223.5 750 L69.5 750 C67.5681 750 66 748.432 66 746.5 C66 744.588 67.5716 742.775 69.4648 742.505 L73 742 C94 740 108 713 108 674 L108 76 C108 37 94 10 73 8 L69.4648 7.49497 C67.5716 7.22451 66 5.41248 66 3.5 C66 1.5681 67.5681 0 69.5 0 L223.5 0 C225.432 0 227 1.5681 227 3.5 C227 5.41248 225.428 7.22451 223.535 7.49497 L223.535 7.49497 Z " />
<glyph glyph-name="J" unicode="J" horiz-adv-x="286" d="M223.5 750 L69.5 750 C67.5681 750 66 748.432 66 746.5 C66 744.588 67.5716 742.775 69.4648 742.505 L73 742 C94 740 108 713 108 674 L108 -51 C108 -187 43 -213 -4 -213 C-42 -213 -24 -151 -62 -151 C-83 -151 -97 -165 -97 -186 C-97 -206 -62 -220 -9 -220 C72 -220 185 -170 185 95 L185 674 C185 713 199 740 220 742 L223.535 742.505 C225.428 742.775 227 744.588 227 746.5 C227 748.432 225.432 750 223.5 750 L223.5 750 Z " />
<glyph glyph-name="K" unicode="K" horiz-adv-x="610" d="M600.664 7.69862 C573.287 12.755 547.4 29.95 517 67 L266.2 391.138 C252.266 409.148 251.994 441.059 265.619 459.304 L417 662 C453 708 497 739 529 741 L535.517 741.652 C537.43 741.843 539 743.578 539 745.5 C539 747.432 537.432 749 535.5 749 L344.5 749 C342.568 749 341 747.432 341 745.5 C341 743.572 342.569 741.902 344.493 741.782 L357 741 C409 739 412 694 366 627 L271.986 495.588 C244.049 456.539 185 475.486 185 523.5 L185 673 C185 712 199 739 220 741 L223.535 741.505 C225.428 741.775 227 743.588 227 745.5 C227 747.432 225.432 749 223.5 749 L69.5 749 C67.5681 749 66 747.432 66 745.5 C66 743.588 67.5716 741.775 69.4648 741.505 L73 741 C94 739 108 712 108 673 L108 75 C108 36 94 9 73 7 L69.4648 6.49497 C67.5716 6.22451 66 4.41248 66 2.5 C66 0.568105 67.5681 -1 69.5 -1 L223.5 -1 C225.432 -1 227 0.568105 227 2.5 C227 4.41248 225.428 6.22451 223.535 6.49497 L220 7 C199 9 185 36 185 75 L185 224.5 C185 274.872 245.51 295.483 276.259 255.585 L457.091 20.9409 C464.484 11.3483 489.59 -1 501.701 -1 L601.969 -1 C604.177 -1 605.774 0.80917 605.5 3 C605.249 5.00706 602.653 7.33126 600.664 7.69862 L600.664 7.69862 Z " />
<glyph glyph-name="L" unicode="L" horiz-adv-x="508" d="M223.5 750 L69.5 750 C67.5681 750 66 748.432 66 746.5 C66 744.588 67.5716 742.775 69.4648 742.505 L73 742 C94 740 108 713 108 674 L108 76 C108 37 94 10 73 8 L69.4648 7.49497 C67.5716 7.22451 66 5.41248 66 3.5 C66 1.5681 67.5681 0 69.5 0 L474 0 C475.656 0 477 1.34409 477 3 C477 3.24756 477.275 7.8476 477.312 8.09243 C481.097 33.3845 486.521 65.1436 491.223 90.7852 C491.663 93.184 489.939 95 487.5 95 C485.245 95 482.059 92.9619 481.114 90.9142 L477 82 C456 41 394 13 322 13 L279 13 C194 13 185 45 185 94 L185 674 C185 713 199 740 220 742 L223.535 742.505 C225.428 742.775 227 744.588 227 746.5 C227 748.432 225.432 750 223.5 750 L223.5 750 Z " />
<glyph glyph-name="M" unicode="M" horiz-adv-x="749" d="M711.464 750 L641.54 750 C619.634 750 594.202 731.242 587.732 710.313 L451.622 269.998 C434.987 216.184 362.329 215.32 344.418 268.722 L195.883 711.589 C189.141 731.69 163.688 750 142.486 750 L54.5 750 C52.5681 750 51 748.432 51 746.5 C51 744.69 53.1167 742.656 54.8901 742.292 C74.6973 738.229 90.056 727.756 104.224 704.358 C106.802 700.101 110.732 682.814 110.586 677.839 L93 76 C92 37 77 9 56 7 L53 6.5 C51.3666 6.22777 50 4.61453 50 2.95862 L50 2.5 C50 0.568105 51.5681 -1 53.5 -1 L156.5 -1 C158.432 -1 160 0.568105 160 2.5 C160 4.41248 158.428 6.22451 156.535 6.49497 L153 7 C134 9 121 31 119 63 L127.829 529.32 C128.268 552.514 163.907 552.868 171.995 531.125 C235.97 359.125 299.834 187.125 363.073 15.125 C364.771 10.5067 373.579 -1 378.5 -1 C383.494 -1 389.373 3.29139 390.895 8.04819 L512.163 387.083 C528.639 438.578 609.14 427.049 610.5 373 L618 75 C619 36 606 9 585 7 L581.465 6.49497 C579.572 6.22451 578 4.41248 578 2.5 C578 0.568105 579.568 -1 581.5 -1 L734.5 -1 C736.432 -1 738 0.568105 738 2.5 L738 2.95862 C738 4.61453 736.633 6.22777 735 6.5 L732 7 C711 9 697 37 695 75 L676 683 C677 717 690 740 709 742 L712.5 742.5 C714.432 742.776 715.776 744.568 715.5 746.5 C715.227 748.412 713.396 750 711.464 750 L711.464 750 Z " />
<glyph glyph-name="N" unicode="N" horiz-adv-x="645" d="M6.33537 742.287 C33.7025 737.045 59.4 717.95 86 679 L92 669.5 C93.7733 666.692 97.9864 652.085 97.9808 648.764 L97 76 C97 37 83 10 62 8 L58.4648 7.49497 C56.5716 7.22451 55 5.41248 55 3.5 C55 1.5681 56.5681 0 58.5 0 L158.5 0 C160.432 0 162 1.5681 162 3.5 C162 5.41248 160.428 7.22451 158.535 7.49497 L155 8 C134 10 121 38 120 76 L118.697 436.954 C118.49 494.251 191.408 515.81 222.392 467.613 L518.674 6.72943 C520.683 3.60492 527.286 0 531 0 C535.416 0 539.026 3.58426 539.058 7.99979 L544 686 C547 719 561 741 580 743 L583 743.5 C584.633 743.772 586 745.385 586 747.041 L586 747.5 C586 749.432 584.432 751 582.5 751 L482.5 751 C480.568 751 479 749.432 479 747.5 C479 745.588 480.572 743.775 482.465 743.505 L486 743 C507 741 521 713 521 674 L521 336.831 C521 279.544 448.047 258.237 417.213 306.519 L150.609 723.993 C142.882 736.091 117.497 750 103.142 750 L5.5 750 C3.5681 750 2 748.432 2 746.5 C2 744.7 4.56783 742.625 6.33537 742.287 L6.33537 742.287 Z " />
<glyph glyph-name="O" unicode="O" horiz-adv-x="783" d="M140 375 C140 603 238 755 386 755 C541 755 644 603 644 375 C644 147 538 -5 378 -5 C235 -5 140 147 140 375 L140 375 Z M56 375 C56 144 184 -10 377 -10 C588 -10 728 144 728 375 C728 606 592 760 387 760 C188 760 56 606 56 375 L56 375 Z " />
<glyph glyph-name="P" unicode="P" horiz-adv-x="503" d="M242.535 7.49497 L239 8 C218 10 204 37 204 76 L204 328.5 C204 339.815 213.185 349 224.5 349 L245 349 C388 349 483 408 483 540 C483 666 405 750 287 750 L88.5 750 C86.5681 750 85 748.432 85 746.5 C85 744.588 86.5716 742.775 88.4648 742.505 L92 742 C113 740 127 713 127 674 L127 76 C127 37 113 10 92 8 L88.4648 7.49497 C86.5716 7.22451 85 5.41248 85 3.5 C85 1.5681 86.5681 0 88.5 0 L242.5 0 C244.432 0 246 1.5681 246 3.5 C246 5.41248 244.428 7.22451 242.535 7.49497 L242.535 7.49497 Z M204 385.5 L204 705.5 C204 722.887 218.113 737 235.5 737 L267 737 C353 737 411 663 411 553 C411 423 345 365 245 365 L224.5 365 C213.185 365 204 374.185 204 385.5 L204 385.5 Z " />
<glyph glyph-name="Q" unicode="Q" horiz-adv-x="778" d="M1019.49 -59.9395 C975.961 -79.75 874.625 -92 753 -92 C577.5 -92 414.358 -59.6788 334.016 -10.7929 C332.343 -9.77485 335.201 -7.83729 337.15 -8.03401 C350.132 -9.34467 363.238 -10 377 -10 C588 -10 728 144 728 375 C728 606 592 760 387 760 C188 760 56 606 56 375 C56 202.425 127.297 72.6281 243.939 18.0495 C244.459 17.8059 261.898 7.3492 262.362 7.01047 C385.834 -83.0613 577.275 -142 744 -142 C845.75 -142 953.489 -111.198 1019.73 -63.8387 C1019.78 -63.8007 1019.55 -59.9124 1019.49 -59.9395 L1019.49 -59.9395 Z M319 0 C210 34 140 175 140 374 C140 602 238 754 386 754 C541 754 644 602 644 374 C644 144 535 -9 372 -9 C354 -9 336 -5.5 319 -0.5 L319 0 Z " />
<glyph glyph-name="R" unicode="R" horiz-adv-x="613" d="M68.5 742.5 L72 742 C93 740 107 713 107 674 L107 76 C107 37 93 10 72 8 L68.4648 7.49497 C66.5716 7.22451 65 5.41248 65 3.5 C65 1.5681 66.5681 0 68.5 0 L222.5 0 C224.432 0 226 1.5681 226 3.5 C226 5.41248 224.428 7.22451 222.535 7.49497 L219 8 C198 10 184 37 184 76 L184 318 C184 341.735 203.265 361 227 361 L250.391 361 C259.773 361 273.136 352.397 276.756 343.742 C296.813 295.781 346.25 195.375 411 72 C447 3 455 0 602 0 C604.484 0 602 2.01613 602 4.5 C602 6.97639 599.788 8.99902 597.311 9.00647 C537.782 9.18563 533.2 13.5 502 72 C434.625 200.625 382.563 300.156 356.531 349.826 C351.308 359.792 356.651 369.673 367.549 372.469 C449.518 393.498 500 447.425 500 539 C500 666 410 750 274 750 L67.5355 750 C65.6036 750 64.2268 748.412 64.5 746.5 C64.7649 744.645 66.6454 742.765 68.5 742.5 L68.5 742.5 Z M183 425.5 L183 725 C183 730.59 188.386 734.993 193.976 734.921 C212.417 734.685 234.448 734 251 734 C349 734 415 662 415 554 C415 434 359 380 274 380 L228.5 380 C203.385 380 183 400.385 183 425.5 L183 425.5 Z " />
<glyph glyph-name="S" unicode="S" horiz-adv-x="513" d="M51 188.481 L51 47 C51 44.7921 52.7921 43 55 43 C57.142 43 59.4506 44.8026 59.9701 46.8806 L63 59 C67 74 99 64 144 34 C161 22 179.5 13.5 198.5 4.5 C223.5 -5.5 250 -10 277 -10 C395 -10 473 69 473 188 C473 280 414 367 300 415 C187 463 129 532 129 600 C129 716 191 779 287 746 C334 728 382 678 411 616 L417.636 600.515 C418.836 597.717 422.956 595 426 595 C429.312 595 432 597.688 432 601 L432 707 C432 709.208 430.208 711 428 711 C426.025 711 423.094 709.189 422.211 707.422 L420 703 C417 697 388 709 348 731 C326.629 742.657 301.482 756.202 277.145 762.466 C275.431 762.908 274.56 761.679 274 760 C273.479 758.438 265.488 758.109 263.854 758.311 C146.001 772.921 69 692.825 69 569 C69 475 132 385 254 334 C358 290 412 226 412 165 C412 64 358 -4 277 -4 C249 -4 220 5 193 21 C149 48 102 107 73 173 L66.568 188.008 C65.3118 190.939 60.6796 194.255 57.5 194.5 C53.9228 194.775 51 192.069 51 188.481 L51 188.481 Z M64 152 L64 152 L64 152 L64 152 Z " />
<glyph glyph-name="T" unicode="T" horiz-adv-x="740" d="M293.5 0 L447.5 0 C449.432 0 451 1.5681 451 3.5 C451 5.41248 449.428 7.22451 447.535 7.49497 L444 8 C423 10 409 37 409 76 L409 674.68 C409 705.767 434.233 731 465.32 731 L548 731 C608 731 668 703 699 662 L705.439 652.7 C706.601 651.021 710.458 649 712.5 649 C714.804 649 716.258 650.855 715.405 652.996 C706.279 675.902 695.721 703.148 686.595 726.855 C686.064 728.234 685.55 735.036 685.75 736.5 L685.854 737.259 C686.019 738.473 685.291 745.348 684.875 746.5 L684.661 747.092 C683.966 749.018 681.158 751.254 679.125 751.5 C678.628 751.56 671.987 751.512 671.491 751.444 C647.955 748.195 599.6 750 535 750 L202 750 C136.45 750 88.95 748.195 65.5016 751.444 C65.3008 751.472 58.7028 752 58.5 752 C56.7721 752 54.2075 750.415 53.4348 748.87 L50.3416 742.683 C49.6793 741.359 50.5189 740 52 740 C53.5432 740 54.7131 739.268 54.1461 737.833 C43.5206 710.937 29.4794 678.063 18.8539 651.167 C18.0034 649.014 20.1851 649 22.5 649 C24.5422 649 28.399 651.021 29.5614 652.7 L36 662 C67 703 127 731 187 731 L275.68 731 C306.767 731 332 705.767 332 674.68 L332 76 C332 37 318 10 297 8 L293.465 7.49497 C291.572 7.22451 290 5.41248 290 3.5 C290 1.5681 291.568 0 293.5 0 L293.5 0 Z " />
<glyph glyph-name="U" unicode="U" horiz-adv-x="595" d="M562.535 27.505 L559 27 C538 24 524 47 524 86 L524 693.68 C524 724.767 498.767 750 467.68 750 L408.5 750 C406.568 750 405 748.432 405 746.5 C405 744.588 406.572 742.775 408.465 742.505 L412 742 C433 740 447 713 447 674 L447 187.554 C447 183.813 442.754 166.347 440.975 163.056 C400.792 88.735 322.75 40 242 40 C186 40 149 109 149 213 L149 693.68 C149 724.767 123.767 750 92.68 750 L33.5 750 C31.5681 750 30 748.432 30 746.5 C30 744.588 31.5716 742.775 33.4648 742.505 L37 742 C58 740 72 713 72 674 L72 213 C72 79 128 -10 211 -10 C293.5 -10 371.916 30.8375 420.419 95.667 C426.979 104.435 447 101.291 447 90.3412 L447 19.5 C447 8.73658 455.737 0 466.5 0 L478.714 0 C479.737 0 492.057 1.59387 493.047 1.85436 L524 10 C524 12 564 21 566 21 L566 24.5 C566 26.4125 564.428 27.7755 562.535 27.505 L562.535 27.505 Z " />
<glyph glyph-name="V" unicode="V" horiz-adv-x="679" d="M626.969 750 L454.5 750 C452.016 750 450 747.984 450 745.5 C450 743.021 452.017 740.874 454.491 740.719 L466 740 C516 737 535 693 515 628 L395.453 269.358 C377.824 216.472 307.013 216.077 288.795 268.763 L167 621 C144 689 157 737 201 740 L209.513 740.655 C211.983 740.845 214 743.023 214 745.5 C214 747.984 211.984 750 209.5 750 L9.5 750 C7.01614 750 5 747.984 5 745.5 L5 743.55 C5 742.17 6.14687 740.771 7.5 740.5 L10 740 C25 737 48 701 70 646 C147 428 224 209 302 -9 C303.313 -12.6699 305.602 -9 309.5 -9 C313.4 -9 318.207 -5.60851 319.516 -1.93446 L547 637 C570 698 600 738 623 741 L626.5 741.5 C628.364 741.766 630.205 743.64 630.439 745.508 L630.5 746 C630.774 748.191 629.177 750 626.969 750 L626.969 750 Z " />
<glyph glyph-name="W" unicode="W" horiz-adv-x="927" d="M182.969 750 L11.5 750 C9.01614 750 7 747.984 7 745.5 L7 743.55 C7 742.17 8.14687 740.771 9.5 740.5 L12 740 C29 737 52 698 71 641 L284.008 -0.983362 C285.576 -5.70705 291.523 -10 296.5 -10 C301.408 -10 307.617 -5.70197 309.346 -1.10874 L454.762 385.306 C464.811 412.009 502.009 407.206 510.775 380.055 C551.575 253.68 592.375 127.416 633.175 1.77686 C634.716 -2.96709 641.512 -10 646.5 -10 C651.552 -10 657.191 -5.71463 658.545 -0.847184 L837 641 C853 698 881 738 908 741 L912 741.5 C914.191 741.774 916 743.823 916 746.031 L916 746.5 C916 748.984 913.984 751 911.5 751 L739.5 751 C737.016 751 735 748.984 735 746.5 C735 744.022 737.017 741.866 739.49 741.701 L750 741 C800 738 822 698 808 642 L719.078 302.825 C704.454 247.045 627.044 245.786 610.613 301.06 L506 653 C494 704 511 738 550 741 L558.513 741.655 C560.983 741.845 563 744.023 563 746.5 C563 748.984 560.984 751 558.5 751 L361.5 751 C359.016 751 357 748.984 357 746.5 L357 745.041 C357 743.385 358.367 741.772 360 741.5 L363 741 C382 738 408 699 426 642 L466.028 518.434 C468.056 512.174 467.619 487.977 465.365 481.794 L381.015 250.327 C361.878 197.814 290.639 199.664 274.254 253.099 L155 642 C138 698 147 738 178 741 L183.989 741.599 C186.202 741.82 187.776 743.793 187.5 746 C187.226 748.191 185.177 750 182.969 750 L182.969 750 Z " />
<glyph glyph-name="X" unicode="X" horiz-adv-x="679" d="M172.407 7.29942 L164 8 C127 10 118 37 141 77 L253.338 257.989 C277.488 296.897 327.142 296.078 349.995 256.394 L451 81 C474 40 473 10 445 8 L439.479 7.38651 C437.57 7.17447 436 5.42008 436 3.5 C436 1.5681 437.568 0 439.5 0 L608.5 0 C610.432 0 612 1.5681 612 3.5 C612 5.20826 610.761 7.31205 609.142 7.85587 C590.988 13.9525 571.75 33 548 71 L368.008 381.895 C358.993 397.467 360.3 427.699 370.626 442.434 L535 677 C563 715 598 741 624 743 L628.527 743.566 C630.429 743.804 632 745.583 632 747.5 C632 749.432 630.432 751 628.5 751 L472.5 751 C470.568 751 469 749.432 469 747.5 C469 745.575 470.569 743.869 472.488 743.709 L481 743 C517 741 526 716 506 678 L394.601 498.794 C370.455 459.949 320.882 460.75 298.002 500.355 L200 670 C176 712 178 741 206 743 L211.521 743.613 C213.43 743.826 215 745.58 215 747.5 C215 749.432 213.432 751 211.5 751 L43.5 751 C41.5681 751 40 749.432 40 747.5 C40 745.796 41.0989 743.713 42.708 743.151 C59.9125 737.147 78.2 719.05 101 682 L272.693 384.944 C281.213 370.203 280.415 340.286 271.122 326.02 L105 71 C75.75 31.025 47.4506 12.9144 14.5407 8.32639 C12.6861 8.06784 12 6.37253 12 4.5 C12 2.5681 13.5681 1 15.5 1 L168.394 1 C170.05 1 173.081 2.6222 174 4 C174.966 5.44932 174.143 7.15477 172.407 7.29942 L172.407 7.29942 Z " />
<glyph glyph-name="Y" unicode="Y" horiz-adv-x="594" d="M212.536 0 L406.5 0 C408.432 0 410 1.5681 410 3.5 C410 5.42231 408.43 7.15699 406.517 7.34826 L400 8 C369 10 348 45 348 96 L348 324.064 C348 327.18 352.285 345.836 353.644 348.639 L509 669 C529 711 561 740 588 742 L592.527 742.566 C594.429 742.804 596 744.583 596 746.5 C596 748.432 594.432 750 592.5 750 L459.5 750 C457.568 750 456 748.432 456 746.5 C456 744.575 457.569 742.869 459.488 742.709 L468 742 C504 740 518 715 503 677 L393.136 445.451 C371.841 400.569 315.711 399.342 292.474 443.249 L173 669 C151 711 155 740 183 742 L188.521 742.613 C190.43 742.826 192 744.58 192 746.5 C192 748.432 190.432 750 188.5 750 L20.5 750 C18.5681 750 17 748.432 17 746.5 C17 744.828 18.2959 742.671 19.8725 742.114 C38.2075 735.642 59.25 712.7 83 669 L263.129 338.604 C264.944 335.274 270 315.438 270 311.645 L270 96 C270 45 249 10 218 8 L211.518 7.3518 C209.578 7.15779 208.224 5.43017 208.5 3.5 C208.773 1.58752 210.604 0 212.536 0 L212.536 0 Z " />
<glyph glyph-name="Z" unicode="Z" horiz-adv-x="596" d="M71.3598 650.264 L75 659 C93 701 152 729 224 730 L387.285 732.428 C435.71 733.148 461.744 685.98 435.324 645.391 L29.0914 21.2857 C27.8594 19.393 25 9.75833 25 7.5 C25 3.36022 28.3602 0 32.5 0 L560.231 0 C566.579 0 573.152 5.29722 574.5 11.5 L577 23 C577 23 588.733 72.6375 595.05 99.893 C595.597 102.253 593.922 104 591.5 104 C589.354 104 585.814 101.966 584.733 100.113 L580 92 C557 50 494 22 421 21 L220.628 18.3722 C172.424 17.74 146.458 64.5035 172.478 105.086 L572.952 729.686 C574.158 731.567 577 741.266 577 743.5 C577 747.64 573.64 751 569.5 751 L82.0454 751 C75.9737 751 70.5497 746.047 70 740 L69 729 L63.2612 651.526 C63.1173 649.584 64.5726 647.775 66.5 647.5 C68.3704 647.233 70.6331 648.519 71.3598 650.264 L71.3598 650.264 Z " />
<glyph glyph-name="bracketleft" unicode="&#x5b;" horiz-adv-x="289" d="M185.32 731 L329.5 731 C334.744 731 339 735.256 339 740.5 C339 745.744 334.744 750 329.5 750 L162.32 750 C131.233 750 106 724.767 106 693.68 L106 -138.68 C106 -169.767 131.233 -195 162.32 -195 L329.5 -195 C334.744 -195 339 -190.744 339 -185.5 C339 -180.256 334.744 -176 329.5 -176 L185.32 -176 C154.233 -176 129 -150.767 129 -119.68 L129 674.68 C129 705.767 154.233 731 185.32 731 L185.32 731 Z " />
<glyph glyph-name="backslash" unicode="&#x5c;" horiz-adv-x="341" d="M38.5576 751.831 L287.442 -61.831 C290.376 -71.4211 301.971 -80 312 -80 C322.029 -80 328.376 -71.4211 325.442 -61.831 L76.5576 751.831 C73.6241 761.421 62.0288 770 52 770 C41.9712 770 35.6241 761.421 38.5576 751.831 L38.5576 751.831 Z " />
<glyph glyph-name="bracketright" unicode="&#x5d;" horiz-adv-x="292" d="M159 674.68 L159 -119.68 C159 -150.767 133.767 -176 102.68 -176 L-41.5 -176 C-46.7437 -176 -51 -180.256 -51 -185.5 C-51 -190.744 -46.7437 -195 -41.5 -195 L125.68 -195 C156.767 -195 182 -169.767 182 -138.68 L182 693.68 C182 724.767 156.767 750 125.68 750 L-41.5 750 C-46.7437 750 -51 745.744 -51 740.5 C-51 735.256 -46.7437 731 -41.5 731 L102.68 731 C133.767 731 159 705.767 159 674.68 L159 674.68 Z " />
<glyph glyph-name="asciicircum" unicode="&#x5e;" horiz-adv-x="297" d="M172 760 C167 767 156 784 149 784 C142 784 130 768 126 761 L1.10606 568.78 C-0.602225 566.151 0.0250702 562.425 2.5 560.5 C4.9758 558.574 8.73226 558.891 10.851 561.204 L107.325 666.51 C130.233 691.515 167.694 691.449 190.514 666.364 L286.164 561.217 C288.275 558.896 292.024 558.574 294.5 560.5 C296.975 562.425 297.605 566.153 295.9 568.784 L172 760 L172 760 Z " />
<glyph glyph-name="underscore" unicode="&#x5f;" horiz-adv-x="378" d="M5 -68 C5 -77.9355 13.0645 -86 23 -86 L355 -86 C364.935 -86 373 -77.9355 373 -68 C373 -58.0645 364.935 -50 355 -50 L23 -50 C13.0645 -50 5 -58.0645 5 -68 L5 -68 Z " />
<glyph glyph-name="grave" unicode="&#x60;" horiz-adv-x="297" d="M-57 751 C-57 744 -30 718 11 684 L147.707 566.684 C150.07 564.656 153.799 564.799 156 567 C158.198 569.198 158.377 572.964 156.396 575.361 L41 715 C8 756 -17 783 -24 783 C-42 783 -57 768 -57 751 L-57 751 Z " />
<glyph glyph-name="a" unicode="a" horiz-adv-x="477" d="M483.5 90.5 C481.724 91.2613 479.555 89.4568 479.109 87.5762 C472.585 60.05 449.5 42 421 42 C387 42 365 62 365 91 L365 357 C365 463 315 510 241 510 C138 510 69 414 69 360 C69 332 82 314 102 314 C124 314 139 333 139 347 C139 364 119 387 119 402 C119 439 165 505 234 505 C274 505 300 467 300 381 L300 296.445 C300 281.004 288.645 257.421 275.302 249.649 C123.005 160.95 49 113.45 49 84 C49 28 90 -10 151 -10 C185.2 -10 228.31 11.06 281.788 64.844 C288.286 71.3792 301.904 66.2919 304.608 57.4814 C316.471 18.8219 349.45 -5 394 -5 C438.85 -5 475.144 31.1237 486.2 84.8341 C486.626 86.9059 485.444 89.6667 483.5 90.5 L483.5 90.5 Z M300 188.306 L300 111.344 C300 101.703 291.376 80.1724 284.396 73.5215 C248.344 39.1641 214.875 25 186 25 C144 25 116 51 116 91 C116 136.375 156.837 172.902 240.759 224.726 C270.328 242.986 300 223.059 300 188.306 L300 188.306 Z " />
<glyph glyph-name="b" unicode="b" horiz-adv-x="459" d="M32 658 L31.0059 128.162 C31.0049 127.607 31.8245 122.527 32 122 C32.1745 121.476 33 116.39 33 115.838 L33 75 L33.7833 35.8371 C33.9313 28.4326 44.6157 26.5784 47.25 33.5 L49.3288 38.9621 C53.8371 50.8072 71.5921 52.3618 80.749 43.5992 C116.134 9.73812 164.025 -10 216 -10 C335 -10 415 95 415 252 C415 404 337 505 220 505 C182.05 505 143.419 483.901 115.338 449.563 C110.682 443.869 99 446.429 99 453.785 L99 734 C99 742.832 91.8315 750 83 750 L73.9333 750 C72.9568 750 61.9456 748.722 60.9998 748.479 C45.792 744.574 26.96 739.4 12 735 L12 730 C27 723 33 699 33 658 L32 658 Z M99 120.025 L99 399.507 C99 405.257 103.572 422.452 106.904 427.138 C131.78 462.13 166.7 484 200 484 C285 484 342 388 342 244 C342 97 293 -1 219 -1 C172.45 -1 128.156 37.8075 102.409 99.9897 C101.504 102.175 99 117.66 99 120.025 L99 120.025 Z " />
<glyph glyph-name="c" unicode="c" horiz-adv-x="439" d="M388.182 92.5546 C353.392 40.0103 302.675 7 254 7 C169 7 112 112 112 269 C112 411 171 506 259 506 C288 506 322 466 344 405 C351 385 364 372 377 372 C403 372 416 385 409 405 C386 468 326 510 260 510 C131 510 45 401 45 237 C45 89 125 -10 245 -10 C297.7 -10 352.568 29.7375 390.565 92.6311 C390.624 92.7299 388.246 92.6507 388.182 92.5546 L388.182 92.5546 Z " />
<glyph glyph-name="d" unicode="d" horiz-adv-x="517" d="M499.989 26.5699 L496 26 C475 22 461 45 461 84 L461 734 C461 742.832 453.832 750 445 750 L436.945 750 C435.732 750 422.531 748.138 421.365 747.802 L396 740.5 L373 734 L373 729 C388 722 395 698 395 657 L395 446.971 C395 439.556 382.847 437.496 378.478 443.486 C349.819 482.775 309.25 510 268 510 C121 510 45 407 45 253 C45 98 125 -5 246 -5 C292.2 -5 340.442 16.0994 376.126 49.8754 C382.914 56.2999 397 52.7443 397 43.3985 L397 16.7519 C397 7.50637 404.506 0.112023 413.75 0.25 L423.386 0.39382 C424.386 0.408744 435.711 1.92856 436.675 2.19459 C457.097 7.83045 482.259 15.046 501.98 20.4478 C503.589 20.8885 503.774 22.3546 503.5 24 C503.224 25.6555 501.651 26.8072 499.989 26.5699 L499.989 26.5699 Z M397 367.692 L397 100.199 C397 90.511 390.531 72.7659 383.503 66.0971 C355.6 39.6175 314.8 23 274 23 C177 23 113 122 113 271 C113 404 169 492 277 492 C325.45 492 372.997 444.167 393.921 385.37 C394.524 383.675 397 369.491 397 367.692 L397 367.692 Z " />
<glyph glyph-name="e" unicode="e" horiz-adv-x="487" d="M131.093 340 L395.016 340 C434.06 340 455.44 361.046 441.174 397.391 C409.796 477.33 348.725 510 272 510 C136 510 45 432 45 233 C45 87 127 -10 251 -10 C320.7 -10 385.343 31.905 422.819 97.9054 C422.825 97.9157 421.37 97.5462 421.364 97.5362 C386.205 42.7119 324.825 8 258 8 C172 8 114 109 114 260 C114 284.857 115.373 307.311 117.55 327.932 C118.261 334.662 124.326 340 131.093 340 L131.093 340 Z M325.058 345.777 L178.2 345.22 C142.018 345.083 121.353 364.934 132.85 399.24 C158.243 475.011 207.475 507 271 507 C312.25 507 348.055 476.372 371.115 400.516 C381.328 366.921 360.171 345.91 325.058 345.777 L325.058 345.777 Z " />
<glyph glyph-name="f" unicode="f" horiz-adv-x="282" d="M165.332 7.9722 C153.612 11.7438 147 21 147 41 L147 408.68 C147 439.767 172.233 465 203.32 465 L254.5 465 C264.159 465 272 472.841 272 482.5 C272 492.159 264.159 500 254.5 500 L203.32 500 C170.021 500 146.652 526.904 149.022 560.119 C156.653 667.085 185.85 735 236 735 C268 735 299 635 326 635 C353 635 371 653 371 680 C371 725 326 755 259 755 C153.7 755 93.76 672.38 82.825 544.319 C81.097 524.083 59.2197 493.999 39.6394 488.605 L-13.1437 474.062 C-15.1958 473.497 -17 471.129 -17 469 C-17 466.792 -15.2079 465 -13 465 L32 465 C59.0465 465 81 443.047 81 416 L81 41 C81 21 74.3884 11.7438 62.6679 7.9722 C61.0899 7.46441 59 5.1577 59 3.5 C59 1.5681 60.5681 0 62.5 0 L165.5 0 C167.432 0 169 1.5681 169 3.5 C169 5.1577 166.91 7.46441 165.332 7.9722 L165.332 7.9722 Z " />
<glyph glyph-name="g" unicode="g" horiz-adv-x="485" d="M506 468 C506 491 489 507 463 507 C434.95 507 406.9 491.346 385.588 465.652 C380.144 459.088 365.165 458.347 359.205 464.446 C330.93 493.382 290.3 510 241 510 C144 510 80 446 80 350 C80 279.875 113.351 226.766 168.822 202.464 C173.323 200.492 173.148 187.395 168.301 186.582 C99.6275 175.063 57 145.95 57 106 C57 64.75 80.1413 33.0288 117.44 18.136 C123.121 15.8674 124.244 3.78899 118.757 1.08313 C75.7325 -20.135 49 -54.9 49 -94 C49 -176 129 -230 250 -230 C370 -230 450 -168 450 -74 C450 15 402 75 280 75 L173 75 C127 75 96 95 96 126 C96 163 154 188 241 188 C337 188 401 253 401 350 C401 382.4 393.71 411.56 380.588 435.293 C377.942 440.078 378.438 445.783 382.608 449.32 C394.786 459.65 410.04 466 426 466 C442 466 463 439 479 439 C496 439 506.5 451 506.5 468 L506 468 Z M242 192 C184 192 146 255 146 350 C146 444 184 506 242 506 C299 506 337 444 337 350 C337 255 299 192 242 192 L242 192 Z M160 9.5 L169 9 L273 9 C362 9 396 -30 396 -89 C396 -171 338 -226 250 -226 C162 -226 104 -167 104 -78 C104 -42 118.58 -11.67 142.637 4.971 C145.792 7.15323 156.17 9.71278 160 9.5 L160 9.5 Z " />
<glyph glyph-name="h" unicode="h" horiz-adv-x="434" d="M45 657 L45 41 C45 21 38.3884 11.7438 26.6679 7.9722 C25.0899 7.46441 23 5.1577 23 3.5 C23 1.5681 24.5681 0 26.5 0 L129.5 0 C131.432 0 133 1.5681 133 3.5 C133 5.1577 130.91 7.46441 129.332 7.9722 C117.612 11.7438 111 21 111 41 L111 366.21 C111 368.747 113.076 381.483 114.079 383.813 C135.017 432.412 182.85 464 237 464 C290 464 317 418 317 349 L317 41 C317 21 310.388 11.7438 298.668 7.9722 C297.09 7.46441 295 5.1577 295 3.5 C295 1.5681 296.568 0 298.5 0 L401.5 0 C403.432 0 405 1.5681 405 3.5 C405 5.1577 402.91 7.46441 401.332 7.9722 C389.612 11.7438 383 21 383 41 L383 349 C383 446 346 510 274 510 C216.25 510 161.903 474.607 128.928 418.422 C125.175 412.028 111 414.023 111 421.437 L111 733.5 C111 742.608 103.608 750 94.5 750 L82.7434 750 C81.7171 750 75.4083 749.091 74.4473 748.73 C67.626 746.174 59.2095 742.554 50.8225 741.12 C50.6901 741.097 38.3554 738.905 38.2261 738.868 L21 734 L21 729 C36 722 44 698 44 657 L45 657 Z " />
<glyph glyph-name="i" unicode="i" horiz-adv-x="172" d="M130 657 C130 683 113 700 88 700 C63 700 46 683 46 657 C46 602 130 602 130 657 L130 657 Z M55 407 L55 41 C55 21 48.3884 11.7438 36.6679 7.9722 C35.0899 7.46441 33 5.1577 33 3.5 C33 1.5681 34.5681 0 36.5 0 L139.5 0 C141.432 0 143 1.5681 143 3.5 C143 5.1577 140.91 7.46441 139.332 7.9722 C127.612 11.7438 121 21 121 41 L121 483.5 C121 492.608 113.608 500 104.5 500 L92.7434 500 C91.7171 500 85.4083 499.091 84.4473 498.73 C77.626 496.174 69.2095 492.554 60.8225 491.12 C60.6901 491.097 48.3554 488.905 48.2261 488.868 L31 484 L31 479 C46 472 54 448 54 407 L55 407 Z " />
<glyph glyph-name="j" unicode="j" horiz-adv-x="207" d="M85 615 C110 615 127 632 127 657 C127 683 110 700 85 700 C59 700 42 683 42 657 C42 632 59 615 85 615 L85 615 Z M52 408 L52 39 C52 -32.4 39.7175 -90.0725 20.0655 -114.98 C9.95538 -127.793 8.74026 -126.264 -7.32954 -123.407 C-38.3018 -117.899 -74.2308 -100 -103 -100 C-130 -100 -148 -116 -148 -140 C-148 -169 -124 -187 -88 -185 C-81 -185 -39 -163 17 -130 C77 -95 117 -28 117 39 L117 484 C117 492.832 109.832 500 101 500 L91.9333 500 C90.9568 500 79.9456 498.722 78.9998 498.479 C63.792 494.574 44.96 489.4 30 485 L30 480 C45 473 52 449 52 408 L52 408 Z " />
<glyph glyph-name="k" unicode="k" horiz-adv-x="389" d="M383.5 6.5 C380.5 7.5 371 19 358 37 L174.547 300.012 C167.732 309.782 170.58 326.049 179.231 334.239 C205.487 359.096 231.744 384.385 258 409 C311.625 460.675 353.842 487.634 386.506 493.584 C388.32 493.914 389 495.656 389 497.5 C389 499.432 387.432 501.023 385.5 501.051 L354.5 501.5 L343.5 501.5 L215.5 501.013 C213.568 501.006 212 499.432 212 497.5 C212 495.571 213.569 493.913 215.495 493.806 L230 493 C287 491 284 450 223 388 L167 335 C144.55 313.753 111 328.194 111 359.104 L111 735.5 C111 744.608 103.608 752 94.5 752 L82.7434 752 C81.7171 752 75.4083 751.091 74.4473 750.73 C67.626 748.174 59.2095 744.554 50.8225 743.12 C50.6901 743.097 38.3554 740.905 38.2261 740.868 L21 736 L21 731 C36 724 43 700 43 659 L43 43 C43 23 36.3884 13.7438 24.6679 9.9722 C23.0899 9.46441 21 7.1577 21 5.5 C21 3.5681 22.5681 2 24.5 2 L127.5 2 C129.432 2 131 3.5681 131 5.5 C131 7.1577 128.91 9.46441 127.332 9.9722 C115.612 13.7438 109 23 109 43 L109 162.5 C109 199.294 155.135 213.357 175.659 182.819 L253.5 67 C273.056 37.6667 282.34 15.8395 279.245 9.9465 C279.183 9.82787 276.812 5.06203 276.786 4.93063 L276.75 4.75 C276.344 2.72031 277.754 1 279.824 1 L379.307 1 C380.687 1 382.488 2.21877 383 3.5 L384 6 L383.5 6.5 Z " />
<glyph glyph-name="l" unicode="l" horiz-adv-x="162" d="M45 657 L45 41 C45 21 38.3884 11.7438 26.6679 7.9722 C25.0899 7.46441 23 5.1577 23 3.5 C23 1.5681 24.5681 0 26.5 0 L129.5 0 C131.432 0 133 1.5681 133 3.5 C133 5.1577 130.91 7.46441 129.332 7.9722 C117.612 11.7438 111 21 111 41 L111 733.5 C111 742.608 103.608 750 94.5 750 L82.7434 750 C81.7171 750 75.4083 749.091 74.4473 748.73 C67.626 746.174 59.2095 742.554 50.8225 741.12 C50.6901 741.097 38.3554 738.905 38.2261 738.868 L21 734 L21 729 C36 722 44 698 44 657 L45 657 Z " />
<glyph glyph-name="m" unicode="m" horiz-adv-x="688" d="M655.332 6.9722 C643.612 10.7438 637 20 637 40 L637 349 C637 446 604 510 519 510 C467.85 510 419.422 477.33 388.317 425.466 C383.852 418.023 366.242 417.844 363.827 426.181 C348.617 478.691 314.4 510 255 510 C205.5 510 157.361 475.969 126.868 421.944 C123.337 415.689 110 417.673 110 424.856 L110 483.5 C110 492.608 102.608 500 93.5 500 L81.7434 500 C80.7171 500 74.4083 499.091 73.4473 498.73 C66.626 496.174 58.2095 492.554 49.8225 491.12 C49.6901 491.097 37.3554 488.905 37.2261 488.868 L20 484 L20 479 C35 472 42 448 42 407 L42 41 C42 21 35.3884 11.7438 23.6679 7.9722 C22.0899 7.46441 20 5.1577 20 3.5 C20 1.5681 21.5681 0 23.5 0 L126.5 0 C128.432 0 130 1.5681 130 3.5 C130 5.1577 127.91 7.46441 126.332 7.9722 C114.612 11.7438 108 21 108 41 L108 371.321 C108 374.269 111.069 388.855 112.322 391.523 C132.089 433.62 176.05 461 226 461 C283 461 305 416 305 349 L305 41 C305 21 298.388 11.7438 286.668 7.9722 C285.09 7.46441 283 5.1577 283 3.5 C283 1.5681 284.568 0 286.5 0 L389.5 0 C391.432 0 393 1.5681 393 3.5 C393 5.1577 390.91 7.46441 389.332 7.9722 C377.612 11.7438 371 21 371 41 L371 349 C371 359.706 370.322 370.412 369.524 380.559 C369.372 382.491 371.19 391.902 372.057 393.636 C392.717 434.925 437.7 462 489 462 C546 462 568 417 568 350 L568 41 C568 21 561.388 11.7438 549.668 7.9722 C548.09 7.46441 546 5.1577 546 3.5 C546 1.5681 547.568 0 549.5 0 L652.646 0 C654.302 0 656.759 1.51891 657.5 3 C658.239 4.47747 656.905 6.46619 655.332 6.9722 L655.332 6.9722 Z " />
<glyph glyph-name="n" unicode="n" horiz-adv-x="425" d="M45 407 L45 41 C45 21 38.3884 11.7438 26.6679 7.9722 C25.0899 7.46441 23 5.1577 23 3.5 C23 1.5681 24.5681 0 26.5 0 L129.5 0 C131.432 0 133 1.5681 133 3.5 C133 5.1577 130.91 7.46441 129.332 7.9722 C117.612 11.7438 111 21 111 41 L111 366.154 C111 368.567 113.568 382.765 114.5 384.99 C137.91 440.9 184.65 477 235 477 C283 477 308 423 308 342 L308 41 C308 21 301.388 11.7438 289.668 7.9722 C288.09 7.46441 286 5.1577 286 3.5 C286 1.5681 287.568 0 289.5 0 L392.5 0 C394.432 0 396 1.5681 396 3.5 C396 5.1577 393.91 7.46441 392.332 7.9722 C380.612 11.7438 374 21 374 41 L374 342 C374 443 334 510 256 510 C206.5 510 158.361 475.969 127.868 422.506 C124.311 416.269 111 418.206 111 425.386 L111 483.5 C111 492.608 103.608 500 94.5 500 L82.7434 500 C81.7171 500 75.4083 499.091 74.4473 498.73 C67.626 496.174 59.2095 492.554 50.8225 491.12 C50.6901 491.097 38.3554 488.905 38.2261 488.868 L21 484 L21 479 C36 472 44 448 44 407 L45 407 Z " />
<glyph glyph-name="o" unicode="o" horiz-adv-x="574" d="M117 250 C117 403 185 505 287 505 C388 505 456 403 456 250 C456 97 388 -5 287 -5 C185 -5 117 97 117 250 L117 250 Z M45 250 C45 94 142 -10 287 -10 C432 -10 529 94 529 250 C529 406 432 510 287 510 C142 510 45 406 45 250 L45 250 Z " />
<glyph glyph-name="p" unicode="p" horiz-adv-x="462" d="M30 407 L30 -179 C30 -199 23.3884 -208.256 11.6679 -212.028 C10.0899 -212.536 8 -214.842 8 -216.5 C8 -218.432 9.5681 -220 11.5 -220 L114.5 -220 C116.432 -220 118 -218.432 118 -216.5 C118 -214.842 115.91 -212.536 114.332 -212.028 C102.612 -208.256 96 -199 96 -179 L96 15.4744 C96 23.3231 105.755 27.1754 112.285 22.8205 C138.692 5.20937 168.825 -5 201 -5 C331 -5 417 115 417 255 C417 408 340 510 224 510 C184.4 510 143.439 490.943 113.47 459.566 C108.074 453.916 96 456.815 96 464.627 L96 483.5 C96 492.608 88.6075 500 79.5 500 L67.7434 500 C66.7171 500 60.4083 499.091 59.4473 498.73 C52.626 496.174 44.2095 492.554 35.8225 491.12 C35.6901 491.097 23.3554 488.905 23.2261 488.868 L6 484 L6 479 C21 472 29 448 29 407 L30 407 Z M94 138.526 L94 394.109 C94 400.365 99.1905 418.711 102.954 423.708 C130.53 460.32 164.1 483 192 483 C283 483 343 384 343 235 C343 115 287 12 203 12 C161.2 12 120.302 54.4175 97.455 119.533 C96.8745 121.187 94 136.772 94 138.526 L94 138.526 Z " />
<glyph glyph-name="q" unicode="q" horiz-adv-x="476" d="M468.332 -212.028 C456.612 -208.256 450 -199 450 -179 L448.095 467.871 C448.076 474.268 438.79 475.973 436.5 470 L426.398 443.646 C426.021 442.664 422.808 438.174 422 437.5 C420.382 436.152 417.58 436.85 416.261 438.491 C380.146 483.432 324.425 511 263 511 C112 511 34 408 34 253 C34 99 117 -4 242 -4 C256.025 -4 296.594 16.4187 348.547 48.8335 C364.238 58.6235 383 48.7239 383 30.2293 L383 -178 C383 -198 376.388 -207.256 364.668 -211.028 C363.09 -211.536 361 -213.842 361 -215.5 C361 -217.432 362.568 -219 364.5 -219 L467.959 -219 C469.615 -219 471.228 -217.633 471.5 -216 C471.747 -214.519 469.762 -212.488 468.332 -212.028 L468.332 -212.028 Z M383 380.787 L383 124.271 C383 110.202 371.375 86.3053 359.602 78.6035 C307.375 44.4375 272.375 23 268 23 C168 23 101 123 101 272 C101 406 155 496 259 496 C307.45 496 354.095 458.546 379.215 399.929 C380.205 397.619 383 383.301 383 380.787 L383 380.787 Z " />
<glyph glyph-name="r" unicode="r" horiz-adv-x="304" d="M46 407 L46 41 C46 21 39.3884 11.7438 27.6679 7.9722 C26.0899 7.46441 24 5.1577 24 3.5 C24 1.5681 25.5681 0 27.5 0 L130.5 0 C132.432 0 134 1.5681 134 3.5 C134 5.1577 131.91 7.46441 130.332 7.9722 C118.612 11.7438 112 21 112 41 L112 390.463 C112 391.669 113.624 403.347 113.956 404.506 C127.33 451.12 159.25 480 202 480 C211 480 217 466 217 445 C217 422 233 406 256 406 C279 406 294 422 294 445 C294 485 269 511 232 511 C181.675 511 142.24 483.775 122.118 438.871 C120.589 435.458 112 436.529 112 440.268 L112 485.5 C112 494.608 104.608 502 95.5 502 L83.7434 502 C82.7171 502 76.4083 501.091 75.4473 500.73 C68.626 498.174 60.2095 494.554 51.8225 493.12 C51.6901 493.097 39.3554 490.905 39.2261 490.868 L22 486 L22 481 C37 474 45 449 45 408 L46 407 Z " />
<glyph glyph-name="s" unicode="s" horiz-adv-x="390" d="M313 389.915 L313 462.464 C313 464.396 311.412 465.773 309.5 465.5 C308.672 465.382 307.051 466.711 307.063 467.547 C307.173 475.172 282.936 486.192 242.333 498.765 C241.85 498.915 229.096 504.279 228.647 504.514 C219.471 509.303 210.294 512.819 201.118 514.616 C199.697 514.894 198.784 513.919 198.5 512.5 C198.236 511.181 193.244 510.459 191.903 510.556 C113.334 516.236 62 462.05 62 386 C62 314 105 253 188 226 C256 204 291 159 291 108 C291 40 256 -5 203 -5 C186.636 -5 171.099 1.19835 159.394 8.33584 C159.069 8.534 151.855 12.112 151.5 12.25 C150.68 12.5688 143.062 16.8959 142.366 17.4336 C113.13 40.0175 86.15 78.35 70 123 L67.2184 129.259 C66.6039 130.641 64.5132 132 63 132 C61.3441 132 60 130.656 60 129 L60 45 C60 43.3441 61.3441 42 63 42 L63.0845 42 C64.4644 42 66.79 43.3167 67.5 44.5 C67.5 44.5 69.075 45.147 69.075 45.147 C72.0938 38.7332 99.2297 23.6679 140.434 4.64052 C140.536 4.59353 147.977 0.366454 148.074 0.310185 C154.282 -3.29398 160.866 -5.1169 166.98 -7.26794 C167.15 -7.32753 171.038 -8.51982 171.213 -8.56089 C181.596 -11 192.733 -11 203 -11 C286 -11 341 43 341 124 C341 190 299 248 217 274 C145 297 108 348 108 406 C108 474.25 153.155 521.111 212.878 498.386 C212.881 498.385 219.725 495.685 219.729 495.684 C224.146 493.926 228.354 491.465 232.771 489.145 C232.988 489.031 236.897 486.688 237.096 486.547 C264.293 467.295 289.375 433.95 304 393 L306.816 386.664 C307.465 385.205 309.13 384.678 310.5 385.5 C311.683 386.21 313 388.536 313 389.915 L313 389.915 Z M306 418 L306 418 L306 418 L306 418 Z " />
<glyph glyph-name="t" unicode="t" horiz-adv-x="335" d="M275.5 500 L211.389 500 C180.82 500 155.586 524.817 155.077 555.381 L155 560 C154.614 583.184 128.666 593.28 112.712 576.454 L29.4402 488.628 C28.1337 487.25 26 481.899 26 480 C26 477.24 28.2402 475 31 475 L58.5 475 C76.439 475 91 460.439 91 442.5 L91 143 C91 33 138 -10 208 -10 C249.925 -10 295.653 24.2225 322.938 75.984 C323.997 77.994 323.473 80.8727 321.5 82 C319.616 83.0765 317.561 83.0906 316.543 81.1746 C297.201 44.7656 262.125 21 228 21 C184 21 155 51 155 128 L155.833 408.847 C155.925 439.842 181.158 465 212.153 465 L275.5 465 C285.159 465 293 472.841 293 482.5 C293 492.159 285.159 500 275.5 500 L275.5 500 Z " />
<glyph glyph-name="u" unicode="u" horiz-adv-x="401" d="M387 24 L382 24 C366 22 355 46 355 85 L355 456.5 C355 480.511 335.511 500 311.5 500 L271.5 500 C269.568 500 268 498.432 268 496.5 C268 494.842 270.09 492.536 271.668 492.028 C283.388 488.256 290 479 290 459 L290 140.808 C290 137.452 285.628 119.513 284.112 116.52 C258.85 66.6581 220.925 35 183 35 C137 35 106 83 106 154 L106 455 C106 479.287 86.2867 499 62 499 L21.5 499 C19.5681 499 18 497.432 18 495.5 C18 493.842 20.0899 491.536 21.6679 491.028 C33.3884 487.256 40 478 40 458 L40 154 C40 55 85 -11 152 -11 C193.25 -11 236.542 25.0731 269.522 83.1815 C274.028 91.1198 289 88.2046 289 79.0768 L289 15.75 C289 6.5045 296.505 -1 305.75 -1 L315.214 -1 C316.257 -1 327.583 0.343489 328.591 0.611505 C345.313 5.05646 365.566 10.5878 381.98 14.9383 C383.971 15.4659 386.245 17.9563 386.5 20 L387 24 L387 24 Z " />
<glyph glyph-name="v" unicode="v" horiz-adv-x="394" d="M369 500 L305.824 500 C303.754 500 302.344 498.28 302.75 496.25 C302.851 495.743 305.757 491.346 306.117 490.975 C312.474 484.42 311.811 458.784 302 424 L258 268.5 C244.939 222.343 181.284 221.824 167.473 267.763 L119 429 C111.059 460.765 110.514 483.576 115.991 489.878 C116.278 490.208 119.164 494.821 119.25 495.25 C119.656 497.28 118.246 499 116.176 499 L11.8243 499 C9.75438 499 8.34406 497.28 8.75 495.25 C8.95778 494.211 12.3319 490.612 13.254 490.09 C24.945 483.475 40.2 455.8 51 418 L176.284 -1.89657 C177.72 -6.71163 183.475 -11 188.5 -11 C193.513 -11 199.316 -6.71043 200.787 -1.91787 L333 429 C345.865 465.757 357.041 483.936 369.632 490.523 C371.121 491.302 373 494.319 373 496 C373 498.208 371.208 500 369 500 L369 500 Z " />
<glyph glyph-name="w" unicode="w" horiz-adv-x="629" d="M132.665 500 L25.8243 500 C23.7544 500 22.3441 498.28 22.75 496.25 C22.9611 495.194 26.2078 491.631 27.1448 491.101 C37.9238 485.004 52.2632 461.105 63 428 L189.31 0.111312 C190.734 -4.71209 196.471 -9 201.5 -9 C206.507 -9 212.336 -4.7098 213.824 0.0705998 L260.673 150.557 C275.869 199.367 342.867 198.982 357.5 150 L402.281 0.102495 C403.719 -4.71158 409.476 -9 414.5 -9 C419.471 -9 425.441 -4.70656 427.023 0.0061735 L568 420 C580.6 457.8 596.845 485.475 608.716 492.09 C609.655 492.613 613.039 496.196 613.25 497.25 C613.656 499.28 612.246 501 610.176 501 L545.824 501 C543.754 501 542.344 499.28 542.75 497.25 C542.836 496.821 545.786 492.173 546.073 491.843 C551.467 485.634 550.788 463.758 542 433 L489.203 264.678 C474.393 217.46 409.48 218.029 395.5 265.5 L350 420 C339.5 456.75 337.805 483.93 343.574 491.49 C343.774 491.752 347.185 496.927 347.25 497.25 C347.656 499.28 346.246 501 344.176 501 L236.824 501 C234.754 501 233.344 499.28 233.75 497.25 C233.958 496.211 237.332 492.612 238.254 492.09 C249.945 485.475 265.2 457.8 276 420 L292.097 367.109 C293.583 362.228 293.693 339.739 292.256 334.844 L262.5 233.5 C252.125 198.166 203.466 198.044 192.915 233.327 L135 427 C126.111 460.778 125.519 485.469 131.818 491.944 C132.112 492.247 135.155 496.338 135.25 496.75 C135.653 498.498 134.458 500 132.665 500 L132.665 500 Z " />
<glyph glyph-name="x" unicode="x" horiz-adv-x="409" d="M137.665 500 L24.5 500 C22.5681 500 21 498.432 21 496.5 C21 494.924 23.2907 492.334 24.7529 491.746 C38.5347 486.201 52.6667 470.083 71 438 L162.212 260.739 C169.26 247.043 167.918 217.728 159.648 204.733 L72 67 C47.95 31.85 30.745 13.8125 15.6363 8.13878 C14.1342 7.57472 12 5.10446 12 3.5 C12 1.5681 13.5681 0 15.5 0 L77.1757 0 C79.2456 0 80.6559 1.72031 80.25 3.75 L80.2139 3.93063 C80.1791 4.10464 77.7153 8.85837 77.626 9.01174 C74.1359 15.0086 81.0571 36.8857 97 67 L145.674 152.04 C163.452 183.101 203.033 182.275 219.5 150.5 L255 82 C272.5 46.125 281.961 18.2891 278.693 10.5508 C278.667 10.4882 275.763 4.81661 275.75 4.75 C275.344 2.72031 276.754 1 278.824 1 L391.5 1 C393.432 1 395 2.5681 395 4.5 C395 6.07604 392.709 8.66581 391.247 9.25405 C377.465 14.7986 363.333 30.9167 345 63 L245.303 257.146 C238.597 270.205 239.557 299.262 247.11 311.85 L312 420 C336.975 462.55 357.672 485.421 373.299 492.569 C374.695 493.208 377 495.965 377 497.5 C377 499.432 375.432 501 373.5 501 L311.824 501 C309.754 501 308.344 499.28 308.75 497.25 C308.763 497.185 311.664 491.51 311.689 491.449 C314.93 483.711 305.25 455.875 286 420 L253.67 359.886 C239.279 333.127 205.36 333.462 191.5 360.5 L161 420 C143 456.9 133.505 485.295 137.618 492.063 C137.697 492.193 140.216 496.602 140.25 496.75 C140.653 498.498 139.458 500 137.665 500 L137.665 500 Z " />
<glyph glyph-name="y" unicode="y" horiz-adv-x="431" d="M404.959 500 L340.824 500 C338.754 500 337.344 498.28 337.75 496.25 C337.838 495.812 340.559 491.396 340.856 491.063 C346.895 484.295 343.7 455.9 332 419 L281 264 C264.87 214.976 197.853 215.834 182.981 265.254 L131 438 C124.067 465.733 124.269 485.58 129.654 491.681 C129.952 492.019 133.162 496.808 133.25 497.25 C133.656 499.28 132.246 501 130.176 501 L25.8243 501 C23.7544 501 22.3441 499.28 22.75 497.25 C22.9578 496.211 26.3319 492.612 27.254 492.09 C38.945 485.475 54.2 457.8 65 420 L184.568 19.2078 C186.368 13.1743 186.081 -9.41019 183.876 -15.3077 C166.092 -62.8718 148.949 -110.436 131 -158 C123 -179 109 -193 104 -193 C82 -193 77 -170 54 -170 C28 -170 11 -187 11 -213 C11 -241 30 -259 59 -259 C83 -259 128 -222 148 -167 L206 -9 C257 136 309 281 361 426 C376.2 466.85 389.595 487.845 404.615 493.272 C405.843 493.716 407.285 495.711 407.5 497 C407.772 498.633 406.615 500 404.959 500 L404.959 500 Z " />
<glyph glyph-name="z" unicode="z" horiz-adv-x="441" d="M392.3 73.4 L389 69 C356 21 258 20 258 20 L188.5 18.5 C156.077 17.8002 138.14 48.7647 154.878 76.5422 L397.129 478.576 C398.232 480.406 401 490.363 401 492.5 C401 496.64 397.64 500 393.5 500 L74.5 500 C71.4642 500 69 497.536 69 494.5 L69 492.502 C69 490.57 67.4307 489.056 65.5 489.125 L62 489.25 C60.0541 489.25 54.3214 465.346 43.881 426.29 C43.1931 423.716 45.3363 423 48 423 C50.077 423 54.9248 425.2 56.2925 426.763 L60 431 C84 459 139 479 199 480 L261 481.5 C289.819 482.197 305.781 454.625 290.826 429.98 L42.8909 21.4118 C41.7767 19.5757 39 9.64766 39 7.5 C39 3.36022 42.3602 0 46.5 0 L389.477 0 C392.513 0 395.225 2.47663 395.5 5.5 L396 11 C396 11 399.781 35.5756 403.667 73.6993 C403.918 76.1624 401.976 77 399.5 77 C397.513 77 393.492 74.9897 392.3 73.4 L392.3 73.4 Z " />
<glyph glyph-name="bar" unicode="&#x7c;" horiz-adv-x="171" d="M60 774.5 L60 -224.5 C60 -238.575 71.4248 -250 85.5 -250 C99.5752 -250 111 -238.575 111 -224.5 L111 774.5 C111 788.575 99.5752 800 85.5 800 C71.4248 800 60 788.575 60 774.5 L60 774.5 Z " />
<glyph glyph-name="asciitilde" unicode="&#x7e;" horiz-adv-x="297" d="M27.2327 329.119 L31.2096 328.69 C31.2096 328.69 30.3352 328.691 30.3352 328.691 C34.4644 355.984 47.85 373 66 373 C110 373 168 308 212 308 C243.5 308 264.875 342.83 268.835 396.452 C268.835 396.452 270.374 396.608 270.374 396.608 L266.406 397.111 C266.406 397.111 267.946 397.267 267.946 397.267 C263.145 371.335 247.625 355 227 355 C183 355 125 420 81 420 C51.3 420 31.725 384.36 28.107 329.118 C28.107 329.118 27.2327 329.119 27.2327 329.119 L31.2096 328.69 C31.2096 328.69 30.3352 328.691 30.3352 328.691 L27.2327 329.119 Z " />
<glyph glyph-name="exclamdown" unicode="&#xa1;" horiz-adv-x="220" d="M110 505 C82 505 64 487 64 459 C64 431 82 412 110 412 C138 412 156 431 156 459 C156 487 138 505 110 505 L110 505 Z M110 -255 C141 -255 154 -217 150 -161 C150 -161 117.679 139.397 116.063 279.543 C116.025 282.817 113.274 290 110 290 C106.726 290 103.975 282.817 103.937 279.543 C102.321 139.397 70 -161 70 -161 C66 -217 79 -255 110 -255 L110 -255 Z " />
<glyph glyph-name="cent" unicode="&#xa2;" horiz-adv-x="439" d="M233 563.457 L233 541.5 C233 526.616 214.288 505.399 200.034 501.114 C104.94 472.53 45 373.8 45 237 C45 108.3 105.75 16.86 200.277 -4.515 C214.658 -7.76702 233 -26.7554 233 -41.5 L233 -62 C233 -68.6236 238.376 -74 245 -74 C251.624 -74 257 -68.6236 257 -62 L257 -37.2104 C257 -25.1212 271.633 -5.83845 283.022 -1.7855 C323.26 12.533 361.807 48.0195 390.775 97.128 C390.814 97.1947 388.749 95.0472 388.707 94.9823 C360.917 52.4097 322.466 22.3781 283.194 11.9611 C264.403 6.97664 257 17.5761 257 37.0172 L257 491.492 C257 503.172 259.98 508.559 271.041 504.807 C297.652 495.782 324.3 459.7 343 407 C350 387 363 374 376 374 C402 374 415 387 408 407 C388.45 461.4 341.445 499.905 286.023 509.618 C271.617 512.143 256 529.874 256 544.5 L256 565.457 C256 571.804 250.824 576.55 244.5 576 C238.176 575.45 233 569.804 233 563.457 L233 563.457 Z M200.915 23.735 C145.68 57.99 111 148.6 111 271 C111 379.8 145.68 461.145 200.915 493.541 C222.247 506.052 232 493.254 232 468.523 L232 48.3664 C232 23.0264 222.45 10.3798 200.915 23.735 L200.915 23.735 Z " />
<glyph glyph-name="acute" unicode="&#xb4;" horiz-adv-x="297" d="M160.555 566.937 L296 684 C336 719 363 745 363 751 C363 768 348 783 331 783 C325 783 300 756 266 715 L150.835 575.641 C148.72 573.081 149.018 569.206 151.5 567 C153.962 564.811 158.063 564.783 160.555 566.937 L160.555 566.937 Z " />
<glyph glyph-name="questiondown" unicode="&#xbf;" horiz-adv-x="302" d="M177 505 C149 505 131 487 131 459 C131 431 149 412 177 412 C205 412 223 431 223 459 C223 487 205 505 177 505 L177 505 Z M178.998 308.688 C178.95 300.656 177.975 140 177 140 C89 140 55 104 19 51 C2 25 -10 -17 -10 -54 C-10 -178 57 -260 157 -260 C194 -260 219 -240 219 -211 C219 -192 205 -179 183 -179 C168 -179 148 -191 133 -191 C59 -191 10 -133 10 -46 C10 -28 20 -1 34 20 C56 52 83 74 200 74 C200.417 74 199.817 73.9198 199.627 74.2907 C194.802 83.7019 191 309 191 309 C191 309 188.368 309 185 309 C181.688 309 179.018 312 178.998 308.688 L178.998 308.688 Z " />
<glyph glyph-name="Agrave" unicode="&#xc0;" horiz-adv-x="597" d="M95 1001 C95 993 122 968 162 934 L298.707 816.684 C301.07 814.656 304.799 814.799 307 817 C309.197 819.197 309.384 822.972 307.415 825.375 L193 965 C160 1006 135 1033 128 1033 C110 1033 95 1018 95 1001 L95 1001 Z M160.269 9.33795 L151 10 C108 13 91 57 107 122 L142.667 252.525 C148.701 274.609 174.102 294 196.995 294 L341.35 294 C364.01 294 389.419 274.758 395.561 252.946 L433 120 C448 56 432 13 389 10 L379.489 9.32061 C377.017 9.14409 375 6.97755 375 4.5 C375 2.01613 377.016 0 379.5 0 L592.5 0 C594.984 0 597 2.01613 597 4.5 L597 4.96887 C597 7.17675 595.191 9.22615 593 9.5 L589 10 C564 13 535 54 515 116 L341.722 724.466 C341.686 724.593 341.003 726.987 340.978 727.116 C340.519 729.567 332.879 770 329 770 L325 770 C323.201 770 321.445 767.337 321.433 765.538 C321.327 748.355 300.588 733.335 268.593 727.846 C265.883 727.381 263.71 724.633 264.5 722 C264.939 720.537 265.025 713.438 264.621 711.965 L105 129 C85 61 42 13 -5 10 L-14.5114 9.32061 C-16.9827 9.14409 -19 6.97755 -19 4.5 C-19 2.01613 -16.9839 0 -14.5 0 L163.257 0 C165.74 0 167.285 2.1436 166.5 4.5 C165.735 6.79445 162.681 9.16564 160.269 9.33795 L160.269 9.33795 Z M176.439 370.161 L215.388 512.742 C230.606 568.449 308.349 568.713 323.945 513.111 L363.937 370.53 C374.6 332.515 349.192 299 309.709 299 L230.769 299 C191.49 299 166.089 332.271 176.439 370.161 L176.439 370.161 Z " />
<glyph glyph-name="Aacute" unicode="&#xc1;" horiz-adv-x="597" d="M311.293 816.684 L448 934 C488 969 515 995 515 1001 C515 1018 500 1033 482 1033 C476 1033 451 1006 417 965 L302.585 825.375 C300.616 822.972 300.803 819.197 303 817 C305.201 814.799 308.93 814.656 311.293 816.684 L311.293 816.684 Z M160.269 9.33795 L151 10 C108 13 91 57 107 122 L142.667 252.525 C148.701 274.609 174.102 294 196.995 294 L341.35 294 C364.01 294 389.419 274.758 395.561 252.946 L433 120 C448 56 432 13 389 10 L379.489 9.32061 C377.017 9.14409 375 6.97755 375 4.5 C375 2.01613 377.016 0 379.5 0 L592.5 0 C594.984 0 597 2.01613 597 4.5 L597 4.96887 C597 7.17675 595.191 9.22615 593 9.5 L589 10 C564 13 535 54 515 116 L341.722 724.466 C341.686 724.593 341.003 726.987 340.978 727.116 C340.519 729.567 332.879 770 329 770 L325 770 C323.201 770 321.445 767.337 321.433 765.538 C321.327 748.355 300.588 733.335 268.593 727.846 C265.883 727.381 263.71 724.633 264.5 722 C264.939 720.537 265.025 713.438 264.621 711.965 L105 129 C85 61 42 13 -5 10 L-14.5114 9.32061 C-16.9827 9.14409 -19 6.97755 -19 4.5 C-19 2.01613 -16.9839 0 -14.5 0 L163.257 0 C165.74 0 167.285 2.1436 166.5 4.5 C165.735 6.79445 162.681 9.16564 160.269 9.33795 L160.269 9.33795 Z M176.439 370.161 L215.388 512.742 C230.606 568.449 308.349 568.713 323.945 513.111 L363.937 370.53 C374.6 332.515 349.192 299 309.709 299 L230.769 299 C191.49 299 166.089 332.271 176.439 370.161 L176.439 370.161 Z " />
<glyph glyph-name="Acircumflex" unicode="&#xc2;" horiz-adv-x="597" d="M323 1010 C318 1017 307 1034 300 1034 C293 1034 281 1018 277 1011 L153.089 818.791 C151.391 816.157 152.026 812.424 154.5 810.5 C156.976 808.574 160.725 808.896 162.836 811.217 L258.339 916.202 C281.232 941.368 318.768 941.368 341.661 916.202 L437.164 811.217 C439.275 808.896 443.024 808.574 445.5 810.5 C447.975 812.425 448.605 816.153 446.9 818.784 L323 1010 L323 1010 Z M160.269 9.33795 L151 10 C108 13 91 57 107 122 L142.667 252.525 C148.701 274.609 174.102 294 196.995 294 L341.35 294 C364.01 294 389.419 274.758 395.561 252.946 L433 120 C448 56 432 13 389 10 L379.489 9.32061 C377.017 9.14409 375 6.97755 375 4.5 C375 2.01613 377.016 0 379.5 0 L592.5 0 C594.984 0 597 2.01613 597 4.5 L597 4.96887 C597 7.17675 595.191 9.22615 593 9.5 L589 10 C564 13 535 54 515 116 L341.722 724.466 C341.686 724.593 341.003 726.987 340.978 727.116 C340.519 729.567 332.879 770 329 770 L325 770 C323.201 770 321.445 767.337 321.433 765.538 C321.327 748.355 300.588 733.335 268.593 727.846 C265.883 727.381 263.71 724.633 264.5 722 C264.939 720.537 265.025 713.438 264.621 711.965 L105 129 C85 61 42 13 -5 10 L-14.5114 9.32061 C-16.9827 9.14409 -19 6.97755 -19 4.5 C-19 2.01613 -16.9839 0 -14.5 0 L163.257 0 C165.74 0 167.285 2.1436 166.5 4.5 C165.735 6.79445 162.681 9.16564 160.269 9.33795 L160.269 9.33795 Z M176.439 370.161 L215.388 512.742 C230.606 568.449 308.349 568.713 323.945 513.111 L363.937 370.53 C374.6 332.515 349.192 299 309.709 299 L230.769 299 C191.49 299 166.089 332.271 176.439 370.161 L176.439 370.161 Z " />
<glyph glyph-name="Atilde" unicode="&#xc3;" horiz-adv-x="597" d="M179.233 889.119 L183.21 888.69 C183.21 888.69 182.335 888.691 182.335 888.691 C186.464 915.984 199.85 933 218 933 C262 933 320 868 363 868 C394.5 868 415.875 902.83 419.835 956.452 C419.835 956.452 421.374 956.608 421.374 956.608 L417.406 957.111 C417.406 957.111 418.946 957.267 418.946 957.267 C414.145 931.335 398.625 915 378 915 C335 915 277 980 233 980 C203.3 980 183.725 944.36 180.107 889.118 C180.107 889.118 179.233 889.119 179.233 889.119 L183.21 888.69 C183.21 888.69 182.335 888.691 182.335 888.691 L179.233 889.119 Z M160.269 9.33795 L151 10 C108 13 91 57 107 122 L142.667 252.525 C148.701 274.609 174.102 294 196.995 294 L341.35 294 C364.01 294 389.419 274.758 395.561 252.946 L433 120 C448 56 432 13 389 10 L379.489 9.32061 C377.017 9.14409 375 6.97755 375 4.5 C375 2.01613 377.016 0 379.5 0 L592.5 0 C594.984 0 597 2.01613 597 4.5 L597 4.96887 C597 7.17675 595.191 9.22615 593 9.5 L589 10 C564 13 535 54 515 116 L341.722 724.466 C341.686 724.593 341.003 726.987 340.978 727.116 C340.519 729.567 332.879 770 329 770 L325 770 C323.201 770 321.445 767.337 321.433 765.538 C321.327 748.355 300.588 733.335 268.593 727.846 C265.883 727.381 263.71 724.633 264.5 722 C264.939 720.537 265.025 713.438 264.621 711.965 L105 129 C85 61 42 13 -5 10 L-14.5114 9.32061 C-16.9827 9.14409 -19 6.97755 -19 4.5 C-19 2.01613 -16.9839 0 -14.5 0 L163.257 0 C165.74 0 167.285 2.1436 166.5 4.5 C165.735 6.79445 162.681 9.16564 160.269 9.33795 L160.269 9.33795 Z M176.439 370.161 L215.388 512.742 C230.606 568.449 308.349 568.713 323.945 513.111 L363.937 370.53 C374.6 332.515 349.192 299 309.709 299 L230.769 299 C191.49 299 166.089 332.271 176.439 370.161 L176.439 370.161 Z " />
<glyph glyph-name="Adieresis" unicode="&#xc4;" horiz-adv-x="597" d="M370 865 C395 865 412 882 412 907 C412 933 395 950 370 950 C344 950 327 933 327 907 C327 882 344 865 370 865 L370 865 Z M230 865 C256 865 273 882 273 907 C273 933 256 950 230 950 C205 950 188 933 188 907 C188 882 205 865 230 865 L230 865 Z M160.269 9.33795 L151 10 C108 13 91 57 107 122 L142.667 252.525 C148.701 274.609 174.102 294 196.995 294 L341.35 294 C364.01 294 389.419 274.758 395.561 252.946 L433 120 C448 56 432 13 389 10 L379.489 9.32061 C377.017 9.14409 375 6.97755 375 4.5 C375 2.01613 377.016 0 379.5 0 L592.5 0 C594.984 0 597 2.01613 597 4.5 L597 4.96887 C597 7.17675 595.191 9.22615 593 9.5 L589 10 C564 13 535 54 515 116 L341.722 724.466 C341.686 724.593 341.003 726.987 340.978 727.116 C340.519 729.567 332.879 770 329 770 L325 770 C323.201 770 321.445 767.337 321.433 765.538 C321.327 748.355 300.588 733.335 268.593 727.846 C265.883 727.381 263.71 724.633 264.5 722 C264.939 720.537 265.025 713.438 264.621 711.965 L105 129 C85 61 42 13 -5 10 L-14.5114 9.32061 C-16.9827 9.14409 -19 6.97755 -19 4.5 C-19 2.01613 -16.9839 0 -14.5 0 L163.257 0 C165.74 0 167.285 2.1436 166.5 4.5 C165.735 6.79445 162.681 9.16564 160.269 9.33795 L160.269 9.33795 Z M176.439 370.161 L215.388 512.742 C230.606 568.449 308.349 568.713 323.945 513.111 L363.937 370.53 C374.6 332.515 349.192 299 309.709 299 L230.769 299 C191.49 299 166.089 332.271 176.439 370.161 L176.439 370.161 Z " />
<glyph glyph-name="Aring" unicode="&#xc5;" horiz-adv-x="597" d="M222 905 C222 953 253 985 300 985 C347 985 378 953 378 905 C378 862 342 825 300 825 C258 825 222 862 222 905 L222 905 Z M203 905 C203 854 248 810 300 810 C352 810 397 854 397 905 C397 962 358 1000 300 1000 C242 1000 203 962 203 905 L203 905 Z M160.269 9.33795 L151 10 C108 13 91 57 107 122 L142.667 252.525 C148.701 274.609 174.102 294 196.995 294 L341.35 294 C364.01 294 389.419 274.758 395.561 252.946 L433 120 C448 56 432 13 389 10 L379.489 9.32061 C377.017 9.14409 375 6.97755 375 4.5 C375 2.01613 377.016 0 379.5 0 L592.5 0 C594.984 0 597 2.01613 597 4.5 L597 4.96887 C597 7.17675 595.191 9.22615 593 9.5 L589 10 C564 13 535 54 515 116 L341.722 724.466 C341.686 724.593 341.003 726.987 340.978 727.116 C340.519 729.567 332.879 770 329 770 L325 770 C323.201 770 321.445 767.337 321.433 765.538 C321.327 748.355 300.588 733.335 268.593 727.846 C265.883 727.381 263.71 724.633 264.5 722 C264.939 720.537 265.025 713.438 264.621 711.965 L105 129 C85 61 42 13 -5 10 L-14.5114 9.32061 C-16.9827 9.14409 -19 6.97755 -19 4.5 C-19 2.01613 -16.9839 0 -14.5 0 L163.257 0 C165.74 0 167.285 2.1436 166.5 4.5 C165.735 6.79445 162.681 9.16564 160.269 9.33795 L160.269 9.33795 Z M176.439 370.161 L215.388 512.742 C230.606 568.449 308.349 568.713 323.945 513.111 L363.937 370.53 C374.6 332.515 349.192 299 309.709 299 L230.769 299 C191.49 299 166.089 332.271 176.439 370.161 L176.439 370.161 Z " />
<glyph glyph-name="Egrave" unicode="&#xc8;" horiz-adv-x="535" d="M80 1001 C80 994 107 968 147 934 L282.445 816.937 C284.937 814.783 289.038 814.811 291.5 817 C293.982 819.206 294.28 823.081 292.165 825.641 L177 965 C144 1006 119 1033 112 1033 C95 1033 80 1018 80 1001 L80 1001 Z M400 297.5 L400 477.5 C400 479.984 397.984 482 395.5 482 C393.112 482 390.42 479.97 389.764 477.673 L387 468 C373 421 326 390 269 390 L226.5 390 C203.041 390 184 409.041 184 432.5 L184 689.68 C184 720.767 209.233 746 240.32 746 L330 746 C387 746 438 715 458 668 L462.227 658.136 C463.127 656.038 466.217 654 468.5 654 C470.96 654 472.737 655.845 472.387 658.28 C469.056 681.516 464.749 711.088 461.77 735.732 C460.857 743.286 453.779 749.016 446.17 749.034 L48.5 749.992 C46.5681 749.996 45 748.432 45 746.5 C45 744.578 46.5699 742.843 48.4826 742.652 L55 742 C86 740 107 705 107 654 L107 96 C107 45 86 10 55 8 L48.4826 7.34826 C46.5699 7.15699 45 5.42231 45 3.5 C45 1.56812 46.5681 0.00533975 48.5 0.0119182 L472.753 1.45659 C479.686 1.4802 486.636 7.17267 487.965 13.9778 C492.207 35.7091 496.991 61.4917 500.348 81.9765 C500.746 84.4046 498.961 86 496.5 86 C494.245 86 491.059 83.9619 490.114 81.9142 L486 73 C465 32 403 4 331 4 L278 4 C193 4 184 40 184 94 L184 342.5 C184 365.959 203.041 385 226.5 385 L269 385 C326 385 373 354 387 307 L389.764 297.327 C390.42 295.03 393.112 293 395.5 293 C397.984 293 400 295.016 400 297.5 L400 297.5 Z " />
<glyph glyph-name="Eacute" unicode="&#xc9;" horiz-adv-x="535" d="M296.555 816.937 L432 934 C472 969 499 995 499 1001 C499 1018 484 1033 467 1033 C461 1033 436 1006 402 965 L286.835 825.641 C284.72 823.081 285.018 819.206 287.5 817 C289.962 814.811 294.063 814.783 296.555 816.937 L296.555 816.937 Z M400 297.5 L400 477.5 C400 479.984 397.984 482 395.5 482 C393.112 482 390.42 479.97 389.764 477.673 L387 468 C373 421 326 390 269 390 L226.5 390 C203.041 390 184 409.041 184 432.5 L184 689.68 C184 720.767 209.233 746 240.32 746 L330 746 C387 746 438 715 458 668 L462.227 658.136 C463.127 656.038 466.217 654 468.5 654 C470.96 654 472.737 655.845 472.387 658.28 C469.056 681.516 464.749 711.088 461.77 735.732 C460.857 743.286 453.779 749.016 446.17 749.034 L48.5 749.992 C46.5681 749.996 45 748.432 45 746.5 C45 744.578 46.5699 742.843 48.4826 742.652 L55 742 C86 740 107 705 107 654 L107 96 C107 45 86 10 55 8 L48.4826 7.34826 C46.5699 7.15699 45 5.42231 45 3.5 C45 1.56812 46.5681 0.00533975 48.5 0.0119182 L472.753 1.45659 C479.686 1.4802 486.636 7.17267 487.965 13.9778 C492.207 35.7091 496.991 61.4917 500.348 81.9765 C500.746 84.4046 498.961 86 496.5 86 C494.245 86 491.059 83.9619 490.114 81.9142 L486 73 C465 32 403 4 331 4 L278 4 C193 4 184 40 184 94 L184 342.5 C184 365.959 203.041 385 226.5 385 L269 385 C326 385 373 354 387 307 L389.764 297.327 C390.42 295.03 393.112 293 395.5 293 C397.984 293 400 295.016 400 297.5 L400 297.5 Z " />
<glyph glyph-name="Ecircumflex" unicode="&#xca;" horiz-adv-x="535" d="M308 1010 C303 1017 292 1034 285 1034 C277 1034 265 1018 261 1011 L137.089 818.791 C135.391 816.157 136.026 812.424 138.5 810.5 C140.976 808.574 144.732 808.891 146.851 811.204 L243.325 916.51 C266.233 941.515 303.694 941.449 326.514 916.364 L422.164 811.217 C424.275 808.896 428.024 808.574 430.5 810.5 C432.975 812.425 433.605 816.153 431.9 818.784 L308 1010 L308 1010 Z M400 297.5 L400 477.5 C400 479.984 397.984 482 395.5 482 C393.112 482 390.42 479.97 389.764 477.673 L387 468 C373 421 326 390 269 390 L226.5 390 C203.041 390 184 409.041 184 432.5 L184 689.68 C184 720.767 209.233 746 240.32 746 L330 746 C387 746 438 715 458 668 L462.227 658.136 C463.127 656.038 466.217 654 468.5 654 C470.96 654 472.737 655.845 472.387 658.28 C469.056 681.516 464.749 711.088 461.77 735.732 C460.857 743.286 453.779 749.016 446.17 749.034 L48.5 749.992 C46.5681 749.996 45 748.432 45 746.5 C45 744.578 46.5699 742.843 48.4826 742.652 L55 742 C86 740 107 705 107 654 L107 96 C107 45 86 10 55 8 L48.4826 7.34826 C46.5699 7.15699 45 5.42231 45 3.5 C45 1.56812 46.5681 0.00533975 48.5 0.0119182 L472.753 1.45659 C479.686 1.4802 486.636 7.17267 487.965 13.9778 C492.207 35.7091 496.991 61.4917 500.348 81.9765 C500.746 84.4046 498.961 86 496.5 86 C494.245 86 491.059 83.9619 490.114 81.9142 L486 73 C465 32 403 4 331 4 L278 4 C193 4 184 40 184 94 L184 342.5 C184 365.959 203.041 385 226.5 385 L269 385 C326 385 373 354 387 307 L389.764 297.327 C390.42 295.03 393.112 293 395.5 293 C397.984 293 400 295.016 400 297.5 L400 297.5 Z " />
<glyph glyph-name="Edieresis" unicode="&#xcb;" horiz-adv-x="535" d="M354 865 C380 865 397 882 397 907 C397 933 380 950 354 950 C329 950 312 933 312 907 C312 882 329 865 354 865 L354 865 Z M215 865 C240 865 257 882 257 907 C257 933 240 950 215 950 C189 950 172 933 172 907 C172 882 189 865 215 865 L215 865 Z M400 297.5 L400 477.5 C400 479.984 397.984 482 395.5 482 C393.112 482 390.42 479.97 389.764 477.673 L387 468 C373 421 326 390 269 390 L226.5 390 C203.041 390 184 409.041 184 432.5 L184 689.68 C184 720.767 209.233 746 240.32 746 L330 746 C387 746 438 715 458 668 L462.227 658.136 C463.127 656.038 466.217 654 468.5 654 C470.96 654 472.737 655.845 472.387 658.28 C469.056 681.516 464.749 711.088 461.77 735.732 C460.857 743.286 453.779 749.016 446.17 749.034 L48.5 749.992 C46.5681 749.996 45 748.432 45 746.5 C45 744.578 46.5699 742.843 48.4826 742.652 L55 742 C86 740 107 705 107 654 L107 96 C107 45 86 10 55 8 L48.4826 7.34826 C46.5699 7.15699 45 5.42231 45 3.5 C45 1.56812 46.5681 0.00533975 48.5 0.0119182 L472.753 1.45659 C479.686 1.4802 486.636 7.17267 487.965 13.9778 C492.207 35.7091 496.991 61.4917 500.348 81.9765 C500.746 84.4046 498.961 86 496.5 86 C494.245 86 491.059 83.9619 490.114 81.9142 L486 73 C465 32 403 4 331 4 L278 4 C193 4 184 40 184 94 L184 342.5 C184 365.959 203.041 385 226.5 385 L269 385 C326 385 373 354 387 307 L389.764 297.327 C390.42 295.03 393.112 293 395.5 293 C397.984 293 400 295.016 400 297.5 L400 297.5 Z " />
<glyph glyph-name="Igrave" unicode="&#xcc;" horiz-adv-x="286" d="M-58 1001 C-58 993 -31 968 9 934 L145.707 816.684 C148.07 814.656 151.799 814.799 154 817 C156.197 819.197 156.384 822.972 154.415 825.375 L40 965 C7 1006 -18 1033 -25 1033 C-43 1033 -58 1018 -58 1001 L-58 1001 Z M223.535 7.49497 L220 8 C199 10 185 37 185 76 L185 674 C185 713 199 740 220 742 L223.535 742.505 C225.428 742.775 227 744.588 227 746.5 C227 748.432 225.432 750 223.5 750 L69.5 750 C67.5681 750 66 748.432 66 746.5 C66 744.588 67.5716 742.775 69.4648 742.505 L73 742 C94 740 108 713 108 674 L108 76 C108 37 94 10 73 8 L69.4648 7.49497 C67.5716 7.22451 66 5.41248 66 3.5 C66 1.5681 67.5681 0 69.5 0 L223.5 0 C225.432 0 227 1.5681 227 3.5 C227 5.41248 225.428 7.22451 223.535 7.49497 L223.535 7.49497 Z " />
<glyph glyph-name="Iacute" unicode="&#xcd;" horiz-adv-x="286" d="M158.293 816.684 L295 934 C335 969 362 995 362 1001 C362 1018 347 1033 329 1033 C323 1033 298 1006 264 965 L149.585 825.375 C147.616 822.972 147.803 819.197 150 817 C152.201 814.799 155.93 814.656 158.293 816.684 L158.293 816.684 Z M223.535 7.49497 L220 8 C199 10 185 37 185 76 L185 674 C185 713 199 740 220 742 L223.535 742.505 C225.428 742.775 227 744.588 227 746.5 C227 748.432 225.432 750 223.5 750 L69.5 750 C67.5681 750 66 748.432 66 746.5 C66 744.588 67.5716 742.775 69.4648 742.505 L73 742 C94 740 108 713 108 674 L108 76 C108 37 94 10 73 8 L69.4648 7.49497 C67.5716 7.22451 66 5.41248 66 3.5 C66 1.5681 67.5681 0 69.5 0 L223.5 0 C225.432 0 227 1.5681 227 3.5 C227 5.41248 225.428 7.22451 223.535 7.49497 L223.535 7.49497 Z " />
<glyph glyph-name="Icircumflex" unicode="&#xce;" horiz-adv-x="286" d="M170 1010 C165 1017 154 1034 147 1034 C140 1034 128 1018 124 1011 L0.0889365 818.791 C-1.6094 816.157 -0.974161 812.424 1.5 810.5 C3.97649 808.574 7.72501 808.896 9.83618 811.217 L105.339 916.202 C128.232 941.368 165.768 941.368 188.661 916.202 L284.164 811.217 C286.275 808.896 290.024 808.574 292.5 810.5 C294.975 812.425 295.605 816.153 293.9 818.784 L170 1010 L170 1010 Z M223.535 7.49497 L220 8 C199 10 185 37 185 76 L185 674 C185 713 199 740 220 742 L223.535 742.505 C225.428 742.775 227 744.588 227 746.5 C227 748.432 225.432 750 223.5 750 L69.5 750 C67.5681 750 66 748.432 66 746.5 C66 744.588 67.5716 742.775 69.4648 742.505 L73 742 C94 740 108 713 108 674 L108 76 C108 37 94 10 73 8 L69.4648 7.49497 C67.5716 7.22451 66 5.41248 66 3.5 C66 1.5681 67.5681 0 69.5 0 L223.5 0 C225.432 0 227 1.5681 227 3.5 C227 5.41248 225.428 7.22451 223.535 7.49497 L223.535 7.49497 Z " />
<glyph glyph-name="Idieresis" unicode="&#xcf;" horiz-adv-x="286" d="M217 865 C242 865 259 882 259 907 C259 933 242 950 217 950 C191 950 174 933 174 907 C174 882 191 865 217 865 L217 865 Z M77 865 C103 865 120 882 120 907 C120 933 103 950 77 950 C52 950 35 933 35 907 C35 882 52 865 77 865 L77 865 Z M223.535 7.49497 L220 8 C199 10 185 37 185 76 L185 674 C185 713 199 740 220 742 L223.535 742.505 C225.428 742.775 227 744.588 227 746.5 C227 748.432 225.432 750 223.5 750 L69.5 750 C67.5681 750 66 748.432 66 746.5 C66 744.588 67.5716 742.775 69.4648 742.505 L73 742 C94 740 108 713 108 674 L108 76 C108 37 94 10 73 8 L69.4648 7.49497 C67.5716 7.22451 66 5.41248 66 3.5 C66 1.5681 67.5681 0 69.5 0 L223.5 0 C225.432 0 227 1.5681 227 3.5 C227 5.41248 225.428 7.22451 223.535 7.49497 L223.535 7.49497 Z " />
<glyph glyph-name="Ntilde" unicode="&#xd1;" horiz-adv-x="645" d="M199.233 889.119 L203.21 888.69 C203.21 888.69 202.335 888.691 202.335 888.691 C206.464 915.984 219.85 933 238 933 C282 933 340 868 383 868 C414.5 868 435.875 902.83 439.835 956.452 C439.835 956.452 441.374 956.608 441.374 956.608 L437.406 957.111 C437.406 957.111 438.946 957.267 438.946 957.267 C434.145 931.335 418.625 915 398 915 C355 915 297 980 253 980 C223.3 980 203.725 944.36 200.107 889.118 C200.107 889.118 199.233 889.119 199.233 889.119 L203.21 888.69 C203.21 888.69 202.335 888.691 202.335 888.691 L199.233 889.119 Z M6.33537 742.287 C33.7025 737.045 59.4 717.95 86 679 L92 669.5 C93.7733 666.692 97.9864 652.085 97.9808 648.764 L97 76 C97 37 83 10 62 8 L58.4648 7.49497 C56.5716 7.22451 55 5.41248 55 3.5 C55 1.5681 56.5681 0 58.5 0 L158.5 0 C160.432 0 162 1.5681 162 3.5 C162 5.41248 160.428 7.22451 158.535 7.49497 L155 8 C134 10 121 38 120 76 L118.697 436.954 C118.49 494.251 191.408 515.81 222.392 467.613 L518.674 6.72943 C520.683 3.60492 527.286 0 531 0 C535.416 0 539.026 3.58426 539.058 7.99979 L544 686 C547 719 561 741 580 743 L583 743.5 C584.633 743.772 586 745.385 586 747.041 L586 747.5 C586 749.432 584.432 751 582.5 751 L482.5 751 C480.568 751 479 749.432 479 747.5 C479 745.588 480.572 743.775 482.465 743.505 L486 743 C507 741 521 713 521 674 L521 336.831 C521 279.544 448.047 258.237 417.213 306.519 L150.609 723.993 C142.882 736.091 117.497 750 103.142 750 L5.5 750 C3.5681 750 2 748.432 2 746.5 C2 744.7 4.56783 742.625 6.33537 742.287 L6.33537 742.287 Z " />
<glyph glyph-name="Ograve" unicode="&#xd2;" horiz-adv-x="783" d="M140 375 C140 603 238 755 386 755 C541 755 644 603 644 375 C644 147 538 -5 378 -5 C235 -5 140 147 140 375 L140 375 Z M56 375 C56 144 184 -10 377 -10 C588 -10 728 144 728 375 C728 606 592 760 387 760 C188 760 56 606 56 375 L56 375 Z M182 1001 C182 993 209 968 249 934 L385.707 816.684 C388.07 814.656 391.799 814.799 394 817 C396.197 819.197 396.384 822.972 394.415 825.375 L280 965 C247 1006 222 1033 215 1033 C197 1033 182 1018 182 1001 L182 1001 Z " />
<glyph glyph-name="Oacute" unicode="&#xd3;" horiz-adv-x="783" d="M398.293 816.684 L535 934 C575 969 602 995 602 1001 C602 1018 587 1033 569 1033 C563 1033 538 1006 504 965 L389.585 825.375 C387.616 822.972 387.803 819.197 390 817 C392.201 814.799 395.93 814.656 398.293 816.684 L398.293 816.684 Z M140 375 C140 603 238 755 386 755 C541 755 644 603 644 375 C644 147 538 -5 378 -5 C235 -5 140 147 140 375 L140 375 Z M56 375 C56 144 184 -10 377 -10 C588 -10 728 144 728 375 C728 606 592 760 387 760 C188 760 56 606 56 375 L56 375 Z " />
<glyph glyph-name="Ocircumflex" unicode="&#xd4;" horiz-adv-x="783" d="M140 375 C140 603 238 755 386 755 C541 755 644 603 644 375 C644 147 538 -5 378 -5 C235 -5 140 147 140 375 L140 375 Z M56 375 C56 144 184 -10 377 -10 C588 -10 728 144 728 375 C728 606 592 760 387 760 C188 760 56 606 56 375 L56 375 Z M410 1010 C405 1017 394 1034 387 1034 C380 1034 368 1018 364 1011 L240.089 818.791 C238.391 816.157 239.026 812.424 241.5 810.5 C243.976 808.574 247.725 808.896 249.836 811.217 L345.339 916.202 C368.232 941.368 405.768 941.368 428.661 916.202 L524.164 811.217 C526.275 808.896 530.024 808.574 532.5 810.5 C534.975 812.425 535.605 816.153 533.9 818.784 L410 1010 L410 1010 Z " />
<glyph glyph-name="Otilde" unicode="&#xd5;" horiz-adv-x="783" d="M266.233 889.119 L270.21 888.69 C270.21 888.69 269.335 888.691 269.335 888.691 C273.464 915.984 286.85 933 305 933 C349 933 407 868 450 868 C481.5 868 502.875 902.83 506.835 956.452 C506.835 956.452 508.374 956.608 508.374 956.608 L504.406 957.111 C504.406 957.111 505.946 957.267 505.946 957.267 C501.145 931.335 485.625 915 465 915 C422 915 364 980 320 980 C290.3 980 270.725 944.36 267.107 889.118 C267.107 889.118 266.233 889.119 266.233 889.119 L270.21 888.69 C270.21 888.69 269.335 888.691 269.335 888.691 L266.233 889.119 Z M140 375 C140 603 238 755 386 755 C541 755 644 603 644 375 C644 147 538 -5 378 -5 C235 -5 140 147 140 375 L140 375 Z M56 375 C56 144 184 -10 377 -10 C588 -10 728 144 728 375 C728 606 592 760 387 760 C188 760 56 606 56 375 L56 375 Z " />
<glyph glyph-name="Odieresis" unicode="&#xd6;" horiz-adv-x="783" d="M457 865 C482 865 499 882 499 907 C499 933 482 950 457 950 C431 950 414 933 414 907 C414 882 431 865 457 865 L457 865 Z M317 865 C343 865 360 882 360 907 C360 933 343 950 317 950 C292 950 275 933 275 907 C275 882 292 865 317 865 L317 865 Z M140 375 C140 603 238 755 386 755 C541 755 644 603 644 375 C644 147 538 -5 378 -5 C235 -5 140 147 140 375 L140 375 Z M56 375 C56 144 184 -10 377 -10 C588 -10 728 144 728 375 C728 606 592 760 387 760 C188 760 56 606 56 375 L56 375 Z " />
<glyph glyph-name="Oslash" unicode="&#xd8;" horiz-adv-x="783" d="M59.0599 -12.9326 C60.3369 -11.4951 81.9979 12.9024 120.971 57.6999 C134.22 72.929 165.005 72.0838 180.389 59.0154 C232.79 14.5025 299.45 -10 377 -10 C588 -10 728 144 728 375 C728 468.225 705.539 549.199 665.672 612.306 C654.948 629.281 653.598 668.114 666.7 683.329 L728.232 754.785 C729.755 756.555 729.651 759.349 728 761 C726.347 762.653 723.737 762.574 722.187 760.824 L661.57 692.386 C647.484 676.481 614.763 677.555 598.333 691.024 C542.079 737.136 470.325 763 387 763 C188 763 56 609 56 378 C56 283.125 77.78 201.182 116.848 137.786 C127.247 120.91 128.401 81.9743 115.43 66.9852 L57.3686 -0.107383 C55.6222 -2.12548 55.2039 -6.16701 56.5 -8.5 C57.8026 -10.8446 57.2786 -14.9378 59.0599 -12.9326 L59.0599 -12.9326 Z M569.999 587.137 C419.792 414.624 295.387 271.856 206.162 170.221 C194.304 156.713 178.357 157.116 172.284 174.034 C151.838 230.992 141 299.8 141 378 C141 606 239 758 387 758 C466.625 758 532.469 718.188 577.832 648.611 C590.173 629.683 584.838 604.179 569.999 587.137 L569.999 587.137 Z M614.015 575.001 C634.11 519.332 645 453.25 645 379 C645 151 539 -1 379 -1 C306.375 -1 246 38.0469 204.574 106.092 C193.303 124.605 195.722 145.874 209.954 162.221 C298.435 263.856 422.862 406.624 573.857 579.137 C585.911 592.909 607.8 592.216 614.015 575.001 L614.015 575.001 Z " />
<glyph glyph-name="Ugrave" unicode="&#xd9;" horiz-adv-x="595" d="M93 1001 C93 993 120 968 160 934 L296.707 816.684 C299.07 814.656 302.799 814.799 305 817 C307.197 819.197 307.384 822.972 305.415 825.375 L191 965 C158 1006 133 1033 126 1033 C108 1033 93 1018 93 1001 L93 1001 Z M562.535 27.505 L559 27 C538 24 524 47 524 86 L524 693.68 C524 724.767 498.767 750 467.68 750 L408.5 750 C406.568 750 405 748.432 405 746.5 C405 744.588 406.572 742.775 408.465 742.505 L412 742 C433 740 447 713 447 674 L447 187.554 C447 183.813 442.754 166.347 440.975 163.056 C400.792 88.735 322.75 40 242 40 C186 40 149 109 149 213 L149 693.68 C149 724.767 123.767 750 92.68 750 L33.5 750 C31.5681 750 30 748.432 30 746.5 C30 744.588 31.5716 742.775 33.4648 742.505 L37 742 C58 740 72 713 72 674 L72 213 C72 79 128 -10 211 -10 C293.5 -10 371.916 30.8375 420.419 95.667 C426.979 104.435 447 101.291 447 90.3412 L447 19.5 C447 8.73658 455.737 0 466.5 0 L478.714 0 C479.737 0 492.057 1.59387 493.047 1.85436 L524 10 C524 12 564 21 566 21 L566 24.5 C566 26.4125 564.428 27.7755 562.535 27.505 L562.535 27.505 Z " />
<glyph glyph-name="Uacute" unicode="&#xda;" horiz-adv-x="595" d="M309.293 816.684 L446 934 C486 969 513 995 513 1001 C513 1018 498 1033 480 1033 C474 1033 449 1006 415 965 L300.585 825.375 C298.616 822.972 298.803 819.197 301 817 C303.201 814.799 306.93 814.656 309.293 816.684 L309.293 816.684 Z M562.535 27.505 L559 27 C538 24 524 47 524 86 L524 693.68 C524 724.767 498.767 750 467.68 750 L408.5 750 C406.568 750 405 748.432 405 746.5 C405 744.588 406.572 742.775 408.465 742.505 L412 742 C433 740 447 713 447 674 L447 187.554 C447 183.813 442.754 166.347 440.975 163.056 C400.792 88.735 322.75 40 242 40 C186 40 149 109 149 213 L149 693.68 C149 724.767 123.767 750 92.68 750 L33.5 750 C31.5681 750 30 748.432 30 746.5 C30 744.588 31.5716 742.775 33.4648 742.505 L37 742 C58 740 72 713 72 674 L72 213 C72 79 128 -10 211 -10 C293.5 -10 371.916 30.8375 420.419 95.667 C426.979 104.435 447 101.291 447 90.3412 L447 19.5 C447 8.73658 455.737 0 466.5 0 L478.714 0 C479.737 0 492.057 1.59387 493.047 1.85436 L524 10 C524 12 564 21 566 21 L566 24.5 C566 26.4125 564.428 27.7755 562.535 27.505 L562.535 27.505 Z " />
<glyph glyph-name="Ucircumflex" unicode="&#xdb;" horiz-adv-x="595" d="M321 1010 C316 1017 305 1034 298 1034 C291 1034 279 1018 275 1011 L151.089 818.791 C149.391 816.157 150.026 812.424 152.5 810.5 C154.976 808.574 158.725 808.896 160.836 811.217 L256.339 916.202 C279.232 941.368 316.768 941.368 339.661 916.202 L435.164 811.217 C437.275 808.896 441.024 808.574 443.5 810.5 C445.975 812.425 446.605 816.153 444.9 818.784 L321 1010 L321 1010 Z M562.535 27.505 L559 27 C538 24 524 47 524 86 L524 693.68 C524 724.767 498.767 750 467.68 750 L408.5 750 C406.568 750 405 748.432 405 746.5 C405 744.588 406.572 742.775 408.465 742.505 L412 742 C433 740 447 713 447 674 L447 187.554 C447 183.813 442.754 166.347 440.975 163.056 C400.792 88.735 322.75 40 242 40 C186 40 149 109 149 213 L149 693.68 C149 724.767 123.767 750 92.68 750 L33.5 750 C31.5681 750 30 748.432 30 746.5 C30 744.588 31.5716 742.775 33.4648 742.505 L37 742 C58 740 72 713 72 674 L72 213 C72 79 128 -10 211 -10 C293.5 -10 371.916 30.8375 420.419 95.667 C426.979 104.435 447 101.291 447 90.3412 L447 19.5 C447 8.73658 455.737 0 466.5 0 L478.714 0 C479.737 0 492.057 1.59387 493.047 1.85436 L524 10 C524 12 564 21 566 21 L566 24.5 C566 26.4125 564.428 27.7755 562.535 27.505 L562.535 27.505 Z " />
<glyph glyph-name="Udieresis" unicode="&#xdc;" horiz-adv-x="595" d="M368 865 C393 865 410 882 410 907 C410 933 393 950 368 950 C342 950 325 933 325 907 C325 882 342 865 368 865 L368 865 Z M228 865 C254 865 271 882 271 907 C271 933 254 950 228 950 C203 950 186 933 186 907 C186 882 203 865 228 865 L228 865 Z M562.535 27.505 L559 27 C538 24 524 47 524 86 L524 693.68 C524 724.767 498.767 750 467.68 750 L408.5 750 C406.568 750 405 748.432 405 746.5 C405 744.588 406.572 742.775 408.465 742.505 L412 742 C433 740 447 713 447 674 L447 187.554 C447 183.813 442.754 166.347 440.975 163.056 C400.792 88.735 322.75 40 242 40 C186 40 149 109 149 213 L149 693.68 C149 724.767 123.767 750 92.68 750 L33.5 750 C31.5681 750 30 748.432 30 746.5 C30 744.588 31.5716 742.775 33.4648 742.505 L37 742 C58 740 72 713 72 674 L72 213 C72 79 128 -10 211 -10 C293.5 -10 371.916 30.8375 420.419 95.667 C426.979 104.435 447 101.291 447 90.3412 L447 19.5 C447 8.73658 455.737 0 466.5 0 L478.714 0 C479.737 0 492.057 1.59387 493.047 1.85436 L524 10 C524 12 564 21 566 21 L566 24.5 C566 26.4125 564.428 27.7755 562.535 27.505 L562.535 27.505 Z " />
<glyph glyph-name="Yacute" unicode="&#xdd;" horiz-adv-x="583" d="M310.555 816.937 L446 934 C486 969 513 995 513 1001 C513 1018 498 1033 481 1033 C475 1033 450 1006 416 965 L300.835 825.641 C298.72 823.081 299.018 819.206 301.5 817 C303.962 814.811 308.063 814.783 310.555 816.937 L310.555 816.937 Z M201.536 0 L395.5 0 C397.432 0 399 1.5681 399 3.5 C399 5.42231 397.43 7.15699 395.517 7.34826 L389 8 C358 10 337 45 337 96 L337 324.064 C337 327.18 341.285 345.836 342.644 348.639 L498 669 C518 711 550 740 577 742 L581.527 742.566 C583.429 742.804 585 744.583 585 746.5 C585 748.432 583.432 750 581.5 750 L448.5 750 C446.568 750 445 748.432 445 746.5 C445 744.575 446.569 742.869 448.488 742.709 L457 742 C493 740 507 715 492 677 L382.136 445.451 C360.841 400.569 304.711 399.342 281.474 443.249 L162 669 C140 711 144 740 172 742 L177.521 742.613 C179.43 742.826 181 744.58 181 746.5 C181 748.432 179.432 750 177.5 750 L9.5 750 C7.5681 750 6 748.432 6 746.5 C6 744.828 7.29592 742.671 8.8725 742.114 C27.2075 735.642 48.25 712.7 72 669 L252.129 338.604 C253.944 335.274 259 315.438 259 311.645 L259 96 C259 45 238 10 207 8 L200.518 7.3518 C198.578 7.15779 197.224 5.43017 197.5 3.5 C197.773 1.58752 199.604 0 201.536 0 L201.536 0 Z " />
<glyph glyph-name="agrave" unicode="&#xe0;" horiz-adv-x="477" d="M483.5 90.5 C481.724 91.2613 479.555 89.4568 479.109 87.5762 C472.585 60.05 449.5 42 421 42 C387 42 365 62 365 91 L365 357 C365 463 315 510 241 510 C138 510 69 414 69 360 C69 332 82 314 102 314 C124 314 139 333 139 347 C139 364 119 387 119 402 C119 439 165 505 234 505 C274 505 300 467 300 381 L300 296.445 C300 281.004 288.645 257.421 275.302 249.649 C123.005 160.95 49 113.45 49 84 C49 28 90 -10 151 -10 C185.2 -10 228.31 11.06 281.788 64.844 C288.286 71.3792 301.904 66.2919 304.608 57.4814 C316.471 18.8219 349.45 -5 394 -5 C438.85 -5 475.144 31.1237 486.2 84.8341 C486.626 86.9059 485.444 89.6667 483.5 90.5 L483.5 90.5 Z M36 751 C36 743 63 718 103 684 L239.707 566.684 C242.07 564.656 245.799 564.799 248 567 C250.197 569.197 250.384 572.972 248.415 575.375 L134 715 C101 756 76 783 69 783 C51 783 36 768 36 751 L36 751 Z M300 188.306 L300 111.344 C300 101.703 291.376 80.1724 284.396 73.5215 C248.344 39.1641 214.875 25 186 25 C144 25 116 51 116 91 C116 136.375 156.837 172.902 240.759 224.726 C270.328 242.986 300 223.059 300 188.306 L300 188.306 Z " />
<glyph glyph-name="aacute" unicode="&#xe1;" horiz-adv-x="477" d="M252.293 566.684 L389 684 C429 719 456 745 456 751 C456 768 441 783 423 783 C417 783 392 756 358 715 L243.585 575.375 C241.616 572.972 241.803 569.197 244 567 C246.201 564.799 249.93 564.656 252.293 566.684 L252.293 566.684 Z M483.5 90.5 C481.724 91.2613 479.555 89.4568 479.109 87.5762 C472.585 60.05 449.5 42 421 42 C387 42 365 62 365 91 L365 357 C365 463 315 510 241 510 C138 510 69 414 69 360 C69 332 82 314 102 314 C124 314 139 333 139 347 C139 364 119 387 119 402 C119 439 165 505 234 505 C274 505 300 467 300 381 L300 296.445 C300 281.004 288.645 257.421 275.302 249.649 C123.005 160.95 49 113.45 49 84 C49 28 90 -10 151 -10 C185.2 -10 228.31 11.06 281.788 64.844 C288.286 71.3792 301.904 66.2919 304.608 57.4814 C316.471 18.8219 349.45 -5 394 -5 C438.85 -5 475.144 31.1237 486.2 84.8341 C486.626 86.9059 485.444 89.6667 483.5 90.5 L483.5 90.5 Z M300 188.306 L300 111.344 C300 101.703 291.376 80.1724 284.396 73.5215 C248.344 39.1641 214.875 25 186 25 C144 25 116 51 116 91 C116 136.375 156.837 172.902 240.759 224.726 C270.328 242.986 300 223.059 300 188.306 L300 188.306 Z " />
<glyph glyph-name="acircumflex" unicode="&#xe2;" horiz-adv-x="477" d="M483.5 90.5 C481.724 91.2613 479.555 89.4568 479.109 87.5762 C472.585 60.05 449.5 42 421 42 C387 42 365 62 365 91 L365 357 C365 463 315 510 241 510 C138 510 69 414 69 360 C69 332 82 314 102 314 C124 314 139 333 139 347 C139 364 119 387 119 402 C119 439 165 505 234 505 C274 505 300 467 300 381 L300 296.445 C300 281.004 288.645 257.421 275.302 249.649 C123.005 160.95 49 113.45 49 84 C49 28 90 -10 151 -10 C185.2 -10 228.31 11.06 281.788 64.844 C288.286 71.3792 301.904 66.2919 304.608 57.4814 C316.471 18.8219 349.45 -5 394 -5 C438.85 -5 475.144 31.1237 486.2 84.8341 C486.626 86.9059 485.444 89.6667 483.5 90.5 L483.5 90.5 Z M264 760 C259 767 248 784 241 784 C234 784 222 768 218 761 L94.0889 568.791 C92.3906 566.157 93.0258 562.424 95.5 560.5 C97.9765 558.574 101.725 558.896 103.836 561.217 L199.339 666.202 C222.232 691.368 259.768 691.368 282.661 666.202 L378.164 561.217 C380.275 558.896 384.024 558.574 386.5 560.5 C388.975 562.425 389.605 566.153 387.9 568.784 L264 760 L264 760 Z M300 188.306 L300 111.344 C300 101.703 291.376 80.1724 284.396 73.5215 C248.344 39.1641 214.875 25 186 25 C144 25 116 51 116 91 C116 136.375 156.837 172.902 240.759 224.726 C270.328 242.986 300 223.059 300 188.306 L300 188.306 Z " />
<glyph glyph-name="atilde" unicode="&#xe3;" horiz-adv-x="477" d="M120.233 639.119 L124.21 638.69 C124.21 638.69 123.335 638.691 123.335 638.691 C127.464 665.984 140.85 683 159 683 C203 683 261 618 304 618 C335.5 618 356.875 652.83 360.835 706.452 C360.835 706.452 362.374 706.608 362.374 706.608 L358.406 707.111 C358.406 707.111 359.946 707.267 359.946 707.267 C355.145 681.335 339.625 665 319 665 C276 665 218 730 174 730 C144.3 730 124.725 694.36 121.107 639.118 C121.107 639.118 120.233 639.119 120.233 639.119 L124.21 638.69 C124.21 638.69 123.335 638.691 123.335 638.691 L120.233 639.119 Z M483.5 90.5 C481.724 91.2613 479.555 89.4568 479.109 87.5762 C472.585 60.05 449.5 42 421 42 C387 42 365 62 365 91 L365 357 C365 463 315 510 241 510 C138 510 69 414 69 360 C69 332 82 314 102 314 C124 314 139 333 139 347 C139 364 119 387 119 402 C119 439 165 505 234 505 C274 505 300 467 300 381 L300 296.445 C300 281.004 288.645 257.421 275.302 249.649 C123.005 160.95 49 113.45 49 84 C49 28 90 -10 151 -10 C185.2 -10 228.31 11.06 281.788 64.844 C288.286 71.3792 301.904 66.2919 304.608 57.4814 C316.471 18.8219 349.45 -5 394 -5 C438.85 -5 475.144 31.1237 486.2 84.8341 C486.626 86.9059 485.444 89.6667 483.5 90.5 L483.5 90.5 Z M300 188.306 L300 111.344 C300 101.703 291.376 80.1724 284.396 73.5215 C248.344 39.1641 214.875 25 186 25 C144 25 116 51 116 91 C116 136.375 156.837 172.902 240.759 224.726 C270.328 242.986 300 223.059 300 188.306 L300 188.306 Z " />
<glyph glyph-name="adieresis" unicode="&#xe4;" horiz-adv-x="477" d="M311 615 C336 615 353 632 353 657 C353 683 336 700 311 700 C285 700 268 683 268 657 C268 632 285 615 311 615 L311 615 Z M171 615 C197 615 214 632 214 657 C214 683 197 700 171 700 C146 700 129 683 129 657 C129 632 146 615 171 615 L171 615 Z M483.5 90.5 C481.724 91.2613 479.555 89.4568 479.109 87.5762 C472.585 60.05 449.5 42 421 42 C387 42 365 62 365 91 L365 357 C365 463 315 510 241 510 C138 510 69 414 69 360 C69 332 82 314 102 314 C124 314 139 333 139 347 C139 364 119 387 119 402 C119 439 165 505 234 505 C274 505 300 467 300 381 L300 296.445 C300 281.004 288.645 257.421 275.302 249.649 C123.005 160.95 49 113.45 49 84 C49 28 90 -10 151 -10 C185.2 -10 228.31 11.06 281.788 64.844 C288.286 71.3792 301.904 66.2919 304.608 57.4814 C316.471 18.8219 349.45 -5 394 -5 C438.85 -5 475.144 31.1237 486.2 84.8341 C486.626 86.9059 485.444 89.6667 483.5 90.5 L483.5 90.5 Z M300 188.306 L300 111.344 C300 101.703 291.376 80.1724 284.396 73.5215 C248.344 39.1641 214.875 25 186 25 C144 25 116 51 116 91 C116 136.375 156.837 172.902 240.759 224.726 C270.328 242.986 300 223.059 300 188.306 L300 188.306 Z " />
<glyph glyph-name="aring" unicode="&#xe5;" horiz-adv-x="477" d="M163 655 C163 703 194 735 241 735 C288 735 319 703 319 655 C319 612 283 575 241 575 C199 575 163 612 163 655 L163 655 Z M144 655 C144 604 189 560 241 560 C293 560 338 604 338 655 C338 712 299 750 241 750 C183 750 144 712 144 655 L144 655 Z M483.5 90.5 C481.724 91.2613 479.555 89.4568 479.109 87.5762 C472.585 60.05 449.5 42 421 42 C387 42 365 62 365 91 L365 357 C365 463 315 510 241 510 C138 510 69 414 69 360 C69 332 82 314 102 314 C124 314 139 333 139 347 C139 364 119 387 119 402 C119 439 165 505 234 505 C274 505 300 467 300 381 L300 296.445 C300 281.004 288.645 257.421 275.302 249.649 C123.005 160.95 49 113.45 49 84 C49 28 90 -10 151 -10 C185.2 -10 228.31 11.06 281.788 64.844 C288.286 71.3792 301.904 66.2919 304.608 57.4814 C316.471 18.8219 349.45 -5 394 -5 C438.85 -5 475.144 31.1237 486.2 84.8341 C486.626 86.9059 485.444 89.6667 483.5 90.5 L483.5 90.5 Z M300 188.306 L300 111.344 C300 101.703 291.376 80.1724 284.396 73.5215 C248.344 39.1641 214.875 25 186 25 C144 25 116 51 116 91 C116 136.375 156.837 172.902 240.759 224.726 C270.328 242.986 300 223.059 300 188.306 L300 188.306 Z " />
<glyph glyph-name="egrave" unicode="&#xe8;" horiz-adv-x="487" d="M67 751 C67 743 94 718 134 684 L270.707 566.684 C273.07 564.656 276.799 564.799 279 567 C281.197 569.197 281.384 572.972 279.415 575.375 L165 715 C132 756 107 783 100 783 C82 783 67 768 67 751 L67 751 Z M131.093 340 L395.016 340 C434.06 340 455.44 361.046 441.174 397.391 C409.796 477.33 348.725 510 272 510 C136 510 45 432 45 233 C45 87 127 -10 251 -10 C320.7 -10 385.343 31.905 422.819 97.9054 C422.825 97.9157 421.37 97.5462 421.364 97.5362 C386.205 42.7119 324.825 8 258 8 C172 8 114 109 114 260 C114 284.857 115.373 307.311 117.55 327.932 C118.261 334.662 124.326 340 131.093 340 L131.093 340 Z M325.058 345.777 L178.2 345.22 C142.018 345.083 121.353 364.934 132.85 399.24 C158.243 475.011 207.475 507 271 507 C312.25 507 348.055 476.372 371.115 400.516 C381.328 366.921 360.171 345.91 325.058 345.777 L325.058 345.777 Z " />
<glyph glyph-name="eacute" unicode="&#xe9;" horiz-adv-x="487" d="M283.293 566.684 L420 684 C460 719 487 745 487 751 C487 768 472 783 454 783 C448 783 423 756 389 715 L274.585 575.375 C272.616 572.972 272.803 569.197 275 567 C277.201 564.799 280.93 564.656 283.293 566.684 L283.293 566.684 Z M131.093 340 L395.016 340 C434.06 340 455.44 361.046 441.174 397.391 C409.796 477.33 348.725 510 272 510 C136 510 45 432 45 233 C45 87 127 -10 251 -10 C320.7 -10 385.343 31.905 422.819 97.9054 C422.825 97.9157 421.37 97.5462 421.364 97.5362 C386.205 42.7119 324.825 8 258 8 C172 8 114 109 114 260 C114 284.857 115.373 307.311 117.55 327.932 C118.261 334.662 124.326 340 131.093 340 L131.093 340 Z M325.058 345.777 L178.2 345.22 C142.018 345.083 121.353 364.934 132.85 399.24 C158.243 475.011 207.475 507 271 507 C312.25 507 348.055 476.372 371.115 400.516 C381.328 366.921 360.171 345.91 325.058 345.777 L325.058 345.777 Z " />
<glyph glyph-name="ecircumflex" unicode="&#xea;" horiz-adv-x="487" d="M295 760 C290 767 279 784 272 784 C265 784 253 768 249 761 L125.089 568.791 C123.391 566.157 124.026 562.424 126.5 560.5 C128.976 558.574 132.725 558.896 134.836 561.217 L230.339 666.202 C253.232 691.368 290.768 691.368 313.661 666.202 L409.164 561.217 C411.275 558.896 415.024 558.574 417.5 560.5 C419.975 562.425 420.605 566.153 418.9 568.784 L295 760 L295 760 Z M131.093 340 L395.016 340 C434.06 340 455.44 361.046 441.174 397.391 C409.796 477.33 348.725 510 272 510 C136 510 45 432 45 233 C45 87 127 -10 251 -10 C320.7 -10 385.343 31.905 422.819 97.9054 C422.825 97.9157 421.37 97.5462 421.364 97.5362 C386.205 42.7119 324.825 8 258 8 C172 8 114 109 114 260 C114 284.857 115.373 307.311 117.55 327.932 C118.261 334.662 124.326 340 131.093 340 L131.093 340 Z M325.058 345.777 L178.2 345.22 C142.018 345.083 121.353 364.934 132.85 399.24 C158.243 475.011 207.475 507 271 507 C312.25 507 348.055 476.372 371.115 400.516 C381.328 366.921 360.171 345.91 325.058 345.777 L325.058 345.777 Z " />
<glyph glyph-name="edieresis" unicode="&#xeb;" horiz-adv-x="487" d="M342 615 C367 615 384 632 384 657 C384 683 367 700 342 700 C316 700 299 683 299 657 C299 632 316 615 342 615 L342 615 Z M202 615 C228 615 245 632 245 657 C245 683 228 700 202 700 C177 700 160 683 160 657 C160 632 177 615 202 615 L202 615 Z M131.093 340 L395.016 340 C434.06 340 455.44 361.046 441.174 397.391 C409.796 477.33 348.725 510 272 510 C136 510 45 432 45 233 C45 87 127 -10 251 -10 C320.7 -10 385.343 31.905 422.819 97.9054 C422.825 97.9157 421.37 97.5462 421.364 97.5362 C386.205 42.7119 324.825 8 258 8 C172 8 114 109 114 260 C114 284.857 115.373 307.311 117.55 327.932 C118.261 334.662 124.326 340 131.093 340 L131.093 340 Z M325.058 345.777 L178.2 345.22 C142.018 345.083 121.353 364.934 132.85 399.24 C158.243 475.011 207.475 507 271 507 C312.25 507 348.055 476.372 371.115 400.516 C381.328 366.921 360.171 345.91 325.058 345.777 L325.058 345.777 Z " />
<glyph glyph-name="igrave" unicode="&#xec;" horiz-adv-x="218" d="M-86 750 C-86 742 -59 717 -19 683 L117.707 565.684 C120.07 563.656 123.799 563.799 126 566 C128.197 568.197 128.384 571.972 126.415 574.375 L12 714 C-21 755 -46 782 -53 782 C-71 782 -86 767 -86 750 L-86 750 Z M68.0689 476.803 C80.2698 475.54 86 468 86 449 L86 41 C86 21 79.3884 11.7438 67.6679 7.9722 C66.0899 7.46441 64 5.1577 64 3.5 C64 1.5681 65.5681 0 67.5 0 L170.5 0 C172.432 0 174 1.5681 174 3.5 C174 5.1577 171.91 7.46441 170.332 7.9722 C158.612 11.7438 152 21 152 41 L152 483.5 C152 492.608 144.608 500 135.5 500 L123.743 500 C122.717 500 116.408 499.091 115.447 498.73 C108.626 496.174 100.209 492.554 91.8225 491.12 C91.6901 491.097 79.3554 488.905 79.2261 488.868 L65.5029 484.99 C63.5694 484.444 62.448 482.432 63 480.5 C63.4593 478.892 66.4059 476.976 68.0689 476.803 L68.0689 476.803 Z " />
<glyph glyph-name="iacute" unicode="&#xed;" horiz-adv-x="218" d="M-86 750 C-86 742 -59 717 -19 683 L117.707 565.684 C120.07 563.656 123.799 563.799 126 566 C128.197 568.197 128.384 571.972 126.415 574.375 L12 714 C-21 755 -46 782 -53 782 C-71 782 -86 767 -86 750 L-86 750 Z M68.0689 476.803 C80.2698 475.54 86 468 86 449 L86 41 C86 21 79.3884 11.7438 67.6679 7.9722 C66.0899 7.46441 64 5.1577 64 3.5 C64 1.5681 65.5681 0 67.5 0 L170.5 0 C172.432 0 174 1.5681 174 3.5 C174 5.1577 171.91 7.46441 170.332 7.9722 C158.612 11.7438 152 21 152 41 L152 483.5 C152 492.608 144.608 500 135.5 500 L123.743 500 C122.717 500 116.408 499.091 115.447 498.73 C108.626 496.174 100.209 492.554 91.8225 491.12 C91.6901 491.097 79.3554 488.905 79.2261 488.868 L65.5029 484.99 C63.5694 484.444 62.448 482.432 63 480.5 C63.4593 478.892 66.4059 476.976 68.0689 476.803 L68.0689 476.803 Z " />
<glyph glyph-name="icircumflex" unicode="&#xee;" horiz-adv-x="218" d="M142 759 C137 766 126 783 119 783 C112 783 100 767 96 760 L-27.9111 567.791 C-29.6094 565.157 -28.9742 561.424 -26.5 559.5 C-24.0235 557.574 -20.275 557.896 -18.1638 560.217 L77.3387 665.202 C100.232 690.368 137.768 690.368 160.661 665.202 L256.164 560.217 C258.275 557.896 262.024 557.574 264.5 559.5 C266.975 561.425 267.605 565.153 265.9 567.784 L142 759 L142 759 Z M68.0689 476.803 C80.2698 475.54 86 468 86 449 L86 41 C86 21 79.3884 11.7438 67.6679 7.9722 C66.0899 7.46441 64 5.1577 64 3.5 C64 1.5681 65.5681 0 67.5 0 L170.5 0 C172.432 0 174 1.5681 174 3.5 C174 5.1577 171.91 7.46441 170.332 7.9722 C158.612 11.7438 152 21 152 41 L152 483.5 C152 492.608 144.608 500 135.5 500 L123.743 500 C122.717 500 116.408 499.091 115.447 498.73 C108.626 496.174 100.209 492.554 91.8225 491.12 C91.6901 491.097 79.3554 488.905 79.2261 488.868 L65.5029 484.99 C63.5694 484.444 62.448 482.432 63 480.5 C63.4593 478.892 66.4059 476.976 68.0689 476.803 L68.0689 476.803 Z " />
<glyph glyph-name="idieresis" unicode="&#xef;" horiz-adv-x="218" d="M189 614 C214 614 231 631 231 656 C231 682 214 699 189 699 C163 699 146 682 146 656 C146 631 163 614 189 614 L189 614 Z M49 614 C75 614 92 631 92 656 C92 682 75 699 49 699 C24 699 7 682 7 656 C7 631 24 614 49 614 L49 614 Z M68.0689 476.803 C80.2698 475.54 86 468 86 449 L86 41 C86 21 79.3884 11.7438 67.6679 7.9722 C66.0899 7.46441 64 5.1577 64 3.5 C64 1.5681 65.5681 0 67.5 0 L170.5 0 C172.432 0 174 1.5681 174 3.5 C174 5.1577 171.91 7.46441 170.332 7.9722 C158.612 11.7438 152 21 152 41 L152 483.5 C152 492.608 144.608 500 135.5 500 L123.743 500 C122.717 500 116.408 499.091 115.447 498.73 C108.626 496.174 100.209 492.554 91.8225 491.12 C91.6901 491.097 79.3554 488.905 79.2261 488.868 L65.5029 484.99 C63.5694 484.444 62.448 482.432 63 480.5 C63.4593 478.892 66.4059 476.976 68.0689 476.803 L68.0689 476.803 Z " />
<glyph glyph-name="ntilde" unicode="&#xf1;" horiz-adv-x="425" d="M88.2327 638.119 L92.2096 637.69 C92.2096 637.69 91.3352 637.691 91.3352 637.691 C95.4644 664.984 108.85 682 127 682 C171 682 229 617 273 617 C304.5 617 325.875 651.83 329.835 705.452 C329.835 705.452 331.374 705.608 331.374 705.608 L327.406 706.111 C327.406 706.111 328.946 706.267 328.946 706.267 C324.145 680.335 308.625 664 288 664 C244 664 186 729 142 729 C112.3 729 92.725 693.36 89.107 638.118 C89.107 638.118 88.2327 638.119 88.2327 638.119 L92.2096 637.69 C92.2096 637.69 91.3352 637.691 91.3352 637.691 L88.2327 638.119 Z M45 407 L45 41 C45 21 38.3884 11.7438 26.6679 7.9722 C25.0899 7.46441 23 5.1577 23 3.5 C23 1.5681 24.5681 0 26.5 0 L129.5 0 C131.432 0 133 1.5681 133 3.5 C133 5.1577 130.91 7.46441 129.332 7.9722 C117.612 11.7438 111 21 111 41 L111 366.154 C111 368.567 113.568 382.765 114.5 384.99 C137.91 440.9 184.65 477 235 477 C283 477 308 423 308 342 L308 41 C308 21 301.388 11.7438 289.668 7.9722 C288.09 7.46441 286 5.1577 286 3.5 C286 1.5681 287.568 0 289.5 0 L392.5 0 C394.432 0 396 1.5681 396 3.5 C396 5.1577 393.91 7.46441 392.332 7.9722 C380.612 11.7438 374 21 374 41 L374 342 C374 443 334 510 256 510 C206.5 510 158.361 475.969 127.868 422.506 C124.311 416.269 111 418.206 111 425.386 L111 483.5 C111 492.608 103.608 500 94.5 500 L82.7434 500 C81.7171 500 75.4083 499.091 74.4473 498.73 C67.626 496.174 59.2095 492.554 50.8225 491.12 C50.6901 491.097 38.3554 488.905 38.2261 488.868 L21 484 L21 479 C36 472 44 448 44 407 L45 407 Z " />
<glyph glyph-name="ograve" unicode="&#xf2;" horiz-adv-x="574" d="M117 250 C117 403 185 505 287 505 C388 505 456 403 456 250 C456 97 388 -5 287 -5 C185 -5 117 97 117 250 L117 250 Z M45 250 C45 94 142 -10 287 -10 C432 -10 529 94 529 250 C529 406 432 510 287 510 C142 510 45 406 45 250 L45 250 Z M82 751 C82 743 109 718 149 684 L285.707 566.684 C288.07 564.656 291.799 564.799 294 567 C296.197 569.197 296.384 572.972 294.415 575.375 L180 715 C147 756 122 783 115 783 C97 783 82 768 82 751 L82 751 Z " />
<glyph glyph-name="oacute" unicode="&#xf3;" horiz-adv-x="574" d="M298.293 566.684 L435 684 C475 719 502 745 502 751 C502 768 487 783 469 783 C463 783 438 756 404 715 L289.585 575.375 C287.616 572.972 287.803 569.197 290 567 C292.201 564.799 295.93 564.656 298.293 566.684 L298.293 566.684 Z M117 250 C117 403 185 505 287 505 C388 505 456 403 456 250 C456 97 388 -5 287 -5 C185 -5 117 97 117 250 L117 250 Z M45 250 C45 94 142 -10 287 -10 C432 -10 529 94 529 250 C529 406 432 510 287 510 C142 510 45 406 45 250 L45 250 Z " />
<glyph glyph-name="ocircumflex" unicode="&#xf4;" horiz-adv-x="574" d="M117 250 C117 403 185 505 287 505 C388 505 456 403 456 250 C456 97 388 -5 287 -5 C185 -5 117 97 117 250 L117 250 Z M45 250 C45 94 142 -10 287 -10 C432 -10 529 94 529 250 C529 406 432 510 287 510 C142 510 45 406 45 250 L45 250 Z M310 760 C305 767 294 784 287 784 C280 784 268 768 264 761 L140.089 568.791 C138.391 566.157 139.026 562.424 141.5 560.5 C143.976 558.574 147.725 558.896 149.836 561.217 L245.339 666.202 C268.232 691.368 305.768 691.368 328.661 666.202 L424.164 561.217 C426.275 558.896 430.024 558.574 432.5 560.5 C434.975 562.425 435.605 566.153 433.9 568.784 L310 760 L310 760 Z " />
<glyph glyph-name="otilde" unicode="&#xf5;" horiz-adv-x="574" d="M166.233 639.119 L170.21 638.69 C170.21 638.69 169.335 638.691 169.335 638.691 C173.464 665.984 186.85 683 205 683 C249 683 307 618 350 618 C381.5 618 402.875 652.83 406.835 706.452 C406.835 706.452 408.374 706.608 408.374 706.608 L404.406 707.111 C404.406 707.111 405.946 707.267 405.946 707.267 C401.145 681.335 385.625 665 365 665 C322 665 264 730 220 730 C190.3 730 170.725 694.36 167.107 639.118 C167.107 639.118 166.233 639.119 166.233 639.119 L170.21 638.69 C170.21 638.69 169.335 638.691 169.335 638.691 L166.233 639.119 Z M117 250 C117 403 185 505 287 505 C388 505 456 403 456 250 C456 97 388 -5 287 -5 C185 -5 117 97 117 250 L117 250 Z M45 250 C45 94 142 -10 287 -10 C432 -10 529 94 529 250 C529 406 432 510 287 510 C142 510 45 406 45 250 L45 250 Z " />
<glyph glyph-name="odieresis" unicode="&#xf6;" horiz-adv-x="574" d="M357 615 C382 615 399 632 399 657 C399 683 382 700 357 700 C331 700 314 683 314 657 C314 632 331 615 357 615 L357 615 Z M217 615 C243 615 260 632 260 657 C260 683 243 700 217 700 C192 700 175 683 175 657 C175 632 192 615 217 615 L217 615 Z M117 250 C117 403 185 505 287 505 C388 505 456 403 456 250 C456 97 388 -5 287 -5 C185 -5 117 97 117 250 L117 250 Z M45 250 C45 94 142 -10 287 -10 C432 -10 529 94 529 250 C529 406 432 510 287 510 C142 510 45 406 45 250 L45 250 Z " />
<glyph glyph-name="oslash" unicode="&#xf8;" horiz-adv-x="574" d="M47.0449 -11.9532 C48.0024 -10.9552 64.2399 5.97881 93.1974 36.8008 C103.012 47.2478 126.325 46.4439 137.666 37.6778 C177.337 7.01563 228.425 -10 287 -10 C432 -10 529 94 529 250 C529 321.225 509.321 381.327 473.919 425.557 C468.857 431.881 470.996 442.275 476.555 448.167 C494.18 466.847 511.916 486.167 530.277 506.127 C531.333 507.275 531.103 508.897 530 510 C528.895 511.105 527.357 511.329 526.277 510.2 C507.916 491.001 490.18 471.817 472.555 453.162 C466.866 447.139 457.345 444.965 451.249 450.577 C409.938 488.609 353.675 510 288 510 C143 510 46 406 46 250 C46 186.475 62.335 131.798 91.0744 89.3385 C99.0366 77.5751 99.9237 52.1533 90.1974 41.8008 C60.335 10.0156 44 -7 44 -7 C44 -7 44.417 -7.69496 45.5 -9.5 C46.2992 -10.8319 45.9696 -13.074 47.0449 -11.9532 L47.0449 -11.9532 Z M401.808 376.817 C304.229 271.842 222.309 183.973 161.577 118.736 C153.424 109.978 141.157 113.101 137.296 124.428 C124.806 161.064 118 204.15 118 252 C118 405 186 507 288 507 C338.325 507 380.823 481.477 410.44 436.606 C422.703 418.027 416.965 393.122 401.808 376.817 L401.808 376.817 Z M436.167 381.332 C448.775 344.82 456 301.3 456 252 C456 99 388 -3 287 -3 C235.85 -3 193.548 22.1831 164.025 66.3727 C151.846 84.6025 158.498 109.181 173.494 125.174 C234.763 190.516 315.515 277.724 411.82 380.62 C419.653 388.99 432.426 392.168 436.167 381.332 L436.167 381.332 Z " />
<glyph glyph-name="ugrave" unicode="&#xf9;" horiz-adv-x="401" d="M-6 751 C-6 744 21 718 61 684 L196.445 566.937 C198.937 564.783 203.038 564.811 205.5 567 C207.982 569.206 208.28 573.081 206.165 575.641 L91 715 C58 756 33 783 26 783 C9 783 -6 768 -6 751 L-6 751 Z M387 24 L382 24 C366 22 355 46 355 85 L355 456.5 C355 480.511 335.511 500 311.5 500 L271.5 500 C269.568 500 268 498.432 268 496.5 C268 494.842 270.09 492.536 271.668 492.028 C283.388 488.256 290 479 290 459 L290 140.808 C290 137.452 285.628 119.513 284.112 116.52 C258.85 66.6581 220.925 35 183 35 C137 35 106 83 106 154 L106 455 C106 479.287 86.2867 499 62 499 L21.5 499 C19.5681 499 18 497.432 18 495.5 C18 493.842 20.0899 491.536 21.6679 491.028 C33.3884 487.256 40 478 40 458 L40 154 C40 55 85 -11 152 -11 C193.25 -11 236.542 25.0731 269.522 83.1815 C274.028 91.1198 289 88.2046 289 79.0768 L289 15.75 C289 6.5045 296.505 -1 305.75 -1 L315.214 -1 C316.257 -1 327.583 0.343489 328.591 0.611505 C345.313 5.05646 365.566 10.5878 381.98 14.9383 C383.971 15.4659 386.245 17.9563 386.5 20 L387 24 L387 24 Z " />
<glyph glyph-name="uacute" unicode="&#xfa;" horiz-adv-x="401" d="M210.555 566.937 L346 684 C386 719 413 745 413 751 C413 768 398 783 381 783 C375 783 350 756 316 715 L200.835 575.641 C198.72 573.081 199.018 569.206 201.5 567 C203.962 564.811 208.063 564.783 210.555 566.937 L210.555 566.937 Z M387 24 L382 24 C366 22 355 46 355 85 L355 456.5 C355 480.511 335.511 500 311.5 500 L271.5 500 C269.568 500 268 498.432 268 496.5 C268 494.842 270.09 492.536 271.668 492.028 C283.388 488.256 290 479 290 459 L290 140.808 C290 137.452 285.628 119.513 284.112 116.52 C258.85 66.6581 220.925 35 183 35 C137 35 106 83 106 154 L106 455 C106 479.287 86.2867 499 62 499 L21.5 499 C19.5681 499 18 497.432 18 495.5 C18 493.842 20.0899 491.536 21.6679 491.028 C33.3884 487.256 40 478 40 458 L40 154 C40 55 85 -11 152 -11 C193.25 -11 236.542 25.0731 269.522 83.1815 C274.028 91.1198 289 88.2046 289 79.0768 L289 15.75 C289 6.5045 296.505 -1 305.75 -1 L315.214 -1 C316.257 -1 327.583 0.343489 328.591 0.611505 C345.313 5.05646 365.566 10.5878 381.98 14.9383 C383.971 15.4659 386.245 17.9563 386.5 20 L387 24 L387 24 Z " />
<glyph glyph-name="ucircumflex" unicode="&#xfb;" horiz-adv-x="401" d="M222 760 C217 767 206 784 199 784 C191 784 179 768 175 761 L51.0889 568.791 C49.3906 566.157 50.0258 562.424 52.5 560.5 C54.9758 558.574 58.7323 558.891 60.851 561.204 L157.325 666.51 C180.233 691.515 217.694 691.449 240.514 666.364 L336.164 561.217 C338.275 558.896 342.024 558.574 344.5 560.5 C346.975 562.425 347.605 566.153 345.9 568.784 L222 760 L222 760 Z M387 24 L382 24 C366 22 355 46 355 85 L355 456.5 C355 480.511 335.511 500 311.5 500 L271.5 500 C269.568 500 268 498.432 268 496.5 C268 494.842 270.09 492.536 271.668 492.028 C283.388 488.256 290 479 290 459 L290 140.808 C290 137.452 285.628 119.513 284.112 116.52 C258.85 66.6581 220.925 35 183 35 C137 35 106 83 106 154 L106 455 C106 479.287 86.2867 499 62 499 L21.5 499 C19.5681 499 18 497.432 18 495.5 C18 493.842 20.0899 491.536 21.6679 491.028 C33.3884 487.256 40 478 40 458 L40 154 C40 55 85 -11 152 -11 C193.25 -11 236.542 25.0731 269.522 83.1815 C274.028 91.1198 289 88.2046 289 79.0768 L289 15.75 C289 6.5045 296.505 -1 305.75 -1 L315.214 -1 C316.257 -1 327.583 0.343489 328.591 0.611505 C345.313 5.05646 365.566 10.5878 381.98 14.9383 C383.971 15.4659 386.245 17.9563 386.5 20 L387 24 L387 24 Z " />
<glyph glyph-name="udieresis" unicode="&#xfc;" horiz-adv-x="401" d="M268 615 C294 615 311 632 311 657 C311 683 294 700 268 700 C243 700 226 683 226 657 C226 632 243 615 268 615 L268 615 Z M129 615 C154 615 171 632 171 657 C171 683 154 700 129 700 C103 700 86 683 86 657 C86 632 103 615 129 615 L129 615 Z M387 24 L382 24 C366 22 355 46 355 85 L355 456.5 C355 480.511 335.511 500 311.5 500 L271.5 500 C269.568 500 268 498.432 268 496.5 C268 494.842 270.09 492.536 271.668 492.028 C283.388 488.256 290 479 290 459 L290 140.808 C290 137.452 285.628 119.513 284.112 116.52 C258.85 66.6581 220.925 35 183 35 C137 35 106 83 106 154 L106 455 C106 479.287 86.2867 499 62 499 L21.5 499 C19.5681 499 18 497.432 18 495.5 C18 493.842 20.0899 491.536 21.6679 491.028 C33.3884 487.256 40 478 40 458 L40 154 C40 55 85 -11 152 -11 C193.25 -11 236.542 25.0731 269.522 83.1815 C274.028 91.1198 289 88.2046 289 79.0768 L289 15.75 C289 6.5045 296.505 -1 305.75 -1 L315.214 -1 C316.257 -1 327.583 0.343489 328.591 0.611505 C345.313 5.05646 365.566 10.5878 381.98 14.9383 C383.971 15.4659 386.245 17.9563 386.5 20 L387 24 L387 24 Z " />
<glyph glyph-name="ydieresis" unicode="&#xff;" horiz-adv-x="400" d="M291 615 C316 615 333 632 333 657 C333 683 316 700 291 700 C265 700 248 683 248 657 C248 632 265 615 291 615 L291 615 Z M151 615 C177 615 194 632 194 657 C194 683 177 700 151 700 C126 700 109 683 109 657 C109 632 126 615 151 615 L151 615 Z M389.959 500 L325.824 500 C323.754 500 322.344 498.28 322.75 496.25 C322.838 495.812 325.559 491.396 325.856 491.063 C331.895 484.295 328.7 455.9 317 419 L266 264 C249.87 214.976 182.853 215.834 167.981 265.254 L116 438 C109.067 465.733 109.269 485.58 114.654 491.681 C114.952 492.019 118.162 496.808 118.25 497.25 C118.656 499.28 117.246 501 115.176 501 L10.8243 501 C8.75438 501 7.34406 499.28 7.75 497.25 C7.95778 496.211 11.3319 492.612 12.254 492.09 C23.945 485.475 39.2 457.8 50 420 L169.568 19.2078 C171.368 13.1743 171.081 -9.41019 168.876 -15.3077 C151.092 -62.8718 133.949 -110.436 116 -158 C108 -179 94 -193 89 -193 C67 -193 62 -170 39 -170 C13 -170 -4 -187 -4 -213 C-4 -241 15 -259 44 -259 C68 -259 113 -222 133 -167 L191 -9 C242 136 294 281 346 426 C361.2 466.85 374.595 487.845 389.614 493.272 C390.843 493.716 392.285 495.711 392.5 497 C392.772 498.633 391.615 500 389.959 500 L389.959 500 Z " />
<glyph glyph-name="Amacron" unicode="&#x100;" horiz-adv-x="597" d="M198.5 899 L401.5 899 C413.919 899 424 909.081 424 921.5 C424 933.919 413.919 944 401.5 944 L198.5 944 C186.081 944 176 933.919 176 921.5 C176 909.081 186.081 899 198.5 899 L198.5 899 Z M160.269 9.33795 L151 10 C108 13 91 57 107 122 L142.667 252.525 C148.701 274.609 174.102 294 196.995 294 L341.35 294 C364.01 294 389.419 274.758 395.561 252.946 L433 120 C448 56 432 13 389 10 L379.489 9.32061 C377.017 9.14409 375 6.97755 375 4.5 C375 2.01613 377.016 0 379.5 0 L592.5 0 C594.984 0 597 2.01613 597 4.5 L597 4.96887 C597 7.17675 595.191 9.22615 593 9.5 L589 10 C564 13 535 54 515 116 L341.722 724.466 C341.686 724.593 341.003 726.987 340.978 727.116 C340.519 729.567 332.879 770 329 770 L325 770 C323.201 770 321.445 767.337 321.433 765.538 C321.327 748.355 300.588 733.335 268.593 727.846 C265.883 727.381 263.71 724.633 264.5 722 C264.939 720.537 265.025 713.438 264.621 711.965 L105 129 C85 61 42 13 -5 10 L-14.5114 9.32061 C-16.9827 9.14409 -19 6.97755 -19 4.5 C-19 2.01613 -16.9839 0 -14.5 0 L163.257 0 C165.74 0 167.285 2.1436 166.5 4.5 C165.735 6.79445 162.681 9.16564 160.269 9.33795 L160.269 9.33795 Z M176.439 370.161 L215.388 512.742 C230.606 568.449 308.349 568.713 323.945 513.111 L363.937 370.53 C374.6 332.515 349.192 299 309.709 299 L230.769 299 C191.49 299 166.089 332.271 176.439 370.161 L176.439 370.161 Z " />
<glyph glyph-name="amacron" unicode="&#x101;" horiz-adv-x="477" d="M139.5 649 L342.5 649 C354.919 649 365 659.081 365 671.5 C365 683.919 354.919 694 342.5 694 L139.5 694 C127.081 694 117 683.919 117 671.5 C117 659.081 127.081 649 139.5 649 L139.5 649 Z M483.5 90.5 C481.724 91.2613 479.555 89.4568 479.109 87.5762 C472.585 60.05 449.5 42 421 42 C387 42 365 62 365 91 L365 357 C365 463 315 510 241 510 C138 510 69 414 69 360 C69 332 82 314 102 314 C124 314 139 333 139 347 C139 364 119 387 119 402 C119 439 165 505 234 505 C274 505 300 467 300 381 L300 296.445 C300 281.004 288.645 257.421 275.302 249.649 C123.005 160.95 49 113.45 49 84 C49 28 90 -10 151 -10 C185.2 -10 228.31 11.06 281.788 64.844 C288.286 71.3792 301.904 66.2919 304.608 57.4814 C316.471 18.8219 349.45 -5 394 -5 C438.85 -5 475.144 31.1237 486.2 84.8341 C486.626 86.9059 485.444 89.6667 483.5 90.5 L483.5 90.5 Z M300 188.306 L300 111.344 C300 101.703 291.376 80.1724 284.396 73.5215 C248.344 39.1641 214.875 25 186 25 C144 25 116 51 116 91 C116 136.375 156.837 172.902 240.759 224.726 C270.328 242.986 300 223.059 300 188.306 L300 188.306 Z " />
<glyph glyph-name="Abreve" unicode="&#x102;" horiz-adv-x="597" d="M190.448 989.868 C197.211 923.729 240.525 880 300 880 C359.475 880 402.789 922.778 409.552 987.943 C409.967 991.941 406.979 993.432 403 994 C399.465 994.505 395.865 992.481 395.29 988.957 C389.157 951.367 352.25 927 300 927 C247.75 927 210.842 952.27 204.71 989.949 C204.143 993.435 200.523 995.752 197 995.5 C193.022 995.216 190.042 993.836 190.448 989.868 L190.448 989.868 Z M160.269 9.33795 L151 10 C108 13 91 57 107 122 L142.667 252.525 C148.701 274.609 174.102 294 196.995 294 L341.35 294 C364.01 294 389.419 274.758 395.561 252.946 L433 120 C448 56 432 13 389 10 L379.489 9.32061 C377.017 9.14409 375 6.97755 375 4.5 C375 2.01613 377.016 0 379.5 0 L592.5 0 C594.984 0 597 2.01613 597 4.5 L597 4.96887 C597 7.17675 595.191 9.22615 593 9.5 L589 10 C564 13 535 54 515 116 L341.722 724.466 C341.686 724.593 341.003 726.987 340.978 727.116 C340.519 729.567 332.879 770 329 770 L325 770 C323.201 770 321.445 767.337 321.433 765.538 C321.327 748.355 300.588 733.335 268.593 727.846 C265.883 727.381 263.71 724.633 264.5 722 C264.939 720.537 265.025 713.438 264.621 711.965 L105 129 C85 61 42 13 -5 10 L-14.5114 9.32061 C-16.9827 9.14409 -19 6.97755 -19 4.5 C-19 2.01613 -16.9839 0 -14.5 0 L163.257 0 C165.74 0 167.285 2.1436 166.5 4.5 C165.735 6.79445 162.681 9.16564 160.269 9.33795 L160.269 9.33795 Z M176.439 370.161 L215.388 512.742 C230.606 568.449 308.349 568.713 323.945 513.111 L363.937 370.53 C374.6 332.515 349.192 299 309.709 299 L230.769 299 C191.49 299 166.089 332.271 176.439 370.161 L176.439 370.161 Z " />
<glyph glyph-name="abreve" unicode="&#x103;" horiz-adv-x="477" d="M131.448 739.868 C138.211 673.729 181.525 630 241 630 C300.475 630 343.789 672.778 350.552 737.943 C350.967 741.941 347.979 743.432 344 744 C340.465 744.505 336.865 742.481 336.29 738.957 C330.158 701.367 293.25 677 241 677 C188.75 677 151.843 702.27 145.71 739.949 C145.143 743.435 141.523 745.752 138 745.5 C134.022 745.216 131.042 743.836 131.448 739.868 L131.448 739.868 Z M483.5 90.5 C481.724 91.2613 479.555 89.4568 479.109 87.5762 C472.585 60.05 449.5 42 421 42 C387 42 365 62 365 91 L365 357 C365 463 315 510 241 510 C138 510 69 414 69 360 C69 332 82 314 102 314 C124 314 139 333 139 347 C139 364 119 387 119 402 C119 439 165 505 234 505 C274 505 300 467 300 381 L300 296.445 C300 281.004 288.645 257.421 275.302 249.649 C123.005 160.95 49 113.45 49 84 C49 28 90 -10 151 -10 C185.2 -10 228.31 11.06 281.788 64.844 C288.286 71.3792 301.904 66.2919 304.608 57.4814 C316.471 18.8219 349.45 -5 394 -5 C438.85 -5 475.144 31.1237 486.2 84.8341 C486.626 86.9059 485.444 89.6667 483.5 90.5 L483.5 90.5 Z M300 188.306 L300 111.344 C300 101.703 291.376 80.1724 284.396 73.5215 C248.344 39.1641 214.875 25 186 25 C144 25 116 51 116 91 C116 136.375 156.837 172.902 240.759 224.726 C270.328 242.986 300 223.059 300 188.306 L300 188.306 Z " />
<glyph glyph-name="Cacute" unicode="&#x106;" horiz-adv-x="678" d="M389.293 816.684 L526 934 C566 969 593 995 593 1001 C593 1018 578 1033 560 1033 C554 1033 529 1006 495 965 L380.585 825.375 C378.616 822.972 378.803 819.197 381 817 C383.201 814.799 386.93 814.656 389.293 816.684 L389.293 816.684 Z M624 621 L624 621 L624 621 L624 621 Z M624 129 L624 129 L624 129 L624 129 Z M633 50 L633 168 C633 171.312 630.312 174 627 174 C624.038 174 619.641 171.283 618.317 168.633 L612 156 C586 107 542 60 497 32 C458 9 416 -4 369 -4 C232 -4 140 148 140 376 C140 604 236 756 379 756 C416 756 448 748 477 734 C526 710 580 654 611 595 L617.317 582.367 C618.641 579.717 623.038 577 626 577 C629.312 577 632 579.688 632 583 L632 699 C632 701.208 630.208 703 628 703 C625.905 703 623.397 701.192 622.735 699.205 L620 691 C616 679 584 689 541 716 C498 744 447 760 376 760 C183 760 54 606 54 375 C54 144 179 -10 366 -10 C436 -10 492 8 539 38 C583 63 614 71 619 58 L621.53 49.7789 C622.305 47.2577 625.362 45 628 45 C630.76 45 633 47.2402 633 50 L633 50 Z " />
<glyph glyph-name="Ccircumflex" unicode="&#x108;" horiz-adv-x="678" d="M401 1010 C396 1017 385 1034 378 1034 C371 1034 359 1018 355 1011 L231.089 818.791 C229.391 816.157 230.026 812.424 232.5 810.5 C234.976 808.574 238.725 808.896 240.836 811.217 L336.339 916.202 C359.232 941.368 396.768 941.368 419.661 916.202 L515.164 811.217 C517.275 808.896 521.024 808.574 523.5 810.5 C525.975 812.425 526.605 816.153 524.9 818.784 L401 1010 L401 1010 Z M624 621 L624 621 L624 621 L624 621 Z M624 129 L624 129 L624 129 L624 129 Z M633 50 L633 168 C633 171.312 630.312 174 627 174 C624.038 174 619.641 171.283 618.317 168.633 L612 156 C586 107 542 60 497 32 C458 9 416 -4 369 -4 C232 -4 140 148 140 376 C140 604 236 756 379 756 C416 756 448 748 477 734 C526 710 580 654 611 595 L617.317 582.367 C618.641 579.717 623.038 577 626 577 C629.312 577 632 579.688 632 583 L632 699 C632 701.208 630.208 703 628 703 C625.905 703 623.397 701.192 622.735 699.205 L620 691 C616 679 584 689 541 716 C498 744 447 760 376 760 C183 760 54 606 54 375 C54 144 179 -10 366 -10 C436 -10 492 8 539 38 C583 63 614 71 619 58 L621.53 49.7789 C622.305 47.2577 625.362 45 628 45 C630.76 45 633 47.2402 633 50 L633 50 Z " />
<glyph glyph-name="Cdot" unicode="&#x10a;" horiz-adv-x="678" d="M420 907 C420 933 403 950 378 950 C353 950 336 933 336 907 C336 852 420 852 420 907 L420 907 Z M624 621 L624 621 L624 621 L624 621 Z M624 129 L624 129 L624 129 L624 129 Z M633 50 L633 168 C633 171.312 630.312 174 627 174 C624.038 174 619.641 171.283 618.317 168.633 L612 156 C586 107 542 60 497 32 C458 9 416 -4 369 -4 C232 -4 140 148 140 376 C140 604 236 756 379 756 C416 756 448 748 477 734 C526 710 580 654 611 595 L617.317 582.367 C618.641 579.717 623.038 577 626 577 C629.312 577 632 579.688 632 583 L632 699 C632 701.208 630.208 703 628 703 C625.905 703 623.397 701.192 622.735 699.205 L620 691 C616 679 584 689 541 716 C498 744 447 760 376 760 C183 760 54 606 54 375 C54 144 179 -10 366 -10 C436 -10 492 8 539 38 C583 63 614 71 619 58 L621.53 49.7789 C622.305 47.2577 625.362 45 628 45 C630.76 45 633 47.2402 633 50 L633 50 Z " />
<glyph glyph-name="cdot" unicode="&#x10b;" horiz-adv-x="439" d="M302 657 C302 683 285 700 260 700 C235 700 218 683 218 657 C218 602 302 602 302 657 L302 657 Z M388.182 92.5546 C353.392 40.0103 302.675 7 254 7 C169 7 112 112 112 269 C112 411 171 506 259 506 C288 506 322 466 344 405 C351 385 364 372 377 372 C403 372 416 385 409 405 C386 468 326 510 260 510 C131 510 45 401 45 237 C45 89 125 -10 245 -10 C297.7 -10 352.568 29.7375 390.565 92.6311 C390.624 92.7299 388.246 92.6507 388.182 92.5546 L388.182 92.5546 Z " />
<glyph glyph-name="Ccaron" unicode="&#x10c;" horiz-adv-x="678" d="M515.164 1038.78 L419.661 933.798 C396.768 908.632 359.232 908.632 336.339 933.798 L240.836 1038.78 C238.725 1041.1 234.976 1041.43 232.5 1039.5 C230.026 1037.58 229.391 1033.84 231.089 1031.21 L355 839 C359 832 371 816 378 816 C385 816 396 833 401 840 L524.9 1031.22 C526.605 1033.85 525.975 1037.58 523.5 1039.5 C521.024 1041.43 517.275 1041.1 515.164 1038.78 L515.164 1038.78 Z M624 621 L624 621 L624 621 L624 621 Z M624 129 L624 129 L624 129 L624 129 Z M633 50 L633 168 C633 171.312 630.312 174 627 174 C624.038 174 619.641 171.283 618.317 168.633 L612 156 C586 107 542 60 497 32 C458 9 416 -4 369 -4 C232 -4 140 148 140 376 C140 604 236 756 379 756 C416 756 448 748 477 734 C526 710 580 654 611 595 L617.317 582.367 C618.641 579.717 623.038 577 626 577 C629.312 577 632 579.688 632 583 L632 699 C632 701.208 630.208 703 628 703 C625.905 703 623.397 701.192 622.735 699.205 L620 691 C616 679 584 689 541 716 C498 744 447 760 376 760 C183 760 54 606 54 375 C54 144 179 -10 366 -10 C436 -10 492 8 539 38 C583 63 614 71 619 58 L621.53 49.7789 C622.305 47.2577 625.362 45 628 45 C630.76 45 633 47.2402 633 50 L633 50 Z " />
<glyph glyph-name="ccaron" unicode="&#x10d;" horiz-adv-x="439" d="M397.164 788.783 L301.661 683.798 C278.768 658.632 241.232 658.632 218.339 683.798 L122.836 788.783 C120.725 791.104 116.976 791.426 114.5 789.5 C112.026 787.576 111.391 783.843 113.089 781.209 L237 589 C241 582 253 566 260 566 C267 566 278 583 283 590 L406.9 781.216 C408.605 783.847 407.975 787.575 405.5 789.5 C403.024 791.426 399.275 791.104 397.164 788.783 L397.164 788.783 Z M388.182 92.5546 C353.392 40.0103 302.675 7 254 7 C169 7 112 112 112 269 C112 411 171 506 259 506 C288 506 322 466 344 405 C351 385 364 372 377 372 C403 372 416 385 409 405 C386 468 326 510 260 510 C131 510 45 401 45 237 C45 89 125 -10 245 -10 C297.7 -10 352.568 29.7375 390.565 92.6311 C390.624 92.7299 388.246 92.6507 388.182 92.5546 L388.182 92.5546 Z " />
<glyph glyph-name="Dcaron" unicode="&#x10e;" horiz-adv-x="742" d="M492.164 1038.78 L396.661 933.798 C373.768 908.632 336.232 908.632 313.339 933.798 L217.836 1038.78 C215.725 1041.1 211.976 1041.43 209.5 1039.5 C207.026 1037.58 206.391 1033.84 208.089 1031.21 L332 839 C336 832 348 816 355 816 C362 816 373 833 378 840 L501.9 1031.22 C503.605 1033.85 502.975 1037.58 500.5 1039.5 C498.024 1041.43 494.275 1041.1 492.164 1038.78 L492.164 1038.78 Z M244 4 C190 4 184 40 184 94 L184 704.5 C184 727.407 202.593 746 225.5 746 L267 746 C489 746 603 598 603 375 C603 130 459 4 244 4 L244 4 Z M68.4648 742.505 L72 742 C93 740 107 713 107 674 L107 76 C107 37 93 10 72 8 L68.4648 7.49497 C66.5716 7.22451 65 5.41248 65 3.5 C65 1.5681 66.5681 0 68.5 0 L250 0 C512 0 687 128 687 375 C687 600 550 750 283 750 L68.5 750 C66.5681 750 65 748.432 65 746.5 C65 744.588 66.5716 742.775 68.4648 742.505 L68.4648 742.505 Z " />
<glyph glyph-name="dcaron" unicode="&#x10f;" horiz-adv-x="517" d="M544 757 C530 757 522 695 518 650 L508.555 545.16 C508.252 541.801 510.728 538.318 514 537.5 C517.308 536.673 520.795 538.658 521.772 541.925 L552 643 C565 684 573 725 573 747 C573 754 561 757 544 757 L544 757 Z M499.989 26.5699 L496 26 C475 22 461 45 461 84 L461 734 C461 742.832 453.832 750 445 750 L436.945 750 C435.732 750 422.531 748.138 421.365 747.802 L396 740.5 L373 734 L373 729 C388 722 395 698 395 657 L395 446.971 C395 439.556 382.847 437.496 378.478 443.486 C349.819 482.775 309.25 510 268 510 C121 510 45 407 45 253 C45 98 125 -5 246 -5 C292.2 -5 340.442 16.0994 376.126 49.8754 C382.914 56.2999 397 52.7443 397 43.3985 L397 16.7519 C397 7.50637 404.506 0.112023 413.75 0.25 L423.386 0.39382 C424.386 0.408744 435.711 1.92856 436.675 2.19459 C457.097 7.83045 482.259 15.046 501.98 20.4478 C503.589 20.8885 503.774 22.3546 503.5 24 C503.224 25.6555 501.651 26.8072 499.989 26.5699 L499.989 26.5699 Z M397 367.692 L397 100.199 C397 90.511 390.531 72.7659 383.503 66.0971 C355.6 39.6175 314.8 23 274 23 C177 23 113 122 113 271 C113 404 169 492 277 492 C325.45 492 372.997 444.167 393.921 385.37 C394.524 383.675 397 369.491 397 367.692 L397 367.692 Z " />
<glyph glyph-name="Emacron" unicode="&#x112;" horiz-adv-x="535" d="M182.5 899 L386.5 899 C398.919 899 409 909.081 409 921.5 C409 933.919 398.919 944 386.5 944 L182.5 944 C170.081 944 160 933.919 160 921.5 C160 909.081 170.081 899 182.5 899 L182.5 899 Z M400 297.5 L400 477.5 C400 479.984 397.984 482 395.5 482 C393.112 482 390.42 479.97 389.764 477.673 L387 468 C373 421 326 390 269 390 L226.5 390 C203.041 390 184 409.041 184 432.5 L184 689.68 C184 720.767 209.233 746 240.32 746 L330 746 C387 746 438 715 458 668 L462.227 658.136 C463.127 656.038 466.217 654 468.5 654 C470.96 654 472.737 655.845 472.387 658.28 C469.056 681.516 464.749 711.088 461.77 735.732 C460.857 743.286 453.779 749.016 446.17 749.034 L48.5 749.992 C46.5681 749.996 45 748.432 45 746.5 C45 744.578 46.5699 742.843 48.4826 742.652 L55 742 C86 740 107 705 107 654 L107 96 C107 45 86 10 55 8 L48.4826 7.34826 C46.5699 7.15699 45 5.42231 45 3.5 C45 1.56812 46.5681 0.00533975 48.5 0.0119182 L472.753 1.45659 C479.686 1.4802 486.636 7.17267 487.965 13.9778 C492.207 35.7091 496.991 61.4917 500.348 81.9765 C500.746 84.4046 498.961 86 496.5 86 C494.245 86 491.059 83.9619 490.114 81.9142 L486 73 C465 32 403 4 331 4 L278 4 C193 4 184 40 184 94 L184 342.5 C184 365.959 203.041 385 226.5 385 L269 385 C326 385 373 354 387 307 L389.764 297.327 C390.42 295.03 393.112 293 395.5 293 C397.984 293 400 295.016 400 297.5 L400 297.5 Z " />
<glyph glyph-name="emacron" unicode="&#x113;" horiz-adv-x="487" d="M170.5 649 L373.5 649 C385.919 649 396 659.081 396 671.5 C396 683.919 385.919 694 373.5 694 L170.5 694 C158.081 694 148 683.919 148 671.5 C148 659.081 158.081 649 170.5 649 L170.5 649 Z M131.093 340 L395.016 340 C434.06 340 455.44 361.046 441.174 397.391 C409.796 477.33 348.725 510 272 510 C136 510 45 432 45 233 C45 87 127 -10 251 -10 C320.7 -10 385.343 31.905 422.819 97.9054 C422.825 97.9157 421.37 97.5462 421.364 97.5362 C386.205 42.7119 324.825 8 258 8 C172 8 114 109 114 260 C114 284.857 115.373 307.311 117.55 327.932 C118.261 334.662 124.326 340 131.093 340 L131.093 340 Z M325.058 345.777 L178.2 345.22 C142.018 345.083 121.353 364.934 132.85 399.24 C158.243 475.011 207.475 507 271 507 C312.25 507 348.055 476.372 371.115 400.516 C381.328 366.921 360.171 345.91 325.058 345.777 L325.058 345.777 Z " />
<glyph glyph-name="Ebreve" unicode="&#x114;" horiz-adv-x="535" d="M174.448 989.868 C181.211 923.729 224.55 880 285 880 C344.475 880 387.789 922.778 394.552 987.943 C394.967 991.941 391.979 993.432 388 994 C384.465 994.505 380.865 992.481 380.29 988.957 C374.157 951.367 337.25 927 285 927 C232.75 927 194.94 952.27 188.717 989.949 C188.144 993.425 184.514 995.751 181 995.5 C177.022 995.216 174.042 993.836 174.448 989.868 L174.448 989.868 Z M400 297.5 L400 477.5 C400 479.984 397.984 482 395.5 482 C393.112 482 390.42 479.97 389.764 477.673 L387 468 C373 421 326 390 269 390 L226.5 390 C203.041 390 184 409.041 184 432.5 L184 689.68 C184 720.767 209.233 746 240.32 746 L330 746 C387 746 438 715 458 668 L462.227 658.136 C463.127 656.038 466.217 654 468.5 654 C470.96 654 472.737 655.845 472.387 658.28 C469.056 681.516 464.749 711.088 461.77 735.732 C460.857 743.286 453.779 749.016 446.17 749.034 L48.5 749.992 C46.5681 749.996 45 748.432 45 746.5 C45 744.578 46.5699 742.843 48.4826 742.652 L55 742 C86 740 107 705 107 654 L107 96 C107 45 86 10 55 8 L48.4826 7.34826 C46.5699 7.15699 45 5.42231 45 3.5 C45 1.56812 46.5681 0.00533975 48.5 0.0119182 L472.753 1.45659 C479.686 1.4802 486.636 7.17267 487.965 13.9778 C492.207 35.7091 496.991 61.4917 500.348 81.9765 C500.746 84.4046 498.961 86 496.5 86 C494.245 86 491.059 83.9619 490.114 81.9142 L486 73 C465 32 403 4 331 4 L278 4 C193 4 184 40 184 94 L184 342.5 C184 365.959 203.041 385 226.5 385 L269 385 C326 385 373 354 387 307 L389.764 297.327 C390.42 295.03 393.112 293 395.5 293 C397.984 293 400 295.016 400 297.5 L400 297.5 Z " />
<glyph glyph-name="ebreve" unicode="&#x115;" horiz-adv-x="487" d="M162.448 739.868 C169.211 673.729 212.525 630 272 630 C331.475 630 374.789 672.778 381.552 737.943 C381.967 741.941 378.979 743.432 375 744 C371.465 744.505 367.865 742.481 367.29 738.957 C361.157 701.367 324.25 677 272 677 C219.75 677 182.843 702.27 176.71 739.949 C176.143 743.435 172.523 745.752 169 745.5 C165.022 745.216 162.042 743.836 162.448 739.868 L162.448 739.868 Z M131.093 340 L395.016 340 C434.06 340 455.44 361.046 441.174 397.391 C409.796 477.33 348.725 510 272 510 C136 510 45 432 45 233 C45 87 127 -10 251 -10 C320.7 -10 385.343 31.905 422.819 97.9054 C422.825 97.9157 421.37 97.5462 421.364 97.5362 C386.205 42.7119 324.825 8 258 8 C172 8 114 109 114 260 C114 284.857 115.373 307.311 117.55 327.932 C118.261 334.662 124.326 340 131.093 340 L131.093 340 Z M325.058 345.777 L178.2 345.22 C142.018 345.083 121.353 364.934 132.85 399.24 C158.243 475.011 207.475 507 271 507 C312.25 507 348.055 476.372 371.115 400.516 C381.328 366.921 360.171 345.91 325.058 345.777 L325.058 345.777 Z " />
<glyph glyph-name="Edot" unicode="&#x116;" horiz-adv-x="535" d="M285 865 C310 865 327 882 327 907 C327 933 310 950 285 950 C259 950 242 933 242 907 C242 882 259 865 285 865 L285 865 Z M400 297.5 L400 477.5 C400 479.984 397.984 482 395.5 482 C393.112 482 390.42 479.97 389.764 477.673 L387 468 C373 421 326 390 269 390 L226.5 390 C203.041 390 184 409.041 184 432.5 L184 689.68 C184 720.767 209.233 746 240.32 746 L330 746 C387 746 438 715 458 668 L462.227 658.136 C463.127 656.038 466.217 654 468.5 654 C470.96 654 472.737 655.845 472.387 658.28 C469.056 681.516 464.749 711.088 461.77 735.732 C460.857 743.286 453.779 749.016 446.17 749.034 L48.5 749.992 C46.5681 749.996 45 748.432 45 746.5 C45 744.578 46.5699 742.843 48.4826 742.652 L55 742 C86 740 107 705 107 654 L107 96 C107 45 86 10 55 8 L48.4826 7.34826 C46.5699 7.15699 45 5.42231 45 3.5 C45 1.56812 46.5681 0.00533975 48.5 0.0119182 L472.753 1.45659 C479.686 1.4802 486.636 7.17267 487.965 13.9778 C492.207 35.7091 496.991 61.4917 500.348 81.9765 C500.746 84.4046 498.961 86 496.5 86 C494.245 86 491.059 83.9619 490.114 81.9142 L486 73 C465 32 403 4 331 4 L278 4 C193 4 184 40 184 94 L184 342.5 C184 365.959 203.041 385 226.5 385 L269 385 C326 385 373 354 387 307 L389.764 297.327 C390.42 295.03 393.112 293 395.5 293 C397.984 293 400 295.016 400 297.5 L400 297.5 Z " />
<glyph glyph-name="edot" unicode="&#x117;" horiz-adv-x="487" d="M314 657 C314 683 297 700 272 700 C247 700 230 683 230 657 C230 602 314 602 314 657 L314 657 Z M131.093 340 L395.016 340 C434.06 340 455.44 361.046 441.174 397.391 C409.796 477.33 348.725 510 272 510 C136 510 45 432 45 233 C45 87 127 -10 251 -10 C320.7 -10 385.343 31.905 422.819 97.9054 C422.825 97.9157 421.37 97.5462 421.364 97.5362 C386.205 42.7119 324.825 8 258 8 C172 8 114 109 114 260 C114 284.857 115.373 307.311 117.55 327.932 C118.261 334.662 124.326 340 131.093 340 L131.093 340 Z M325.058 345.777 L178.2 345.22 C142.018 345.083 121.353 364.934 132.85 399.24 C158.243 475.011 207.475 507 271 507 C312.25 507 348.055 476.372 371.115 400.516 C381.328 366.921 360.171 345.91 325.058 345.777 L325.058 345.777 Z " />
<glyph glyph-name="Ecaron" unicode="&#x11a;" horiz-adv-x="535" d="M422.164 1038.78 L326.514 933.636 C303.694 908.551 266.233 908.485 243.325 933.49 L146.851 1038.8 C144.732 1041.11 140.976 1041.43 138.5 1039.5 C136.026 1037.58 135.391 1033.84 137.089 1031.21 L261 839 C265 832 277 816 285 816 C292 816 303 833 308 840 L431.9 1031.22 C433.605 1033.85 432.975 1037.58 430.5 1039.5 C428.024 1041.43 424.275 1041.1 422.164 1038.78 L422.164 1038.78 Z M400 297.5 L400 477.5 C400 479.984 397.984 482 395.5 482 C393.112 482 390.42 479.97 389.764 477.673 L387 468 C373 421 326 390 269 390 L226.5 390 C203.041 390 184 409.041 184 432.5 L184 689.68 C184 720.767 209.233 746 240.32 746 L330 746 C387 746 438 715 458 668 L462.227 658.136 C463.127 656.038 466.217 654 468.5 654 C470.96 654 472.737 655.845 472.387 658.28 C469.056 681.516 464.749 711.088 461.77 735.732 C460.857 743.286 453.779 749.016 446.17 749.034 L48.5 749.992 C46.5681 749.996 45 748.432 45 746.5 C45 744.578 46.5699 742.843 48.4826 742.652 L55 742 C86 740 107 705 107 654 L107 96 C107 45 86 10 55 8 L48.4826 7.34826 C46.5699 7.15699 45 5.42231 45 3.5 C45 1.56812 46.5681 0.00533975 48.5 0.0119182 L472.753 1.45659 C479.686 1.4802 486.636 7.17267 487.965 13.9778 C492.207 35.7091 496.991 61.4917 500.348 81.9765 C500.746 84.4046 498.961 86 496.5 86 C494.245 86 491.059 83.9619 490.114 81.9142 L486 73 C465 32 403 4 331 4 L278 4 C193 4 184 40 184 94 L184 342.5 C184 365.959 203.041 385 226.5 385 L269 385 C326 385 373 354 387 307 L389.764 297.327 C390.42 295.03 393.112 293 395.5 293 C397.984 293 400 295.016 400 297.5 L400 297.5 Z " />
<glyph glyph-name="ecaron" unicode="&#x11b;" horiz-adv-x="487" d="M409.164 788.783 L313.661 683.798 C290.768 658.632 253.232 658.632 230.339 683.798 L134.836 788.783 C132.725 791.104 128.976 791.426 126.5 789.5 C124.026 787.576 123.391 783.843 125.089 781.209 L249 589 C253 582 265 566 272 566 C279 566 290 583 295 590 L418.9 781.216 C420.605 783.847 419.975 787.575 417.5 789.5 C415.024 791.426 411.275 791.104 409.164 788.783 L409.164 788.783 Z M131.093 340 L395.016 340 C434.06 340 455.44 361.046 441.174 397.391 C409.796 477.33 348.725 510 272 510 C136 510 45 432 45 233 C45 87 127 -10 251 -10 C320.7 -10 385.343 31.905 422.819 97.9054 C422.825 97.9157 421.37 97.5462 421.364 97.5362 C386.205 42.7119 324.825 8 258 8 C172 8 114 109 114 260 C114 284.857 115.373 307.311 117.55 327.932 C118.261 334.662 124.326 340 131.093 340 L131.093 340 Z M325.058 345.777 L178.2 345.22 C142.018 345.083 121.353 364.934 132.85 399.24 C158.243 475.011 207.475 507 271 507 C312.25 507 348.055 476.372 371.115 400.516 C381.328 366.921 360.171 345.91 325.058 345.777 L325.058 345.777 Z " />
<glyph glyph-name="Gcircumflex" unicode="&#x11c;" horiz-adv-x="713" d="M633 583.018 L633 698 C633 700.208 631.208 702 629 702 C626.905 702 624.397 700.192 623.735 698.205 L621 690 C617 678 585 688 542 715 C499 743 448 759 377 759 C184 759 55 605 55 374 C55 143 183 -11 375 -11 C454 -11 521 1 584 21 L614 29.5 C634.714 36.9571 654.742 47.1604 674.652 56.6968 C674.775 56.7554 674.769 57.4722 674.642 57.423 C659.323 51.4629 643.241 46.3278 626.666 41.2051 C619.804 39.0843 613 43.4192 613 50.6015 L613 211 C613 271 631 312 657 315 L661 315.5 C663.191 315.774 665 317.823 665 320.031 L665 320.5 C665 322.984 662.984 325 660.5 325 L488.5 325 C486.016 325 484 322.984 484 320.5 L484 320.031 C484 317.823 485.809 315.774 488 315.5 L492 315 C518 312 536 271 536 211 L536 86.171 C536 85.5278 535.51 79.137 535.38 78.5071 C526.083 33.5187 468.875 5 386 5 C238 5 139 153 139 374 C139 602 235 754 378 754 C415 754 447 746 476 732 C525 708 579 652 610 593 L615.862 581.277 C617.462 578.076 622.43 575.245 626 575.5 C629.854 575.775 633 579.154 633 583.018 L633 583.018 Z M399 1009 C394 1016 383 1033 376 1033 C369 1033 357 1017 353 1010 L229.089 817.791 C227.391 815.157 228.026 811.424 230.5 809.5 C232.976 807.574 236.725 807.896 238.836 810.217 L334.339 915.202 C357.232 940.368 394.768 940.368 417.661 915.202 L513.164 810.217 C515.275 807.896 519.024 807.574 521.5 809.5 C523.975 811.425 524.605 815.153 522.9 817.784 L399 1009 L399 1009 Z M622 620 L622 620 L622 620 L622 620 Z " />
<glyph glyph-name="Gbreve" unicode="&#x11e;" horiz-adv-x="713" d="M268.448 989.868 C275.211 923.729 318.525 880 378 880 C437.475 880 480.789 922.778 487.552 987.943 C487.967 991.941 484.979 993.432 481 994 C477.465 994.505 473.865 992.481 473.29 988.957 C467.157 951.367 430.25 927 378 927 C325.75 927 288.842 952.27 282.71 989.949 C282.143 993.435 278.523 995.752 275 995.5 C271.022 995.216 268.042 993.836 268.448 989.868 L268.448 989.868 Z M633 583.018 L633 698 C633 700.208 631.208 702 629 702 C626.905 702 624.397 700.192 623.735 698.205 L621 690 C617 678 585 688 542 715 C499 743 448 759 377 759 C184 759 55 605 55 374 C55 143 183 -11 375 -11 C454 -11 521 1 584 21 L614 29.5 C634.714 36.9571 654.742 47.1604 674.652 56.6968 C674.775 56.7554 674.769 57.4722 674.642 57.423 C659.323 51.4629 643.241 46.3278 626.666 41.2051 C619.804 39.0843 613 43.4192 613 50.6015 L613 211 C613 271 631 312 657 315 L661 315.5 C663.191 315.774 665 317.823 665 320.031 L665 320.5 C665 322.984 662.984 325 660.5 325 L488.5 325 C486.016 325 484 322.984 484 320.5 L484 320.031 C484 317.823 485.809 315.774 488 315.5 L492 315 C518 312 536 271 536 211 L536 86.171 C536 85.5278 535.51 79.137 535.38 78.5071 C526.083 33.5187 468.875 5 386 5 C238 5 139 153 139 374 C139 602 235 754 378 754 C415 754 447 746 476 732 C525 708 579 652 610 593 L615.862 581.277 C617.462 578.076 622.43 575.245 626 575.5 C629.854 575.775 633 579.154 633 583.018 L633 583.018 Z M622 620 L622 620 L622 620 L622 620 Z " />
<glyph glyph-name="gbreve" unicode="&#x11f;" horiz-adv-x="485" d="M131.448 739.868 C138.211 673.729 181.525 630 241 630 C300.475 630 343.789 672.778 350.552 737.943 C350.967 741.941 347.979 743.432 344 744 C340.465 744.505 336.865 742.481 336.29 738.957 C330.158 701.367 293.25 677 241 677 C188.75 677 151.843 702.27 145.71 739.949 C145.143 743.435 141.523 745.752 138 745.5 C134.022 745.216 131.042 743.836 131.448 739.868 L131.448 739.868 Z M506 468 C506 491 489 507 463 507 C434.95 507 406.9 491.346 385.588 465.652 C380.144 459.088 365.165 458.347 359.205 464.446 C330.93 493.382 290.3 510 241 510 C144 510 80 446 80 350 C80 279.875 113.351 226.766 168.822 202.464 C173.323 200.492 173.148 187.395 168.301 186.582 C99.6275 175.063 57 145.95 57 106 C57 64.75 80.1413 33.0288 117.44 18.136 C123.121 15.8674 124.244 3.78899 118.757 1.08313 C75.7325 -20.135 49 -54.9 49 -94 C49 -176 129 -230 250 -230 C370 -230 450 -168 450 -74 C450 15 402 75 280 75 L173 75 C127 75 96 95 96 126 C96 163 154 188 241 188 C337 188 401 253 401 350 C401 382.4 393.71 411.56 380.588 435.293 C377.942 440.078 378.438 445.783 382.608 449.32 C394.786 459.65 410.04 466 426 466 C442 466 463 439 479 439 C496 439 506.5 451 506.5 468 L506 468 Z M242 192 C184 192 146 255 146 350 C146 444 184 506 242 506 C299 506 337 444 337 350 C337 255 299 192 242 192 L242 192 Z M160 9.5 L169 9 L273 9 C362 9 396 -30 396 -89 C396 -171 338 -226 250 -226 C162 -226 104 -167 104 -78 C104 -42 118.58 -11.67 142.637 4.971 C145.792 7.15323 156.17 9.71278 160 9.5 L160 9.5 Z " />
<glyph glyph-name="Gdot" unicode="&#x120;" horiz-adv-x="713" d="M420 907 C420 933 403 950 378 950 C353 950 336 933 336 907 C336 852 420 852 420 907 L420 907 Z M633 583.018 L633 698 C633 700.208 631.208 702 629 702 C626.905 702 624.397 700.192 623.735 698.205 L621 690 C617 678 585 688 542 715 C499 743 448 759 377 759 C184 759 55 605 55 374 C55 143 183 -11 375 -11 C454 -11 521 1 584 21 L614 29.5 C634.714 36.9571 654.742 47.1604 674.652 56.6968 C674.775 56.7554 674.769 57.4722 674.642 57.423 C659.323 51.4629 643.241 46.3278 626.666 41.2051 C619.804 39.0843 613 43.4192 613 50.6015 L613 211 C613 271 631 312 657 315 L661 315.5 C663.191 315.774 665 317.823 665 320.031 L665 320.5 C665 322.984 662.984 325 660.5 325 L488.5 325 C486.016 325 484 322.984 484 320.5 L484 320.031 C484 317.823 485.809 315.774 488 315.5 L492 315 C518 312 536 271 536 211 L536 86.171 C536 85.5278 535.51 79.137 535.38 78.5071 C526.083 33.5187 468.875 5 386 5 C238 5 139 153 139 374 C139 602 235 754 378 754 C415 754 447 746 476 732 C525 708 579 652 610 593 L615.862 581.277 C617.462 578.076 622.43 575.245 626 575.5 C629.854 575.775 633 579.154 633 583.018 L633 583.018 Z M622 620 L622 620 L622 620 L622 620 Z " />
<glyph glyph-name="gdot" unicode="&#x121;" horiz-adv-x="485" d="M283 657 C283 683 266 700 241 700 C216 700 199 683 199 657 C199 602 283 602 283 657 L283 657 Z M506 468 C506 491 489 507 463 507 C434.95 507 406.9 491.346 385.588 465.652 C380.144 459.088 365.165 458.347 359.205 464.446 C330.93 493.382 290.3 510 241 510 C144 510 80 446 80 350 C80 279.875 113.351 226.766 168.822 202.464 C173.323 200.492 173.148 187.395 168.301 186.582 C99.6275 175.063 57 145.95 57 106 C57 64.75 80.1413 33.0288 117.44 18.136 C123.121 15.8674 124.244 3.78899 118.757 1.08313 C75.7325 -20.135 49 -54.9 49 -94 C49 -176 129 -230 250 -230 C370 -230 450 -168 450 -74 C450 15 402 75 280 75 L173 75 C127 75 96 95 96 126 C96 163 154 188 241 188 C337 188 401 253 401 350 C401 382.4 393.71 411.56 380.588 435.293 C377.942 440.078 378.438 445.783 382.608 449.32 C394.786 459.65 410.04 466 426 466 C442 466 463 439 479 439 C496 439 506.5 451 506.5 468 L506 468 Z M242 192 C184 192 146 255 146 350 C146 444 184 506 242 506 C299 506 337 444 337 350 C337 255 299 192 242 192 L242 192 Z M160 9.5 L169 9 L273 9 C362 9 396 -30 396 -89 C396 -171 338 -226 250 -226 C162 -226 104 -167 104 -78 C104 -42 118.58 -11.67 142.637 4.971 C145.792 7.15323 156.17 9.71278 160 9.5 L160 9.5 Z " />
<glyph glyph-name="Hcircumflex" unicode="&#x124;" horiz-adv-x="710" d="M400 1010 C395 1017 384 1034 377 1034 C369 1034 357 1018 353 1011 L229.089 818.791 C227.391 816.157 228.026 812.424 230.5 810.5 C232.976 808.574 236.732 808.891 238.851 811.204 L335.325 916.51 C358.233 941.515 395.694 941.449 418.514 916.364 L514.164 811.217 C516.275 808.896 520.024 808.574 522.5 810.5 C524.975 812.425 525.605 816.153 523.9 818.784 L400 1010 L400 1010 Z M647.535 7.49497 L644 8 C623 10 609 37 609 76 L609 674 C609 713 623 740 644 742 L647.535 742.505 C649.428 742.775 651 744.588 651 746.5 C651 748.432 649.432 750 647.5 750 L493.5 750 C491.568 750 490 748.432 490 746.5 C490 744.588 491.572 742.775 493.465 742.505 L497 742 C518 740 532 713 532 674 L532 444.32 C532 413.233 506.767 388 475.68 388 L276.32 388 C245.233 388 220 413.233 220 444.32 L220 674 C220 713 234 740 255 742 L258.535 742.505 C260.428 742.775 262 744.588 262 746.5 C262 748.432 260.432 750 258.5 750 L104.5 750 C102.568 750 101 748.432 101 746.5 C101 744.588 102.572 742.775 104.465 742.505 L108 742 C129 740 143 713 143 674 L143 76 C143 37 129 10 108 8 L104.465 7.49497 C102.572 7.22451 101 5.41248 101 3.5 C101 1.5681 102.568 0 104.5 0 L258.5 0 C260.432 0 262 1.5681 262 3.5 C262 5.41248 260.428 7.22451 258.535 7.49497 L255 8 C234 10 220 37 220 76 L220 326.68 C220 357.767 245.233 383 276.32 383 L475.68 383 C506.767 383 532 357.767 532 326.68 L532 76 C532 37 518 10 497 8 L493.465 7.49497 C491.572 7.22451 490 5.41248 490 3.5 C490 1.5681 491.568 0 493.5 0 L647.5 0 C649.432 0 651 1.5681 651 3.5 C651 5.41248 649.428 7.22451 647.535 7.49497 L647.535 7.49497 Z " />
<glyph glyph-name="Itilde" unicode="&#x128;" horiz-adv-x="286" d="M26.2327 889.119 L30.2096 888.69 C30.2096 888.69 29.3352 888.691 29.3352 888.691 C33.4644 915.984 46.85 933 65 933 C109 933 167 868 210 868 C241.5 868 262.875 902.83 266.835 956.452 C266.835 956.452 268.374 956.608 268.374 956.608 L264.406 957.111 C264.406 957.111 265.946 957.267 265.946 957.267 C261.145 931.335 245.625 915 225 915 C182 915 124 980 80 980 C50.3 980 30.725 944.36 27.107 889.118 C27.107 889.118 26.2327 889.119 26.2327 889.119 L30.2096 888.69 C30.2096 888.69 29.3352 888.691 29.3352 888.691 L26.2327 889.119 Z M223.535 7.49497 L220 8 C199 10 185 37 185 76 L185 674 C185 713 199 740 220 742 L223.535 742.505 C225.428 742.775 227 744.588 227 746.5 C227 748.432 225.432 750 223.5 750 L69.5 750 C67.5681 750 66 748.432 66 746.5 C66 744.588 67.5716 742.775 69.4648 742.505 L73 742 C94 740 108 713 108 674 L108 76 C108 37 94 10 73 8 L69.4648 7.49497 C67.5716 7.22451 66 5.41248 66 3.5 C66 1.5681 67.5681 0 69.5 0 L223.5 0 C225.432 0 227 1.5681 227 3.5 C227 5.41248 225.428 7.22451 223.535 7.49497 L223.535 7.49497 Z " />
<glyph glyph-name="itilde" unicode="&#x129;" horiz-adv-x="218" d="M-1.7673 638.119 L2.20955 637.69 C2.20955 637.69 1.33525 637.691 1.33525 637.691 C5.46437 664.984 18.85 682 37 682 C81 682 139 617 182 617 C213.5 617 234.875 651.83 238.835 705.452 C238.835 705.452 240.374 705.608 240.374 705.608 L236.406 706.111 C236.406 706.111 237.946 706.267 237.946 706.267 C233.145 680.335 217.625 664 197 664 C154 664 96 729 52 729 C22.3 729 2.725 693.36 -0.893 638.118 C-0.893 638.118 -1.7673 638.119 -1.7673 638.119 L2.20955 637.69 C2.20955 637.69 1.33525 637.691 1.33525 637.691 L-1.7673 638.119 Z M68.0689 476.803 C80.2698 475.54 86 468 86 449 L86 41 C86 21 79.3884 11.7438 67.6679 7.9722 C66.0899 7.46441 64 5.1577 64 3.5 C64 1.5681 65.5681 0 67.5 0 L170.5 0 C172.432 0 174 1.5681 174 3.5 C174 5.1577 171.91 7.46441 170.332 7.9722 C158.612 11.7438 152 21 152 41 L152 483.5 C152 492.608 144.608 500 135.5 500 L123.743 500 C122.717 500 116.408 499.091 115.447 498.73 C108.626 496.174 100.209 492.554 91.8225 491.12 C91.6901 491.097 79.3554 488.905 79.2261 488.868 L65.5029 484.99 C63.5694 484.444 62.448 482.432 63 480.5 C63.4593 478.892 66.4059 476.976 68.0689 476.803 L68.0689 476.803 Z " />
<glyph glyph-name="Imacron" unicode="&#x12a;" horiz-adv-x="286" d="M45.5 899 L248.5 899 C260.919 899 271 909.081 271 921.5 C271 933.919 260.919 944 248.5 944 L45.5 944 C33.0807 944 23 933.919 23 921.5 C23 909.081 33.0807 899 45.5 899 L45.5 899 Z M223.535 7.49497 L220 8 C199 10 185 37 185 76 L185 674 C185 713 199 740 220 742 L223.535 742.505 C225.428 742.775 227 744.588 227 746.5 C227 748.432 225.432 750 223.5 750 L69.5 750 C67.5681 750 66 748.432 66 746.5 C66 744.588 67.5716 742.775 69.4648 742.505 L73 742 C94 740 108 713 108 674 L108 76 C108 37 94 10 73 8 L69.4648 7.49497 C67.5716 7.22451 66 5.41248 66 3.5 C66 1.5681 67.5681 0 69.5 0 L223.5 0 C225.432 0 227 1.5681 227 3.5 C227 5.41248 225.428 7.22451 223.535 7.49497 L223.535 7.49497 Z " />
<glyph glyph-name="imacron" unicode="&#x12b;" horiz-adv-x="218" d="M17.5 648 L220.5 648 C232.919 648 243 658.081 243 670.5 C243 682.919 232.919 693 220.5 693 L17.5 693 C5.08067 693 -5 682.919 -5 670.5 C-5 658.081 5.08067 648 17.5 648 L17.5 648 Z M68.0689 476.803 C80.2698 475.54 86 468 86 449 L86 41 C86 21 79.3884 11.7438 67.6679 7.9722 C66.0899 7.46441 64 5.1577 64 3.5 C64 1.5681 65.5681 0 67.5 0 L170.5 0 C172.432 0 174 1.5681 174 3.5 C174 5.1577 171.91 7.46441 170.332 7.9722 C158.612 11.7438 152 21 152 41 L152 483.5 C152 492.608 144.608 500 135.5 500 L123.743 500 C122.717 500 116.408 499.091 115.447 498.73 C108.626 496.174 100.209 492.554 91.8225 491.12 C91.6901 491.097 79.3554 488.905 79.2261 488.868 L65.5029 484.99 C63.5694 484.444 62.448 482.432 63 480.5 C63.4593 478.892 66.4059 476.976 68.0689 476.803 L68.0689 476.803 Z " />
<glyph glyph-name="Ibreve" unicode="&#x12c;" horiz-adv-x="286" d="M37.4478 989.868 C44.2106 923.729 87.525 880 147 880 C206.475 880 249.789 922.778 256.552 987.943 C256.967 991.941 253.979 993.432 250 994 C246.465 994.505 242.865 992.481 242.29 988.957 C236.158 951.367 199.25 927 147 927 C94.75 927 57.8425 952.27 51.7103 989.949 C51.143 993.435 47.5225 995.752 44 995.5 C40.0221 995.216 37.0421 993.836 37.4478 989.868 L37.4478 989.868 Z M223.535 7.49497 L220 8 C199 10 185 37 185 76 L185 674 C185 713 199 740 220 742 L223.535 742.505 C225.428 742.775 227 744.588 227 746.5 C227 748.432 225.432 750 223.5 750 L69.5 750 C67.5681 750 66 748.432 66 746.5 C66 744.588 67.5716 742.775 69.4648 742.505 L73 742 C94 740 108 713 108 674 L108 76 C108 37 94 10 73 8 L69.4648 7.49497 C67.5716 7.22451 66 5.41248 66 3.5 C66 1.5681 67.5681 0 69.5 0 L223.5 0 C225.432 0 227 1.5681 227 3.5 C227 5.41248 225.428 7.22451 223.535 7.49497 L223.535 7.49497 Z " />
<glyph glyph-name="ibreve" unicode="&#x12d;" horiz-adv-x="218" d="M9.44778 738.868 C16.2106 672.729 59.525 629 119 629 C178.475 629 221.789 671.778 228.552 736.943 C228.967 740.941 225.979 742.432 222 743 C218.465 743.505 214.865 741.481 214.29 737.957 C208.157 700.368 171.25 676 119 676 C66.75 676 29.8425 701.27 23.7102 738.949 C23.143 742.435 19.5225 744.752 16 744.5 C12.0221 744.216 9.04212 742.836 9.44778 738.868 L9.44778 738.868 Z M68.0689 476.803 C80.2698 475.54 86 468 86 449 L86 41 C86 21 79.3884 11.7438 67.6679 7.9722 C66.0899 7.46441 64 5.1577 64 3.5 C64 1.5681 65.5681 0 67.5 0 L170.5 0 C172.432 0 174 1.5681 174 3.5 C174 5.1577 171.91 7.46441 170.332 7.9722 C158.612 11.7438 152 21 152 41 L152 483.5 C152 492.608 144.608 500 135.5 500 L123.743 500 C122.717 500 116.408 499.091 115.447 498.73 C108.626 496.174 100.209 492.554 91.8225 491.12 C91.6901 491.097 79.3554 488.905 79.2261 488.868 L65.5029 484.99 C63.5694 484.444 62.448 482.432 63 480.5 C63.4593 478.892 66.4059 476.976 68.0689 476.803 L68.0689 476.803 Z " />
<glyph glyph-name="Idot" unicode="&#x130;" horiz-adv-x="286" d="M189 907 C189 933 172 950 147 950 C122 950 105 933 105 907 C105 852 189 852 189 907 L189 907 Z M223.535 7.49497 L220 8 C199 10 185 37 185 76 L185 674 C185 713 199 740 220 742 L223.535 742.505 C225.428 742.775 227 744.588 227 746.5 C227 748.432 225.432 750 223.5 750 L69.5 750 C67.5681 750 66 748.432 66 746.5 C66 744.588 67.5716 742.775 69.4648 742.505 L73 742 C94 740 108 713 108 674 L108 76 C108 37 94 10 73 8 L69.4648 7.49497 C67.5716 7.22451 66 5.41248 66 3.5 C66 1.5681 67.5681 0 69.5 0 L223.5 0 C225.432 0 227 1.5681 227 3.5 C227 5.41248 225.428 7.22451 223.535 7.49497 L223.535 7.49497 Z " />
<glyph glyph-name="dotlessi" unicode="&#x131;" horiz-adv-x="218" d="M68.0689 476.803 C80.2698 475.54 86 468 86 449 L86 41 C86 21 79.3884 11.7438 67.6679 7.9722 C66.0899 7.46441 64 5.1577 64 3.5 C64 1.5681 65.5681 0 67.5 0 L170.5 0 C172.432 0 174 1.5681 174 3.5 C174 5.1577 171.91 7.46441 170.332 7.9722 C158.612 11.7438 152 21 152 41 L152 483.5 C152 492.608 144.608 500 135.5 500 L123.743 500 C122.717 500 116.408 499.091 115.447 498.73 C108.626 496.174 100.209 492.554 91.8225 491.12 C91.6901 491.097 79.3554 488.905 79.2261 488.868 L65.5029 484.99 C63.5694 484.444 62.448 482.432 63 480.5 C63.4593 478.892 66.4059 476.976 68.0689 476.803 L68.0689 476.803 Z " />
<glyph glyph-name="Jcircumflex" unicode="&#x134;" horiz-adv-x="286" d="M170 1010 C165 1017 154 1034 147 1034 C140 1034 128 1018 124 1011 L0.0889365 818.791 C-1.6094 816.157 -0.974161 812.424 1.5 810.5 C3.97649 808.574 7.72501 808.896 9.83618 811.217 L105.339 916.202 C128.232 941.368 165.768 941.368 188.661 916.202 L284.164 811.217 C286.275 808.896 290.024 808.574 292.5 810.5 C294.975 812.425 295.605 816.153 293.9 818.784 L170 1010 L170 1010 Z M223.5 750 L69.5 750 C67.5681 750 66 748.432 66 746.5 C66 744.588 67.5716 742.775 69.4648 742.505 L73 742 C94 740 108 713 108 674 L108 -51 C108 -187 43 -213 -4 -213 C-42 -213 -24 -151 -62 -151 C-83 -151 -97 -165 -97 -186 C-97 -206 -62 -220 -9 -220 C72 -220 185 -170 185 95 L185 674 C185 713 199 740 220 742 L223.535 742.505 C225.428 742.775 227 744.588 227 746.5 C227 748.432 225.432 750 223.5 750 L223.5 750 Z " />
<glyph glyph-name="Lacute" unicode="&#x139;" horiz-adv-x="508" d="M158.293 816.684 L295 934 C335 969 362 995 362 1001 C362 1018 347 1033 329 1033 C323 1033 298 1006 264 965 L149.585 825.375 C147.616 822.972 147.803 819.197 150 817 C152.201 814.799 155.93 814.656 158.293 816.684 L158.293 816.684 Z M223.5 750 L69.5 750 C67.5681 750 66 748.432 66 746.5 C66 744.588 67.5716 742.775 69.4648 742.505 L73 742 C94 740 108 713 108 674 L108 76 C108 37 94 10 73 8 L69.4648 7.49497 C67.5716 7.22451 66 5.41248 66 3.5 C66 1.5681 67.5681 0 69.5 0 L474 0 C475.656 0 477 1.34409 477 3 C477 3.24756 477.275 7.8476 477.312 8.09243 C481.097 33.3845 486.521 65.1436 491.223 90.7852 C491.663 93.184 489.939 95 487.5 95 C485.245 95 482.059 92.9619 481.114 90.9142 L477 82 C456 41 394 13 322 13 L279 13 C194 13 185 45 185 94 L185 674 C185 713 199 740 220 742 L223.535 742.505 C225.428 742.775 227 744.588 227 746.5 C227 748.432 225.432 750 223.5 750 L223.5 750 Z " />
<glyph glyph-name="Lcaron" unicode="&#x13d;" horiz-adv-x="508" d="M323 808 C309 808 301 746 298 701 L289.461 595.682 C289.211 592.6 291.516 589.314 294.5 588.5 C297.535 587.672 300.732 589.448 301.633 592.462 L332 694 C345 735 353 776 353 798 C353 805 341 808 323 808 L323 808 Z M223.5 750 L69.5 750 C67.5681 750 66 748.432 66 746.5 C66 744.588 67.5716 742.775 69.4648 742.505 L73 742 C94 740 108 713 108 674 L108 76 C108 37 94 10 73 8 L69.4648 7.49497 C67.5716 7.22451 66 5.41248 66 3.5 C66 1.5681 67.5681 0 69.5 0 L474 0 C475.656 0 477 1.34409 477 3 C477 3.24756 477.275 7.8476 477.312 8.09243 C481.097 33.3845 486.521 65.1436 491.223 90.7852 C491.663 93.184 489.939 95 487.5 95 C485.245 95 482.059 92.9619 481.114 90.9142 L477 82 C456 41 394 13 322 13 L279 13 C194 13 185 45 185 94 L185 674 C185 713 199 740 220 742 L223.535 742.505 C225.428 742.775 227 744.588 227 746.5 C227 748.432 225.432 750 223.5 750 L223.5 750 Z " />
<glyph glyph-name="lcaron" unicode="&#x13e;" horiz-adv-x="162" d="M194 757 C180 757 172 695 168 650 L158.555 545.16 C158.252 541.801 160.728 538.318 164 537.5 C167.308 536.673 170.795 538.658 171.772 541.925 L202 643 C215 684 223 725 223 747 C223 754 211 757 194 757 L194 757 Z M45 657 L45 41 C45 21 38.3884 11.7438 26.6679 7.9722 C25.0899 7.46441 23 5.1577 23 3.5 C23 1.5681 24.5681 0 26.5 0 L129.5 0 C131.432 0 133 1.5681 133 3.5 C133 5.1577 130.91 7.46441 129.332 7.9722 C117.612 11.7438 111 21 111 41 L111 733.5 C111 742.608 103.608 750 94.5 750 L82.7434 750 C81.7171 750 75.4083 749.091 74.4473 748.73 C67.626 746.174 59.2095 742.554 50.8225 741.12 C50.6901 741.097 38.3554 738.905 38.2261 738.868 L21 734 L21 729 C36 722 44 698 44 657 L45 657 Z " />
<glyph glyph-name="Nacute" unicode="&#x143;" horiz-adv-x="645" d="M231.293 816.684 L368 934 C408 969 435 995 435 1001 C435 1018 420 1033 402 1033 C396 1033 371 1006 337 965 L222.585 825.375 C220.616 822.972 220.803 819.197 223 817 C225.201 814.799 228.93 814.656 231.293 816.684 L231.293 816.684 Z M6.33537 742.287 C33.7025 737.045 59.4 717.95 86 679 L92 669.5 C93.7733 666.692 97.9864 652.085 97.9808 648.764 L97 76 C97 37 83 10 62 8 L58.4648 7.49497 C56.5716 7.22451 55 5.41248 55 3.5 C55 1.5681 56.5681 0 58.5 0 L158.5 0 C160.432 0 162 1.5681 162 3.5 C162 5.41248 160.428 7.22451 158.535 7.49497 L155 8 C134 10 121 38 120 76 L118.697 436.954 C118.49 494.251 191.408 515.81 222.392 467.613 L518.674 6.72943 C520.683 3.60492 527.286 0 531 0 C535.416 0 539.026 3.58426 539.058 7.99979 L544 686 C547 719 561 741 580 743 L583 743.5 C584.633 743.772 586 745.385 586 747.041 L586 747.5 C586 749.432 584.432 751 582.5 751 L482.5 751 C480.568 751 479 749.432 479 747.5 C479 745.588 480.572 743.775 482.465 743.505 L486 743 C507 741 521 713 521 674 L521 336.831 C521 279.544 448.047 258.237 417.213 306.519 L150.609 723.993 C142.882 736.091 117.497 750 103.142 750 L5.5 750 C3.5681 750 2 748.432 2 746.5 C2 744.7 4.56783 742.625 6.33537 742.287 L6.33537 742.287 Z " />
<glyph glyph-name="Ncaron" unicode="&#x147;" horiz-adv-x="645" d="M457.164 1038.78 L361.661 933.798 C338.768 908.632 301.232 908.632 278.339 933.798 L182.836 1038.78 C180.725 1041.1 176.976 1041.43 174.5 1039.5 C172.026 1037.58 171.391 1033.84 173.089 1031.21 L297 839 C301 832 313 816 320 816 C327 816 338 833 343 840 L466.9 1031.22 C468.605 1033.85 467.975 1037.58 465.5 1039.5 C463.024 1041.43 459.275 1041.1 457.164 1038.78 L457.164 1038.78 Z M6.33537 742.287 C33.7025 737.045 59.4 717.95 86 679 L92 669.5 C93.7733 666.692 97.9864 652.085 97.9808 648.764 L97 76 C97 37 83 10 62 8 L58.4648 7.49497 C56.5716 7.22451 55 5.41248 55 3.5 C55 1.5681 56.5681 0 58.5 0 L158.5 0 C160.432 0 162 1.5681 162 3.5 C162 5.41248 160.428 7.22451 158.535 7.49497 L155 8 C134 10 121 38 120 76 L118.697 436.954 C118.49 494.251 191.408 515.81 222.392 467.613 L518.674 6.72943 C520.683 3.60492 527.286 0 531 0 C535.416 0 539.026 3.58426 539.058 7.99979 L544 686 C547 719 561 741 580 743 L583 743.5 C584.633 743.772 586 745.385 586 747.041 L586 747.5 C586 749.432 584.432 751 582.5 751 L482.5 751 C480.568 751 479 749.432 479 747.5 C479 745.588 480.572 743.775 482.465 743.505 L486 743 C507 741 521 713 521 674 L521 336.831 C521 279.544 448.047 258.237 417.213 306.519 L150.609 723.993 C142.882 736.091 117.497 750 103.142 750 L5.5 750 C3.5681 750 2 748.432 2 746.5 C2 744.7 4.56783 742.625 6.33537 742.287 L6.33537 742.287 Z " />
<glyph glyph-name="ncaron" unicode="&#x148;" horiz-adv-x="425" d="M347.164 787.783 L251.514 682.636 C228.694 657.551 191.233 657.485 168.325 682.49 L71.851 787.796 C69.7323 790.109 65.9758 790.426 63.5 788.5 C61.0258 786.576 60.3906 782.843 62.0889 780.209 L186 588 C190 581 202 565 210 565 C217 565 228 582 233 589 L356.9 780.216 C358.605 782.847 357.975 786.575 355.5 788.5 C353.024 790.426 349.275 790.104 347.164 787.783 L347.164 787.783 Z M45 407 L45 41 C45 21 38.3884 11.7438 26.6679 7.9722 C25.0899 7.46441 23 5.1577 23 3.5 C23 1.5681 24.5681 0 26.5 0 L129.5 0 C131.432 0 133 1.5681 133 3.5 C133 5.1577 130.91 7.46441 129.332 7.9722 C117.612 11.7438 111 21 111 41 L111 366.154 C111 368.567 113.568 382.765 114.5 384.99 C137.91 440.9 184.65 477 235 477 C283 477 308 423 308 342 L308 41 C308 21 301.388 11.7438 289.668 7.9722 C288.09 7.46441 286 5.1577 286 3.5 C286 1.5681 287.568 0 289.5 0 L392.5 0 C394.432 0 396 1.5681 396 3.5 C396 5.1577 393.91 7.46441 392.332 7.9722 C380.612 11.7438 374 21 374 41 L374 342 C374 443 334 510 256 510 C206.5 510 158.361 475.969 127.868 422.506 C124.311 416.269 111 418.206 111 425.386 L111 483.5 C111 492.608 103.608 500 94.5 500 L82.7434 500 C81.7171 500 75.4083 499.091 74.4473 498.73 C67.626 496.174 59.2095 492.554 50.8225 491.12 C50.6901 491.097 38.3554 488.905 38.2261 488.868 L21 484 L21 479 C36 472 44 448 44 407 L45 407 Z " />
<glyph glyph-name="Omacron" unicode="&#x14c;" horiz-adv-x="783" d="M285.5 899 L488.5 899 C500.919 899 511 909.081 511 921.5 C511 933.919 500.919 944 488.5 944 L285.5 944 C273.081 944 263 933.919 263 921.5 C263 909.081 273.081 899 285.5 899 L285.5 899 Z M140 375 C140 603 238 755 386 755 C541 755 644 603 644 375 C644 147 538 -5 378 -5 C235 -5 140 147 140 375 L140 375 Z M56 375 C56 144 184 -10 377 -10 C588 -10 728 144 728 375 C728 606 592 760 387 760 C188 760 56 606 56 375 L56 375 Z " />
<glyph glyph-name="omacron" unicode="&#x14d;" horiz-adv-x="574" d="M185.5 649 L388.5 649 C400.919 649 411 659.081 411 671.5 C411 683.919 400.919 694 388.5 694 L185.5 694 C173.081 694 163 683.919 163 671.5 C163 659.081 173.081 649 185.5 649 L185.5 649 Z M117 250 C117 403 185 505 287 505 C388 505 456 403 456 250 C456 97 388 -5 287 -5 C185 -5 117 97 117 250 L117 250 Z M45 250 C45 94 142 -10 287 -10 C432 -10 529 94 529 250 C529 406 432 510 287 510 C142 510 45 406 45 250 L45 250 Z " />
<glyph glyph-name="Obreve" unicode="&#x14e;" horiz-adv-x="783" d="M277.448 989.868 C284.211 923.729 327.525 880 387 880 C446.475 880 489.789 922.778 496.552 987.943 C496.967 991.941 493.979 993.432 490 994 C486.465 994.505 482.865 992.481 482.29 988.957 C476.157 951.367 439.25 927 387 927 C334.75 927 297.843 952.27 291.71 989.949 C291.143 993.435 287.523 995.752 284 995.5 C280.022 995.216 277.042 993.836 277.448 989.868 L277.448 989.868 Z M140 375 C140 603 238 755 386 755 C541 755 644 603 644 375 C644 147 538 -5 378 -5 C235 -5 140 147 140 375 L140 375 Z M56 375 C56 144 184 -10 377 -10 C588 -10 728 144 728 375 C728 606 592 760 387 760 C188 760 56 606 56 375 L56 375 Z " />
<glyph glyph-name="obreve" unicode="&#x14f;" horiz-adv-x="574" d="M177.448 739.868 C184.211 673.729 227.525 630 287 630 C346.475 630 389.789 672.778 396.552 737.943 C396.967 741.941 393.979 743.432 390 744 C386.465 744.505 382.865 742.481 382.29 738.957 C376.157 701.367 339.25 677 287 677 C234.75 677 197.843 702.27 191.71 739.949 C191.143 743.435 187.523 745.752 184 745.5 C180.022 745.216 177.042 743.836 177.448 739.868 L177.448 739.868 Z M117 250 C117 403 185 505 287 505 C388 505 456 403 456 250 C456 97 388 -5 287 -5 C185 -5 117 97 117 250 L117 250 Z M45 250 C45 94 142 -10 287 -10 C432 -10 529 94 529 250 C529 406 432 510 287 510 C142 510 45 406 45 250 L45 250 Z " />
<glyph glyph-name="Racute" unicode="&#x154;" horiz-adv-x="613" d="M273.555 816.937 L409 934 C449 969 476 995 476 1001 C476 1018 461 1033 444 1033 C438 1033 413 1006 379 965 L263.835 825.641 C261.72 823.081 262.018 819.206 264.5 817 C266.962 814.811 271.063 814.783 273.555 816.937 L273.555 816.937 Z M68.5 742.5 L72 742 C93 740 107 713 107 674 L107 76 C107 37 93 10 72 8 L68.4648 7.49497 C66.5716 7.22451 65 5.41248 65 3.5 C65 1.5681 66.5681 0 68.5 0 L222.5 0 C224.432 0 226 1.5681 226 3.5 C226 5.41248 224.428 7.22451 222.535 7.49497 L219 8 C198 10 184 37 184 76 L184 318 C184 341.735 203.265 361 227 361 L250.391 361 C259.773 361 273.136 352.397 276.756 343.742 C296.813 295.781 346.25 195.375 411 72 C447 3 455 0 602 0 C604.484 0 602 2.01613 602 4.5 C602 6.97639 599.788 8.99902 597.311 9.00647 C537.782 9.18563 533.2 13.5 502 72 C434.625 200.625 382.563 300.156 356.531 349.826 C351.308 359.792 356.651 369.673 367.549 372.469 C449.518 393.498 500 447.425 500 539 C500 666 410 750 274 750 L67.5355 750 C65.6036 750 64.2268 748.412 64.5 746.5 C64.7649 744.645 66.6454 742.765 68.5 742.5 L68.5 742.5 Z M183 425.5 L183 725 C183 730.59 188.386 734.993 193.976 734.921 C212.417 734.685 234.448 734 251 734 C349 734 415 662 415 554 C415 434 359 380 274 380 L228.5 380 C203.385 380 183 400.385 183 425.5 L183 425.5 Z " />
<glyph glyph-name="Rcaron" unicode="&#x158;" horiz-adv-x="613" d="M399.164 1038.78 L303.514 933.636 C280.694 908.551 243.233 908.485 220.325 933.49 L123.851 1038.8 C121.732 1041.11 117.976 1041.43 115.5 1039.5 C113.026 1037.58 112.391 1033.84 114.089 1031.21 L238 839 C242 832 254 816 262 816 C269 816 280 833 285 840 L408.9 1031.22 C410.605 1033.85 409.975 1037.58 407.5 1039.5 C405.024 1041.43 401.275 1041.1 399.164 1038.78 L399.164 1038.78 Z M68.5 742.5 L72 742 C93 740 107 713 107 674 L107 76 C107 37 93 10 72 8 L68.4648 7.49497 C66.5716 7.22451 65 5.41248 65 3.5 C65 1.5681 66.5681 0 68.5 0 L222.5 0 C224.432 0 226 1.5681 226 3.5 C226 5.41248 224.428 7.22451 222.535 7.49497 L219 8 C198 10 184 37 184 76 L184 318 C184 341.735 203.265 361 227 361 L250.391 361 C259.773 361 273.136 352.397 276.756 343.742 C296.813 295.781 346.25 195.375 411 72 C447 3 455 0 602 0 C604.484 0 602 2.01613 602 4.5 C602 6.97639 599.788 8.99902 597.311 9.00647 C537.782 9.18563 533.2 13.5 502 72 C434.625 200.625 382.563 300.156 356.531 349.826 C351.308 359.792 356.651 369.673 367.549 372.469 C449.518 393.498 500 447.425 500 539 C500 666 410 750 274 750 L67.5355 750 C65.6036 750 64.2268 748.412 64.5 746.5 C64.7649 744.645 66.6454 742.765 68.5 742.5 L68.5 742.5 Z M183 425.5 L183 725 C183 730.59 188.386 734.993 193.976 734.921 C212.417 734.685 234.448 734 251 734 C349 734 415 662 415 554 C415 434 359 380 274 380 L228.5 380 C203.385 380 183 400.385 183 425.5 L183 425.5 Z " />
<glyph glyph-name="rcaron" unicode="&#x159;" horiz-adv-x="304" d="M302.164 787.783 L206.514 682.636 C183.694 657.551 146.233 657.485 123.325 682.49 L26.851 787.796 C24.7323 790.109 20.9758 790.426 18.5 788.5 C16.0258 786.576 15.3906 782.843 17.0889 780.209 L141 588 C145 581 157 565 165 565 C172 565 183 582 188 589 L311.9 780.216 C313.605 782.847 312.975 786.575 310.5 788.5 C308.024 790.426 304.275 790.104 302.164 787.783 L302.164 787.783 Z M46 407 L46 41 C46 21 39.3884 11.7438 27.6679 7.9722 C26.0899 7.46441 24 5.1577 24 3.5 C24 1.5681 25.5681 0 27.5 0 L130.5 0 C132.432 0 134 1.5681 134 3.5 C134 5.1577 131.91 7.46441 130.332 7.9722 C118.612 11.7438 112 21 112 41 L112 390.463 C112 391.669 113.624 403.347 113.956 404.506 C127.33 451.12 159.25 480 202 480 C211 480 217 466 217 445 C217 422 233 406 256 406 C279 406 294 422 294 445 C294 485 269 511 232 511 C181.675 511 142.24 483.775 122.118 438.871 C120.589 435.458 112 436.529 112 440.268 L112 485.5 C112 494.608 104.608 502 95.5 502 L83.7434 502 C82.7171 502 76.4083 501.091 75.4473 500.73 C68.626 498.174 60.2095 494.554 51.8225 493.12 C51.6901 493.097 39.3554 490.905 39.2261 490.868 L22 486 L22 481 C37 474 45 449 45 408 L46 407 Z " />
<glyph glyph-name="Sacute" unicode="&#x15a;" horiz-adv-x="513" d="M268.555 816.937 L404 934 C444 969 471 995 471 1001 C471 1018 456 1033 439 1033 C433 1033 408 1006 374 965 L258.835 825.641 C256.72 823.081 257.018 819.206 259.5 817 C261.962 814.811 266.063 814.783 268.555 816.937 L268.555 816.937 Z M51 188.481 L51 47 C51 44.7921 52.7921 43 55 43 C57.142 43 59.4506 44.8026 59.9701 46.8806 L63 59 C67 74 99 64 144 34 C161 22 179.5 13.5 198.5 4.5 C223.5 -5.5 250 -10 277 -10 C395 -10 473 69 473 188 C473 280 414 367 300 415 C187 463 129 532 129 600 C129 716 191 779 287 746 C334 728 382 678 411 616 L417.636 600.515 C418.836 597.717 422.956 595 426 595 C429.312 595 432 597.688 432 601 L432 707 C432 709.208 430.208 711 428 711 C426.025 711 423.094 709.189 422.211 707.422 L420 703 C417 697 388 709 348 731 C326.629 742.657 301.482 756.202 277.145 762.466 C275.431 762.908 274.56 761.679 274 760 C273.479 758.438 265.488 758.109 263.854 758.311 C146.001 772.921 69 692.825 69 569 C69 475 132 385 254 334 C358 290 412 226 412 165 C412 64 358 -4 277 -4 C249 -4 220 5 193 21 C149 48 102 107 73 173 L66.568 188.008 C65.3118 190.939 60.6796 194.255 57.5 194.5 C53.9228 194.775 51 192.069 51 188.481 L51 188.481 Z M64 152 L64 152 L64 152 L64 152 Z " />
<glyph glyph-name="Scircumflex" unicode="&#x15c;" horiz-adv-x="513" d="M51 188.481 L51 47 C51 44.7921 52.7921 43 55 43 C57.142 43 59.4506 44.8026 59.9701 46.8806 L63 59 C67 74 99 64 144 34 C161 22 179.5 13.5 198.5 4.5 C223.5 -5.5 250 -10 277 -10 C395 -10 473 69 473 188 C473 280 414 367 300 415 C187 463 129 532 129 600 C129 716 191 779 287 746 C334 728 382 678 411 616 L417.636 600.515 C418.836 597.717 422.956 595 426 595 C429.312 595 432 597.688 432 601 L432 707 C432 709.208 430.208 711 428 711 C426.025 711 423.094 709.189 422.211 707.422 L420 703 C417 697 388 709 348 731 C326.629 742.657 301.482 756.202 277.145 762.466 C275.431 762.908 274.56 761.679 274 760 C273.479 758.438 265.488 758.109 263.854 758.311 C146.001 772.921 69 692.825 69 569 C69 475 132 385 254 334 C358 290 412 226 412 165 C412 64 358 -4 277 -4 C249 -4 220 5 193 21 C149 48 102 107 73 173 L66.568 188.008 C65.3118 190.939 60.6796 194.255 57.5 194.5 C53.9228 194.775 51 192.069 51 188.481 L51 188.481 Z M281 1009 C276 1016 265 1033 258 1033 C250 1033 238 1017 234 1010 L110.089 817.791 C108.391 815.157 109.026 811.424 111.5 809.5 C113.976 807.574 117.732 807.891 119.851 810.204 L216.325 915.51 C239.233 940.515 276.694 940.449 299.514 915.364 L395.164 810.217 C397.275 807.896 401.024 807.574 403.5 809.5 C405.975 811.425 406.605 815.153 404.9 817.784 L281 1009 L281 1009 Z M64 152 L64 152 L64 152 L64 152 Z " />
<glyph glyph-name="Scaron" unicode="&#x160;" horiz-adv-x="513" d="M394.164 1038.78 L298.514 933.636 C275.694 908.551 238.233 908.485 215.325 933.49 L118.851 1038.8 C116.732 1041.11 112.976 1041.43 110.5 1039.5 C108.026 1037.58 107.391 1033.84 109.089 1031.21 L233 839 C237 832 249 816 257 816 C264 816 275 833 280 840 L403.9 1031.22 C405.605 1033.85 404.975 1037.58 402.5 1039.5 C400.024 1041.43 396.275 1041.1 394.164 1038.78 L394.164 1038.78 Z M51 188.481 L51 47 C51 44.7921 52.7921 43 55 43 C57.142 43 59.4506 44.8026 59.9701 46.8806 L63 59 C67 74 99 64 144 34 C161 22 179.5 13.5 198.5 4.5 C223.5 -5.5 250 -10 277 -10 C395 -10 473 69 473 188 C473 280 414 367 300 415 C187 463 129 532 129 600 C129 716 191 779 287 746 C334 728 382 678 411 616 L417.636 600.515 C418.836 597.717 422.956 595 426 595 C429.312 595 432 597.688 432 601 L432 707 C432 709.208 430.208 711 428 711 C426.025 711 423.094 709.189 422.211 707.422 L420 703 C417 697 388 709 348 731 C326.629 742.657 301.482 756.202 277.145 762.466 C275.431 762.908 274.56 761.679 274 760 C273.479 758.438 265.488 758.109 263.854 758.311 C146.001 772.921 69 692.825 69 569 C69 475 132 385 254 334 C358 290 412 226 412 165 C412 64 358 -4 277 -4 C249 -4 220 5 193 21 C149 48 102 107 73 173 L66.568 188.008 C65.3118 190.939 60.6796 194.255 57.5 194.5 C53.9228 194.775 51 192.069 51 188.481 L51 188.481 Z M64 152 L64 152 L64 152 L64 152 Z " />
<glyph glyph-name="scaron" unicode="&#x161;" horiz-adv-x="390" d="M339.164 788.783 L243.661 683.798 C220.768 658.632 183.232 658.632 160.339 683.798 L64.8362 788.783 C62.725 791.104 58.9765 791.426 56.5 789.5 C54.0258 787.576 53.3906 783.843 55.0889 781.209 L179 589 C183 582 195 566 202 566 C209 566 220 583 225 590 L348.9 781.216 C350.605 783.847 349.975 787.575 347.5 789.5 C345.024 791.426 341.275 791.104 339.164 788.783 L339.164 788.783 Z M313 389.915 L313 462.464 C313 464.396 311.412 465.773 309.5 465.5 C308.672 465.382 307.051 466.711 307.063 467.547 C307.173 475.172 282.936 486.192 242.333 498.765 C241.85 498.915 229.096 504.279 228.647 504.514 C219.471 509.303 210.294 512.819 201.118 514.616 C199.697 514.894 198.784 513.919 198.5 512.5 C198.236 511.181 193.244 510.459 191.903 510.556 C113.334 516.236 62 462.05 62 386 C62 314 105 253 188 226 C256 204 291 159 291 108 C291 40 256 -5 203 -5 C186.636 -5 171.099 1.19835 159.394 8.33584 C159.069 8.534 151.855 12.112 151.5 12.25 C150.68 12.5688 143.062 16.8959 142.366 17.4336 C113.13 40.0175 86.15 78.35 70 123 L67.2184 129.259 C66.6039 130.641 64.5132 132 63 132 C61.3441 132 60 130.656 60 129 L60 45 C60 43.3441 61.3441 42 63 42 L63.0845 42 C64.4644 42 66.79 43.3167 67.5 44.5 C67.5 44.5 69.075 45.147 69.075 45.147 C72.0938 38.7332 99.2297 23.6679 140.434 4.64052 C140.536 4.59353 147.977 0.366454 148.074 0.310185 C154.282 -3.29398 160.866 -5.1169 166.98 -7.26794 C167.15 -7.32753 171.038 -8.51982 171.213 -8.56089 C181.596 -11 192.733 -11 203 -11 C286 -11 341 43 341 124 C341 190 299 248 217 274 C145 297 108 348 108 406 C108 474.25 153.155 521.111 212.878 498.386 C212.881 498.385 219.725 495.685 219.729 495.684 C224.146 493.926 228.354 491.465 232.771 489.145 C232.988 489.031 236.897 486.688 237.096 486.547 C264.293 467.295 289.375 433.95 304 393 L306.816 386.664 C307.465 385.205 309.13 384.678 310.5 385.5 C311.683 386.21 313 388.536 313 389.915 L313 389.915 Z M306 418 L306 418 L306 418 L306 418 Z " />
<glyph glyph-name="Tcaron" unicode="&#x164;" horiz-adv-x="740" d="M503.164 1038.78 L407.661 933.798 C384.768 908.632 347.232 908.632 324.339 933.798 L228.836 1038.78 C226.725 1041.1 222.976 1041.43 220.5 1039.5 C218.026 1037.58 217.391 1033.84 219.089 1031.21 L343 839 C347 832 359 816 366 816 C373 816 384 833 389 840 L512.9 1031.22 C514.605 1033.85 513.975 1037.58 511.5 1039.5 C509.024 1041.43 505.275 1041.1 503.164 1038.78 L503.164 1038.78 Z M293.5 0 L447.5 0 C449.432 0 451 1.5681 451 3.5 C451 5.41248 449.428 7.22451 447.535 7.49497 L444 8 C423 10 409 37 409 76 L409 674.68 C409 705.767 434.233 731 465.32 731 L548 731 C608 731 668 703 699 662 L705.439 652.7 C706.601 651.021 710.458 649 712.5 649 C714.804 649 716.258 650.855 715.405 652.996 C706.279 675.902 695.721 703.148 686.595 726.855 C686.064 728.234 685.55 735.036 685.75 736.5 L685.854 737.259 C686.019 738.473 685.291 745.348 684.875 746.5 L684.661 747.092 C683.966 749.018 681.158 751.254 679.125 751.5 C678.628 751.56 671.987 751.512 671.491 751.444 C647.955 748.195 599.6 750 535 750 L202 750 C136.45 750 88.95 748.195 65.5016 751.444 C65.3008 751.472 58.7028 752 58.5 752 C56.7721 752 54.2075 750.415 53.4348 748.87 L50.3416 742.683 C49.6793 741.359 50.5189 740 52 740 C53.5432 740 54.7131 739.268 54.1461 737.833 C43.5206 710.937 29.4794 678.063 18.8539 651.167 C18.0034 649.014 20.1851 649 22.5 649 C24.5422 649 28.399 651.021 29.5614 652.7 L36 662 C67 703 127 731 187 731 L275.68 731 C306.767 731 332 705.767 332 674.68 L332 76 C332 37 318 10 297 8 L293.465 7.49497 C291.572 7.22451 290 5.41248 290 3.5 C290 1.5681 291.568 0 293.5 0 L293.5 0 Z " />
<glyph glyph-name="tcaron" unicode="&#x165;" horiz-adv-x="335" d="M275.5 500 L211.389 500 C180.82 500 155.586 524.817 155.077 555.381 L155 560 C154.614 583.184 128.666 593.28 112.712 576.454 L29.4402 488.628 C28.1337 487.25 26 481.899 26 480 C26 477.24 28.2402 475 31 475 L58.5 475 C76.439 475 91 460.439 91 442.5 L91 143 C91 33 138 -10 208 -10 C249.925 -10 295.653 24.2225 322.938 75.984 C323.997 77.994 323.473 80.8727 321.5 82 C319.616 83.0765 317.561 83.0906 316.543 81.1746 C297.201 44.7656 262.125 21 228 21 C184 21 155 51 155 128 L155.833 408.847 C155.925 439.842 181.158 465 212.153 465 L275.5 465 C285.159 465 293 472.841 293 482.5 C293 492.159 285.159 500 275.5 500 L275.5 500 Z M378 758 C364 758 356 696 352 651 L342.555 546.16 C342.252 542.801 344.728 539.318 348 538.5 C351.308 537.673 354.795 539.658 355.772 542.925 L386 644 C399 685 407 726 407 748 C407 755 395 758 378 758 L378 758 Z " />
<glyph glyph-name="Utilde" unicode="&#x168;" horiz-adv-x="595" d="M177.233 889.119 L181.21 888.69 C181.21 888.69 180.335 888.691 180.335 888.691 C184.464 915.984 197.85 933 216 933 C260 933 318 868 361 868 C392.5 868 413.875 902.83 417.835 956.452 C417.835 956.452 419.374 956.608 419.374 956.608 L415.406 957.111 C415.406 957.111 416.946 957.267 416.946 957.267 C412.145 931.335 396.625 915 376 915 C333 915 275 980 231 980 C201.3 980 181.725 944.36 178.107 889.118 C178.107 889.118 177.233 889.119 177.233 889.119 L181.21 888.69 C181.21 888.69 180.335 888.691 180.335 888.691 L177.233 889.119 Z M562.535 27.505 L559 27 C538 24 524 47 524 86 L524 693.68 C524 724.767 498.767 750 467.68 750 L408.5 750 C406.568 750 405 748.432 405 746.5 C405 744.588 406.572 742.775 408.465 742.505 L412 742 C433 740 447 713 447 674 L447 187.554 C447 183.813 442.754 166.347 440.975 163.056 C400.792 88.735 322.75 40 242 40 C186 40 149 109 149 213 L149 693.68 C149 724.767 123.767 750 92.68 750 L33.5 750 C31.5681 750 30 748.432 30 746.5 C30 744.588 31.5716 742.775 33.4648 742.505 L37 742 C58 740 72 713 72 674 L72 213 C72 79 128 -10 211 -10 C293.5 -10 371.916 30.8375 420.419 95.667 C426.979 104.435 447 101.291 447 90.3412 L447 19.5 C447 8.73658 455.737 0 466.5 0 L478.714 0 C479.737 0 492.057 1.59387 493.047 1.85436 L524 10 C524 12 564 21 566 21 L566 24.5 C566 26.4125 564.428 27.7755 562.535 27.505 L562.535 27.505 Z " />
<glyph glyph-name="utilde" unicode="&#x169;" horiz-adv-x="401" d="M77.2327 639.119 L81.2096 638.69 C81.2096 638.69 80.3352 638.691 80.3352 638.691 C84.4644 665.984 97.85 683 116 683 C160 683 218 618 262 618 C293.5 618 314.875 652.83 318.835 706.452 C318.835 706.452 320.374 706.608 320.374 706.608 L316.406 707.111 C316.406 707.111 317.946 707.267 317.946 707.267 C313.145 681.335 297.625 665 277 665 C233 665 175 730 131 730 C101.3 730 81.725 694.36 78.107 639.118 C78.107 639.118 77.2327 639.119 77.2327 639.119 L81.2096 638.69 C81.2096 638.69 80.3352 638.691 80.3352 638.691 L77.2327 639.119 Z M387 24 L382 24 C366 22 355 46 355 85 L355 456.5 C355 480.511 335.511 500 311.5 500 L271.5 500 C269.568 500 268 498.432 268 496.5 C268 494.842 270.09 492.536 271.668 492.028 C283.388 488.256 290 479 290 459 L290 140.808 C290 137.452 285.628 119.513 284.112 116.52 C258.85 66.6581 220.925 35 183 35 C137 35 106 83 106 154 L106 455 C106 479.287 86.2867 499 62 499 L21.5 499 C19.5681 499 18 497.432 18 495.5 C18 493.842 20.0899 491.536 21.6679 491.028 C33.3884 487.256 40 478 40 458 L40 154 C40 55 85 -11 152 -11 C193.25 -11 236.542 25.0731 269.522 83.1815 C274.028 91.1198 289 88.2046 289 79.0768 L289 15.75 C289 6.5045 296.505 -1 305.75 -1 L315.214 -1 C316.257 -1 327.583 0.343489 328.591 0.611505 C345.313 5.05646 365.566 10.5878 381.98 14.9383 C383.971 15.4659 386.245 17.9563 386.5 20 L387 24 L387 24 Z " />
<glyph glyph-name="Umacron" unicode="&#x16a;" horiz-adv-x="595" d="M196.5 899 L399.5 899 C411.919 899 422 909.081 422 921.5 C422 933.919 411.919 944 399.5 944 L196.5 944 C184.081 944 174 933.919 174 921.5 C174 909.081 184.081 899 196.5 899 L196.5 899 Z M562.535 27.505 L559 27 C538 24 524 47 524 86 L524 693.68 C524 724.767 498.767 750 467.68 750 L408.5 750 C406.568 750 405 748.432 405 746.5 C405 744.588 406.572 742.775 408.465 742.505 L412 742 C433 740 447 713 447 674 L447 187.554 C447 183.813 442.754 166.347 440.975 163.056 C400.792 88.735 322.75 40 242 40 C186 40 149 109 149 213 L149 693.68 C149 724.767 123.767 750 92.68 750 L33.5 750 C31.5681 750 30 748.432 30 746.5 C30 744.588 31.5716 742.775 33.4648 742.505 L37 742 C58 740 72 713 72 674 L72 213 C72 79 128 -10 211 -10 C293.5 -10 371.916 30.8375 420.419 95.667 C426.979 104.435 447 101.291 447 90.3412 L447 19.5 C447 8.73658 455.737 0 466.5 0 L478.714 0 C479.737 0 492.057 1.59387 493.047 1.85436 L524 10 C524 12 564 21 566 21 L566 24.5 C566 26.4125 564.428 27.7755 562.535 27.505 L562.535 27.505 Z " />
<glyph glyph-name="umacron" unicode="&#x16b;" horiz-adv-x="401" d="M96.5 649 L300.5 649 C312.919 649 323 659.081 323 671.5 C323 683.919 312.919 694 300.5 694 L96.5 694 C84.0807 694 74 683.919 74 671.5 C74 659.081 84.0807 649 96.5 649 L96.5 649 Z M387 24 L382 24 C366 22 355 46 355 85 L355 456.5 C355 480.511 335.511 500 311.5 500 L271.5 500 C269.568 500 268 498.432 268 496.5 C268 494.842 270.09 492.536 271.668 492.028 C283.388 488.256 290 479 290 459 L290 140.808 C290 137.452 285.628 119.513 284.112 116.52 C258.85 66.6581 220.925 35 183 35 C137 35 106 83 106 154 L106 455 C106 479.287 86.2867 499 62 499 L21.5 499 C19.5681 499 18 497.432 18 495.5 C18 493.842 20.0899 491.536 21.6679 491.028 C33.3884 487.256 40 478 40 458 L40 154 C40 55 85 -11 152 -11 C193.25 -11 236.542 25.0731 269.522 83.1815 C274.028 91.1198 289 88.2046 289 79.0768 L289 15.75 C289 6.5045 296.505 -1 305.75 -1 L315.214 -1 C316.257 -1 327.583 0.343489 328.591 0.611505 C345.313 5.05646 365.566 10.5878 381.98 14.9383 C383.971 15.4659 386.245 17.9563 386.5 20 L387 24 L387 24 Z " />
</font>
</svg>
