<?xml version="1.0" encoding="UTF-8"?>
<svg xmlns="http://www.w3.org/2000/svg" xmlns:xlink="http://www.w3.org/1999/xlink" version="1.2" >
<font id="Warick Thin">
<font-face  font-family="Warick" units-per-em="1024" ascent="975" descent="-300" font-style="normal" font-weight="100" font-stretch="normal" cap-height="1041" x-height="488" underline-position="-125" underline-thickness="50" />
<missing-glyph  horiz-adv-x="100" d="" />
<glyph glyph-name="NULL" d="" />
<glyph glyph-name="CR" unicode="&#xd;" horiz-adv-x="256" d="" />
<glyph glyph-name="space" unicode="&#x20;" horiz-adv-x="207" d="" />
<glyph glyph-name="exclam" unicode="&#x21;" horiz-adv-x="164" d="M102 15 C102 41 62 41 62 15 C62 -11 102 -11 102 15 L102 15 Z M82 755 C73 755 69 728 70 688 L80 210 L84 210 L94 688 C95 728 91 755 82 755 L82 755 Z " />
<glyph glyph-name="quotedbl" unicode="&#x22;" horiz-adv-x="290" d="M220 750 C215 750 213 732 214 705 L221 560 L223 560 L230 705 C229 734 232 752 220 750 L220 750 Z M100 750 C95 750 93 732 94 705 L101 560 L103 560 L110 705 C109 734 112 752 100 750 L100 750 Z " />
<glyph glyph-name="numbersign" unicode="&#x23;" horiz-adv-x="478" d="M360 692 L329 468 L192 468 L223 692 L221 692 L190 468 L61 468 L59 452 L188 452 L155 208 L23 208 L21 192 L152 192 L126 0 L128 0 L154 192 L291 192 L265 0 L267 0 L293 192 L413 192 L415 208 L296 208 L329 452 L456 452 L458 468 L331 468 L362 692 L360 692 L360 692 Z M190 452 L327 452 L294 208 L157 208 L190 452 L190 452 Z " />
<glyph glyph-name="dollar" unicode="&#x24;" horiz-adv-x="506" d="M55 189 L55 45 L63 45 L67 61 C71 77 104 68 149 37 C168 23 188 13 210 4 L210 -75 L224 -75 L224 0 C245 -6 267 -9 289 -9 L289 -74 L303 -74 L303 -9 C401 -3 465 67 465 171 C465 251 410 331 303 383 L303 738 C344 715 380 674 399 624 L408 600 L420 600 L420 708 L412 708 L408 700 C403 689 329 734 303 745 L303 824 L289 824 L289 750 C277 754 265 757 253 759 L253 757 C243 758 233 759 223 759 L223 824 L209 824 L209 758 C130 751 78 684 78 587 C78 525 122 459 209 403 L209 8 C154 31 100 92 75 163 L66 189 L55 189 L55 189 Z M289 745 L289 390 C265 402 243 414 223 427 L223 758 C249 758 271 753 290 745 L289 745 L289 745 Z M59 151 L59 151 L59 151 L59 151 Z M224 394 C244 382 267 371 290 360 L290 -8 C268 -8 246 -4 224 3 L224 394 L224 394 Z M304 353 C399 303 448 233 448 165 C448 67 391 0 304 -6 L304 353 L304 353 Z M210 438 C136 489 98 546 98 598 C98 689 142 751 210 758 L210 438 L210 438 Z " />
<glyph glyph-name="ampersand" unicode="&#x26;" horiz-adv-x="283" d="M311 471 L314 468 C395 493 449 551 449 614 C449 702 395 760 315 760 C222 760 160 699 160 607 C160 582 217 514 302 412 C302 412 382 322 520 158 C437 64 345 10 257 10 C150 10 78 90 78 211 C78 316 148 408 252 440 L248 441 C133 406 57 311 57 204 C57 76 132 -9 245 -9 C338 -9 436 50 524 153 C536 138 549 123 562 107 C621 37 676 -10 699 -10 C763 -10 814 54 826 149 L822 150 C811 64 765 6 707 6 C687 6 636 50 580 117 C565 135 551 152 537 168 C607 254 670 367 718 500 L713 500 C665 369 602 257 532 173 C397 334 318 422 318 422 C232 524 175 593 175 618 C175 700 230 755 313 755 C384 755 431 699 431 615 C431 551 382 493 309 471 L311 471 L311 471 Z " />
<glyph glyph-name="quotesingle" unicode="&#x27;" horiz-adv-x="188" d="M100 750 C95 750 93 732 94 705 L101 560 L103 560 L110 705 C109 734 112 752 100 750 L100 750 Z " />
<glyph glyph-name="parenleft" unicode="&#x28;" horiz-adv-x="324" d="M320 760 C188 671 100 476 100 273 C100 77 185 -118 313 -214 L314 -212 C194 -122 114 72 114 273 C114 480 197 674 321 758 L320 760 L320 760 Z " />
<glyph glyph-name="parenright" unicode="&#x29;" horiz-adv-x="324" d="M29 758 C162 672 250 478 250 273 C250 65 164 -129 36 -212 L37 -214 C173 -126 264 69 264 273 C264 474 170 669 30 760 L29 758 L29 758 Z " />
<glyph glyph-name="asterisk" unicode="&#x2a;" horiz-adv-x="246" d="M257 688 C266 692 261 701 252 696 C252 696 256 689 258 686 L257 688 L257 688 Z M252 566 L252 566 L252 566 Z M50 565 C50 565 50 565 50 566 L50 565 L50 565 Z M50 566 C48 569 45 574 45 574 C37 570 42 560 51 566 L50 566 L50 566 Z M51 566 L51 566 L51 564 L151 628 L151 628 L258 683 L252 693 L151 628 L157 747 C157 758 145 758 145 747 L151 628 L150 628 L50 692 C41 699 35 689 44 685 L44 683 L150 629 L44 575 L51 566 L51 566 Z M258 575 L258 575 L151 630 L252 565 L253 566 C262 560 265 570 258 575 L258 575 Z M145 509 C145 498 157 498 157 509 L151 629 L145 509 L145 509 Z " />
<glyph glyph-name="plus" unicode="&#x2b;" horiz-adv-x="586" d="M285 443 L285 257 L100 257 L100 243 L285 243 L285 57 L301 57 L301 243 L486 243 L486 257 L301 257 L301 443 L285 443 L285 443 Z " />
<glyph glyph-name="comma" unicode="&#x2c;" horiz-adv-x="257" d="M175 61 C180 46 183 27 183 6 C183 -63 136 -109 65 -109 L65 -110 C138 -110 187 -62 187 9 C187 45 179 74 165 92 C156 106 142 114 125 114 C89 114 65 90 65 54 C65 18 89 -6 125 -6 C157 -6 178 21 175 60 L175 61 L175 61 Z " />
<glyph glyph-name="hyphen" unicode="&#x2d;" horiz-adv-x="396" d="M80 277 L316 277 L316 293 L80 293 L80 277 L80 277 Z " />
<glyph glyph-name="period" unicode="&#x2e;" horiz-adv-x="195" d="M145 15 C145 41 105 41 105 15 C105 -11 145 -11 145 15 L145 15 Z " />
<glyph glyph-name="slash" unicode="&#x2f;" horiz-adv-x="370" d="M328 770 L46 -80 L58 -80 L340 770 L328 770 L328 770 Z " />
<glyph glyph-name="zero" unicode="0" horiz-adv-x="602" d="M62 250 C62 386 159 502 305 502 C436 502 548 401 548 250 C548 114 451 -2 305 -2 C174 -2 62 99 62 250 L62 250 Z M53 250 C53 94 169 -10 305 -10 C456 -10 557 110 557 250 C557 406 441 510 305 510 C154 510 53 390 53 250 L53 250 Z " />
<glyph glyph-name="one" unicode="1" horiz-adv-x="166" d="M135 7 L128 8 C107 10 93 37 93 76 L93 424 C93 463 107 490 128 492 L135 493 L135 500 L31 500 L31 493 L38 492 C59 490 73 463 73 424 L73 76 C73 37 59 10 38 8 L31 7 L31 0 L135 0 L135 7 L135 7 Z " />
<glyph glyph-name="two" unicode="2" horiz-adv-x="481" d="M306 18 L64 18 C239 111 381 222 381 340 C381 441 322 509 233 509 C147 509 72 422 47 292 L51 291 C75 413 143 494 222 494 C305 494 361 431 361 336 C361 214 224 106 57 17 C46 17 44 14 37 6 C33 4 29 2 25 0 L27 -1 C26 -1 25 -1 24 -1 L383 -1 L393 15 C398 22 404 30 408 37 L407 37 C405 38 405 39 405 39 C391 25 358 17 304 17 L306 18 L306 18 Z " />
<glyph glyph-name="three" unicode="3" horiz-adv-x="367" d="M19 -228 L20 -232 C204 -213 327 -124 327 -11 C327 92 234 161 95 163 C237 224 332 298 332 383 C332 460 276 511 193 511 C114 511 46 447 24 351 L28 350 C48 438 111 497 185 497 C261 497 311 449 311 376 C311 292 222 221 88 164 L88 160 L88 160 L88 160 C219 142 306 72 306 -15 C306 -124 191 -209 19 -227 L19 -228 L19 -228 Z " />
<glyph glyph-name="four" unicode="4" horiz-adv-x="555" d="M519 -12 L528 -12 C530 -2 534 24 536 40 C527 42 527 43 523 38 C514 24 485 15 450 15 L381 15 L381 530 L378 530 L15 4 L15 0 L361 0 L361 -220 L381 -220 L381 0 L449 0 C487 0 511 -4 519 -12 L519 -12 Z M31 15 L361 493 L361 15 L32 15 L31 15 L31 15 Z " />
<glyph glyph-name="five" unicode="5" horiz-adv-x="387" d="M226 500 L124 500 L78 242 L82 239 C236 239 340 163 340 38 C340 -100 228 -206 60 -227 L60 -231 C238 -209 357 -99 357 45 C357 177 249 260 88 260 L127 482 L304 483 L307 500 C307 500 309 511 309 512 L300 512 C291 503 263 500 226 500 L226 500 Z " />
<glyph glyph-name="six" unicode="6" horiz-adv-x="532" d="M516 750 C246 693 66 506 66 283 C66 107 152 -10 280 -10 C401 -10 481 90 481 240 C481 372 391 460 257 460 C175 460 114 416 91 345 C123 542 285 699 516 748 L516 750 L516 750 Z M85 273 C85 385 153 460 255 460 C378 460 460 373 460 242 C460 93 388 -7 279 -7 C163 -7 85 105 85 273 L85 273 Z " />
<glyph glyph-name="seven" unicode="7" horiz-adv-x="403" d="M91 504 L82 504 L76 492 L77 492 C74 484 70 476 67 469 C72 469 76 467 76 467 C87 478 116 484 156 484 C236 484 318 483 397 485 L119 -220 L134 -220 L399 485 L399 500 L163 500 C124 500 99 501 92 504 L91 504 L91 504 Z " />
<glyph glyph-name="eight" unicode="8" horiz-adv-x="510" d="M237 394 C241 392 245 390 249 388 C372 334 454 280 454 187 C454 69 377 -10 261 -10 C147 -10 71 63 71 173 C71 268 137 356 237 393 L237 394 L237 394 Z M235 394 C126 353 54 264 54 172 C54 62 137 -12 261 -12 C386 -12 470 64 470 178 C470 287 391 346 271 400 C373 439 441 516 441 595 C441 693 368 759 259 759 C150 759 78 689 78 585 C78 509 140 440 235 395 L235 394 L235 394 Z M269 402 C265 404 261 406 257 408 C159 451 94 518 94 594 C94 693 160 759 260 759 C358 759 424 693 424 595 C424 514 362 437 269 403 L269 402 L269 402 Z " />
<glyph glyph-name="nine" unicode="9" horiz-adv-x="532" d="M16 -250 C286 -193 466 -6 466 217 C466 393 380 510 252 510 C131 510 51 410 51 260 C51 128 141 40 275 40 C357 40 418 84 441 155 C409 -42 247 -199 16 -248 L16 -250 L16 -250 Z M447 227 C447 115 379 40 277 40 C154 40 72 127 72 258 C72 407 144 507 253 507 C369 507 447 395 447 227 L447 227 Z " />
<glyph glyph-name="colon" unicode="&#x3a;" horiz-adv-x="135" d="M145 405 C145 431 105 431 105 405 C105 379 145 379 145 405 L145 405 Z M145 15 C145 41 105 41 105 15 C105 -11 145 -11 145 15 L145 15 Z " />
<glyph glyph-name="semicolon" unicode="&#x3b;" horiz-adv-x="257" d="M145 405 C145 431 105 431 105 405 C105 379 145 379 145 405 L145 405 Z M175 61 C180 46 183 27 183 6 C183 -63 136 -109 65 -109 L65 -110 C138 -110 187 -62 187 9 C187 45 179 74 165 92 C156 106 142 114 125 114 C89 114 65 90 65 54 C65 18 89 -6 125 -6 C157 -6 178 21 175 60 L175 61 L175 61 Z " />
<glyph glyph-name="equal" unicode="&#x3d;" horiz-adv-x="489" d="M73 204 L73 196 L419 196 L419 204 L73 204 L73 204 Z M73 304 L73 296 L419 296 L419 304 L73 304 L73 304 Z " />
<glyph glyph-name="question" unicode="&#x3f;" horiz-adv-x="309" d="M145 15 C145 41 105 41 105 15 C105 -11 145 -11 145 15 L145 15 Z M119 145 C119 145 121 359 125 360 C202 360 238 400 278 460 C294 484 305 520 305 551 C305 676 241 760 145 760 C134 760 126 754 126 745 C126 739 130 735 137 735 C142 735 148 739 152 739 C240 739 299 663 299 549 C299 524 289 492 273 469 C237 416 204 380 118 380 C116 379 115 145 115 145 L119 145 L119 145 Z " />
<glyph glyph-name="at" unicode="&#x40;" horiz-adv-x="1070" d="M995 0 C928 -145 744 -241 535 -241 C257 -241 71 -41 71 259 C71 559 257 759 535 759 C814 759 1000 593 1000 343 C1000 138 922 2 804 2 C667 2 595 81 625 200 L695 480 L676 480 L649 370 C644 442 601 490 539 490 C391 490 292 374 292 201 C292 91 354 17 446 17 C509 17 568 72 600 158 C595 59 671 -5 800 -5 C929 -5 1015 134 1015 343 C1015 596 823 764 535 764 C247 764 55 562 55 259 C55 -43 249 -244 540 -244 C749 -244 934 -146 1002 0 L995 0 L995 0 Z M645 356 L606 200 C580 97 521 28 457 28 C371 28 314 99 314 205 C314 372 404 484 539 484 C603 484 645 432 645 356 L645 356 Z " />
<glyph glyph-name="A" unicode="A" horiz-adv-x="552" d="M-21 0 L162 0 L162 9 L148 10 C106 13 89 54 103 115 L156 298 L397 298 L444 121 C458 57 441 14 398 11 L384 10 L384 1 L550 1 L550 10 L542 11 C515 14 485 62 466 130 L302 744 C302 744 297 771 295 771 L292 771 C295 756 289 746 278 744 L281 733 L101 117 C79 55 37 14 -8 11 L-22 10 L-21 0 L-21 0 Z M156 299 L282 732 L397 299 L156 299 L156 299 Z " />
<glyph glyph-name="B" unicode="B" horiz-adv-x="494" d="M262 1 L212 1 C171 1 144 41 144 101 L144 385 L285 385 C371 385 429 308 429 193 C429 37 362 1 262 1 L262 1 Z M79 741 L86 740 C107 737 121 710 121 671 L121 79 C121 40 107 13 86 10 L79 9 L79 0 L264 0 C378 0 454 37 454 193 C454 309 388 386 289 386 L268 386 C376 395 447 465 447 568 C447 677 403 750 213 750 L78 750 L79 741 L79 741 Z M242 386 L143 386 L143 749 L211 749 C383 749 423 676 423 566 C423 458 351 386 242 386 L242 386 Z " />
<glyph glyph-name="C" unicode="C" horiz-adv-x="633" d="M585 584 L585 699 L577 699 L573 687 C569 675 537 686 493 714 C451 743 403 760 338 760 C178 760 71 606 71 375 C71 144 174 -10 328 -10 C364 -10 396 -5 426 5 L426 4 C447 12 467 21 486 33 C533 62 569 73 574 59 L578 47 L586 47 L586 165 L574 165 L565 144 C538 84 483 30 426 8 L426 8 C396 -3 364 -9 329 -9 C190 -9 97 145 97 375 C97 605 194 758 339 758 C380 758 414 750 444 736 C492 712 539 661 564 605 L573 583 L585 584 L585 584 Z M582 126 L582 126 L582 126 L582 126 Z " />
<glyph glyph-name="D" unicode="D" horiz-adv-x="688" d="M208 1 C150 1 144 38 144 94 L144 749 L238 749 C482 749 607 599 607 375 C607 128 447 1 208 1 L208 1 Z M79 743 L86 742 C107 740 121 713 121 674 L121 76 C121 37 107 10 86 8 L79 7 L79 0 L210 0 C464 0 633 128 633 375 C633 600 500 750 243 750 L79 750 L79 743 L79 743 Z " />
<glyph glyph-name="E" unicode="E" horiz-adv-x="495" d="M352 478 L348 464 C334 417 287 386 230 386 L144 386 L144 749 L289 749 C346 749 397 718 417 671 L423 657 L432 657 C429 685 424 722 421 750 L59 750 L59 743 L69 742 C100 740 121 705 121 654 L121 96 C121 45 100 10 69 8 L59 7 L59 0 L446 0 C450 25 456 58 460 83 L451 83 L445 70 C424 29 362 1 290 1 L238 1 C153 1 144 38 144 94 L144 385 L230 385 C287 385 334 354 348 307 L352 293 L361 293 L361 478 L352 478 L352 478 Z " />
<glyph glyph-name="F" unicode="F" horiz-adv-x="470" d="M342 478 L338 464 C324 417 277 386 220 386 L144 386 L144 749 L289 749 C346 749 397 718 417 671 L423 657 L432 657 C429 685 424 722 421 750 L59 750 L59 743 L69 742 C100 740 121 705 121 654 L121 96 C121 45 100 10 69 8 L59 7 L59 0 L206 0 L206 7 L196 8 C165 10 144 45 144 96 L144 385 L220 385 C277 385 324 354 338 307 L342 293 L351 293 L351 478 L342 478 L342 478 Z " />
<glyph glyph-name="G" unicode="G" horiz-adv-x="663" d="M585 584 L585 699 L577 699 L573 687 C569 675 537 686 493 714 C451 743 403 760 338 760 C178 760 71 606 71 375 C71 144 175 -10 331 -10 C407 -10 474 1 536 20 C527 18 508 14 498 12 C501 13 503 14 505 15 C458 7 377 -6 335 -6 C192 -6 96 146 96 374 C96 604 193 757 338 757 C379 757 413 749 443 735 C491 711 538 660 563 604 L572 582 L585 584 L585 584 Z M505 14 C528 22 541 33 541 45 L541 23 C529 19 518 16 505 14 L505 14 Z M616 323 L489 323 L489 314 L497 313 C523 310 541 269 541 209 L541 20 C541 20 539 20 535 19 C537 20 539 21 541 22 L541 21 L564 26 L564 30 C591 39 617 50 643 62 L643 63 C618 51 592 40 565 31 L565 210 C565 270 583 311 609 314 L617 315 L616 323 L616 323 Z " />
<glyph glyph-name="H" unicode="H" horiz-adv-x="657" d="M598 7 L591 8 C570 10 556 37 556 76 L556 674 C556 713 570 740 591 742 L598 743 L598 750 L490 750 L490 743 L497 742 C518 740 532 713 532 674 L532 385 L180 385 L180 674 C180 713 194 740 215 742 L222 743 L222 750 L115 750 L115 743 L122 742 C143 740 157 713 157 674 L157 76 C157 37 143 10 122 8 L115 7 L115 0 L222 0 L222 7 L215 8 C194 10 180 37 180 76 L180 383 L532 383 L532 76 C532 37 518 10 497 8 L490 7 L490 0 L598 0 L598 7 L598 7 Z " />
<glyph glyph-name="I" unicode="I" horiz-adv-x="259" d="M200 7 L193 8 C172 10 158 37 158 76 L158 674 C158 713 172 740 193 742 L200 743 L200 750 L93 750 L93 743 L100 742 C121 740 135 713 135 674 L135 76 C135 37 121 10 100 8 L93 7 L93 0 L200 0 L200 7 L200 7 Z " />
<glyph glyph-name="J" unicode="J" horiz-adv-x="259" d="M200 750 L93 750 L93 743 L100 742 C121 740 135 713 135 674 L135 0 C135 -183 68 -218 19 -218 C7 -218 13 -199 1 -199 C-5 -199 -9 -203 -9 -210 C-9 -216 2 -220 18 -220 C77 -220 158 -178 158 44 L158 674 C158 713 172 740 193 742 L200 743 L200 750 L200 750 Z " />
<glyph glyph-name="K" unicode="K" horiz-adv-x="537" d="M186 750 L79 750 L79 743 L86 742 C107 740 121 713 121 674 L121 76 C121 37 107 10 86 8 L79 7 L79 0 L186 0 L186 7 L179 8 C158 10 144 37 144 76 L144 375 L467 0 L531 0 L531 7 C500 11 468 32 431 76 L431 76 L161 391 L372 670 C407 712 449 740 479 742 L489 743 L489 750 L312 750 L312 743 L328 742 C380 740 381 693 330 624 C274 548 216 471 159 395 L145 376 L145 675 C145 714 159 741 180 743 L187 744 L186 750 L186 750 Z " />
<glyph glyph-name="L" unicode="L" horiz-adv-x="481" d="M200 750 L93 750 L93 743 L100 742 C121 740 135 713 135 674 L135 76 C135 37 121 10 100 8 L93 7 L93 0 L450 0 L450 2 C454 27 460 61 464 86 L455 86 L449 73 C428 32 366 4 294 4 L252 4 C167 4 158 40 158 94 L158 674 C158 713 172 740 193 742 L200 743 L200 750 L200 750 Z " />
<glyph glyph-name="M" unicode="M" horiz-adv-x="701" d="M667 750 L603 750 L373 31 L122 750 L55 750 L55 743 C80 739 97 726 113 692 L96 76 C95 37 80 10 59 8 L53 7 L53 0 L145 0 L145 7 L138 8 C117 10 104 37 105 76 L119 679 C119 678 120 674 121 674 C202 449 283 225 363 0 L369 0 L370 5 L604 727 L620 76 C621 37 608 10 587 8 L580 7 L580 0 L687 0 L687 7 L681 8 C660 10 645 37 644 76 L627 680 C627 716 640 740 660 742 L667 743 L667 750 L667 750 Z " />
<glyph glyph-name="N" unicode="N" horiz-adv-x="621" d="M45 743 C65 740 80 733 100 711 L100 76 C100 37 86 10 65 8 L58 7 L58 0 L149 0 L149 7 L142 8 C121 10 107 37 107 76 L106 704 C111 698 115 692 119 685 C250 457 383 230 512 0 L517 0 L519 674 C519 713 533 741 554 743 L561 744 L561 751 L469 751 L469 744 L476 743 C497 741 511 714 511 675 L512 48 L111 751 L44 751 L45 743 L45 743 Z M512 48 L512 48 L512 48 Z " />
<glyph glyph-name="O" unicode="O" horiz-adv-x="725" d="M96 375 C96 605 204 758 365 758 C532 758 644 605 644 375 C644 145 529 -8 356 -8 C200 -8 96 145 96 375 L96 375 Z M71 375 C71 144 185 -10 356 -10 C544 -10 670 144 670 375 C670 606 548 760 366 760 C189 760 71 606 71 375 L71 375 Z " />
<glyph glyph-name="P" unicode="P" horiz-adv-x="437" d="M192 7 L185 8 C164 10 150 37 150 76 L150 360 L191 360 C327 360 417 416 417 542 C417 667 343 750 233 750 L85 750 L85 743 L92 742 C113 740 127 713 127 674 L127 76 C127 37 113 10 92 8 L85 7 L85 0 L192 0 L192 7 L192 7 Z M150 365 L150 746 L227 746 C328 746 395 666 395 546 C395 421 313 365 191 365 L150 365 L150 365 Z " />
<glyph glyph-name="Q" unicode="Q" horiz-adv-x="720" d="M977 -54 L977 -53 C948 -78 846 -94 722 -94 C560 -94 407 -61 337 -10 C343 -10 349 -10 355 -10 C543 -10 669 144 669 375 C669 606 547 760 365 760 C188 760 70 606 70 375 C70 161 168 13 319 -7 C400 -68 559 -109 717 -109 C832 -109 936 -87 975 -54 L977 -54 L977 -54 Z M330 -8 C187 6 94 156 94 375 C94 605 202 758 363 758 C530 758 642 605 642 375 C642 145 526 -9 352 -9 C345 -9 336 -8 330 -8 L330 -8 Z " />
<glyph glyph-name="R" unicode="R" horiz-adv-x="524" d="M79 743 L86 742 C107 740 121 713 121 674 L121 76 C121 37 107 10 86 8 L79 7 L79 0 L186 0 L186 7 L179 8 C158 10 144 37 144 76 L144 374 L279 374 C286 350 329 232 390 72 C416 3 421 0 515 0 L515 3 C447 3 443 6 418 72 C357 233 313 348 303 375 C391 382 448 435 448 542 C448 667 381 750 281 750 L80 750 L79 743 L79 743 Z M145 380 L145 745 L274 745 C363 745 422 665 422 546 C422 431 366 380 281 380 L145 380 L145 380 Z " />
<glyph glyph-name="S" unicode="S" horiz-adv-x="506" d="M59 151 L59 151 L59 151 L59 151 Z M55 189 L55 45 L63 45 L67 61 C71 77 104 68 149 37 C166 25 184 15 202 8 C203 7 213 2 214 3 C239 -6 265 -11 291 -11 C397 -11 467 61 467 170 C467 252 410 334 298 386 C167 447 99 526 99 596 C99 708 161 772 261 754 C319 742 374 691 400 624 L409 600 L421 600 L421 708 L413 708 L409 700 C406 694 379 705 341 726 C316 741 284 754 253 758 L253 756 C146 770 78 700 78 586 C78 508 147 424 282 361 C391 310 447 235 447 162 C447 59 384 -10 289 -10 C264 -10 239 -5 215 4 C158 25 102 88 76 161 L67 187 L55 189 L55 189 Z " />
<glyph glyph-name="T" unicode="T" horiz-adv-x="740" d="M317 0 L424 0 L424 7 L417 8 C396 10 382 37 382 76 L382 744 L546 744 C607 744 667 716 698 675 L707 662 L716 662 C705 687 692 719 682 744 L686 744 L686 750 L683 750 C683 751 683 752 683 753 L676 753 C654 749 604 751 536 751 L203 751 C134 751 85 749 63 753 L56 753 C55 751 54 749 54 748 L55 748 C45 723 31 689 20 663 L29 663 L38 676 C68 717 128 745 188 745 L360 745 L360 77 C360 38 346 11 325 9 L318 8 L317 0 L317 0 Z " />
<glyph glyph-name="U" unicode="U" horiz-adv-x="515" d="M486 21 L479 20 C458 17 444 40 444 79 L444 750 L378 750 L378 743 L385 742 C406 740 420 713 420 674 L420 157 C377 66 283 5 183 5 C139 5 109 88 109 213 L109 750 L44 750 L44 743 L51 742 C72 740 86 713 86 674 L86 213 C86 79 121 -10 173 -10 C277 -10 376 53 420 147 L420 0 L432 0 L444 3 C458 7 474 11 486 14 L486 21 L486 21 Z " />
<glyph glyph-name="V" unicode="V" horiz-adv-x="617" d="M569 750 L410 750 L410 741 L426 740 C478 737 497 690 475 621 L284 34 L111 633 C96 695 113 737 155 740 L169 741 L169 750 L21 750 L21 741 L26 740 C43 737 67 689 87 621 C148 411 208 200 269 -10 L274 -10 L488 638 C510 697 538 736 561 739 L568 740 L569 750 L569 750 Z " />
<glyph glyph-name="W" unicode="W" horiz-adv-x="868" d="M143 750 L21 750 L21 741 L26 740 C42 737 61 700 76 646 C132 427 187 207 244 -11 L250 -11 L467 487 C506 321 545 155 584 -11 L590 -11 L776 644 C792 699 820 736 846 739 L854 740 L854 749 L693 749 L693 740 L708 739 C755 736 778 702 768 651 L595 32 L454 644 C443 699 463 736 504 739 L517 740 L517 749 L370 749 L370 740 L375 739 C393 736 412 705 425 658 L463 498 L259 26 L102 639 C87 696 99 735 131 738 L141 739 L143 750 L143 750 Z " />
<glyph glyph-name="X" unicode="X" horiz-adv-x="626" d="M171 7 L159 8 C124 10 114 35 133 72 L308 366 L465 81 L464 81 C487 39 484 10 456 8 L447 7 L447 0 L559 0 L559 7 C541 11 524 27 502 64 L323 391 L489 669 C514 710 549 740 576 742 L584 743 L584 750 L444 750 L444 743 L456 742 C491 740 502 715 484 678 L321 393 L169 669 L170 669 C147 711 150 740 178 742 L187 743 L187 750 L75 750 L75 743 C93 739 110 723 132 686 L305 372 L128 81 C103 39 67 10 40 8 L32 7 L32 0 L171 0 L171 7 L171 7 Z " />
<glyph glyph-name="Y" unicode="Y" horiz-adv-x="541" d="M145 750 L33 750 L33 743 C51 739 66 724 86 689 L267 336 L267 96 C267 45 246 10 215 8 L205 7 L205 0 L353 0 L353 7 L343 8 C312 10 291 45 291 96 L291 339 L454 669 C475 711 507 740 534 742 L542 743 L542 750 L408 750 L408 743 L420 742 C459 740 469 710 450 669 L290 341 L119 677 C102 715 108 741 134 743 L143 744 L145 750 L145 750 Z " />
<glyph glyph-name="Z" unicode="Z" horiz-adv-x="596" d="M71 661 L76 674 C93 713 145 740 210 744 L551 745 L26 5 L26 0 L573 0 L575 7 L573 7 C575 17 582 47 592 89 L583 89 L576 76 C554 37 499 10 434 6 L54 5 L577 745 L577 750 L71 750 L70 743 L71 743 C70 733 67 703 63 661 L71 661 L71 661 Z " />
<glyph glyph-name="bracketleft" unicode="&#x5b;" horiz-adv-x="277" d="M117 744 L327 744 L327 750 L110 750 L110 -195 L327 -195 L327 -189 L117 -189 L117 744 L117 744 Z " />
<glyph glyph-name="backslash" unicode="&#x5c;" horiz-adv-x="328" d="M46 770 L306 -80 L318 -80 L58 770 L46 770 L46 770 Z " />
<glyph glyph-name="bracketright" unicode="&#x5d;" horiz-adv-x="280" d="M163 744 L163 -189 L-47 -189 L-47 -195 L170 -195 L170 750 L-47 750 L-47 744 L163 744 L163 744 Z " />
<glyph glyph-name="asciicircum" unicode="&#x5e;" horiz-adv-x="297" d="M156 774 C153 782 146 782 143 774 L3 561 L6 559 L150 758 L294 559 L296 561 L156 774 L156 774 Z " />
<glyph glyph-name="underscore" unicode="&#x5f;" horiz-adv-x="378" d="M5 -50 L5 -61 L373 -61 L373 -50 L5 -50 L5 -50 Z " />
<glyph glyph-name="grave" unicode="&#x60;" horiz-adv-x="297" d="M-60 762 C-60 759 -30 731 16 690 L153 564 L155 567 L25 699 C-17 743 -47 772 -50 772 C-55 772 -60 767 -60 762 L-60 762 Z " />
<glyph glyph-name="a" unicode="a" horiz-adv-x="477" d="M487 57 L482 59 C477 29 454 9 425 9 C390 9 366 31 366 64 L366 361 C366 464 318 510 246 510 C147 510 81 414 81 360 C81 352 85 346 91 346 C106 346 116 352 116 356 C116 361 96 370 96 373 C96 422 155 508 244 508 C305 508 346 465 346 368 L346 266 C154 156 61 99 61 74 C61 24 103 -10 165 -10 C211 -10 271 18 346 92 L346 64 C346 23 374 -5 417 -5 C452 -5 480 20 487 57 L487 57 Z M346 265 L346 93 C278 27 221 1 176 1 C119 1 81 31 81 76 C81 108 168 163 346 265 L346 265 Z " />
<glyph glyph-name="b" unicode="b" horiz-adv-x="401" d="M32 664 L32 125 L28 125 C29 121 30 117 31 113 L31 0 L32 0 L40 75 L49 75 C81 23 133 -10 190 -10 C288 -10 354 94 354 251 C354 403 280 505 170 505 C127 505 79 466 50 407 L50 750 L40 750 C30 747 18 744 8 741 L8 736 C23 729 30 705 30 664 L32 664 L32 664 Z M50 110 L50 404 C78 461 124 499 164 499 C265 499 332 399 332 248 C332 95 276 -7 191 -7 C132 -7 77 39 50 110 L50 110 Z " />
<glyph glyph-name="c" unicode="c" horiz-adv-x="391" d="M361 128 L360 128 C324 48 260 -5 200 -5 C118 -5 64 99 64 254 C64 407 123 509 212 509 C267 509 318 467 341 405 C343 399 347 395 351 395 C359 395 363 399 361 405 C338 468 278 510 212 510 C112 510 45 403 45 242 C45 91 106 -10 197 -10 C259 -10 324 45 361 128 L361 128 Z " />
<glyph glyph-name="d" unicode="d" horiz-adv-x="506" d="M492 20 L485 19 C464 15 450 38 450 77 L450 750 L440 750 L430 747 L430 745 C423 743 415 741 408 739 L408 734 C423 727 430 703 430 662 L430 391 C405 457 349 511 291 511 C129 511 45 409 45 257 C45 100 133 -4 266 -4 C328 -4 393 29 429 79 L429 0 L439 0 L491 13 L492 20 L492 20 Z M429 375 L429 80 C396 34 335 4 275 4 C149 4 65 107 65 262 C65 408 143 505 294 505 C352 505 409 446 430 376 L429 375 L429 375 Z " />
<glyph glyph-name="e" unicode="e" horiz-adv-x="475" d="M74 340 L445 340 C423 462 355 510 265 510 C133 510 45 434 45 238 C45 89 125 -10 245 -10 C326 -10 401 48 433 135 L432 135 C401 51 327 -5 247 -5 C138 -5 66 95 66 246 C66 281 69 312 74 340 L74 340 Z M423 342 L75 341 C98 460 169 509 266 509 C343 509 403 463 424 342 L423 342 L423 342 Z " />
<glyph glyph-name="f" unicode="f" horiz-adv-x="248" d="M135 7 C121 10 113 19 113 41 L113 489 L238 489 L238 500 L113 500 C113 649 149 749 218 749 C245 749 270 635 292 635 C319 635 337 653 337 680 C337 725 292 755 225 755 C138 755 93 653 93 500 L-17 491 L-17 489 L93 489 L93 41 C93 19 85 10 71 7 L71 0 L135 0 L135 7 L135 7 Z " />
<glyph glyph-name="g" unicode="g" horiz-adv-x="486" d="M490 454 C442 454 407 434 394 402 C376 468 321 510 246 510 C153 510 91 446 91 350 C91 259 146 196 230 189 C130 186 64 155 64 110 C64 65 106 35 169 32 C102 15 58 -33 58 -91 C58 -174 136 -230 254 -230 C372 -230 450 -173 450 -88 C450 -4 403 52 282 52 L178 52 C116 52 75 77 75 115 C75 159 143 188 245 188 C338 188 400 253 400 350 C400 367 398 383 394 398 C406 425 437 442 478 442 C483 442 489 434 494 434 C507 434 502 455 488 455 L490 454 L490 454 Z M168 33 C171 33 174 33 177 33 L280 33 C390 33 433 -17 433 -92 C433 -174 361 -228 254 -228 C146 -228 74 -171 74 -85 C74 -29 112 17 170 32 L168 33 L168 33 Z M246 189 C165 189 111 253 111 350 C111 445 165 509 246 509 C327 509 381 445 381 350 C381 253 327 189 246 189 L246 189 Z " />
<glyph glyph-name="h" unicode="h" horiz-adv-x="365" d="M57 664 L57 41 C57 19 49 10 35 7 L35 0 L99 0 L99 7 C85 10 77 19 77 41 L77 367 C105 444 157 496 208 496 C265 496 294 456 294 395 L294 41 C294 19 286 10 272 7 L272 0 L336 0 L336 7 C322 10 314 19 314 41 L314 395 C314 464 282 510 219 510 C164 510 107 454 77 369 L77 750 L67 750 C57 747 45 744 35 741 L35 736 C50 729 57 705 57 664 L57 664 Z " />
<glyph glyph-name="i" unicode="i" horiz-adv-x="138" d="M97 635 C97 661 57 661 57 635 C57 609 97 609 97 635 L97 635 Z M67 414 L67 41 C67 19 59 10 45 7 L45 0 L109 0 L109 7 C95 10 87 19 87 41 L87 500 L77 500 C67 497 55 494 45 491 L45 486 C60 479 67 455 67 414 L67 414 Z " />
<glyph glyph-name="j" unicode="j" horiz-adv-x="162" d="M82 635 C82 661 42 661 42 635 C42 609 82 609 82 635 L82 635 Z M52 414 L52 12 C52 -59 37 -115 15 -128 C-20 -128 -68 -100 -103 -100 C-130 -100 -148 -116 -148 -140 C-148 -169 -124 -187 -88 -185 C-81 -185 -39 -163 17 -130 C50 -111 72 -54 72 12 L72 500 L62 500 C52 497 40 494 30 491 L30 486 C45 479 52 455 52 414 L52 414 Z " />
<glyph glyph-name="k" unicode="k" horiz-adv-x="280" d="M301 500 L130 500 L130 493 L149 492 C211 490 214 443 156 374 L77 280 L77 750 L67 750 C57 747 45 744 35 741 L35 736 C50 729 57 705 57 664 L57 41 C57 19 49 10 35 7 L35 0 L99 0 L99 7 C85 10 77 19 77 41 L77 280 L208 66 C226 34 237 10 229 8 L226 7 L226 0 L275 0 L275 7 L274 8 C269 10 250 38 226 76 L91 293 L196 418 C238 466 270 489 300 493 L301 500 L301 500 Z " />
<glyph glyph-name="l" unicode="l" horiz-adv-x="128" d="M57 664 L57 41 C57 19 49 10 35 7 L35 0 L99 0 L99 7 C85 10 77 19 77 41 L77 750 L67 750 C57 747 45 744 35 741 L35 736 C50 729 57 705 57 664 L57 664 Z " />
<glyph glyph-name="m" unicode="m" horiz-adv-x="630" d="M57 414 L57 41 C57 19 49 10 35 7 L35 0 L99 0 L99 7 C85 10 77 19 77 41 L77 372 C103 446 155 495 207 495 C280 495 308 455 308 395 L308 41 C308 19 300 10 286 7 L286 0 L350 0 L350 7 C336 10 328 19 328 41 L328 376 C354 447 406 495 457 495 C530 495 558 455 558 395 L558 41 C558 19 550 10 536 7 L536 0 L600 0 L600 7 C586 10 578 19 578 41 L578 395 C578 464 546 510 465 510 C412 510 357 457 328 377 L328 395 C328 464 296 510 215 510 C161 510 106 456 77 374 L77 500 L67 500 C57 497 45 494 35 491 L35 486 C50 479 57 455 57 414 L57 414 Z " />
<glyph glyph-name="n" unicode="n" horiz-adv-x="379" d="M57 414 L57 41 C57 19 49 10 35 7 L35 0 L99 0 L99 7 C85 10 77 19 77 41 L77 372 C105 449 157 500 209 500 C274 500 308 437 308 342 L308 41 C308 19 300 10 286 7 L286 0 L350 0 L350 7 C336 10 328 19 328 41 L328 342 C328 443 290 510 215 510 C161 510 106 456 77 375 L77 500 L67 500 C57 497 45 494 35 491 L35 486 C50 479 57 455 57 414 L57 414 Z " />
<glyph glyph-name="o" unicode="o" horiz-adv-x="561" d="M67 250 C67 405 153 508 281 508 C409 508 494 405 494 250 C494 95 409 -8 281 -8 C153 -8 67 95 67 250 L67 250 Z M45 250 C45 94 139 -10 281 -10 C422 -10 516 94 516 250 C516 406 422 510 281 510 C139 510 45 406 45 250 L45 250 Z " />
<glyph glyph-name="p" unicode="p" horiz-adv-x="415" d="M42 414 L42 -179 C42 -201 34 -210 20 -213 L20 -220 L84 -220 L84 -213 C70 -210 62 -201 62 -179 L62 82 C88 29 125 -4 162 -4 C287 -4 370 114 370 253 C370 408 296 511 185 511 C140 511 91 479 62 430 L62 502 L52 502 C42 499 30 496 20 493 L20 488 C35 481 42 457 42 416 L42 414 L42 414 Z M62 132 L62 422 C91 471 137 503 176 503 C279 503 348 400 348 246 C348 114 274 1 163 1 C126 1 86 53 62 131 L62 132 L62 132 Z " />
<glyph glyph-name="q" unicode="q" horiz-adv-x="484" d="M480 -213 C466 -210 458 -201 458 -179 L458 500 L457 500 L450 440 L438 428 L438 419 C404 475 342 510 272 510 C120 510 42 408 42 256 C42 99 134 -5 273 -5 C301 -5 367 26 438 73 L438 -180 C438 -202 430 -211 416 -214 L416 -221 L480 -221 L480 -213 L480 -213 Z M438 388 L438 79 C368 33 305 2 281 2 C150 2 62 105 62 260 C62 406 133 504 271 504 C345 504 410 458 438 388 L438 388 Z " />
<glyph glyph-name="r" unicode="r" horiz-adv-x="230" d="M58 414 L58 41 C58 19 50 10 36 7 L36 0 L100 0 L100 7 C86 10 78 19 78 41 L78 385 C86 455 129 501 189 501 C193 501 196 487 196 466 C196 450 220 450 220 466 C220 492 211 510 198 510 C133 510 86 461 77 387 L77 500 L67 500 C57 497 45 494 35 491 L35 486 C50 479 57 455 57 414 L58 414 L58 414 Z " />
<glyph glyph-name="s" unicode="s" horiz-adv-x="382" d="M207 503 L207 502 C250 490 282 451 293 405 L297 391 L303 391 L303 465 L297 465 L294 462 C300 469 273 483 224 498 C208 506 191 511 174 512 L174 510 C109 513 66 466 66 396 C66 335 114 276 208 242 C279 216 316 165 316 108 C316 38 274 -9 212 -9 C209 -9 182 -7 183 -5 C129 8 84 56 70 114 L66 128 L60 128 L60 44 L66 44 L69 49 C67 45 99 27 150 4 C161 -1 171 -6 182 -9 L182 -8 C269 -27 331 30 331 112 C331 173 292 228 216 256 C126 289 79 344 79 401 C79 480 134 526 206 501 L207 503 L207 503 Z " />
<glyph glyph-name="t" unicode="t" horiz-adv-x="285" d="M248 500 L111 500 L111 620 L109 620 L26 500 L26 490 L91 490 L91 103 C91 22 128 -10 183 -10 C207 -10 244 12 275 45 L273 46 C247 18 213 -1 189 -1 C142 -1 110 27 110 98 L111 489 L248 489 L248 500 L248 500 Z " />
<glyph glyph-name="u" unicode="u" horiz-adv-x="356" d="M342 18 L337 18 C321 16 310 40 310 79 L310 500 L268 500 L268 493 C282 490 290 481 290 459 L290 126 C259 53 209 5 162 5 C109 5 73 65 73 156 L73 501 L31 501 L31 494 C45 491 53 482 53 460 L53 156 C53 57 93 -9 153 -9 C203 -9 256 44 290 125 L290 0 L300 0 C313 4 329 8 342 11 L342 18 L342 18 Z " />
<glyph glyph-name="v" unicode="v" horiz-adv-x="328" d="M307 500 L257 500 L257 493 L260 492 C269 490 267 459 256 418 L137 -11 L143 -11 L265 418 C277 460 292 489 304 491 L307 492 L307 500 L307 500 Z M70 499 L7 499 L7 492 C20 488 30 473 40 437 L137 -11 L149 33 L66 418 C58 459 57 490 67 492 L70 493 L70 499 L70 499 Z " />
<glyph glyph-name="w" unicode="w" horiz-adv-x="500" d="M485 500 L435 500 L435 493 L438 492 C447 490 446 464 436 426 L319 35 L240 428 C234 465 236 490 245 492 L248 493 L248 500 L183 500 L183 493 L186 492 C197 490 211 461 219 419 C222 419 232 356 233 350 L139 -10 L144 -10 L237 334 L306 -10 L312 -10 L447 434 C460 472 472 489 486 494 L485 500 L485 500 Z M86 501 L22 501 L22 494 L25 493 C36 491 48 461 57 420 L139 -9 L152 41 L79 420 L80 420 C72 462 73 491 83 493 L86 494 L86 501 L86 501 Z " />
<glyph glyph-name="x" unicode="x" horiz-adv-x="346" d="M267 0 L331 0 L331 7 C316 11 302 27 282 63 L186 256 L266 432 C285 471 300 489 314 494 L314 501 L265 501 L265 494 L268 493 C276 491 271 467 257 431 L183 261 L104 420 L105 420 C84 462 75 491 83 493 L86 494 L86 501 L22 501 L22 494 C37 490 51 474 71 438 L171 238 C140 186 109 134 78 82 C51 36 29 13 13 8 L13 1 L61 1 L61 8 L58 9 C50 11 63 41 86 82 L174 234 L250 82 L250 82 C271 40 280 11 272 9 L269 8 L267 0 L267 0 Z " />
<glyph glyph-name="y" unicode="y" horiz-adv-x="365" d="M85 500 L22 500 L22 493 L25 492 C37 490 50 461 59 420 L147 -1 C128 -56 110 -112 91 -167 C86 -183 72 -194 64 -194 C42 -194 37 -184 15 -184 C-7 -184 -22 -199 -22 -221 C-22 -244 -6 -260 19 -260 C36 -260 77 -224 96 -169 L151 -10 C199 133 247 276 295 419 C310 460 327 490 339 492 L342 493 L342 500 L292 500 L292 493 L295 492 C304 490 301 461 287 419 C287 419 172 70 161 39 L77 433 C71 467 73 490 82 492 L85 493 L85 500 L85 500 Z " />
<glyph glyph-name="z" unicode="z" horiz-adv-x="441" d="M60 493 C60 492 60 491 60 490 C60 491 60 492 60 493 L60 493 Z M46 439 L56 439 L63 447 C85 473 134 491 189 493 L376 494 L39 4 L39 -1 L395 -1 L395 2 L397 2 C397 2 399 25 403 60 L393 60 L387 52 C369 26 323 8 269 6 L64 5 L400 495 L400 500 L62 500 L62 497 L60 497 C58 497 49 456 45 439 L46 439 L46 439 Z " />
<glyph glyph-name="bar" unicode="&#x7c;" horiz-adv-x="136" d="M60 800 L60 -250 L76 -250 L76 800 L60 800 L60 800 Z " />
<glyph glyph-name="asciitilde" unicode="&#x7e;" horiz-adv-x="297" d="M29 310 C29 353 45 381 69 381 C115 381 177 316 223 316 C251 316 269 346 269 391 L268 391 C268 355 252 331 227 331 C181 331 119 396 73 396 C46 396 28 362 28 310 L29 310 L29 310 Z " />
<glyph glyph-name="exclamdown" unicode="&#xa1;" horiz-adv-x="164" d="M62 485 C62 459 102 459 102 485 C102 511 62 511 62 485 L62 485 Z M82 -255 C91 -255 95 -228 94 -188 C94 -188 84 147 84 290 L80 290 C80 147 70 -188 70 -188 C69 -228 73 -255 82 -255 L82 -255 Z " />
<glyph glyph-name="cent" unicode="&#xa2;" horiz-adv-x="391" d="M190 575 L190 508 C102 493 45 390 45 241 C45 94 103 -6 190 -11 L190 -76 L204 -76 L204 -11 C264 -7 326 47 362 127 L361 127 C326 49 264 -3 205 -5 L205 509 C266 513 318 469 342 405 C344 399 348 395 352 395 C360 395 364 399 362 405 C339 469 277 514 206 510 L206 575 L190 575 L190 575 Z M192 -4 C116 4 66 106 66 255 C66 395 115 492 192 508 L192 -4 L192 -4 Z " />
<glyph glyph-name="acute" unicode="&#xb4;" horiz-adv-x="297" d="M154 564 L291 690 C337 733 367 762 367 762 C367 767 362 772 357 772 C356 772 326 743 282 699 L152 567 L154 564 L154 564 Z " />
<glyph glyph-name="questiondown" unicode="&#xbf;" horiz-adv-x="309" d="M164 485 C164 459 204 459 204 485 C204 511 164 511 164 485 L164 485 Z M190 355 C190 355 188 141 184 140 C107 140 71 100 31 40 C15 16 4 -20 4 -51 C4 -176 68 -260 164 -260 C175 -260 183 -254 183 -245 C183 -239 179 -235 172 -235 C167 -235 161 -239 157 -239 C69 -239 10 -163 10 -49 C10 -24 20 8 36 31 C72 84 105 120 191 120 C193 121 194 355 194 355 L190 355 L190 355 Z " />
<glyph glyph-name="Agrave" unicode="&#xc0;" horiz-adv-x="552" d="M-21 0 L162 0 L162 9 L148 10 C106 13 89 54 103 115 L156 298 L397 298 L444 121 C458 57 441 14 398 11 L384 10 L384 1 L550 1 L550 10 L542 11 C515 14 485 62 466 130 L302 744 C302 744 297 771 295 771 L292 771 C295 756 289 746 278 744 L281 733 L101 117 C79 55 37 14 -8 11 L-22 10 L-21 0 L-21 0 Z M83 1013 C83 1010 113 982 158 941 L294 815 L297 818 L167 950 C125 994 96 1023 93 1023 C88 1023 83 1018 83 1013 L83 1013 Z M156 299 L282 732 L397 299 L156 299 L156 299 Z " />
<glyph glyph-name="Aacute" unicode="&#xc1;" horiz-adv-x="552" d="M297 814 L433 940 C478 983 508 1011 508 1012 C508 1017 503 1022 498 1022 C498 1022 468 993 424 949 L294 817 L297 814 L297 814 Z M-21 0 L162 0 L162 9 L148 10 C106 13 89 54 103 115 L156 298 L397 298 L444 121 C458 57 441 14 398 11 L384 10 L384 1 L550 1 L550 10 L542 11 C515 14 485 62 466 130 L302 744 C302 744 297 771 295 771 L292 771 C295 756 289 746 278 744 L281 733 L101 117 C79 55 37 14 -8 11 L-22 10 L-21 0 L-21 0 Z M156 299 L282 732 L397 299 L156 299 L156 299 Z " />
<glyph glyph-name="Acircumflex" unicode="&#xc2;" horiz-adv-x="552" d="M-21 0 L162 0 L162 9 L148 10 C106 13 89 54 103 115 L156 298 L397 298 L444 121 C458 57 441 14 398 11 L384 10 L384 1 L550 1 L550 10 L542 11 C515 14 485 62 466 130 L302 744 C302 744 297 771 295 771 L292 771 C295 756 289 746 278 744 L281 733 L101 117 C79 55 37 14 -8 11 L-22 10 L-21 0 L-21 0 Z M297 1025 C294 1033 287 1033 284 1025 L144 812 L147 810 L291 1009 L435 810 L438 812 L297 1025 L297 1025 Z M157 299 L283 732 L398 299 L157 299 L157 299 Z " />
<glyph glyph-name="Atilde" unicode="&#xc3;" horiz-adv-x="552" d="M171 870 C171 913 187 941 211 941 C257 941 319 876 365 876 C393 876 412 906 412 951 L411 951 C411 915 394 891 369 891 C323 891 262 956 216 956 C188 956 170 922 170 870 L171 870 L171 870 Z M-21 0 L162 0 L162 9 L148 10 C106 13 89 54 103 115 L156 298 L397 298 L444 121 C458 57 441 14 398 11 L384 10 L384 1 L550 1 L550 10 L542 11 C515 14 485 62 466 130 L302 744 C302 744 297 771 295 771 L292 771 C295 756 289 746 278 744 L281 733 L101 117 C79 55 37 14 -8 11 L-22 10 L-21 0 L-21 0 Z M156 299 L282 732 L397 299 L156 299 L156 299 Z " />
<glyph glyph-name="Adieresis" unicode="&#xc4;" horiz-adv-x="552" d="M374 885 C374 911 334 911 334 885 C334 859 374 859 374 885 L374 885 Z M248 885 C248 911 208 911 208 885 C208 859 248 859 248 885 L248 885 Z M-21 0 L162 0 L162 9 L148 10 C106 13 89 54 103 115 L156 298 L397 298 L444 121 C458 57 441 14 398 11 L384 10 L384 1 L550 1 L550 10 L542 11 C515 14 485 62 466 130 L302 744 C302 744 297 771 295 771 L292 771 C295 756 289 746 278 744 L281 733 L101 117 C79 55 37 14 -8 11 L-22 10 L-21 0 L-21 0 Z M156 299 L282 732 L397 299 L156 299 L156 299 Z " />
<glyph glyph-name="Aring" unicode="&#xc5;" horiz-adv-x="552" d="M202 905 C202 959 238 995 291 995 C344 995 380 959 380 905 C380 856 339 815 291 815 C243 815 202 856 202 905 L202 905 Z M196 905 C196 854 240 810 291 810 C342 810 386 854 386 905 C386 962 348 1000 291 1000 C234 1000 196 962 196 905 L196 905 Z M-21 0 L162 0 L162 9 L148 10 C106 13 89 54 103 115 L156 298 L397 298 L444 121 C458 57 441 14 398 11 L384 10 L384 1 L550 1 L550 10 L542 11 C515 14 485 62 466 130 L302 744 C302 744 297 771 295 771 L292 771 C295 756 289 746 278 744 L281 733 L101 117 C79 55 37 14 -8 11 L-22 10 L-21 0 L-21 0 Z M156 299 L282 732 L397 299 L156 299 L156 299 Z " />
<glyph glyph-name="Egrave" unicode="&#xc8;" horiz-adv-x="495" d="M63 1012 C63 1009 93 981 139 940 L276 814 L278 817 L148 949 C106 993 76 1022 73 1022 C68 1022 63 1017 63 1012 L63 1012 Z M352 478 L348 464 C334 417 287 386 230 386 L144 386 L144 749 L289 749 C346 749 397 718 417 671 L423 657 L432 657 C429 685 424 722 421 750 L59 750 L59 743 L69 742 C100 740 121 705 121 654 L121 96 C121 45 100 10 69 8 L59 7 L59 0 L446 0 C450 25 456 58 460 83 L451 83 L445 70 C424 29 362 1 290 1 L238 1 C153 1 144 38 144 94 L144 385 L230 385 C287 385 334 354 348 307 L352 293 L361 293 L361 478 L352 478 L352 478 Z " />
<glyph glyph-name="Eacute" unicode="&#xc9;" horiz-adv-x="495" d="M277 814 L414 940 C460 983 490 1012 490 1012 C490 1017 485 1022 480 1022 C479 1022 449 993 405 949 L275 817 L277 814 L277 814 Z M352 478 L348 464 C334 417 287 386 230 386 L144 386 L144 749 L289 749 C346 749 397 718 417 671 L423 657 L432 657 C429 685 424 722 421 750 L59 750 L59 743 L69 742 C100 740 121 705 121 654 L121 96 C121 45 100 10 69 8 L59 7 L59 0 L446 0 C450 25 456 58 460 83 L451 83 L445 70 C424 29 362 1 290 1 L238 1 C153 1 144 38 144 94 L144 385 L230 385 C287 385 334 354 348 307 L352 293 L361 293 L361 478 L352 478 L352 478 Z " />
<glyph glyph-name="Ecircumflex" unicode="&#xca;" horiz-adv-x="495" d="M279 1024 C276 1033 267 1032 264 1024 L125 811 L128 809 L272 1007 L415 809 L418 811 L279 1024 L279 1024 Z M352 478 L348 464 C334 417 287 386 230 386 L144 386 L144 749 L289 749 C346 749 397 718 417 671 L423 657 L432 657 C429 685 424 722 421 750 L59 750 L59 743 L69 742 C100 740 121 705 121 654 L121 96 C121 45 100 10 69 8 L59 7 L59 0 L446 0 C450 25 456 58 460 83 L451 83 L445 70 C424 29 362 1 290 1 L238 1 C153 1 144 38 144 94 L144 385 L230 385 C287 385 334 354 348 307 L352 293 L361 293 L361 478 L352 478 L352 478 Z " />
<glyph glyph-name="Edieresis" unicode="&#xcb;" horiz-adv-x="495" d="M354 885 C354 911 314 911 314 885 C314 859 354 859 354 885 L354 885 Z M229 885 C229 911 189 911 189 885 C189 859 229 859 229 885 L229 885 Z M352 478 L348 464 C334 417 287 386 230 386 L144 386 L144 749 L289 749 C346 749 397 718 417 671 L423 657 L432 657 C429 685 424 722 421 750 L59 750 L59 743 L69 742 C100 740 121 705 121 654 L121 96 C121 45 100 10 69 8 L59 7 L59 0 L446 0 C450 25 456 58 460 83 L451 83 L445 70 C424 29 362 1 290 1 L238 1 C153 1 144 38 144 94 L144 385 L230 385 C287 385 334 354 348 307 L352 293 L361 293 L361 478 L352 478 L352 478 Z " />
<glyph glyph-name="Igrave" unicode="&#xcc;" horiz-adv-x="259" d="M-60 1012 C-60 1009 -30 981 15 940 L151 814 L154 817 L24 949 C-18 993 -47 1022 -50 1022 C-55 1022 -60 1017 -60 1012 L-60 1012 Z M200 7 L193 8 C172 10 158 37 158 76 L158 674 C158 713 172 740 193 742 L200 743 L200 750 L93 750 L93 743 L100 742 C121 740 135 713 135 674 L135 76 C135 37 121 10 100 8 L93 7 L93 0 L200 0 L200 7 L200 7 Z " />
<glyph glyph-name="Iacute" unicode="&#xcd;" horiz-adv-x="259" d="M153 814 L289 940 C334 983 364 1011 364 1012 C364 1017 359 1022 354 1022 C354 1022 324 993 280 949 L150 817 L153 814 L153 814 Z M200 7 L193 8 C172 10 158 37 158 76 L158 674 C158 713 172 740 193 742 L200 743 L200 750 L93 750 L93 743 L100 742 C121 740 135 713 135 674 L135 76 C135 37 121 10 100 8 L93 7 L93 0 L200 0 L200 7 L200 7 Z " />
<glyph glyph-name="Icircumflex" unicode="&#xce;" horiz-adv-x="259" d="M154 1024 C151 1032 144 1032 141 1024 L1 811 L4 809 L148 1008 L292 809 L295 811 L154 1024 L154 1024 Z M201 7 L194 8 C173 10 159 37 159 76 L159 674 C159 713 173 740 194 742 L201 743 L201 750 L94 750 L94 743 L101 742 C122 740 136 713 136 674 L136 76 C136 37 122 10 101 8 L94 7 L94 0 L201 0 L201 7 L201 7 Z " />
<glyph glyph-name="Idieresis" unicode="&#xcf;" horiz-adv-x="259" d="M230 885 C230 911 190 911 190 885 C190 859 230 859 230 885 L230 885 Z M104 885 C104 911 64 911 64 885 C64 859 104 859 104 885 L104 885 Z M200 7 L193 8 C172 10 158 37 158 76 L158 674 C158 713 172 740 193 742 L200 743 L200 750 L93 750 L93 743 L100 742 C121 740 135 713 135 674 L135 76 C135 37 121 10 100 8 L93 7 L93 0 L200 0 L200 7 L200 7 Z " />
<glyph glyph-name="Ntilde" unicode="&#xd1;" horiz-adv-x="621" d="M190 870 C190 913 206 941 230 941 C276 941 338 876 384 876 C412 876 431 906 431 951 L430 951 C430 915 413 891 388 891 C342 891 281 956 235 956 C207 956 189 922 189 870 L190 870 L190 870 Z M45 743 C65 740 80 733 100 711 L100 76 C100 37 86 10 65 8 L58 7 L58 0 L149 0 L149 7 L142 8 C121 10 107 37 107 76 L106 704 C111 698 115 692 119 685 C250 457 383 230 512 0 L517 0 L519 674 C519 713 533 741 554 743 L561 744 L561 751 L469 751 L469 744 L476 743 C497 741 511 714 511 675 L512 48 L111 751 L44 751 L45 743 L45 743 Z M512 48 L512 48 L512 48 Z " />
<glyph glyph-name="Ograve" unicode="&#xd2;" horiz-adv-x="725" d="M96 375 C96 605 204 758 365 758 C532 758 644 605 644 375 C644 145 529 -8 356 -8 C200 -8 96 145 96 375 L96 375 Z M71 375 C71 144 185 -10 356 -10 C544 -10 670 144 670 375 C670 606 548 760 366 760 C189 760 71 606 71 375 L71 375 Z M159 1012 C159 1009 189 981 234 940 L370 814 L373 817 L243 949 C201 993 172 1022 169 1022 C164 1022 159 1017 159 1012 L159 1012 Z " />
<glyph glyph-name="Oacute" unicode="&#xd3;" horiz-adv-x="725" d="M372 814 L508 940 C553 983 583 1011 583 1012 C583 1017 578 1022 573 1022 C573 1022 543 993 499 949 L369 817 L372 814 L372 814 Z M96 375 C96 605 204 758 365 758 C532 758 644 605 644 375 C644 145 529 -8 356 -8 C200 -8 96 145 96 375 L96 375 Z M71 375 C71 144 185 -10 356 -10 C544 -10 670 144 670 375 C670 606 548 760 366 760 C189 760 71 606 71 375 L71 375 Z " />
<glyph glyph-name="Ocircumflex" unicode="&#xd4;" horiz-adv-x="725" d="M96 375 C96 605 204 758 365 758 C532 758 644 605 644 375 C644 145 529 -8 356 -8 C200 -8 96 145 96 375 L96 375 Z M71 375 C71 144 185 -10 356 -10 C544 -10 670 144 670 375 C670 606 548 760 366 760 C189 760 71 606 71 375 L71 375 Z M373 1024 C370 1032 363 1032 360 1024 L220 811 L223 809 L367 1008 L511 809 L514 811 L373 1024 L373 1024 Z " />
<glyph glyph-name="Otilde" unicode="&#xd5;" horiz-adv-x="725" d="M246 870 C246 913 262 941 286 941 C332 941 394 876 440 876 C468 876 487 906 487 951 L486 951 C486 915 469 891 444 891 C398 891 337 956 291 956 C263 956 245 922 245 870 L246 870 L246 870 Z M96 375 C96 605 204 758 365 758 C532 758 644 605 644 375 C644 145 529 -8 356 -8 C200 -8 96 145 96 375 L96 375 Z M71 375 C71 144 185 -10 356 -10 C544 -10 670 144 670 375 C670 606 548 760 366 760 C189 760 71 606 71 375 L71 375 Z " />
<glyph glyph-name="Odieresis" unicode="&#xd6;" horiz-adv-x="725" d="M449 885 C449 911 409 911 409 885 C409 859 449 859 449 885 L449 885 Z M323 885 C323 911 283 911 283 885 C283 859 323 859 323 885 L323 885 Z M96 375 C96 605 204 758 365 758 C532 758 644 605 644 375 C644 145 529 -8 356 -8 C200 -8 96 145 96 375 L96 375 Z M71 375 C71 144 185 -10 356 -10 C544 -10 670 144 670 375 C670 606 548 760 366 760 C189 760 71 606 71 375 L71 375 Z " />
<glyph glyph-name="Oslash" unicode="&#xd8;" horiz-adv-x="725" d="M72 -11 C72 -11 100 25 152 92 C202 27 272 -10 356 -10 C544 -10 670 144 670 375 C670 489 640 584 588 651 C615 686 643 722 671 759 L669 761 C641 724 613 688 586 653 C533 720 457 758 366 758 C189 758 71 604 71 373 C71 257 100 160 151 93 C99 26 71 -11 71 -11 L72 -11 L72 -11 Z M576 639 C393 403 248 217 161 105 C120 171 97 263 97 372 C97 602 205 755 366 755 C454 755 527 712 576 638 L576 639 L576 639 Z M578 636 C621 570 645 480 645 373 C645 143 530 -10 357 -10 C276 -10 209 31 163 103 C250 214 395 400 578 636 L578 636 Z " />
<glyph glyph-name="Ugrave" unicode="&#xd9;" horiz-adv-x="515" d="M58 1012 C58 1009 88 981 133 940 L269 814 L272 817 L142 949 C100 993 71 1022 68 1022 C63 1022 58 1017 58 1012 L58 1012 Z M486 21 L479 20 C458 17 444 40 444 79 L444 750 L378 750 L378 743 L385 742 C406 740 420 713 420 674 L420 157 C377 66 283 5 183 5 C139 5 109 88 109 213 L109 750 L44 750 L44 743 L51 742 C72 740 86 713 86 674 L86 213 C86 79 121 -10 173 -10 C277 -10 376 53 420 147 L420 0 L432 0 L444 3 C458 7 474 11 486 14 L486 21 L486 21 Z " />
<glyph glyph-name="Uacute" unicode="&#xda;" horiz-adv-x="515" d="M271 814 L407 940 C452 983 482 1011 482 1012 C482 1017 477 1022 472 1022 C472 1022 442 993 398 949 L268 817 L271 814 L271 814 Z M486 21 L479 20 C458 17 444 40 444 79 L444 750 L378 750 L378 743 L385 742 C406 740 420 713 420 674 L420 157 C377 66 283 5 183 5 C139 5 109 88 109 213 L109 750 L44 750 L44 743 L51 742 C72 740 86 713 86 674 L86 213 C86 79 121 -10 173 -10 C277 -10 376 53 420 147 L420 0 L432 0 L444 3 C458 7 474 11 486 14 L486 21 L486 21 Z " />
<glyph glyph-name="Ucircumflex" unicode="&#xdb;" horiz-adv-x="515" d="M272 1024 C269 1032 262 1032 259 1024 L119 811 L122 809 L266 1008 L410 809 L413 811 L272 1024 L272 1024 Z M487 21 L480 20 C459 17 445 40 445 79 L445 750 L379 750 L379 743 L386 742 C407 740 421 713 421 674 L421 157 C378 66 284 5 184 5 C140 5 110 88 110 213 L110 750 L45 750 L45 743 L52 742 C73 740 87 713 87 674 L87 213 C87 79 122 -10 174 -10 C278 -10 377 53 421 147 L421 0 L433 0 L445 3 C459 7 475 11 487 14 L487 21 L487 21 Z " />
<glyph glyph-name="Udieresis" unicode="&#xdc;" horiz-adv-x="515" d="M348 885 C348 911 308 911 308 885 C308 859 348 859 348 885 L348 885 Z M222 885 C222 911 182 911 182 885 C182 859 222 859 222 885 L222 885 Z M486 21 L479 20 C458 17 444 40 444 79 L444 750 L378 750 L378 743 L385 742 C406 740 420 713 420 674 L420 157 C377 66 283 5 183 5 C139 5 109 88 109 213 L109 750 L44 750 L44 743 L51 742 C72 740 86 713 86 674 L86 213 C86 79 121 -10 173 -10 C277 -10 376 53 420 147 L420 0 L432 0 L444 3 C458 7 474 11 486 14 L486 21 L486 21 Z " />
<glyph glyph-name="Yacute" unicode="&#xdd;" horiz-adv-x="530" d="M275 814 L411 940 C456 983 486 1011 486 1012 C486 1017 481 1022 476 1022 C476 1022 446 993 402 949 L272 817 L275 814 L275 814 Z M134 750 L22 750 L22 743 C40 739 55 724 75 689 L256 336 L256 96 C256 45 235 10 204 8 L194 7 L194 0 L342 0 L342 7 L332 8 C301 10 280 45 280 96 L280 339 L443 669 C464 711 496 740 523 742 L531 743 L531 750 L397 750 L397 743 L409 742 C448 740 458 710 439 669 L279 341 L108 677 C91 715 97 741 123 743 L132 744 L134 750 L134 750 Z " />
<glyph glyph-name="agrave" unicode="&#xe0;" horiz-adv-x="477" d="M487 57 L482 59 C477 29 454 9 425 9 C390 9 366 31 366 64 L366 361 C366 464 318 510 246 510 C147 510 81 414 81 360 C81 352 85 346 91 346 C106 346 116 352 116 356 C116 361 96 370 96 373 C96 422 155 508 244 508 C305 508 346 465 346 368 L346 266 C154 156 61 99 61 74 C61 24 103 -10 165 -10 C211 -10 271 18 346 92 L346 64 C346 23 374 -5 417 -5 C452 -5 480 20 487 57 L487 57 Z M39 762 C39 759 69 731 114 690 L250 564 L253 567 L123 699 C81 743 52 772 49 772 C44 772 39 767 39 762 L39 762 Z M346 265 L346 93 C278 27 221 1 176 1 C119 1 81 31 81 76 C81 108 168 163 346 265 L346 265 Z " />
<glyph glyph-name="aacute" unicode="&#xe1;" horiz-adv-x="477" d="M252 564 L388 690 C433 733 463 761 463 762 C463 767 458 772 453 772 C453 772 423 743 379 699 L249 567 L252 564 L252 564 Z M487 57 L482 59 C477 29 454 9 425 9 C390 9 366 31 366 64 L366 361 C366 464 318 510 246 510 C147 510 81 414 81 360 C81 352 85 346 91 346 C106 346 116 352 116 356 C116 361 96 370 96 373 C96 422 155 508 244 508 C305 508 346 465 346 368 L346 266 C154 156 61 99 61 74 C61 24 103 -10 165 -10 C211 -10 271 18 346 92 L346 64 C346 23 374 -5 417 -5 C452 -5 480 20 487 57 L487 57 Z M346 265 L346 93 C278 27 221 1 176 1 C119 1 81 31 81 76 C81 108 168 163 346 265 L346 265 Z " />
<glyph glyph-name="acircumflex" unicode="&#xe2;" horiz-adv-x="477" d="M487 57 L482 59 C477 29 454 9 425 9 C390 9 366 31 366 64 L366 361 C366 464 318 510 246 510 C147 510 81 414 81 360 C81 352 85 346 91 346 C106 346 116 352 116 356 C116 361 96 370 96 373 C96 422 155 508 244 508 C305 508 346 465 346 368 L346 266 C154 156 61 99 61 74 C61 24 103 -10 165 -10 C211 -10 271 18 346 92 L346 64 C346 23 374 -5 417 -5 C452 -5 480 20 487 57 L487 57 Z M253 774 C250 782 243 782 240 774 L100 561 L103 559 L247 758 L391 559 L394 561 L253 774 L253 774 Z M347 265 L347 93 C279 27 222 1 177 1 C120 1 82 31 82 76 C82 108 169 163 347 265 L347 265 Z " />
<glyph glyph-name="atilde" unicode="&#xe3;" horiz-adv-x="477" d="M126 620 C126 663 142 691 166 691 C212 691 274 626 320 626 C348 626 367 656 367 701 L366 701 C366 665 349 641 324 641 C278 641 217 706 171 706 C143 706 125 672 125 620 L126 620 L126 620 Z M487 57 L482 59 C477 29 454 9 425 9 C390 9 366 31 366 64 L366 361 C366 464 318 510 246 510 C147 510 81 414 81 360 C81 352 85 346 91 346 C106 346 116 352 116 356 C116 361 96 370 96 373 C96 422 155 508 244 508 C305 508 346 465 346 368 L346 266 C154 156 61 99 61 74 C61 24 103 -10 165 -10 C211 -10 271 18 346 92 L346 64 C346 23 374 -5 417 -5 C452 -5 480 20 487 57 L487 57 Z M346 265 L346 93 C278 27 221 1 176 1 C119 1 81 31 81 76 C81 108 168 163 346 265 L346 265 Z " />
<glyph glyph-name="adieresis" unicode="&#xe4;" horiz-adv-x="477" d="M329 635 C329 661 289 661 289 635 C289 609 329 609 329 635 L329 635 Z M203 635 C203 661 163 661 163 635 C163 609 203 609 203 635 L203 635 Z M487 57 L482 59 C477 29 454 9 425 9 C390 9 366 31 366 64 L366 361 C366 464 318 510 246 510 C147 510 81 414 81 360 C81 352 85 346 91 346 C106 346 116 352 116 356 C116 361 96 370 96 373 C96 422 155 508 244 508 C305 508 346 465 346 368 L346 266 C154 156 61 99 61 74 C61 24 103 -10 165 -10 C211 -10 271 18 346 92 L346 64 C346 23 374 -5 417 -5 C452 -5 480 20 487 57 L487 57 Z M346 265 L346 93 C278 27 221 1 176 1 C119 1 81 31 81 76 C81 108 168 163 346 265 L346 265 Z " />
<glyph glyph-name="aring" unicode="&#xe5;" horiz-adv-x="477" d="M157 655 C157 709 193 745 246 745 C299 745 335 709 335 655 C335 606 294 565 246 565 C198 565 157 606 157 655 L157 655 Z M151 655 C151 604 195 560 246 560 C297 560 341 604 341 655 C341 712 303 750 246 750 C189 750 151 712 151 655 L151 655 Z M487 57 L482 59 C477 29 454 9 425 9 C390 9 366 31 366 64 L366 361 C366 464 318 510 246 510 C147 510 81 414 81 360 C81 352 85 346 91 346 C106 346 116 352 116 356 C116 361 96 370 96 373 C96 422 155 508 244 508 C305 508 346 465 346 368 L346 266 C154 156 61 99 61 74 C61 24 103 -10 165 -10 C211 -10 271 18 346 92 L346 64 C346 23 374 -5 417 -5 C452 -5 480 20 487 57 L487 57 Z M346 265 L346 93 C278 27 221 1 176 1 C119 1 81 31 81 76 C81 108 168 163 346 265 L346 265 Z " />
<glyph glyph-name="egrave" unicode="&#xe8;" horiz-adv-x="475" d="M58 762 C58 759 88 731 133 690 L269 564 L272 567 L142 699 C100 743 71 772 68 772 C63 772 58 767 58 762 L58 762 Z M74 340 L445 340 C423 462 355 510 265 510 C133 510 45 434 45 238 C45 89 125 -10 245 -10 C326 -10 401 48 433 135 L432 135 C401 51 327 -5 247 -5 C138 -5 66 95 66 246 C66 281 69 312 74 340 L74 340 Z M423 342 L75 341 C98 460 169 509 266 509 C343 509 403 463 424 342 L423 342 L423 342 Z " />
<glyph glyph-name="eacute" unicode="&#xe9;" horiz-adv-x="475" d="M271 564 L407 690 C452 733 482 761 482 762 C482 767 477 772 472 772 C472 772 442 743 398 699 L268 567 L271 564 L271 564 Z M74 340 L445 340 C423 462 355 510 265 510 C133 510 45 434 45 238 C45 89 125 -10 245 -10 C326 -10 401 48 433 135 L432 135 C401 51 327 -5 247 -5 C138 -5 66 95 66 246 C66 281 69 312 74 340 L74 340 Z M423 342 L75 341 C98 460 169 509 266 509 C343 509 403 463 424 342 L423 342 L423 342 Z " />
<glyph glyph-name="ecircumflex" unicode="&#xea;" horiz-adv-x="475" d="M272 774 C269 782 262 782 259 774 L119 561 L122 559 L266 758 L410 559 L413 561 L272 774 L272 774 Z M75 340 L446 340 C424 462 356 510 266 510 C134 510 46 434 46 238 C46 89 126 -10 246 -10 C327 -10 402 48 434 135 L433 135 C402 51 328 -5 248 -5 C139 -5 67 95 67 246 C67 281 70 312 75 340 L75 340 Z M424 342 L76 341 C99 460 170 509 267 509 C344 509 404 463 425 342 L424 342 L424 342 Z " />
<glyph glyph-name="edieresis" unicode="&#xeb;" horiz-adv-x="475" d="M348 635 C348 661 308 661 308 635 C308 609 348 609 348 635 L348 635 Z M222 635 C222 661 182 661 182 635 C182 609 222 609 222 635 L222 635 Z M74 340 L445 340 C423 462 355 510 265 510 C133 510 45 434 45 238 C45 89 125 -10 245 -10 C326 -10 401 48 433 135 L432 135 C401 51 327 -5 247 -5 C138 -5 66 95 66 246 C66 281 69 312 74 340 L74 340 Z M423 342 L75 341 C98 460 169 509 266 509 C343 509 403 463 424 342 L423 342 L423 342 Z " />
<glyph glyph-name="igrave" unicode="&#xec;" horiz-adv-x="184" d="M-99 762 C-99 759 -69 731 -24 690 L112 564 L115 567 L-15 699 C-57 743 -86 772 -89 772 C-94 772 -99 767 -99 762 L-99 762 Z M76 484 C91 484 98 477 98 456 L98 41 C98 19 90 10 76 7 L76 0 L140 0 L140 7 C126 10 118 19 118 41 L118 500 L108 500 C98 497 86 494 76 491 L76 484 L76 484 Z " />
<glyph glyph-name="iacute" unicode="&#xed;" horiz-adv-x="184" d="M-99 762 C-99 759 -69 731 -24 690 L112 564 L115 567 L-15 699 C-57 743 -86 772 -89 772 C-94 772 -99 767 -99 762 L-99 762 Z M76 484 C91 484 98 477 98 456 L98 41 C98 19 90 10 76 7 L76 0 L140 0 L140 7 C126 10 118 19 118 41 L118 500 L108 500 C98 497 86 494 76 491 L76 484 L76 484 Z " />
<glyph glyph-name="icircumflex" unicode="&#xee;" horiz-adv-x="184" d="M115 774 C112 782 105 782 102 774 L-38 561 L-35 559 L109 758 L253 559 L256 561 L115 774 L115 774 Z M77 484 C92 484 99 477 99 456 L99 41 C99 19 91 10 77 7 L77 0 L141 0 L141 7 C127 10 119 19 119 41 L119 500 L109 500 C99 497 87 494 77 491 L77 484 L77 484 Z " />
<glyph glyph-name="idieresis" unicode="&#xef;" horiz-adv-x="184" d="M191 635 C191 661 151 661 151 635 C151 609 191 609 191 635 L191 635 Z M65 635 C65 661 25 661 25 635 C25 609 65 609 65 635 L65 635 Z M76 484 C91 484 98 477 98 456 L98 41 C98 19 90 10 76 7 L76 0 L140 0 L140 7 C126 10 118 19 118 41 L118 500 L108 500 C98 497 86 494 76 491 L76 484 L76 484 Z " />
<glyph glyph-name="ntilde" unicode="&#xf1;" horiz-adv-x="379" d="M73 620 C73 663 89 691 113 691 C159 691 221 626 267 626 C295 626 313 656 313 701 L312 701 C312 665 296 641 271 641 C225 641 163 706 117 706 C90 706 72 672 72 620 L73 620 L73 620 Z M57 414 L57 41 C57 19 49 10 35 7 L35 0 L99 0 L99 7 C85 10 77 19 77 41 L77 372 C105 449 157 500 209 500 C274 500 308 437 308 342 L308 41 C308 19 300 10 286 7 L286 0 L350 0 L350 7 C336 10 328 19 328 41 L328 342 C328 443 290 510 215 510 C161 510 106 456 77 375 L77 500 L67 500 C57 497 45 494 35 491 L35 486 C50 479 57 455 57 414 L57 414 Z " />
<glyph glyph-name="ograve" unicode="&#xf2;" horiz-adv-x="561" d="M67 250 C67 405 153 508 281 508 C409 508 494 405 494 250 C494 95 409 -8 281 -8 C153 -8 67 95 67 250 L67 250 Z M45 250 C45 94 139 -10 281 -10 C422 -10 516 94 516 250 C516 406 422 510 281 510 C139 510 45 406 45 250 L45 250 Z M74 762 C74 759 104 731 149 690 L285 564 L288 567 L158 699 C116 743 87 772 84 772 C79 772 74 767 74 762 L74 762 Z " />
<glyph glyph-name="oacute" unicode="&#xf3;" horiz-adv-x="561" d="M287 564 L423 690 C468 733 498 761 498 762 C498 767 493 772 488 772 C488 772 458 743 414 699 L284 567 L287 564 L287 564 Z M67 250 C67 405 153 508 281 508 C409 508 494 405 494 250 C494 95 409 -8 281 -8 C153 -8 67 95 67 250 L67 250 Z M45 250 C45 94 139 -10 281 -10 C422 -10 516 94 516 250 C516 406 422 510 281 510 C139 510 45 406 45 250 L45 250 Z " />
<glyph glyph-name="ocircumflex" unicode="&#xf4;" horiz-adv-x="561" d="M67 250 C67 405 153 508 281 508 C409 508 494 405 494 250 C494 95 409 -8 281 -8 C153 -8 67 95 67 250 L67 250 Z M45 250 C45 94 139 -10 281 -10 C422 -10 516 94 516 250 C516 406 422 510 281 510 C139 510 45 406 45 250 L45 250 Z M288 774 C285 782 278 782 275 774 L135 561 L138 559 L282 758 L426 559 L429 561 L288 774 L288 774 Z " />
<glyph glyph-name="otilde" unicode="&#xf5;" horiz-adv-x="561" d="M161 620 C161 663 177 691 201 691 C247 691 309 626 355 626 C383 626 402 656 402 701 L401 701 C401 665 384 641 359 641 C313 641 252 706 206 706 C178 706 160 672 160 620 L161 620 L161 620 Z M67 250 C67 405 153 508 281 508 C409 508 494 405 494 250 C494 95 409 -8 281 -8 C153 -8 67 95 67 250 L67 250 Z M45 250 C45 94 139 -10 281 -10 C422 -10 516 94 516 250 C516 406 422 510 281 510 C139 510 45 406 45 250 L45 250 Z " />
<glyph glyph-name="odieresis" unicode="&#xf6;" horiz-adv-x="561" d="M364 635 C364 661 324 661 324 635 C324 609 364 609 364 635 L364 635 Z M238 635 C238 661 198 661 198 635 C198 609 238 609 238 635 L238 635 Z M67 250 C67 405 153 508 281 508 C409 508 494 405 494 250 C494 95 409 -8 281 -8 C153 -8 67 95 67 250 L67 250 Z M45 250 C45 94 139 -10 281 -10 C422 -10 516 94 516 250 C516 406 422 510 281 510 C139 510 45 406 45 250 L45 250 Z " />
<glyph glyph-name="oslash" unicode="&#xf8;" horiz-adv-x="561" d="M46 -11 C46 -11 69 14 111 60 C152 15 211 -11 281 -11 C422 -11 516 93 516 249 C516 326 493 391 452 436 C473 459 495 483 517 507 L515 509 C493 485 471 461 450 438 C409 483 351 509 281 509 C139 509 45 405 45 249 C45 172 68 107 109 62 C67 16 44 -9 44 -9 L46 -11 L46 -11 Z M441 430 C299 273 186 149 118 73 C85 117 66 178 66 250 C66 405 152 508 280 508 C347 508 402 479 439 429 L441 430 L441 430 Z M441 427 C474 383 492 322 492 250 C492 95 407 -8 279 -8 C211 -8 155 21 117 71 C185 147 298 271 440 428 L441 427 L441 427 Z " />
<glyph glyph-name="ugrave" unicode="&#xf9;" horiz-adv-x="356" d="M-27 762 C-27 759 3 731 49 690 L186 564 L188 567 L58 699 C16 743 -14 772 -17 772 C-22 772 -27 767 -27 762 L-27 762 Z M342 18 L337 18 C321 16 310 40 310 79 L310 500 L268 500 L268 493 C282 490 290 481 290 459 L290 126 C259 53 209 5 162 5 C109 5 73 65 73 156 L73 501 L31 501 L31 494 C45 491 53 482 53 460 L53 156 C53 57 93 -9 153 -9 C203 -9 256 44 290 125 L290 0 L300 0 C313 4 329 8 342 11 L342 18 L342 18 Z " />
<glyph glyph-name="uacute" unicode="&#xfa;" horiz-adv-x="356" d="M187 564 L324 690 C370 733 400 762 400 762 C400 767 395 772 390 772 C389 772 359 743 315 699 L185 567 L187 564 L187 564 Z M342 18 L337 18 C321 16 310 40 310 79 L310 500 L268 500 L268 493 C282 490 290 481 290 459 L290 126 C259 53 209 5 162 5 C109 5 73 65 73 156 L73 501 L31 501 L31 494 C45 491 53 482 53 460 L53 156 C53 57 93 -9 153 -9 C203 -9 256 44 290 125 L290 0 L300 0 C313 4 329 8 342 11 L342 18 L342 18 Z " />
<glyph glyph-name="ucircumflex" unicode="&#xfb;" horiz-adv-x="356" d="M189 774 C186 783 177 782 174 774 L35 561 L38 559 L182 757 L325 559 L328 561 L189 774 L189 774 Z M342 18 L337 18 C321 16 310 40 310 79 L310 500 L268 500 L268 493 C282 490 290 481 290 459 L290 126 C259 53 209 5 162 5 C109 5 73 65 73 156 L73 501 L31 501 L31 494 C45 491 53 482 53 460 L53 156 C53 57 93 -9 153 -9 C203 -9 256 44 290 125 L290 0 L300 0 C313 4 329 8 342 11 L342 18 L342 18 Z " />
<glyph glyph-name="udieresis" unicode="&#xfc;" horiz-adv-x="356" d="M264 635 C264 661 224 661 224 635 C224 609 264 609 264 635 L264 635 Z M139 635 C139 661 99 661 99 635 C99 609 139 609 139 635 L139 635 Z M342 18 L337 18 C321 16 310 40 310 79 L310 500 L268 500 L268 493 C282 490 290 481 290 459 L290 126 C259 53 209 5 162 5 C109 5 73 65 73 156 L73 501 L31 501 L31 494 C45 491 53 482 53 460 L53 156 C53 57 93 -9 153 -9 C203 -9 256 44 290 125 L290 0 L300 0 C313 4 329 8 342 11 L342 18 L342 18 Z " />
<glyph glyph-name="ydieresis" unicode="&#xff;" horiz-adv-x="334" d="M256 635 C256 661 216 661 216 635 C216 609 256 609 256 635 L256 635 Z M131 635 C131 661 91 661 91 635 C91 609 131 609 131 635 L131 635 Z M70 500 L7 500 L7 493 L10 492 C22 490 35 461 44 420 L132 -1 C113 -56 95 -112 76 -167 C71 -183 57 -194 49 -194 C27 -194 22 -184 0 -184 C-22 -184 -37 -199 -37 -221 C-37 -244 -21 -260 4 -260 C21 -260 62 -224 81 -169 L136 -10 C184 133 232 276 280 419 C295 460 312 490 324 492 L327 493 L327 500 L277 500 L277 493 L280 492 C289 490 286 461 272 419 C272 419 157 70 146 39 L62 433 C56 467 58 490 67 492 L70 493 L70 500 L70 500 Z " />
<glyph glyph-name="Amacron" unicode="&#x100;" horiz-adv-x="552" d="M167 907 L415 907 L415 920 L167 920 L167 907 L167 907 Z M-21 0 L162 0 L162 9 L148 10 C106 13 89 54 103 115 L156 298 L397 298 L444 121 C458 57 441 14 398 11 L384 10 L384 1 L550 1 L550 10 L542 11 C515 14 485 62 466 130 L302 744 C302 744 297 771 295 771 L292 771 C295 756 289 746 278 744 L281 733 L101 117 C79 55 37 14 -8 11 L-22 10 L-21 0 L-21 0 Z M156 299 L282 732 L397 299 L156 299 L156 299 Z " />
<glyph glyph-name="amacron" unicode="&#x101;" horiz-adv-x="477" d="M122 657 L370 657 L370 670 L122 670 L122 657 L122 657 Z M487 57 L482 59 C477 29 454 9 425 9 C390 9 366 31 366 64 L366 361 C366 464 318 510 246 510 C147 510 81 414 81 360 C81 352 85 346 91 346 C106 346 116 352 116 356 C116 361 96 370 96 373 C96 422 155 508 244 508 C305 508 346 465 346 368 L346 266 C154 156 61 99 61 74 C61 24 103 -10 165 -10 C211 -10 271 18 346 92 L346 64 C346 23 374 -5 417 -5 C452 -5 480 20 487 57 L487 57 Z M346 265 L346 93 C278 27 221 1 176 1 C119 1 81 31 81 76 C81 108 168 163 346 265 L346 265 Z " />
<glyph glyph-name="Abreve" unicode="&#x102;" horiz-adv-x="552" d="M194 995 C195 940 234 904 291 904 C348 904 387 940 388 994 L384 995 C383 949 346 919 291 919 C236 919 199 949 198 995 L194 995 L194 995 Z M-21 0 L162 0 L162 9 L148 10 C106 13 89 54 103 115 L156 298 L397 298 L444 121 C458 57 441 14 398 11 L384 10 L384 1 L550 1 L550 10 L542 11 C515 14 485 62 466 130 L302 744 C302 744 297 771 295 771 L292 771 C295 756 289 746 278 744 L281 733 L101 117 C79 55 37 14 -8 11 L-22 10 L-21 0 L-21 0 Z M156 299 L282 732 L397 299 L156 299 L156 299 Z " />
<glyph glyph-name="abreve" unicode="&#x103;" horiz-adv-x="477" d="M149 745 C150 690 189 654 246 654 C303 654 342 690 343 744 L339 745 C338 699 301 669 246 669 C191 669 154 699 153 745 L149 745 L149 745 Z M487 57 L482 59 C477 29 454 9 425 9 C390 9 366 31 366 64 L366 361 C366 464 318 510 246 510 C147 510 81 414 81 360 C81 352 85 346 91 346 C106 346 116 352 116 356 C116 361 96 370 96 373 C96 422 155 508 244 508 C305 508 346 465 346 368 L346 266 C154 156 61 99 61 74 C61 24 103 -10 165 -10 C211 -10 271 18 346 92 L346 64 C346 23 374 -5 417 -5 C452 -5 480 20 487 57 L487 57 Z M346 265 L346 93 C278 27 221 1 176 1 C119 1 81 31 81 76 C81 108 168 163 346 265 L346 265 Z " />
<glyph glyph-name="Cacute" unicode="&#x106;" horiz-adv-x="633" d="M344 814 L480 940 C525 983 555 1011 555 1012 C555 1017 550 1022 545 1022 C545 1022 515 993 471 949 L341 817 L344 814 L344 814 Z M585 584 L585 699 L577 699 L573 687 C569 675 537 686 493 714 C451 743 403 760 338 760 C178 760 71 606 71 375 C71 144 174 -10 328 -10 C364 -10 396 -5 426 5 L426 4 C447 12 467 21 486 33 C533 62 569 73 574 59 L578 47 L586 47 L586 165 L574 165 L565 144 C538 84 483 30 426 8 L426 8 C396 -3 364 -9 329 -9 C190 -9 97 145 97 375 C97 605 194 758 339 758 C380 758 414 750 444 736 C492 712 539 661 564 605 L573 583 L585 584 L585 584 Z M582 126 L582 126 L582 126 L582 126 Z " />
<glyph glyph-name="Ccircumflex" unicode="&#x108;" horiz-adv-x="633" d="M585 584 L585 699 L577 699 L573 687 C569 675 537 686 493 714 C451 743 403 760 338 760 C178 760 71 606 71 375 C71 144 174 -10 328 -10 C364 -10 396 -5 426 5 L426 4 C447 12 467 21 486 33 C533 62 569 73 574 59 L578 47 L586 47 L586 165 L574 165 L565 144 C538 84 483 30 426 8 L426 8 C396 -3 364 -9 329 -9 C190 -9 97 145 97 375 C97 605 194 758 339 758 C380 758 414 750 444 736 C492 712 539 661 564 605 L573 583 L585 584 L585 584 Z M345 1023 C342 1031 335 1031 332 1023 L192 810 L195 808 L339 1007 L483 808 L486 810 L345 1023 L345 1023 Z M583 126 L583 126 L583 126 L583 126 Z " />
<glyph glyph-name="Cdot" unicode="&#x10a;" horiz-adv-x="633" d="M358 885 C358 911 318 911 318 885 C318 859 358 859 358 885 L358 885 Z M585 584 L585 699 L577 699 L573 687 C569 675 537 686 493 714 C451 743 403 760 338 760 C178 760 71 606 71 375 C71 144 174 -10 328 -10 C364 -10 396 -5 426 5 L426 4 C447 12 467 21 486 33 C533 62 569 73 574 59 L578 47 L586 47 L586 165 L574 165 L565 144 C538 84 483 30 426 8 L426 8 C396 -3 364 -9 329 -9 C190 -9 97 145 97 375 C97 605 194 758 339 758 C380 758 414 750 444 736 C492 712 539 661 564 605 L573 583 L585 584 L585 584 Z M582 126 L582 126 L582 126 L582 126 Z " />
<glyph glyph-name="cdot" unicode="&#x10b;" horiz-adv-x="391" d="M232 635 C232 661 192 661 192 635 C192 609 232 609 232 635 L232 635 Z M361 128 L360 128 C324 48 260 -5 200 -5 C118 -5 64 99 64 254 C64 407 123 509 212 509 C267 509 318 467 341 405 C343 399 347 395 351 395 C359 395 363 399 361 405 C338 468 278 510 212 510 C112 510 45 403 45 242 C45 91 106 -10 197 -10 C259 -10 324 45 361 128 L361 128 Z " />
<glyph glyph-name="Ccaron" unicode="&#x10c;" horiz-adv-x="633" d="M482 1041 L338 842 L194 1041 L191 1039 L331 826 C334 818 341 818 344 826 L484 1039 L482 1041 L482 1041 Z M584 584 L584 699 L576 699 L572 687 C568 675 536 686 492 714 C450 743 402 760 337 760 C177 760 70 606 70 375 C70 144 173 -10 327 -10 C363 -10 395 -5 425 5 L425 4 C446 12 466 21 485 33 C532 62 568 73 573 59 L577 47 L585 47 L585 165 L573 165 L564 144 C537 84 482 30 425 8 L425 8 C395 -3 363 -9 328 -9 C189 -9 96 145 96 375 C96 605 193 758 338 758 C379 758 413 750 443 736 C491 712 538 661 563 605 L572 583 L584 584 L584 584 Z M581 126 L581 126 L581 126 L581 126 Z " />
<glyph glyph-name="ccaron" unicode="&#x10d;" horiz-adv-x="391" d="M356 791 L212 592 L68 791 L65 789 L205 576 C208 568 215 568 218 576 L358 789 L356 791 L356 791 Z M360 128 L359 128 C323 48 259 -5 199 -5 C117 -5 63 99 63 254 C63 407 122 509 211 509 C266 509 317 467 340 405 C342 399 346 395 350 395 C358 395 362 399 360 405 C337 468 277 510 211 510 C111 510 44 403 44 242 C44 91 105 -10 196 -10 C258 -10 323 45 360 128 L360 128 Z " />
<glyph glyph-name="Dcaron" unicode="&#x10e;" horiz-adv-x="688" d="M508 1041 L364 842 L220 1041 L217 1039 L357 826 C360 818 367 818 370 826 L510 1039 L508 1041 L508 1041 Z M207 1 C149 1 143 38 143 94 L143 749 L237 749 C481 749 606 599 606 375 C606 128 446 1 207 1 L207 1 Z M78 743 L85 742 C106 740 120 713 120 674 L120 76 C120 37 106 10 85 8 L78 7 L78 0 L209 0 C463 0 632 128 632 375 C632 600 499 750 242 750 L78 750 L78 743 L78 743 Z " />
<glyph glyph-name="dcaron" unicode="&#x10f;" horiz-adv-x="506" d="M531 757 C526 757 518 696 513 652 L499 541 L503 540 L523 649 C533 702 540 744 540 754 C540 756 536 757 531 757 L531 757 Z M492 20 L485 19 C464 15 450 38 450 77 L450 750 L440 750 L430 747 L430 745 C423 743 415 741 408 739 L408 734 C423 727 430 703 430 662 L430 391 C405 457 349 511 291 511 C129 511 45 409 45 257 C45 100 133 -4 266 -4 C328 -4 393 29 429 79 L429 0 L439 0 L491 13 L492 20 L492 20 Z M429 375 L429 80 C396 34 335 4 275 4 C149 4 65 107 65 262 C65 408 143 505 294 505 C352 505 409 446 430 376 L429 375 L429 375 Z " />
<glyph glyph-name="Emacron" unicode="&#x112;" horiz-adv-x="495" d="M147 907 L396 907 L396 920 L147 920 L147 907 L147 907 Z M352 478 L348 464 C334 417 287 386 230 386 L144 386 L144 749 L289 749 C346 749 397 718 417 671 L423 657 L432 657 C429 685 424 722 421 750 L59 750 L59 743 L69 742 C100 740 121 705 121 654 L121 96 C121 45 100 10 69 8 L59 7 L59 0 L446 0 C450 25 456 58 460 83 L451 83 L445 70 C424 29 362 1 290 1 L238 1 C153 1 144 38 144 94 L144 385 L230 385 C287 385 334 354 348 307 L352 293 L361 293 L361 478 L352 478 L352 478 Z " />
<glyph glyph-name="emacron" unicode="&#x113;" horiz-adv-x="475" d="M141 657 L389 657 L389 670 L141 670 L141 657 L141 657 Z M74 340 L445 340 C423 462 355 510 265 510 C133 510 45 434 45 238 C45 89 125 -10 245 -10 C326 -10 401 48 433 135 L432 135 C401 51 327 -5 247 -5 C138 -5 66 95 66 246 C66 281 69 312 74 340 L74 340 Z M423 342 L75 341 C98 460 169 509 266 509 C343 509 403 463 424 342 L423 342 L423 342 Z " />
<glyph glyph-name="Ebreve" unicode="&#x114;" horiz-adv-x="495" d="M175 995 C176 940 215 904 272 904 C328 904 367 940 368 994 L364 995 C363 949 326 919 272 919 C217 919 180 949 179 995 L175 995 L175 995 Z M352 478 L348 464 C334 417 287 386 230 386 L144 386 L144 749 L289 749 C346 749 397 718 417 671 L423 657 L432 657 C429 685 424 722 421 750 L59 750 L59 743 L69 742 C100 740 121 705 121 654 L121 96 C121 45 100 10 69 8 L59 7 L59 0 L446 0 C450 25 456 58 460 83 L451 83 L445 70 C424 29 362 1 290 1 L238 1 C153 1 144 38 144 94 L144 385 L230 385 C287 385 334 354 348 307 L352 293 L361 293 L361 478 L352 478 L352 478 Z " />
<glyph glyph-name="ebreve" unicode="&#x115;" horiz-adv-x="475" d="M168 745 C169 690 208 654 265 654 C322 654 361 690 362 744 L358 745 C357 699 320 669 265 669 C210 669 173 699 172 745 L168 745 L168 745 Z M74 340 L445 340 C423 462 355 510 265 510 C133 510 45 434 45 238 C45 89 125 -10 245 -10 C326 -10 401 48 433 135 L432 135 C401 51 327 -5 247 -5 C138 -5 66 95 66 246 C66 281 69 312 74 340 L74 340 Z M423 342 L75 341 C98 460 169 509 266 509 C343 509 403 463 424 342 L423 342 L423 342 Z " />
<glyph glyph-name="Edot" unicode="&#x116;" horiz-adv-x="495" d="M292 885 C292 911 252 911 252 885 C252 859 292 859 292 885 L292 885 Z M352 478 L348 464 C334 417 287 386 230 386 L144 386 L144 749 L289 749 C346 749 397 718 417 671 L423 657 L432 657 C429 685 424 722 421 750 L59 750 L59 743 L69 742 C100 740 121 705 121 654 L121 96 C121 45 100 10 69 8 L59 7 L59 0 L446 0 C450 25 456 58 460 83 L451 83 L445 70 C424 29 362 1 290 1 L238 1 C153 1 144 38 144 94 L144 385 L230 385 C287 385 334 354 348 307 L352 293 L361 293 L361 478 L352 478 L352 478 Z " />
<glyph glyph-name="edot" unicode="&#x117;" horiz-adv-x="475" d="M285 635 C285 661 245 661 245 635 C245 609 285 609 285 635 L285 635 Z M74 340 L445 340 C423 462 355 510 265 510 C133 510 45 434 45 238 C45 89 125 -10 245 -10 C326 -10 401 48 433 135 L432 135 C401 51 327 -5 247 -5 C138 -5 66 95 66 246 C66 281 69 312 74 340 L74 340 Z M423 342 L75 341 C98 460 169 509 266 509 C343 509 403 463 424 342 L423 342 L423 342 Z " />
<glyph glyph-name="Ecaron" unicode="&#x11a;" horiz-adv-x="495" d="M415 1041 L272 843 L128 1041 L125 1039 L264 826 C267 818 276 817 279 826 L418 1039 L415 1041 L415 1041 Z M352 478 L348 464 C334 417 287 386 230 386 L144 386 L144 749 L289 749 C346 749 397 718 417 671 L423 657 L432 657 C429 685 424 722 421 750 L59 750 L59 743 L69 742 C100 740 121 705 121 654 L121 96 C121 45 100 10 69 8 L59 7 L59 0 L446 0 C450 25 456 58 460 83 L451 83 L445 70 C424 29 362 1 290 1 L238 1 C153 1 144 38 144 94 L144 385 L230 385 C287 385 334 354 348 307 L352 293 L361 293 L361 478 L352 478 L352 478 Z " />
<glyph glyph-name="ecaron" unicode="&#x11b;" horiz-adv-x="475" d="M409 791 L265 592 L121 791 L118 789 L258 576 C261 568 268 568 271 576 L411 789 L409 791 L409 791 Z M73 340 L444 340 C422 462 354 510 264 510 C132 510 44 434 44 238 C44 89 124 -10 244 -10 C325 -10 400 48 432 135 L431 135 C400 51 326 -5 246 -5 C137 -5 65 95 65 246 C65 281 68 312 73 340 L73 340 Z M422 342 L74 341 C97 460 168 509 265 509 C342 509 402 463 423 342 L422 342 L422 342 Z " />
<glyph glyph-name="Gcircumflex" unicode="&#x11c;" horiz-adv-x="663" d="M345 1024 C342 1032 335 1032 332 1024 L192 811 L195 809 L339 1008 L483 809 L486 811 L345 1024 L345 1024 Z M586 584 L586 699 L578 699 L574 687 C570 675 538 686 494 714 C452 743 404 760 339 760 C179 760 72 606 72 375 C72 144 176 -10 332 -10 C408 -10 475 1 537 20 C528 18 509 14 499 12 C502 13 504 14 506 15 C459 7 378 -6 336 -6 C193 -6 97 146 97 374 C97 604 194 757 339 757 C380 757 414 749 444 735 C492 711 539 660 564 604 L573 582 L586 584 L586 584 Z M506 14 C529 22 542 33 542 45 L542 23 C530 19 519 16 506 14 L506 14 Z M617 323 L490 323 L490 314 L498 313 C524 310 542 269 542 209 L542 20 C542 20 540 20 536 19 C538 20 540 21 542 22 L542 21 L565 26 L565 30 C592 39 618 50 644 62 L644 63 C619 51 593 40 566 31 L566 210 C566 270 584 311 610 314 L618 315 L617 323 L617 323 Z " />
<glyph glyph-name="Gbreve" unicode="&#x11e;" horiz-adv-x="663" d="M241 995 C242 940 281 904 338 904 C395 904 434 940 435 994 L431 995 C430 949 393 919 338 919 C283 919 246 949 245 995 L241 995 L241 995 Z M585 584 L585 699 L577 699 L573 687 C569 675 537 686 493 714 C451 743 403 760 338 760 C178 760 71 606 71 375 C71 144 175 -10 331 -10 C407 -10 474 1 536 20 C527 18 508 14 498 12 C501 13 503 14 505 15 C458 7 377 -6 335 -6 C192 -6 96 146 96 374 C96 604 193 757 338 757 C379 757 413 749 443 735 C491 711 538 660 563 604 L572 582 L585 584 L585 584 Z M505 14 C528 22 541 33 541 45 L541 23 C529 19 518 16 505 14 L505 14 Z M616 323 L489 323 L489 314 L497 313 C523 310 541 269 541 209 L541 20 C541 20 539 20 535 19 C537 20 539 21 541 22 L541 21 L564 26 L564 30 C591 39 617 50 643 62 L643 63 C618 51 592 40 565 31 L565 210 C565 270 583 311 609 314 L617 315 L616 323 L616 323 Z " />
<glyph glyph-name="gbreve" unicode="&#x11f;" horiz-adv-x="486" d="M149 745 C150 690 189 654 246 654 C303 654 342 690 343 744 L339 745 C338 699 301 669 246 669 C191 669 154 699 153 745 L149 745 L149 745 Z M490 454 C442 454 407 434 394 402 C376 468 321 510 246 510 C153 510 91 446 91 350 C91 259 146 196 230 189 C130 186 64 155 64 110 C64 65 106 35 169 32 C102 15 58 -33 58 -91 C58 -174 136 -230 254 -230 C372 -230 450 -173 450 -88 C450 -4 403 52 282 52 L178 52 C116 52 75 77 75 115 C75 159 143 188 245 188 C338 188 400 253 400 350 C400 367 398 383 394 398 C406 425 437 442 478 442 C483 442 489 434 494 434 C507 434 502 455 488 455 L490 454 L490 454 Z M168 33 C171 33 174 33 177 33 L280 33 C390 33 433 -17 433 -92 C433 -174 361 -228 254 -228 C146 -228 74 -171 74 -85 C74 -29 112 17 170 32 L168 33 L168 33 Z M246 189 C165 189 111 253 111 350 C111 445 165 509 246 509 C327 509 381 445 381 350 C381 253 327 189 246 189 L246 189 Z " />
<glyph glyph-name="Gdot" unicode="&#x120;" horiz-adv-x="663" d="M358 885 C358 911 318 911 318 885 C318 859 358 859 358 885 L358 885 Z M585 584 L585 699 L577 699 L573 687 C569 675 537 686 493 714 C451 743 403 760 338 760 C178 760 71 606 71 375 C71 144 175 -10 331 -10 C407 -10 474 1 536 20 C527 18 508 14 498 12 C501 13 503 14 505 15 C458 7 377 -6 335 -6 C192 -6 96 146 96 374 C96 604 193 757 338 757 C379 757 413 749 443 735 C491 711 538 660 563 604 L572 582 L585 584 L585 584 Z M505 14 C528 22 541 33 541 45 L541 23 C529 19 518 16 505 14 L505 14 Z M616 323 L489 323 L489 314 L497 313 C523 310 541 269 541 209 L541 20 C541 20 539 20 535 19 C537 20 539 21 541 22 L541 21 L564 26 L564 30 C591 39 617 50 643 62 L643 63 C618 51 592 40 565 31 L565 210 C565 270 583 311 609 314 L617 315 L616 323 L616 323 Z " />
<glyph glyph-name="gdot" unicode="&#x121;" horiz-adv-x="486" d="M266 635 C266 661 226 661 226 635 C226 609 266 609 266 635 L266 635 Z M490 454 C442 454 407 434 394 402 C376 468 321 510 246 510 C153 510 91 446 91 350 C91 259 146 196 230 189 C130 186 64 155 64 110 C64 65 106 35 169 32 C102 15 58 -33 58 -91 C58 -174 136 -230 254 -230 C372 -230 450 -173 450 -88 C450 -4 403 52 282 52 L178 52 C116 52 75 77 75 115 C75 159 143 188 245 188 C338 188 400 253 400 350 C400 367 398 383 394 398 C406 425 437 442 478 442 C483 442 489 434 494 434 C507 434 502 455 488 455 L490 454 L490 454 Z M168 33 C171 33 174 33 177 33 L280 33 C390 33 433 -17 433 -92 C433 -174 361 -228 254 -228 C146 -228 74 -171 74 -85 C74 -29 112 17 170 32 L168 33 L168 33 Z M246 189 C165 189 111 253 111 350 C111 445 165 509 246 509 C327 509 381 445 381 350 C381 253 327 189 246 189 L246 189 Z " />
<glyph glyph-name="Hcircumflex" unicode="&#x124;" horiz-adv-x="657" d="M364 1024 C361 1033 352 1032 349 1024 L210 811 L213 809 L357 1007 L500 809 L503 811 L364 1024 L364 1024 Z M598 7 L591 8 C570 10 556 37 556 76 L556 674 C556 713 570 740 591 742 L598 743 L598 750 L490 750 L490 743 L497 742 C518 740 532 713 532 674 L532 385 L180 385 L180 674 C180 713 194 740 215 742 L222 743 L222 750 L115 750 L115 743 L122 742 C143 740 157 713 157 674 L157 76 C157 37 143 10 122 8 L115 7 L115 0 L222 0 L222 7 L215 8 C194 10 180 37 180 76 L180 383 L532 383 L532 76 C532 37 518 10 497 8 L490 7 L490 0 L598 0 L598 7 L598 7 Z " />
<glyph glyph-name="Itilde" unicode="&#x128;" horiz-adv-x="259" d="M27 870 C27 913 43 941 67 941 C113 941 175 876 221 876 C249 876 268 906 268 951 L267 951 C267 915 250 891 225 891 C179 891 118 956 72 956 C44 956 26 922 26 870 L27 870 L27 870 Z M200 7 L193 8 C172 10 158 37 158 76 L158 674 C158 713 172 740 193 742 L200 743 L200 750 L93 750 L93 743 L100 742 C121 740 135 713 135 674 L135 76 C135 37 121 10 100 8 L93 7 L93 0 L200 0 L200 7 L200 7 Z " />
<glyph glyph-name="itilde" unicode="&#x129;" horiz-adv-x="184" d="M-12 620 C-12 663 4 691 28 691 C74 691 136 626 182 626 C210 626 229 656 229 701 L228 701 C228 665 211 641 186 641 C140 641 79 706 33 706 C5 706 -13 672 -13 620 L-12 620 L-12 620 Z M76 484 C91 484 98 477 98 456 L98 41 C98 19 90 10 76 7 L76 0 L140 0 L140 7 C126 10 118 19 118 41 L118 500 L108 500 C98 497 86 494 76 491 L76 484 L76 484 Z " />
<glyph glyph-name="Imacron" unicode="&#x12a;" horiz-adv-x="259" d="M23 907 L271 907 L271 920 L23 920 L23 907 L23 907 Z M200 7 L193 8 C172 10 158 37 158 76 L158 674 C158 713 172 740 193 742 L200 743 L200 750 L93 750 L93 743 L100 742 C121 740 135 713 135 674 L135 76 C135 37 121 10 100 8 L93 7 L93 0 L200 0 L200 7 L200 7 Z " />
<glyph glyph-name="imacron" unicode="&#x12b;" horiz-adv-x="184" d="M-16 657 L232 657 L232 670 L-16 670 L-16 657 L-16 657 Z M76 484 C91 484 98 477 98 456 L98 41 C98 19 90 10 76 7 L76 0 L140 0 L140 7 C126 10 118 19 118 41 L118 500 L108 500 C98 497 86 494 76 491 L76 484 L76 484 Z " />
<glyph glyph-name="Ibreve" unicode="&#x12c;" horiz-adv-x="259" d="M50 995 C51 940 90 904 147 904 C204 904 243 940 244 994 L240 995 C239 949 202 919 147 919 C92 919 55 949 54 995 L50 995 L50 995 Z M200 7 L193 8 C172 10 158 37 158 76 L158 674 C158 713 172 740 193 742 L200 743 L200 750 L93 750 L93 743 L100 742 C121 740 135 713 135 674 L135 76 C135 37 121 10 100 8 L93 7 L93 0 L200 0 L200 7 L200 7 Z " />
<glyph glyph-name="ibreve" unicode="&#x12d;" horiz-adv-x="184" d="M11 745 C12 690 51 654 108 654 C165 654 204 690 205 744 L201 745 C200 699 163 669 108 669 C53 669 16 699 15 745 L11 745 L11 745 Z M76 484 C91 484 98 477 98 456 L98 41 C98 19 90 10 76 7 L76 0 L140 0 L140 7 C126 10 118 19 118 41 L118 500 L108 500 C98 497 86 494 76 491 L76 484 L76 484 Z " />
<glyph glyph-name="Idot" unicode="&#x130;" horiz-adv-x="259" d="M167 885 C167 911 127 911 127 885 C127 859 167 859 167 885 L167 885 Z M200 7 L193 8 C172 10 158 37 158 76 L158 674 C158 713 172 740 193 742 L200 743 L200 750 L93 750 L93 743 L100 742 C121 740 135 713 135 674 L135 76 C135 37 121 10 100 8 L93 7 L93 0 L200 0 L200 7 L200 7 Z " />
<glyph glyph-name="dotlessi" unicode="&#x131;" horiz-adv-x="184" d="M76 484 C91 484 98 477 98 456 L98 41 C98 19 90 10 76 7 L76 0 L140 0 L140 7 C126 10 118 19 118 41 L118 500 L108 500 C98 497 86 494 76 491 L76 484 L76 484 Z " />
<glyph glyph-name="Jcircumflex" unicode="&#x134;" horiz-adv-x="259" d="M154 1024 C151 1032 144 1032 141 1024 L1 811 L4 809 L148 1008 L292 809 L295 811 L154 1024 L154 1024 Z M201 750 L94 750 L94 743 L101 742 C122 740 136 713 136 674 L136 0 C136 -183 69 -218 20 -218 C8 -218 14 -199 2 -199 C-4 -199 -8 -203 -8 -210 C-8 -216 3 -220 19 -220 C78 -220 159 -178 159 44 L159 674 C159 713 173 740 194 742 L201 743 L201 750 L201 750 Z " />
<glyph glyph-name="Lacute" unicode="&#x139;" horiz-adv-x="481" d="M153 814 L289 940 C334 983 364 1011 364 1012 C364 1017 359 1022 354 1022 C354 1022 324 993 280 949 L150 817 L153 814 L153 814 Z M200 750 L93 750 L93 743 L100 742 C121 740 135 713 135 674 L135 76 C135 37 121 10 100 8 L93 7 L93 0 L450 0 L450 2 C454 27 460 61 464 86 L455 86 L449 73 C428 32 366 4 294 4 L252 4 C167 4 158 40 158 94 L158 674 C158 713 172 740 193 742 L200 743 L200 750 L200 750 Z " />
<glyph glyph-name="Lcaron" unicode="&#x13d;" horiz-adv-x="481" d="M295 809 C290 809 282 748 277 704 L264 593 L267 592 L288 701 C298 748 304 790 304 806 C304 808 300 809 295 809 L295 809 Z M200 750 L93 750 L93 743 L100 742 C121 740 135 713 135 674 L135 76 C135 37 121 10 100 8 L93 7 L93 0 L450 0 L450 2 C454 27 460 61 464 86 L455 86 L449 73 C428 32 366 4 294 4 L252 4 C167 4 158 40 158 94 L158 674 C158 713 172 740 193 742 L200 743 L200 750 L200 750 Z " />
<glyph glyph-name="lcaron" unicode="&#x13e;" horiz-adv-x="128" d="M158 759 C153 759 145 698 140 654 L126 543 L130 542 L150 651 C160 704 167 746 167 756 C167 758 163 759 158 759 L158 759 Z M57 664 L57 41 C57 19 49 10 35 7 L35 0 L99 0 L99 7 C85 10 77 19 77 41 L77 750 L67 750 C57 747 45 744 35 741 L35 736 C50 729 57 705 57 664 L57 664 Z " />
<glyph glyph-name="Nacute" unicode="&#x143;" horiz-adv-x="621" d="M216 814 L352 940 C397 983 427 1011 427 1012 C427 1017 422 1022 417 1022 C417 1022 387 993 343 949 L213 817 L216 814 L216 814 Z M45 743 C65 740 80 733 100 711 L100 76 C100 37 86 10 65 8 L58 7 L58 0 L149 0 L149 7 L142 8 C121 10 107 37 107 76 L106 704 C111 698 115 692 119 685 C250 457 383 230 512 0 L517 0 L519 674 C519 713 533 741 554 743 L561 744 L561 751 L469 751 L469 744 L476 743 C497 741 511 714 511 675 L512 48 L111 751 L44 751 L45 743 L45 743 Z M512 48 L512 48 L512 48 Z " />
<glyph glyph-name="Ncaron" unicode="&#x147;" horiz-adv-x="621" d="M454 1041 L310 842 L166 1041 L163 1039 L303 826 C306 818 313 818 316 826 L456 1039 L454 1041 L454 1041 Z M44 743 C64 740 79 733 99 711 L99 76 C99 37 85 10 64 8 L57 7 L57 0 L148 0 L148 7 L141 8 C120 10 106 37 106 76 L105 704 C110 698 114 692 118 685 C249 457 382 230 511 0 L516 0 L518 674 C518 713 532 741 553 743 L560 744 L560 751 L468 751 L468 744 L475 743 C496 741 510 714 510 675 L511 48 L110 751 L43 751 L44 743 L44 743 Z M511 48 L511 48 L511 48 Z " />
<glyph glyph-name="ncaron" unicode="&#x148;" horiz-adv-x="379" d="M336 791 L193 593 L49 791 L46 789 L185 576 C188 568 197 567 200 576 L339 789 L336 791 L336 791 Z M57 414 L57 41 C57 19 49 10 35 7 L35 0 L99 0 L99 7 C85 10 77 19 77 41 L77 372 C105 449 157 500 209 500 C274 500 308 437 308 342 L308 41 C308 19 300 10 286 7 L286 0 L350 0 L350 7 C336 10 328 19 328 41 L328 342 C328 443 290 510 215 510 C161 510 106 456 77 375 L77 500 L67 500 C57 497 45 494 35 491 L35 486 C50 479 57 455 57 414 L57 414 Z " />
<glyph glyph-name="Omacron" unicode="&#x14c;" horiz-adv-x="725" d="M242 907 L490 907 L490 920 L242 920 L242 907 L242 907 Z M96 375 C96 605 204 758 365 758 C532 758 644 605 644 375 C644 145 529 -8 356 -8 C200 -8 96 145 96 375 L96 375 Z M71 375 C71 144 185 -10 356 -10 C544 -10 670 144 670 375 C670 606 548 760 366 760 C189 760 71 606 71 375 L71 375 Z " />
<glyph glyph-name="omacron" unicode="&#x14d;" horiz-adv-x="561" d="M157 657 L405 657 L405 670 L157 670 L157 657 L157 657 Z M67 250 C67 405 153 508 281 508 C409 508 494 405 494 250 C494 95 409 -8 281 -8 C153 -8 67 95 67 250 L67 250 Z M45 250 C45 94 139 -10 281 -10 C422 -10 516 94 516 250 C516 406 422 510 281 510 C139 510 45 406 45 250 L45 250 Z " />
<glyph glyph-name="Obreve" unicode="&#x14e;" horiz-adv-x="725" d="M269 995 C270 940 309 904 366 904 C423 904 462 940 463 994 L459 995 C458 949 421 919 366 919 C311 919 274 949 273 995 L269 995 L269 995 Z M96 375 C96 605 204 758 365 758 C532 758 644 605 644 375 C644 145 529 -8 356 -8 C200 -8 96 145 96 375 L96 375 Z M71 375 C71 144 185 -10 356 -10 C544 -10 670 144 670 375 C670 606 548 760 366 760 C189 760 71 606 71 375 L71 375 Z " />
<glyph glyph-name="obreve" unicode="&#x14f;" horiz-adv-x="561" d="M184 745 C185 690 224 654 281 654 C338 654 377 690 378 744 L374 745 C373 699 336 669 281 669 C226 669 189 699 188 745 L184 745 L184 745 Z M67 250 C67 405 153 508 281 508 C409 508 494 405 494 250 C494 95 409 -8 281 -8 C153 -8 67 95 67 250 L67 250 Z M45 250 C45 94 139 -10 281 -10 C422 -10 516 94 516 250 C516 406 422 510 281 510 C139 510 45 406 45 250 L45 250 Z " />
<glyph glyph-name="Racute" unicode="&#x154;" horiz-adv-x="524" d="M277 814 L413 940 C458 983 488 1011 488 1012 C488 1017 483 1022 478 1022 C478 1022 448 993 404 949 L274 817 L277 814 L277 814 Z M79 743 L86 742 C107 740 121 713 121 674 L121 76 C121 37 107 10 86 8 L79 7 L79 0 L186 0 L186 7 L179 8 C158 10 144 37 144 76 L144 374 L279 374 C286 350 329 232 390 72 C416 3 421 0 515 0 L515 3 C447 3 443 6 418 72 C357 233 313 348 303 375 C391 382 448 435 448 542 C448 667 381 750 281 750 L80 750 L79 743 L79 743 Z M145 380 L145 745 L274 745 C363 745 422 665 422 546 C422 431 366 380 281 380 L145 380 L145 380 Z " />
<glyph glyph-name="Rcaron" unicode="&#x158;" horiz-adv-x="524" d="M415 1041 L271 842 L127 1041 L124 1039 L264 826 C267 818 274 818 277 826 L417 1039 L415 1041 L415 1041 Z M78 743 L85 742 C106 740 120 713 120 674 L120 76 C120 37 106 10 85 8 L78 7 L78 0 L185 0 L185 7 L178 8 C157 10 143 37 143 76 L143 374 L278 374 C285 350 328 232 389 72 C415 3 420 0 514 0 L514 3 C446 3 442 6 417 72 C356 233 312 348 302 375 C390 382 447 435 447 542 C447 667 380 750 280 750 L79 750 L78 743 L78 743 Z M144 380 L144 745 L273 745 C362 745 421 665 421 546 C421 431 365 380 280 380 L144 380 L144 380 Z " />
<glyph glyph-name="rcaron" unicode="&#x159;" horiz-adv-x="230" d="M281 791 L137 592 L-7 791 L-10 789 L130 576 C133 568 140 568 143 576 L283 789 L281 791 L281 791 Z M57 414 L57 41 C57 19 49 10 35 7 L35 0 L99 0 L99 7 C85 10 77 19 77 41 L77 385 C85 455 128 501 188 501 C192 501 195 487 195 466 C195 450 219 450 219 466 C219 492 210 510 197 510 C132 510 85 461 76 387 L76 500 L66 500 C56 497 44 494 34 491 L34 486 C49 479 56 455 56 414 L57 414 L57 414 Z " />
<glyph glyph-name="Sacute" unicode="&#x15a;" horiz-adv-x="506" d="M263 814 L399 940 C444 983 474 1011 474 1012 C474 1017 469 1022 464 1022 C464 1022 434 993 390 949 L260 817 L263 814 L263 814 Z M59 151 L59 151 L59 151 L59 151 Z M55 189 L55 45 L63 45 L67 61 C71 77 104 68 149 37 C166 25 184 15 202 8 C203 7 213 2 214 3 C239 -6 265 -11 291 -11 C397 -11 467 61 467 170 C467 252 410 334 298 386 C167 447 99 526 99 596 C99 708 161 772 261 754 C319 742 374 691 400 624 L409 600 L421 600 L421 708 L413 708 L409 700 C406 694 379 705 341 726 C316 741 284 754 253 758 L253 756 C146 770 78 700 78 586 C78 508 147 424 282 361 C391 310 447 235 447 162 C447 59 384 -10 289 -10 C264 -10 239 -5 215 4 C158 25 102 88 76 161 L67 187 L55 189 L55 189 Z " />
<glyph glyph-name="Scircumflex" unicode="&#x15c;" horiz-adv-x="506" d="M264 1024 C261 1032 254 1032 251 1024 L111 811 L114 809 L258 1008 L402 809 L405 811 L264 1024 L264 1024 Z M60 151 L60 151 L60 151 L60 151 Z M56 189 L56 45 L64 45 L68 61 C72 77 105 68 150 37 C167 25 185 15 203 8 C204 7 214 2 215 3 C240 -6 266 -11 292 -11 C398 -11 468 61 468 170 C468 252 411 334 299 386 C168 447 100 526 100 596 C100 708 162 772 262 754 C320 742 375 691 401 624 L410 600 L422 600 L422 708 L414 708 L410 700 C407 694 380 705 342 726 C317 741 285 754 254 758 L254 756 C147 770 79 700 79 586 C79 508 148 424 283 361 C392 310 448 235 448 162 C448 59 385 -10 290 -10 C265 -10 240 -5 216 4 C159 25 103 88 77 161 L68 187 L56 189 L56 189 Z " />
<glyph glyph-name="Scaron" unicode="&#x160;" horiz-adv-x="506" d="M401 1041 L257 842 L113 1041 L110 1039 L250 826 C253 818 260 818 263 826 L403 1039 L401 1041 L401 1041 Z M58 151 L58 151 L58 151 L58 151 Z M54 189 L54 45 L62 45 L66 61 C70 77 103 68 148 37 C165 25 183 15 201 8 C202 7 212 2 213 3 C238 -6 264 -11 290 -11 C396 -11 466 61 466 170 C466 252 409 334 297 386 C166 447 98 526 98 596 C98 708 160 772 260 754 C318 742 373 691 399 624 L408 600 L420 600 L420 708 L412 708 L408 700 C405 694 378 705 340 726 C315 741 283 754 252 758 L252 756 C145 770 77 700 77 586 C77 508 146 424 281 361 C390 310 446 235 446 162 C446 59 383 -10 288 -10 C263 -10 238 -5 214 4 C157 25 101 88 75 161 L66 187 L54 189 L54 189 Z " />
<glyph glyph-name="scaron" unicode="&#x161;" horiz-adv-x="382" d="M356 791 L212 592 L68 791 L65 789 L205 576 C208 568 215 568 218 576 L358 789 L356 791 L356 791 Z M206 503 L206 502 C249 490 281 451 292 405 L296 391 L302 391 L302 465 L296 465 L293 462 C299 469 272 483 223 498 C207 506 190 511 173 512 L173 510 C108 513 65 466 65 396 C65 335 113 276 207 242 C278 216 315 165 315 108 C315 38 273 -9 211 -9 C208 -9 181 -7 182 -5 C128 8 83 56 69 114 L65 128 L59 128 L59 44 L65 44 L68 49 C66 45 98 27 149 4 C160 -1 170 -6 181 -9 L181 -8 C268 -27 330 30 330 112 C330 173 291 228 215 256 C125 289 78 344 78 401 C78 480 133 526 205 501 L206 503 L206 503 Z " />
<glyph glyph-name="Tcaron" unicode="&#x164;" horiz-adv-x="740" d="M509 1041 L365 842 L221 1041 L218 1039 L358 826 C361 818 368 818 371 826 L511 1039 L509 1041 L509 1041 Z M316 0 L423 0 L423 7 L416 8 C395 10 381 37 381 76 L381 744 L545 744 C606 744 666 716 697 675 L706 662 L715 662 C704 687 691 719 681 744 L685 744 L685 750 L682 750 C682 751 682 752 682 753 L675 753 C653 749 603 751 535 751 L202 751 C133 751 84 749 62 753 L55 753 C54 751 53 749 53 748 L54 748 C44 723 30 689 19 663 L28 663 L37 676 C67 717 127 745 187 745 L359 745 L359 77 C359 38 345 11 324 9 L317 8 L316 0 L316 0 Z " />
<glyph glyph-name="tcaron" unicode="&#x165;" horiz-adv-x="285" d="M248 500 L111 500 L111 620 L109 620 L26 500 L26 490 L91 490 L91 103 C91 22 128 -10 183 -10 C207 -10 244 12 275 45 L273 46 C247 18 213 -1 189 -1 C142 -1 110 27 110 98 L111 489 L248 489 L248 500 L248 500 Z M326 759 C321 759 313 698 308 654 L294 543 L298 542 L318 651 C328 704 335 746 335 756 C335 758 331 759 326 759 L326 759 Z " />
<glyph glyph-name="Utilde" unicode="&#x168;" horiz-adv-x="515" d="M145 870 C145 913 161 941 185 941 C231 941 293 876 339 876 C367 876 386 906 386 951 L385 951 C385 915 368 891 343 891 C297 891 236 956 190 956 C162 956 144 922 144 870 L145 870 L145 870 Z M486 21 L479 20 C458 17 444 40 444 79 L444 750 L378 750 L378 743 L385 742 C406 740 420 713 420 674 L420 157 C377 66 283 5 183 5 C139 5 109 88 109 213 L109 750 L44 750 L44 743 L51 742 C72 740 86 713 86 674 L86 213 C86 79 121 -10 173 -10 C277 -10 376 53 420 147 L420 0 L432 0 L444 3 C458 7 474 11 486 14 L486 21 L486 21 Z " />
<glyph glyph-name="utilde" unicode="&#x169;" horiz-adv-x="356" d="M62 620 C62 663 78 691 102 691 C148 691 210 626 256 626 C284 626 302 656 302 701 L301 701 C301 665 285 641 260 641 C214 641 152 706 106 706 C79 706 61 672 61 620 L62 620 L62 620 Z M342 18 L337 18 C321 16 310 40 310 79 L310 500 L268 500 L268 493 C282 490 290 481 290 459 L290 126 C259 53 209 5 162 5 C109 5 73 65 73 156 L73 501 L31 501 L31 494 C45 491 53 482 53 460 L53 156 C53 57 93 -9 153 -9 C203 -9 256 44 290 125 L290 0 L300 0 C313 4 329 8 342 11 L342 18 L342 18 Z " />
<glyph glyph-name="Umacron" unicode="&#x16a;" horiz-adv-x="515" d="M141 907 L389 907 L389 920 L141 920 L141 907 L141 907 Z M486 21 L479 20 C458 17 444 40 444 79 L444 750 L378 750 L378 743 L385 742 C406 740 420 713 420 674 L420 157 C377 66 283 5 183 5 C139 5 109 88 109 213 L109 750 L44 750 L44 743 L51 742 C72 740 86 713 86 674 L86 213 C86 79 121 -10 173 -10 C277 -10 376 53 420 147 L420 0 L432 0 L444 3 C458 7 474 11 486 14 L486 21 L486 21 Z " />
<glyph glyph-name="umacron" unicode="&#x16b;" horiz-adv-x="356" d="M57 657 L306 657 L306 670 L57 670 L57 657 L57 657 Z M342 18 L337 18 C321 16 310 40 310 79 L310 500 L268 500 L268 493 C282 490 290 481 290 459 L290 126 C259 53 209 5 162 5 C109 5 73 65 73 156 L73 501 L31 501 L31 494 C45 491 53 482 53 460 L53 156 C53 57 93 -9 153 -9 C203 -9 256 44 290 125 L290 0 L300 0 C313 4 329 8 342 11 L342 18 L342 18 Z " />
<glyph glyph-name="Ubreve" unicode="&#x16c;" horiz-adv-x="515" d="M168 995 C169 940 208 904 265 904 C322 904 361 940 362 994 L358 995 C357 949 320 919 265 919 C210 919 173 949 172 995 L168 995 L168 995 Z M486 21 L479 20 C458 17 444 40 444 79 L444 750 L378 750 L378 743 L385 742 C406 740 420 713 420 674 L420 157 C377 66 283 5 183 5 C139 5 109 88 109 213 L109 750 L44 750 L44 743 L51 742 C72 740 86 713 86 674 L86 213 C86 79 121 -10 173 -10 C277 -10 376 53 420 147 L420 0 L432 0 L444 3 C458 7 474 11 486 14 L486 21 L486 21 Z " />
<glyph glyph-name="ubreve" unicode="&#x16d;" horiz-adv-x="356" d="M85 745 C86 690 125 654 182 654 C238 654 277 690 278 744 L274 745 C273 699 236 669 182 669 C127 669 90 699 89 745 L85 745 L85 745 Z M342 18 L337 18 C321 16 310 40 310 79 L310 500 L268 500 L268 493 C282 490 290 481 290 459 L290 126 C259 53 209 5 162 5 C109 5 73 65 73 156 L73 501 L31 501 L31 494 C45 491 53 482 53 460 L53 156 C53 57 93 -9 153 -9 C203 -9 256 44 290 125 L290 0 L300 0 C313 4 329 8 342 11 L342 18 L342 18 Z " />
<glyph glyph-name="Uring" unicode="&#x16e;" horiz-adv-x="515" d="M176 905 C176 959 212 995 265 995 C318 995 354 959 354 905 C354 856 313 815 265 815 C217 815 176 856 176 905 L176 905 Z M170 905 C170 854 214 810 265 810 C316 810 360 854 360 905 C360 962 322 1000 265 1000 C208 1000 170 962 170 905 L170 905 Z M486 21 L479 20 C458 17 444 40 444 79 L444 750 L378 750 L378 743 L385 742 C406 740 420 713 420 674 L420 157 C377 66 283 5 183 5 C139 5 109 88 109 213 L109 750 L44 750 L44 743 L51 742 C72 740 86 713 86 674 L86 213 C86 79 121 -10 173 -10 C277 -10 376 53 420 147 L420 0 L432 0 L444 3 C458 7 474 11 486 14 L486 21 L486 21 Z " />
<glyph glyph-name="uring" unicode="&#x16f;" horiz-adv-x="356" d="M92 655 C92 709 128 745 182 745 C235 745 271 709 271 655 C271 606 230 565 182 565 C133 565 92 606 92 655 L92 655 Z M86 655 C86 604 130 560 182 560 C233 560 277 604 277 655 C277 712 239 750 182 750 C124 750 86 712 86 655 L86 655 Z M342 18 L337 18 C321 16 310 40 310 79 L310 500 L268 500 L268 493 C282 490 290 481 290 459 L290 126 C259 53 209 5 162 5 C109 5 73 65 73 156 L73 501 L31 501 L31 494 C45 491 53 482 53 460 L53 156 C53 57 93 -9 153 -9 C203 -9 256 44 290 125 L290 0 L300 0 C313 4 329 8 342 11 L342 18 L342 18 Z " />
<glyph glyph-name="Wcircumflex" unicode="&#x174;" horiz-adv-x="868" d="M436 1024 C433 1033 424 1032 421 1024 L282 811 L285 809 L429 1007 L572 809 L575 811 L436 1024 L436 1024 Z M143 750 L21 750 L21 741 L26 740 C42 737 61 700 76 646 C132 427 187 207 244 -11 L250 -11 L467 487 C506 321 545 155 584 -11 L590 -11 L776 644 C792 699 820 736 846 739 L854 740 L854 749 L693 749 L693 740 L708 739 C755 736 778 702 768 651 L595 32 L454 644 C443 699 463 736 504 739 L517 740 L517 749 L370 749 L370 740 L375 739 C393 736 412 705 425 658 L463 498 L259 26 L102 639 C87 696 99 735 131 738 L141 739 L143 750 L143 750 Z " />
<glyph glyph-name="Ycircumflex" unicode="&#x176;" horiz-adv-x="530" d="M134 750 L22 750 L22 743 C40 739 55 724 75 689 L256 336 L256 96 C256 45 235 10 204 8 L194 7 L194 0 L342 0 L342 7 L332 8 C301 10 280 45 280 96 L280 339 L443 669 C464 711 496 740 523 742 L531 743 L531 750 L397 750 L397 743 L409 742 C448 740 458 710 439 669 L279 341 L108 677 C91 715 97 741 123 743 L132 744 L134 750 L134 750 Z M274 1025 C271 1033 264 1033 261 1025 L121 812 L124 810 L268 1009 L412 810 L415 812 L274 1025 L274 1025 Z " />
<glyph glyph-name="Ydieresis" unicode="&#x178;" horiz-adv-x="530" d="M352 885 C352 911 312 911 312 885 C312 859 352 859 352 885 L352 885 Z M226 885 C226 911 186 911 186 885 C186 859 226 859 226 885 L226 885 Z M134 750 L22 750 L22 743 C40 739 55 724 75 689 L256 336 L256 96 C256 45 235 10 204 8 L194 7 L194 0 L342 0 L342 7 L332 8 C301 10 280 45 280 96 L280 339 L443 669 C464 711 496 740 523 742 L531 743 L531 750 L397 750 L397 743 L409 742 C448 740 458 710 439 669 L279 341 L108 677 C91 715 97 741 123 743 L132 744 L134 750 L134 750 Z " />
<glyph glyph-name="Zacute" unicode="&#x179;" horiz-adv-x="596" d="M328 814 L464 940 C509 983 539 1011 539 1012 C539 1017 534 1022 529 1022 C529 1022 499 993 455 949 L325 817 L328 814 L328 814 Z M71 661 L76 674 C93 713 145 740 210 744 L551 745 L26 5 L26 0 L573 0 L575 7 L573 7 C575 17 582 47 592 89 L583 89 L576 76 C554 37 499 10 434 6 L54 5 L577 745 L577 750 L71 750 L70 743 L71 743 C70 733 67 703 63 661 L71 661 L71 661 Z " />
<glyph glyph-name="Zdot" unicode="&#x17b;" horiz-adv-x="596" d="M342 885 C342 911 302 911 302 885 C302 859 342 859 342 885 L342 885 Z M71 661 L76 674 C93 713 145 740 210 744 L551 745 L26 5 L26 0 L573 0 L575 7 L573 7 C575 17 582 47 592 89 L583 89 L576 76 C554 37 499 10 434 6 L54 5 L577 745 L577 750 L71 750 L70 743 L71 743 C70 733 67 703 63 661 L71 661 L71 661 Z " />
<glyph glyph-name="zdot" unicode="&#x17c;" horiz-adv-x="441" d="M253 635 C253 661 213 661 213 635 C213 609 253 609 253 635 L253 635 Z M60 493 C60 492 60 491 60 490 C60 491 60 492 60 493 L60 493 Z M46 439 L56 439 L63 447 C85 473 134 491 189 493 L376 494 L39 4 L39 -1 L395 -1 L395 2 L397 2 C397 2 399 25 403 60 L393 60 L387 52 C369 26 323 8 269 6 L64 5 L400 495 L400 500 L62 500 L62 497 L60 497 C58 497 49 456 45 439 L46 439 L46 439 Z " />
<glyph glyph-name="Zcaron" unicode="&#x17d;" horiz-adv-x="596" d="M466 1041 L322 842 L178 1041 L175 1039 L315 826 C318 818 325 818 328 826 L468 1039 L466 1041 L466 1041 Z M70 661 L75 674 C92 713 144 740 209 744 L550 745 L25 5 L25 0 L572 0 L574 7 L572 7 C574 17 581 47 591 89 L582 89 L575 76 C553 37 498 10 433 6 L53 5 L576 745 L576 750 L70 750 L69 743 L70 743 C69 733 66 703 62 661 L70 661 L70 661 Z " />
<glyph glyph-name="zcaron" unicode="&#x17e;" horiz-adv-x="441" d="M377 791 L233 592 L89 791 L86 789 L226 576 C229 568 236 568 239 576 L379 789 L377 791 L377 791 Z M59 493 C59 492 59 491 59 490 C59 491 59 492 59 493 L59 493 Z M45 439 L55 439 L62 447 C84 473 133 491 188 493 L375 494 L38 4 L38 -1 L394 -1 L394 2 L396 2 C396 2 398 25 402 60 L392 60 L386 52 C368 26 322 8 268 6 L63 5 L399 495 L399 500 L61 500 L61 497 L59 497 C57 497 48 456 44 439 L45 439 L45 439 Z " />
<glyph glyph-name="oogonek" unicode="&#x1eb;" horiz-adv-x="655" d="M850 -54 C821 -78 735 -94 633 -94 C509 -94 379 -61 307 -10 C487 -20 605 108 605 292 C605 473 496 593 333 593 C176 593 71 473 71 292 C71 125 157 9 290 -7 L287 -7 C371 -67 509 -107 631 -107 C724 -107 811 -85 850 -53 L850 -54 L850 -54 Z M305 -7 L301 -7 C176 5 94 122 94 293 C94 473 190 593 333 593 C482 593 582 473 582 293 C582 112 478 -8 322 -8 C318 -8 308 -9 305 -7 L305 -7 Z " />
<glyph glyph-name="Adotabove" unicode="&#x226;" horiz-adv-x="552" d="M311 885 C311 911 271 911 271 885 C271 859 311 859 311 885 L311 885 Z M-21 0 L162 0 L162 9 L148 10 C106 13 89 54 103 115 L156 298 L397 298 L444 121 C458 57 441 14 398 11 L384 10 L384 1 L550 1 L550 10 L542 11 C515 14 485 62 466 130 L302 744 C302 744 297 771 295 771 L292 771 C295 756 289 746 278 744 L281 733 L101 117 C79 55 37 14 -8 11 L-22 10 L-21 0 L-21 0 Z M156 299 L282 732 L397 299 L156 299 L156 299 Z " />
<glyph glyph-name="G_sc" unicode="&#x262;" horiz-adv-x="599" d="M553 253 L428 253 L428 244 L436 243 C462 240 480 199 480 139 L480 36 L480 24 L480 22 L480 17 L500 23 L500 29 C526 39 552 50 578 62 L578 63 C552 51 526 40 500 31 L500 139 C500 199 518 240 544 243 L552 244 L553 253 L553 253 Z M517 485 L517 485 L517 485 L517 485 Z M519 446 L519 560 L511 560 L507 548 C503 538 472 545 428 566 C408 576 381 586 357 590 L357 588 C341 591 323 592 303 592 C163 592 69 472 69 291 C69 110 162 -11 301 -11 C333 -11 364 -8 395 -2 C417 1 435 5 449 10 C447 10 445 10 443 10 C450 12 457 14 463 17 C422 4 347 -9 303 -9 C176 -9 91 110 91 289 C91 469 175 589 302 589 C310 589 356 586 355 584 C412 573 468 525 496 464 L505 443 L519 446 L519 446 Z M449 10 C458 14 468 17 478 20 C478 17 478 15 478 15 C478 15 466 13 448 10 L449 10 L449 10 Z M477 34 C477 29 477 25 477 22 C472 20 467 18 462 16 C470 21 475 27 476 33 L477 34 L477 34 Z " />
<glyph glyph-name="I_sc" unicode="&#x26a;" horiz-adv-x="258" d="M199 7 L192 8 C171 10 157 37 157 76 L157 507 C157 546 171 573 192 575 L199 576 L199 583 L94 583 L94 576 L101 575 C122 573 136 546 136 507 L136 76 C136 37 122 10 101 8 L94 7 L94 0 L199 0 L199 7 L199 7 Z " />
<glyph glyph-name="N_sc" unicode="&#x274;" horiz-adv-x="557" d="M47 576 C67 573 80 567 99 548 L99 76 C99 37 85 10 64 8 L57 7 L57 0 L147 0 L147 7 L140 8 C119 10 105 37 105 76 L105 542 C111 535 117 527 123 519 C231 346 339 172 449 0 L453 0 L455 507 C456 545 470 573 491 575 L498 576 L498 583 L407 583 L407 576 L414 575 C435 573 449 546 449 507 L450 31 L111 583 L47 583 L47 576 L47 576 Z " />
<glyph glyph-name="R_sc" unicode="&#x280;" horiz-adv-x="451" d="M79 576 L86 575 C107 573 121 546 121 507 L121 76 C121 37 107 10 86 8 L79 7 L79 0 L184 0 L184 7 L177 8 C156 10 142 37 142 76 L142 290 L230 290 C237 271 275 180 329 56 C352 2 357 0 441 0 L441 2 C380 2 377 4 354 56 C300 179 262 267 252 290 C331 296 383 337 383 420 C383 517 322 582 231 582 L79 582 L79 576 L79 576 Z M231 295 L142 295 L142 578 L225 578 C306 578 360 516 360 424 C360 336 310 295 231 295 L231 295 Z " />
<glyph glyph-name="Y_sc" unicode="&#x28f;" horiz-adv-x="465" d="M132 583 L23 583 L23 576 C40 572 57 557 79 523 L226 260 L226 96 C226 45 205 10 174 8 L164 7 L164 0 L309 0 L309 7 L299 8 C268 10 247 45 247 96 L247 263 L383 515 C408 555 434 572 467 576 L467 583 L334 583 L334 576 L346 575 C383 573 395 546 376 507 L247 265 L116 502 C93 544 96 573 124 575 L133 576 L132 583 L132 583 Z " />
<glyph glyph-name="B_sc" unicode="&#x299;" horiz-adv-x="420" d="M260 1 L210 1 C169 1 142 41 142 101 L142 299 L283 299 C327 299 357 239 357 150 C357 29 318 1 260 1 L260 1 Z M79 574 L86 573 C107 570 121 543 121 504 L121 79 C121 40 107 13 86 10 L79 9 L79 0 L262 0 C333 0 380 28 380 150 C380 240 343 300 287 300 L260 300 C329 308 374 363 374 442 C374 527 339 583 191 583 L79 583 L79 574 L79 574 Z M241 300 L142 300 L142 582 L189 582 C322 582 353 525 353 440 C353 356 308 300 241 300 L241 300 Z " />
<glyph glyph-name="H_sc" unicode="&#x29c;" horiz-adv-x="596" d="M537 7 L530 8 C509 10 495 37 495 76 L495 507 C495 546 509 573 530 575 L537 576 L537 583 L431 583 L431 576 L438 575 C459 573 473 546 473 507 L473 299 L178 299 L178 507 C178 546 192 573 213 575 L220 576 L220 583 L115 583 L115 576 L122 575 C143 573 157 546 157 507 L157 76 C157 37 143 10 122 8 L115 7 L115 0 L220 0 L220 7 L213 8 C192 10 178 37 178 76 L178 298 L473 298 L473 76 C473 37 459 10 438 8 L431 7 L431 0 L537 0 L537 7 L537 7 Z " />
<glyph glyph-name="L_sc" unicode="&#x29f;" horiz-adv-x="418" d="M199 583 L94 583 L94 576 L101 575 C122 573 136 546 136 507 L136 76 C136 37 122 10 101 8 L94 7 L94 0 L387 0 L387 2 C391 27 397 61 401 86 L392 86 L386 73 C366 34 309 7 241 5 C165 8 157 43 157 95 L157 508 C157 547 171 574 192 576 L199 577 L199 583 L199 583 Z " />
<glyph glyph-name="circumflex" unicode="&#x2c6;" horiz-adv-x="297" d="M156 774 C153 782 146 782 143 774 L3 561 L6 559 L150 758 L294 559 L296 561 L156 774 L156 774 Z " />
<glyph glyph-name="caron" unicode="&#x2c7;" horiz-adv-x="297" d="M293 791 L149 592 L5 791 L2 789 L142 576 C145 568 152 568 155 576 L294 789 L293 791 L293 791 Z " />
<glyph glyph-name="firsttonechinese" unicode="&#x2c9;" horiz-adv-x="297" d="M24 657 L273 657 L273 670 L24 670 L24 657 L24 657 Z " />
<glyph glyph-name="breve" unicode="&#x2d8;" horiz-adv-x="297" d="M52 745 C53 690 92 654 149 654 C205 654 244 690 245 744 L241 745 C240 699 203 669 149 669 C94 669 57 699 56 745 L52 745 L52 745 Z " />
<glyph glyph-name="dotaccent" unicode="&#x2d9;" horiz-adv-x="297" d="M169 635 C169 661 129 661 129 635 C129 609 169 609 169 635 L169 635 Z " />
<glyph glyph-name="ring" unicode="&#x2da;" horiz-adv-x="297" d="M59 655 C59 709 95 745 149 745 C202 745 238 709 238 655 C238 606 197 565 149 565 C100 565 59 606 59 655 L59 655 Z M53 655 C53 604 97 560 149 560 C200 560 244 604 244 655 C244 712 206 750 149 750 C91 750 53 712 53 655 L53 655 Z " />
<glyph glyph-name="A_sc" unicode="&#x1d00;" horiz-adv-x="492" d="M327 0 L490 0 L490 9 L482 10 C456 13 426 56 406 120 L271 578 C271 578 266 603 264 603 L261 603 C263 589 259 579 250 578 L253 568 L110 129 C88 60 41 13 -7 10 L-21 9 L-21 0 L162 0 L162 9 L149 10 C105 13 91 61 112 130 L145 232 L352 232 L382 130 C401 62 386 14 342 11 L328 10 L327 0 L327 0 Z M146 233 L254 567 L352 233 L146 233 L146 233 Z " />
<glyph glyph-name="C_sc" unicode="&#x1d04;" horiz-adv-x="569" d="M520 446 L520 560 L512 560 L508 548 C504 538 473 545 429 566 C409 576 382 586 358 590 L358 588 C342 591 324 592 304 592 C164 592 70 472 70 291 C70 110 160 -11 295 -11 C317 -11 337 -9 356 -6 L357 -8 C369 -6 381 -2 393 3 C418 11 501 54 508 31 L512 18 L520 18 L520 136 L508 136 L499 115 C472 55 415 7 356 -5 C338 -9 318 -11 297 -11 C175 -11 94 109 94 290 C94 470 178 590 305 590 C313 590 359 587 358 585 C415 574 471 526 499 465 L508 444 L520 446 L520 446 Z M518 483 L518 483 L518 483 L518 483 Z " />
<glyph glyph-name="D_sc" unicode="&#x1d05;" horiz-adv-x="623" d="M187 1 C147 1 142 38 142 94 L142 582 L207 582 C430 582 545 466 545 292 C545 100 402 1 187 1 L187 1 Z M79 576 L86 575 C107 573 121 546 121 507 L121 76 C121 37 107 10 86 8 L79 7 L79 0 L188 0 C416 0 568 99 568 292 C568 467 447 583 212 583 L79 583 L79 576 L79 576 Z " />
<glyph glyph-name="E_sc" unicode="&#x1d07;" horiz-adv-x="443" d="M300 393 L296 379 C282 332 235 301 178 301 L142 301 L142 582 L237 582 C294 582 345 551 365 504 L371 490 L380 490 C377 518 372 555 369 583 L59 583 L59 576 L69 575 C100 573 121 538 121 487 L121 96 C121 45 100 10 69 8 L59 7 L59 0 L394 0 C398 25 404 58 408 83 L399 83 L393 70 C372 29 310 1 238 1 C152 1 142 37 142 94 L142 299 L178 299 C235 299 282 268 296 221 L300 207 L309 207 L309 393 L300 393 L300 393 Z " />
<glyph glyph-name="J_sc" unicode="&#x1d0a;" horiz-adv-x="258" d="M199 583 L94 583 L94 576 L101 575 C122 573 136 546 136 507 L136 2 C136 -183 75 -218 31 -218 C20 -218 26 -201 15 -201 C10 -201 6 -205 6 -211 C6 -216 16 -220 30 -220 C83 -220 157 -178 157 42 L157 507 C157 546 171 573 192 575 L199 576 L199 583 L199 583 Z " />
<glyph glyph-name="K_sc" unicode="&#x1d0b;" horiz-adv-x="470" d="M184 583 L79 583 L79 576 L86 575 C107 573 121 546 121 507 L121 76 C121 37 107 10 86 8 L79 7 L79 0 L184 0 L184 7 L177 8 C156 10 142 37 142 76 L142 292 L405 0 L464 0 L464 7 C436 11 409 26 375 61 L157 307 L298 492 C334 540 380 573 413 575 L423 576 L423 583 L247 583 L247 576 L263 575 C315 573 316 526 265 457 L142 292 L142 507 C142 546 156 573 177 575 L184 576 L184 583 L184 583 Z " />
<glyph glyph-name="M_sc" unicode="&#x1d0d;" horiz-adv-x="637" d="M519 0 L623 0 L623 7 L617 8 C598 10 583 32 580 65 L564 506 C564 544 575 572 596 574 L603 575 L603 582 L541 582 L343 29 L121 580 L121 582 L56 582 L56 575 C80 572 96 561 114 532 L98 64 C94 31 79 9 60 7 L54 6 L54 -1 L144 -1 L144 6 L137 7 C118 9 106 31 104 64 L119 521 C121 518 122 515 123 512 C192 341 261 169 331 -1 L336 -1 L541 564 L558 75 C558 37 547 9 526 7 L519 6 L519 0 L519 0 Z " />
<glyph glyph-name="O_sc" unicode="&#x1d0f;" horiz-adv-x="660" d="M94 292 C94 472 190 592 333 592 C482 592 582 472 582 292 C582 111 478 -9 323 -9 C186 -9 94 111 94 292 L94 292 Z M71 292 C71 111 172 -10 323 -10 C492 -10 605 111 605 292 C605 473 496 593 333 593 C176 593 71 473 71 292 L71 292 Z " />
<glyph glyph-name="P_sc" unicode="&#x1d18;" horiz-adv-x="356" d="M190 7 L183 8 C162 10 148 37 148 76 L148 279 L177 279 C272 279 336 323 336 421 C336 518 284 583 206 583 L85 583 L85 576 L92 575 C113 573 127 546 127 507 L127 76 C127 37 113 10 92 8 L85 7 L85 0 L190 0 L190 7 L190 7 Z M148 284 L148 580 L201 580 C270 580 316 518 316 425 C316 328 260 284 177 284 L148 284 L148 284 Z " />
<glyph glyph-name="T_sc" unicode="&#x1d1b;" horiz-adv-x="691" d="M293 0 L398 0 L398 7 L391 8 C370 10 356 37 356 76 L356 578 L495 578 C556 578 616 550 647 509 L656 496 L665 496 C654 521 641 553 631 578 L636 578 L636 583 L633 583 C633 584 633 585 633 586 L626 586 C604 582 554 584 486 584 L203 584 C134 584 85 582 63 586 L56 586 C55 584 54 582 54 581 L56 581 C46 556 32 523 21 497 L30 497 L39 510 C69 551 129 579 189 579 L336 579 L336 77 C336 38 322 11 301 9 L294 8 L293 0 L293 0 Z " />
<glyph glyph-name="U_sc" unicode="&#x1d1c;" horiz-adv-x="449" d="M368 0 C384 5 404 10 420 14 L420 21 L413 20 C392 17 378 40 378 79 L378 583 L315 583 L315 576 L322 575 C343 573 357 546 357 507 L357 141 C319 59 237 4 152 4 C125 4 107 82 107 198 L107 583 L44 583 L44 576 L51 575 C72 573 86 546 86 507 L86 198 C86 73 109 -10 143 -10 C232 -10 317 47 357 132 L357 0 L368 0 L368 0 Z " />
<glyph glyph-name="V_sc" unicode="&#x1d20;" horiz-adv-x="522" d="M504 583 L346 583 L346 574 L362 573 C412 570 431 526 410 461 L257 33 L118 453 C96 521 110 569 154 572 L167 573 L167 582 L21 582 L21 573 L26 572 C41 569 63 533 83 478 C136 315 188 152 241 -11 L245 -11 L416 457 C441 524 473 569 497 572 L504 573 L504 583 L504 583 Z " />
<glyph glyph-name="W_sc" unicode="&#x1d21;" horiz-adv-x="765" d="M141 583 L22 583 L22 574 L27 573 C43 570 63 536 79 486 C126 321 173 156 220 -9 L225 -9 L410 380 L510 -9 L515 -9 L672 483 C690 536 719 572 745 575 L753 576 L753 585 L594 585 L594 576 L609 575 C656 572 677 537 665 486 L521 31 L408 476 C395 533 412 573 454 576 L467 577 L467 586 L323 586 L323 577 L329 576 C347 573 368 536 383 482 L406 392 L235 29 L105 477 C90 533 99 573 130 576 L140 577 L141 583 L141 583 Z " />
<glyph glyph-name="Z_sc" unicode="&#x1d22;" horiz-adv-x="546" d="M72 495 L77 508 C94 547 146 574 211 577 L502 578 L24 3 L24 -1 L521 -1 L522 5 L522 5 L541 87 L532 87 L525 74 C504 35 448 8 383 4 L50 3 L526 578 L526 582 L70 582 L69 576 L70 576 C69 567 66 536 63 494 L72 495 L72 495 Z " />
<glyph glyph-name="Wgrave" unicode="&#x1e80;" horiz-adv-x="868" d="M220 1012 C220 1009 250 981 296 940 L433 814 L435 817 L305 949 C263 993 233 1022 230 1022 C225 1022 220 1017 220 1012 L220 1012 Z M143 750 L21 750 L21 741 L26 740 C42 737 61 700 76 646 C132 427 187 207 244 -11 L250 -11 L467 487 C506 321 545 155 584 -11 L590 -11 L776 644 C792 699 820 736 846 739 L854 740 L854 749 L693 749 L693 740 L708 739 C755 736 778 702 768 651 L595 32 L454 644 C443 699 463 736 504 739 L517 740 L517 749 L370 749 L370 740 L375 739 C393 736 412 705 425 658 L463 498 L259 26 L102 639 C87 696 99 735 131 738 L141 739 L143 750 L143 750 Z " />
<glyph glyph-name="Wacute" unicode="&#x1e82;" horiz-adv-x="868" d="M434 814 L571 940 C617 983 647 1012 647 1012 C647 1017 642 1022 637 1022 C636 1022 606 993 562 949 L432 817 L434 814 L434 814 Z M143 750 L21 750 L21 741 L26 740 C42 737 61 700 76 646 C132 427 187 207 244 -11 L250 -11 L467 487 C506 321 545 155 584 -11 L590 -11 L776 644 C792 699 820 736 846 739 L854 740 L854 749 L693 749 L693 740 L708 739 C755 736 778 702 768 651 L595 32 L454 644 C443 699 463 736 504 739 L517 740 L517 749 L370 749 L370 740 L375 739 C393 736 412 705 425 658 L463 498 L259 26 L102 639 C87 696 99 735 131 738 L141 739 L143 750 L143 750 Z " />
<glyph glyph-name="Wdieresis" unicode="&#x1e84;" horiz-adv-x="868" d="M511 885 C511 911 471 911 471 885 C471 859 511 859 511 885 L511 885 Z M386 885 C386 911 346 911 346 885 C346 859 386 859 386 885 L386 885 Z M143 750 L21 750 L21 741 L26 740 C42 737 61 700 76 646 C132 427 187 207 244 -11 L250 -11 L467 487 C506 321 545 155 584 -11 L590 -11 L776 644 C792 699 820 736 846 739 L854 740 L854 749 L693 749 L693 740 L708 739 C755 736 778 702 768 651 L595 32 L454 644 C443 699 463 736 504 739 L517 740 L517 749 L370 749 L370 740 L375 739 C393 736 412 705 425 658 L463 498 L259 26 L102 639 C87 696 99 735 131 738 L141 739 L143 750 L143 750 Z " />
<glyph glyph-name="Etilde" unicode="&#x1ebc;" horiz-adv-x="495" d="M152 870 C152 913 168 941 192 941 C238 941 300 876 346 876 C374 876 392 906 392 951 L391 951 C391 915 375 891 350 891 C304 891 242 956 196 956 C169 956 151 922 151 870 L152 870 L152 870 Z M352 478 L348 464 C334 417 287 386 230 386 L144 386 L144 749 L289 749 C346 749 397 718 417 671 L423 657 L432 657 C429 685 424 722 421 750 L59 750 L59 743 L69 742 C100 740 121 705 121 654 L121 96 C121 45 100 10 69 8 L59 7 L59 0 L446 0 C450 25 456 58 460 83 L451 83 L445 70 C424 29 362 1 290 1 L238 1 C153 1 144 38 144 94 L144 385 L230 385 C287 385 334 354 348 307 L352 293 L361 293 L361 478 L352 478 L352 478 Z " />
<glyph glyph-name="Ygrave" unicode="&#x1ef2;" horiz-adv-x="530" d="M134 750 L22 750 L22 743 C40 739 55 724 75 689 L256 336 L256 96 C256 45 235 10 204 8 L194 7 L194 0 L342 0 L342 7 L332 8 C301 10 280 45 280 96 L280 339 L443 669 C464 711 496 740 523 742 L531 743 L531 750 L397 750 L397 743 L409 742 C448 740 458 710 439 669 L279 341 L108 677 C91 715 97 741 123 743 L132 744 L134 750 L134 750 Z M60 1013 C60 1010 90 982 135 941 L271 815 L274 818 L144 950 C102 994 73 1023 70 1023 C65 1023 60 1018 60 1013 L60 1013 Z " />
<glyph glyph-name="quoteleft" unicode="&#x2018;" horiz-adv-x="348" d="M90 621 C101 621 102 640 90 640 L90 653 C86 653 84 649 84 642 C84 699 102 742 130 749 L120 760 C95 753 78 704 78 638 C78 628 83 621 90 621 L90 621 Z " />
<glyph glyph-name="quoteright" unicode="&#x2019;" d="" />
<glyph glyph-name="quotedblleft" unicode="&#x201c;" horiz-adv-x="348" d="M137 621 C148 621 149 640 137 640 L137 653 C133 653 131 649 131 642 C131 699 149 742 177 749 L167 760 C142 753 125 704 125 638 C125 628 130 621 137 621 L137 621 Z M78 621 C89 621 90 640 78 640 L78 653 C74 653 72 649 72 642 C72 699 90 742 118 749 L108 760 C83 753 66 704 66 638 C66 628 71 621 78 621 L78 621 Z " />
<glyph glyph-name="quotedblright" unicode="&#x201d;" horiz-adv-x="348" d="M143 744 C143 679 139 634 132 632 L143 621 C147 622 149 673 149 749 C149 756 144 760 137 760 C125 760 126 741 137 741 L137 728 C141 728 143 734 143 743 L143 744 L143 744 Z M84 743 C84 678 80 633 73 631 L84 620 C88 621 90 672 90 748 C90 755 85 759 78 759 C66 759 67 740 78 740 L78 727 C82 727 84 733 84 742 L84 743 L84 743 Z " />
<glyph glyph-name="Euro" unicode="&#x20ac;" horiz-adv-x="683" d="M388 760 C237 760 133 623 122 414 L57 414 L55 400 L121 400 C120 384 120 367 121 351 L55 351 L53 337 L122 337 C133 128 233 -9 378 -9 C416 -9 450 -3 481 8 L481 7 C502 15 522 25 540 37 C587 67 621 77 625 62 L629 49 L636 49 L636 125 L633 128 C633 129 635 126 636 125 L636 167 L625 167 L616 146 C592 92 545 43 495 18 C460 1 422 -8 379 -8 C248 -8 158 129 148 337 L436 337 L438 351 L147 351 C147 367 147 384 148 400 L439 400 L441 414 L149 414 C159 622 253 758 390 758 C426 758 457 752 485 741 C538 720 591 666 617 605 L626 584 L637 584 L637 699 L630 699 L626 687 C622 673 588 686 544 715 C504 742 456 759 390 759 L388 760 L388 760 Z " />
<glyph glyph-name="F_sc" unicode="&#xa730;" horiz-adv-x="418" d="M290 393 L286 379 C272 332 225 301 168 301 L142 301 L142 582 L237 582 C294 582 345 551 365 504 L371 490 L380 490 C377 518 372 555 369 583 L59 583 L59 576 L69 575 C100 573 121 538 121 487 L121 96 C121 45 100 10 69 8 L59 7 L59 0 L204 0 L204 7 L194 8 C163 10 142 45 142 96 L142 299 L168 299 C225 299 272 268 286 221 L290 207 L299 207 L299 393 L290 393 L290 393 Z " />
<glyph glyph-name="S_sc" unicode="&#xa731;" horiz-adv-x="456" d="M220 -8 L220 -6 C331 -26 415 33 415 130 C415 192 365 257 267 303 C153 356 95 417 95 467 C95 542 138 592 202 592 C263 592 322 548 349 482 L358 459 L370 459 L370 566 L362 566 L358 558 C355 552 329 558 292 572 C265 587 234 595 202 595 L202 592 C128 592 79 538 79 458 C79 400 139 334 254 280 C349 236 398 177 398 123 C398 31 322 -25 220 -5 C160 7 102 61 75 130 L66 155 L54 155 L54 11 L62 11 L66 27 C70 43 105 37 154 13 C173 3 196 -6 218 -10 L220 -8 L220 -8 Z M366 495 L366 495 L366 495 L366 495 Z " />
<glyph glyph-name="X_sc" unicode="&#xf078;" horiz-adv-x="519" d="M386 0 L495 0 L495 7 C477 11 459 27 435 63 L291 304 L420 501 C447 543 484 572 512 574 L520 575 L520 582 L381 582 L381 575 L393 574 C431 572 437 542 412 500 L289 304 L172 500 L173 500 C148 542 150 571 177 573 L186 574 L186 581 L77 581 L77 574 C95 570 113 554 137 518 L274 289 L125 67 C94 27 66 10 32 6 L32 -1 L170 -1 L170 6 L158 7 C120 9 114 39 141 80 L276 284 L398 80 L397 80 C422 38 420 9 393 7 L384 6 L386 0 L386 0 Z " />
</font>
</svg>
