<?xml version="1.0" encoding="UTF-8"?>
<svg xmlns="http://www.w3.org/2000/svg" xmlns:xlink="http://www.w3.org/1999/xlink" version="1.2" >
<font id="Warick Thin Round">
<font-face  font-family="Warick" units-per-em="1024" ascent="975" descent="-300" font-style="normal" font-weight="100" font-stretch="normal" cap-height="1041" x-height="488" underline-position="-125" underline-thickness="50" />
<missing-glyph  horiz-adv-x="100" d="" />
<glyph glyph-name="NULL" d="" />
<glyph glyph-name="CR" unicode="&#xd;" horiz-adv-x="256" d="" />
<glyph glyph-name="space" unicode="&#x20;" horiz-adv-x="207" d="" />
<glyph glyph-name="exclam" unicode="&#x21;" horiz-adv-x="164" d="M102 15 C102 41 62 41 62 15 C62 -11 102 -11 102 15 L102 15 Z M82 755 C73 755 69 728 70 688 L76 449 C76.1662 442.381 87.8338 442.381 88 449 L94 688 C95 728 91 755 82 755 L82 755 Z " />
<glyph glyph-name="quotedbl" unicode="&#x22;" horiz-adv-x="290" d="M220 750 C215 750 213 732 214 705 L218 632.5 C218.243 628.098 225.757 628.098 226 632.5 L229.861 702.479 C229.867 702.581 229.907 708.075 229.904 708.176 C229.202 735.306 231.556 751.926 220 750 L220 750 Z M100 750 C95 750 93 732 94 705 L98 632.5 C98.2429 628.098 105.757 628.098 106 632.5 L109.861 702.479 C109.867 702.581 109.907 708.075 109.904 708.176 C109.202 735.306 111.556 751.926 100 750 L100 750 Z " />
<glyph glyph-name="numbersign" unicode="&#x23;" horiz-adv-x="478" d="M344.509 580.067 L335.726 516.599 C332.048 490.027 306.763 468 279.938 468 L256.366 468 C221.152 468 195.87 496.894 200.544 531.796 L207 580 C207.073 580.542 206.097 580.677 206.019 580.136 L196.908 516.355 C193.133 489.933 167.845 468 141.154 468 L69.0623 468 C64.6465 468 60.5477 464.382 60 460 C59.4523 455.618 62.6465 452 67.0623 452 L123.55 452 C158.804 452 184.087 423.067 179.362 388.132 L161.596 256.772 C157.988 230.094 132.705 208 105.784 208 L31.0623 208 C26.6465 208 22.5477 204.382 22 200 C21.4523 195.618 24.6465 192 29.0623 192 L87.8712 192 C122.972 192 148.252 163.215 143.72 128.408 L139.5 96 C139.429 95.458 140.405 95.3259 140.481 95.8671 L147.183 143.523 C150.909 170.02 176.196 192 202.954 192 L226.871 192 C261.972 192 287.252 163.215 282.72 128.408 L278.5 96 C278.429 95.458 279.405 95.3259 279.481 95.8671 L286.183 143.523 C289.909 170.02 315.196 192 341.954 192 L404.938 192 C409.354 192 413.452 195.618 414 200 C414.548 204.382 411.354 208 406.938 208 L355.5 208 C322.954 208 299.613 234.711 303.975 266.963 L322.404 403.228 C326.012 429.906 351.295 452 378.216 452 L447.938 452 C452.354 452 456.452 455.618 457 460 C457.548 464.382 454.354 468 449.938 468 L394.5 468 C359.76 468 334.818 496.506 339.429 530.938 L346 580 C346.036 580.271 344.547 580.338 344.509 580.067 L344.509 580.067 Z M239.216 452 L262.55 452 C297.804 452 323.087 423.067 318.362 388.132 L300.596 256.772 C296.988 230.094 271.705 208 244.784 208 L221.45 208 C186.196 208 160.913 236.933 165.638 271.868 L183.404 403.228 C187.012 429.906 212.295 452 239.216 452 L239.216 452 Z " />
<glyph glyph-name="dollar" unicode="&#x24;" horiz-adv-x="506" d="M55 183.5 L55 49 C55 46.7921 56.7921 45 59 45 C61.142 45 63.4506 46.8026 63.9701 48.8806 L67 61 C71 77 104 68 149 37 C164.833 25.3333 181.361 16.4444 199.162 8.59722 C204.497 6.24558 210 -2.05498 210 -7.88486 L210 -68 C210 -71.8638 213.136 -75 217 -75 C220.864 -75 224 -71.8638 224 -68 L224 -10.9202 C224 -5.34198 229.513 -1.57032 234.946 -2.83591 C248.911 -6.08918 263.231 -8.0547 277.626 -8.73246 C283.406 -9.0046 289 -14.2139 289 -20 L289 -67 C289 -70.8638 292.136 -74 296 -74 C299.864 -74 303 -70.8638 303 -67 L303 -41.5 C303 -26.9119 323.918 -7.23771 338.098 -3.80859 C416 15.0313 465 80 465 171 C465 243 420.45 315 333.537 366.588 C320.449 374.356 303 403.028 303 418.248 L303 714.495 C303 726.638 314.27 731.583 324.001 724.319 C356.079 700.374 383.325 665.25 399 624 L405.893 605.618 C406.982 602.714 410.899 600 414 600 C417.312 600 420 602.688 420 606 L420 704 C420 706.208 418.208 708 416 708 C414.025 708 411.094 706.189 410.211 704.422 L408 700 C403.625 690.375 346.422 723.625 314.771 739.457 C308.961 742.364 303 752.619 303 759.116 L303 817 C303 820.864 299.864 824 296 824 C292.136 824 289 820.864 289 817 L289 756.325 C289 753.137 285.322 751.202 282.25 752.052 C272.5 754.75 262.75 756.375 253 758 C244.538 758.846 236.077 758.976 227.615 758.996 C224.862 759.003 223 761.247 223 764 L223 817 C223 820.864 219.864 824 216 824 C212.136 824 209 820.864 209 817 L209 791 C209 777.604 188.017 755.28 175.357 750.901 C115.57 730.225 78 669.45 78 587 C78 531.2 113.64 472.16 184.191 420.086 C194.349 412.588 209 384.899 209 372.273 L209 37.8077 C209 21.0521 198.624 11.9445 184.412 20.8205 C138.452 49.525 96.25 102.65 75 163 L67.7991 183.803 C66.8607 186.514 63.3688 189 60.5 189 C57.4642 189 55 186.536 55 183.5 L55 183.5 Z M289 734.692 L289 403.416 C289 396.738 282.04 393.484 276.107 396.551 C260.592 404.574 245.966 412.676 232.229 421.156 C227.328 424.181 223 433.168 223 438.927 L223 745 C223 752.645 228.005 758.093 235.634 757.593 C252.005 756.519 266.523 753.37 279.782 748.741 C285.206 746.847 289 740.436 289 734.692 L289 734.692 Z M59 151 L59 151 L59 151 L59 151 Z M233.583 388.444 C247.927 380.392 263.468 372.739 279.23 365.16 C284.932 362.418 290 353.579 290 347.252 L290 3 C290 -3.44344 285.052 -8.04294 278.621 -7.64841 C264.207 -6.7642 249.793 -4.23699 235.379 -0.348026 C229.158 1.33055 224 8.09956 224 14.5434 L224 382.338 C224 387.767 228.85 391.102 233.583 388.444 L233.583 388.444 Z M349.633 325.03 C414.649 278.561 448 221.1 448 165 C448 84.15 409.204 24.3994 346.774 2.59359 C318.572 -7.25686 304 7.7305 304 37.6033 L304 299.323 C304 327.611 326.618 341.48 349.633 325.03 L349.633 325.03 Z M174.468 465.267 C123.864 508.797 98 555.1 98 598 C98 673.075 127.948 728.412 176.612 749.411 C198.436 758.828 210 747.589 210 723.82 L210 482.936 C210 461.41 190.787 451.23 174.468 465.267 L174.468 465.267 Z " />
<glyph glyph-name="ampersand" unicode="&#x26;" horiz-adv-x="283" d="M347.127 482.792 C408.901 511.596 449 560.45 449 614 C449 702 395 760 315 760 C222 760 160 699 160 607 C160 582 217 514 302 412 C302 412 370.45 334.994 489.938 193.644 C508.481 171.709 508.94 144.81 488.479 124.652 C414.063 51.3438 334 10 257 10 C150 10 78 90 78 211 C78 297.625 124.283 375.742 198.879 418.399 C198.959 418.444 200.968 420.934 200.886 420.892 C113.355 376.869 57 294.95 57 204 C57 76 132 -9 245 -9 C335.675 -9 431.103 47.0869 517.381 145.358 C520.748 149.192 526.376 150.024 529.606 146.073 C540 133.361 551 120.538 562 107 C621 37 676 -10 699 -10 C753.4 -10 796.962 36.6013 816.177 108.923 C816.186 108.96 814.981 107.16 814.97 107.124 C795.894 45.1359 754.85 6 707 6 C687 6 636 50 580 117 C567.586 131.897 555.857 146.108 544.247 159.635 C540.566 163.922 538.714 170.083 542.237 174.501 C610.141 259.663 671.2 370.325 718 500 L713 500 C672.2 388.65 620.563 291.027 563 212.66 C544.58 187.58 513.286 195.326 493.203 219.095 C381.99 350.72 318 422 318 422 C232 524 175 593 175 618 C175 700 230 755 313 755 C384 755 431 699 431 615 C431 562.2 398.33 513.484 345.905 485.697 C345.781 485.631 347.001 482.733 347.127 482.792 L347.127 482.792 Z " />
<glyph glyph-name="quotesingle" unicode="&#x27;" horiz-adv-x="188" d="M100 750 C95 750 93 732 94 705 L98 632.5 C98.2429 628.098 105.757 628.098 106 632.5 L109.861 702.479 C109.867 702.581 109.907 708.075 109.904 708.176 C109.202 735.306 111.556 751.926 100 750 L100 750 Z " />
<glyph glyph-name="parenleft" unicode="&#x28;" horiz-adv-x="324" d="M263.718 713.126 C163.58 612.32 100 445.55 100 273 C100 106.4 161.774 -58.755 258.914 -163.509 C258.914 -163.509 259.162 -165.976 259.162 -165.976 L262.117 -163.28 C262.117 -163.28 262.365 -165.747 262.365 -165.747 C171.439 -64.365 114 102.15 114 273 C114 448.95 173.606 616.23 267.64 714.042 C267.702 714.107 263.782 713.19 263.718 713.126 L263.718 713.126 Z " />
<glyph glyph-name="parenright" unicode="&#x29;" horiz-adv-x="324" d="M85.6674 712.337 C186.42 613.553 250 447.25 250 273 C250 96.2 188.226 -71.2075 91.0861 -168.424 C91.0572 -168.453 94.5082 -166.597 94.5376 -166.569 C197.891 -66.575 264 99.6 264 273 C264 443.85 195.724 609.642 89.2634 711.421 C89.1881 711.493 85.593 712.41 85.6674 712.337 L85.6674 712.337 Z " />
<glyph glyph-name="asterisk" unicode="&#x2a;" horiz-adv-x="246" d="M260.196 690.132 C263.609 693.655 261.048 698.173 255.833 697.383 C252.093 696.816 252.712 694.835 254.684 691.607 L254.932 691.202 C256.951 687.898 257.502 687.35 260.196 690.132 L260.196 690.132 Z M252 566 L252 566 L252 566 Z M50 565 C50 565 50 565 50 566 L50 565 L50 565 Z M47.5 570 L47.3702 570.208 C45.4678 573.251 44.4347 574.59 42.1661 571.808 C39.1593 568.121 41.5537 563.181 46.6948 564.287 C50.2069 565.042 49.404 566.954 47.5 570 L47.5 570 Z M55.8235 568.039 L148.917 626.687 C149.017 626.751 153.085 629.071 153.19 629.126 L252.814 680.334 C255.67 681.803 256.652 685.246 255 688 C253.345 690.758 249.802 691.585 247.097 689.844 L201.098 660.241 C178.628 645.78 152.654 660.813 154 687.5 L157 747 C157 758 145 758 145 747 L147.75 687.5 C148.991 660.642 122.937 645.552 100.259 659.994 L52.2342 690.577 C52.1817 690.611 48.298 693.137 48.2436 693.167 C40.2667 697.564 35.6 687.733 44 684 L97.2029 656.395 C120.904 644.097 120.792 614.121 97 602 L49.0797 577.588 C46.3263 576.185 45.6028 572.939 47.5 570.5 C49.4225 568.028 53.1741 566.37 55.8235 568.039 L55.8235 568.039 Z M254.351 576.876 L204.479 602.511 C201.788 603.894 199.196 599.373 201.75 597.75 L252.5 565.5 C260.115 560.423 263.793 567.16 260.503 572.382 C258.198 576.042 258.198 574.898 254.351 576.876 L254.351 576.876 Z M145 509 C145 498 157 498 157 509 L154 569 C153.835 572.304 148.165 572.304 148 569 L145 509 L145 509 Z " />
<glyph glyph-name="plus" unicode="&#x2b;" horiz-adv-x="586" d="M285 435 L285 313.32 C285 282.233 259.767 257 228.68 257 L107 257 C103.136 257 100 253.864 100 250 C100 246.136 103.136 243 107 243 L228.68 243 C259.767 243 285 217.767 285 186.68 L285 65 C285 60.5842 288.584 57 293 57 C297.416 57 301 60.5842 301 65 L301 186.68 C301 217.767 326.233 243 357.32 243 L479 243 C482.864 243 486 246.136 486 250 C486 253.864 482.864 257 479 257 L357.32 257 C326.233 257 301 282.233 301 313.32 L301 435 C301 439.416 297.416 443 293 443 C288.584 443 285 439.416 285 435 L285 435 Z " />
<glyph glyph-name="comma" unicode="&#x2c;" horiz-adv-x="257" d="M177.329 53.1759 C180.917 39.6111 183 23.5 183 6 C183 -50.925 151.011 -92.5359 99.9467 -105.356 C99.9467 -105.356 99.9813 -103.37 99.9813 -103.37 L100.951 -107.251 C100.951 -107.251 100.986 -105.265 100.986 -105.265 C153.649 -92.1553 187 -49.575 187 9 C187 44.0769 179.405 72.5082 166.065 90.5938 C166.06 90.6004 163.747 93.865 163.742 93.8717 C154.721 106.711 141.227 114 125 114 C89 114 65 90 65 54 C65 18 89 -6 125 -6 C154.6 -6 174.788 17.5297 175.275 51.9258 C175.29 52.9802 177.059 54.1954 177.329 53.1759 L177.329 53.1759 Z " />
<glyph glyph-name="hyphen" unicode="&#x2d;" horiz-adv-x="396" d="M88 277 L308 277 C312.416 277 316 280.584 316 285 C316 289.416 312.416 293 308 293 L88 293 C83.5842 293 80 289.416 80 285 C80 280.584 83.5842 277 88 277 L88 277 Z " />
<glyph glyph-name="period" unicode="&#x2e;" horiz-adv-x="195" d="M145 15 C145 41 105 41 105 15 C105 -11 145 -11 145 15 L145 15 Z " />
<glyph glyph-name="slash" unicode="&#x2f;" horiz-adv-x="370" d="M326.111 764.305 L47.8893 -74.3052 C46.8995 -77.2887 48.8567 -80 52 -80 C55.1433 -80 58.8995 -77.2887 59.8893 -74.3052 L338.111 764.305 C339.1 767.289 337.143 770 334 770 C330.857 770 327.1 767.289 326.111 764.305 L326.111 764.305 Z " />
<glyph glyph-name="zero" unicode="0" horiz-adv-x="602" d="M62 250 C62 386 159 502 305 502 C436 502 548 401 548 250 C548 114 451 -2 305 -2 C174 -2 62 99 62 250 L62 250 Z M53 250 C53 94 169 -10 305 -10 C456 -10 557 110 557 250 C557 406 441 510 305 510 C154 510 53 390 53 250 L53 250 Z " />
<glyph glyph-name="one" unicode="1" horiz-adv-x="166" d="M131.535 7.49497 L128 8 C107 10 93 37 93 76 L93 424 C93 463 107 490 128 492 L131.535 492.505 C133.428 492.775 135 494.588 135 496.5 C135 498.432 133.432 500 131.5 500 L34.5 500 C32.5681 500 31 498.432 31 496.5 C31 494.588 32.5716 492.775 34.4648 492.505 L38 492 C59 490 73 463 73 424 L73 76 C73 37 59 10 38 8 L34.4648 7.49497 C32.5716 7.22451 31 5.41248 31 3.5 C31 1.5681 32.5681 0 34.5 0 L131.5 0 C133.432 0 135 1.5681 135 3.5 C135 5.41248 133.428 7.22451 131.535 7.49497 L131.535 7.49497 Z " />
<glyph glyph-name="two" unicode="2" horiz-adv-x="481" d="M306 18 L163.088 18 C137.864 18 130.802 55.1576 152.259 68.4198 C284.351 150.064 381 242.65 381 340 C381 441 322 509 233 509 C159.9 509 96.1925 445.781 63.3719 346.979 C63.3259 346.841 65.5777 351.391 65.628 351.528 C97.7756 439.21 156.825 494 222 494 C305 494 361 431 361 336 C361 214 224 106 57 17 C56.2956 16.6246 52.9772 16.8404 52.1852 16.7407 C46.5926 16.037 43.963 13.8519 40.1481 9.59259 C39.5395 8.91303 33.1626 3.84149 32.3675 3.39423 L31 2.625 C29.3743 1.71056 30.0189 -0.753505 31.8841 -0.754807 L373.566 -0.993412 C377.984 -0.996497 385.659 3.25381 388 7 L393 15 C397.167 20.8333 400.813 28.0556 404.227 34.3519 C404.498 34.8527 403.228 35.3216 402.775 34.9761 C387.146 23.0616 354.95 17.5 305 17.5 L306 18 Z " />
<glyph glyph-name="three" unicode="3" horiz-adv-x="367" d="M110.204 -214.003 C242.943 -179.754 327 -104.225 327 -11 C327 73.975 263.702 135.809 163.497 155.971 C149.198 158.848 142.58 184.68 155.565 191.321 C263.362 246.447 332 310.75 332 383 C332 460 276 511 193 511 C125.85 511 68.0925 464.399 38.7654 391.462 C38.7487 391.421 40.423 393.793 40.4414 393.834 C69.0256 457.183 123.95 497 185 497 C261 497 311 449 311 376 C311 304.6 246.697 240.064 145.114 187.304 C129.806 179.354 136.02 151.506 152.502 146.419 C246.786 117.32 306 56.775 306 -15 C306 -104.925 227.728 -178.855 103.752 -212.084 C103.689 -212.101 110.14 -214.019 110.204 -214.003 L110.204 -214.003 Z " />
<glyph glyph-name="four" unicode="4" horiz-adv-x="555" d="M523.5 -12 C525.995 -12 528.396 -10.0067 528.836 -7.55078 C530.766 3.21094 533.635 21.9635 535.461 35.8067 C535.794 38.3333 533.221 40.6784 530.734 41.2344 C528.078 41.8281 526.859 41.8594 525.453 40.7031 C525.013 40.3416 521.73 36.2129 521.367 35.7742 C510.847 23.0533 483.108 15 450 15 L415.5 15 C396.457 15 380.955 30.4571 380.9 49.4999 L380.024 350.205 C379.859 406.823 309.521 428.632 277.355 382.037 L75.5424 89.6993 C47.9322 49.7042 72.9664 1.66493 121.565 1.38402 L305.006 0.323667 C335.912 0.145016 361 -25.0881 361 -55.9954 L361 -210 C361 -215.52 365.48 -220 371 -220 C376.52 -220 381 -215.52 381 -210 L381 -34 C381 -15.233 396.233 0 415 0 L449 0 C482.657 0 505.331 -3.13796 515.633 -9.41388 C516.381 -9.86936 522.625 -12 523.5 -12 L523.5 -12 Z M91.9722 103.317 L258.332 344.287 C290.528 390.923 361 368.959 361 312.29 L361 71.32 C361 40.233 335.767 15 304.68 15 L138.82 15 C90.0714 15 64.2765 63.2005 91.9722 103.317 L91.9722 103.317 Z " />
<glyph glyph-name="five" unicode="5" horiz-adv-x="387" d="M226 500 L171.167 500 C145.536 500 120.22 478.798 115.721 453.566 L78 242 L82 239 C236 239 340 163 340 38 C340 -75.85 263.77 -169.281 142.755 -210.287 C142.694 -210.308 147.646 -209.837 147.708 -209.817 C276.006 -168.097 357 -73.8 357 45 C357 157.2 278.97 233.998 156.687 254.512 C125.793 259.695 94.1858 295.211 99.606 326.065 L118.865 435.691 C123.283 460.841 148.482 482.121 174.017 482.266 L295.369 482.951 C300.056 482.978 304.685 486.884 305.5 491.5 L307 500 L308.26 507.561 C308.663 509.978 306.95 512 304.5 512 C303.672 512 297.023 509.638 296.31 509.218 C284.667 502.37 258.889 500 226 500 L226 500 Z " />
<glyph glyph-name="six" unicode="6" horiz-adv-x="532" d="M400.879 715.892 C196.05 636.09 66 472.55 66 283 C66 107 152 -10 280 -10 C401 -10 481 90 481 240 C481 372 391 460 257 460 C189.35 460 135.993 430.053 106.475 379.703 C104.922 377.054 96.072 371.258 96.7674 374.249 C131.524 523.766 242.53 647.756 401.391 713.636 C401.449 713.66 400.937 715.915 400.879 715.892 L400.879 715.892 Z M85 273 C85 385 153 460 255 460 C378 460 460 373 460 242 C460 93 388 -7 279 -7 C163 -7 85 105 85 273 L85 273 Z " />
<glyph glyph-name="seven" unicode="7" horiz-adv-x="403" d="M87.1921 504 L86.5 504 C84.242 504 81.0659 501.962 80.1251 499.909 L76.5 492 L67 469 C72 469 76 467 76 467 C87 478 116 484 156 484 C222 484 289.361 483.319 355.276 484.204 C375.196 484.472 389.813 466.775 382.505 448.242 L121.751 -213.023 C120.339 -216.606 122.649 -220 126.5 -220 C130.375 -220 135.275 -216.607 136.639 -212.98 L396.361 477.98 C396.874 479.343 399 491.043 399 492.5 C399 496.64 395.64 500 391.5 500 L163 500 C128.457 500 104.505 500.784 94.6174 503.048 C94.3657 503.106 87.4504 504 87.1921 504 L87.1921 504 Z " />
<glyph glyph-name="eight" unicode="8" horiz-adv-x="510" d="M243 391 L249 388 C372 334 454 280 454 187 C454 69 377 -10 261 -10 C147 -10 71 63 71 173 C71 265.625 133.741 352.071 229.564 390.629 C232.236 391.704 240.424 392.288 243 391 L243 391 Z M188.566 372.462 C106.02 326.233 54 250.2 54 172 C54 62 137 -12 261 -12 C386 -12 470 64 470 178 C470 270.65 412.922 327.175 322.104 375.211 C305.12 384.194 304.587 414.198 321.244 423.773 C394.717 466.011 441 529.825 441 595 C441 693 368 759 259 759 C150 759 78 689 78 585 C78 522.3 120.199 464.024 188.312 420.279 C203.53 410.506 204.345 381.299 188.566 372.462 L188.566 372.462 Z M263 405 L257 408 C159 451 94 518 94 594 C94 693 160 759 260 759 C358 759 424 693 424 595 C424 516.025 365.061 440.377 275.916 405.131 C273.26 404.081 265.555 403.722 263 405 L263 405 Z " />
<glyph glyph-name="nine" unicode="9" horiz-adv-x="532" d="M131.121 -215.892 C335.95 -136.09 466 27.45 466 217 C466 393 380 510 252 510 C131 510 51 410 51 260 C51 128 141 40 275 40 C342.65 40 396.007 69.9475 425.525 120.297 C427.078 122.946 435.928 128.742 435.233 125.751 C400.476 -23.7656 289.47 -147.756 130.609 -213.636 C130.551 -213.66 131.063 -215.915 131.121 -215.892 L131.121 -215.892 Z M447 227 C447 115 379 40 277 40 C154 40 72 127 72 258 C72 407 144 507 253 507 C369 507 447 395 447 227 L447 227 Z " />
<glyph glyph-name="colon" unicode="&#x3a;" horiz-adv-x="135" d="M145 405 C145 431 105 431 105 405 C105 379 145 379 145 405 L145 405 Z M145 15 C145 41 105 41 105 15 C105 -11 145 -11 145 15 L145 15 Z " />
<glyph glyph-name="semicolon" unicode="&#x3b;" horiz-adv-x="257" d="M145 405 C145 431 105 431 105 405 C105 379 145 379 145 405 L145 405 Z M177.329 53.1759 C180.917 39.6111 183 23.5 183 6 C183 -50.925 151.011 -92.5359 99.9467 -105.356 C99.9467 -105.356 99.9813 -103.37 99.9813 -103.37 L100.951 -107.251 C100.951 -107.251 100.986 -105.265 100.986 -105.265 C153.649 -92.1553 187 -49.575 187 9 C187 44.0769 179.405 72.5082 166.065 90.5938 C166.06 90.6004 163.747 93.865 163.742 93.8717 C154.721 106.711 141.227 114 125 114 C89 114 65 90 65 54 C65 18 89 -6 125 -6 C154.6 -6 174.788 17.5297 175.275 51.9258 C175.29 52.9802 177.059 54.1954 177.329 53.1759 L177.329 53.1759 Z " />
<glyph glyph-name="equal" unicode="&#x3d;" horiz-adv-x="489" d="M73 200 C73 197.792 74.7921 196 77 196 L415 196 C417.208 196 419 197.792 419 200 C419 202.208 417.208 204 415 204 L77 204 C74.7921 204 73 202.208 73 200 L73 200 Z M73 300 C73 297.792 74.7921 296 77 296 L415 296 C417.208 296 419 297.792 419 300 C419 302.208 417.208 304 415 304 L77 304 C74.7921 304 73 302.208 73 300 L73 300 Z " />
<glyph glyph-name="question" unicode="&#x3f;" horiz-adv-x="309" d="M145 15 C145 41 105 41 105 15 C105 -11 145 -11 145 15 L145 15 Z M119.004 145.395 C119.101 155.567 121.1 359.025 125 360 C202 360 238 400 278 460 C294 484 305 520 305 551 C305 676 241 760 145 760 C134 760 126 754 126 745 C126 739 130 735 137 735 C142 735 148 739 152 739 C240 739 299 663 299 549 C299 524 289 492 273 469 C237 416 204 380 118 380 C116 379 117 145 117 145 C117 145 119 144.992 119.004 145.395 L119.004 145.395 Z " />
<glyph glyph-name="at" unicode="&#x40;" horiz-adv-x="1070" d="M989.757 -10.7824 C918.784 -149.74 738.775 -241 535 -241 C257 -241 71 -41 71 259 C71 559 257 759 535 759 C814 759 1000 593 1000 343 C1000 138 922 2 804 2 C667 2 595 81 625 200 L692.696 470.784 C693.93 475.719 690.587 480 685.5 480 C680.407 480 674.949 475.72 673.735 470.774 L657.602 405.046 C656.215 399.393 644.565 399.864 642.986 405.466 C628.368 457.33 590.15 490 539 490 C391 490 292 374 292 201 C292 91 354 17 446 17 C497.975 17 547.227 54.4344 580.843 115.827 C584.137 121.844 601.697 122.621 603.123 115.91 C618.992 41.24 690.35 -5 800 -5 C929 -5 1015 134 1015 343 C1015 596 823 764 535 764 C247 764 55 562 55 259 C55 -43 249 -244 540 -244 C749 -244 934 -146 1002 0 C1002.74 1.58752 1000.25 0 998.5 0 C996.853 0 990.506 -9.31582 989.757 -10.7824 L989.757 -10.7824 Z M643.318 349.274 L606 200 C580 97 521 28 457 28 C371 28 314 99 314 205 C314 372 404 484 539 484 C601.4 484 642.886 434.568 644.922 361.655 C644.954 360.505 643.597 350.39 643.318 349.274 L643.318 349.274 Z " />
<glyph glyph-name="A" unicode="A" horiz-adv-x="552" d="M-15.9751 0 L157.5 0 C159.984 0 162 2.01613 162 4.5 C162 6.97755 159.983 9.14409 157.511 9.32061 L148 10 C106 13 89 54 103 115 L144.226 257.347 C150.469 278.901 175.884 298 198.323 298 L353.683 298 C376.792 298 402.186 278.469 408.117 256.134 L444 121 C458 57 441 14 398 11 L388.489 10.3206 C386.017 10.1441 384 7.97755 384 5.5 C384 3.01613 386.016 1 388.5 1 L545.5 1 C547.984 1 550 3.01613 550 5.5 L550 5.96887 C550 8.17675 548.191 10.2261 546 10.5 L542 11 C515 14 485 62 466 130 L302 744 C302 744 295.5 771 293.5 771 C295.971 758.647 291.32 749.685 283.458 745.79 C281.411 744.775 278.87 740.811 279.471 738.607 L279.5 738.5 C279.933 736.912 279.863 729.108 279.401 727.528 L101 117 C79 55 37 14 -8 11 L-16.9878 10.358 C-19.7533 10.1605 -21.7759 7.75874 -21.5 5 C-21.2254 2.25385 -18.7349 0 -15.9751 0 L-15.9751 0 Z M176.968 371.056 L225.446 537.653 C241.57 593.061 319.144 592.146 333.956 536.374 L378.202 369.777 C388.23 332.019 362.836 299 323.77 299 L231.045 299 C191.272 299 165.855 332.867 176.968 371.056 L176.968 371.056 Z " />
<glyph glyph-name="B" unicode="B" horiz-adv-x="494" d="M262 1 L212 1 C171 1 144 41 144 101 L144 328.68 C144 359.767 169.233 385 200.32 385 L285 385 C371 385 429 308 429 193 C429 37 362 1 262 1 L262 1 Z M82.5 740.5 L86 740 C107 737 121 710 121 671 L121 79 C121 40 107 13 86 10 L82.5 9.5 C80.5875 9.22679 79 7.39636 79 5.46447 L79 4.5 C79 2.01613 81.0161 0 83.5 0 L264 0 C378 0 454 37 454 193 C454 309 388 386 289 386 L278.5 386 C278.019 386 275.553 386.735 276.03 386.789 C379.506 398.521 447 467.575 447 568 C447 677 403 750 213 750 L82.5277 750 C80.0438 750 78.2257 747.969 78.5 745.5 L78.6096 744.514 C78.8182 742.636 80.6294 740.767 82.5 740.5 L82.5 740.5 Z M242 386 L192.5 386 C165.177 386 143 408.177 143 435.5 L143 715 C143 733.767 158.233 749 177 749 L211 749 C383 749 423 676 423 566 C423 458 351 386 242 386 L242 386 Z " />
<glyph glyph-name="C" unicode="C" horiz-adv-x="633" d="M585 590.021 L585 695 C585 697.208 583.208 699 581 699 C578.905 699 576.397 697.192 575.735 695.205 L573 687 C569 675 537 686 493 714 C451 743 403 760 338 760 C178 760 71 606 71 375 C71 144 174 -10 328 -10 C364 -10 396 -5.5 426 4.5 C447 12.5 467 21 486 33 C533 62 569 73 574 59 L576.735 50.7947 C577.397 48.8076 579.905 47 582 47 C584.208 47 586 48.7921 586 51 L586 159 C586 162.312 583.312 165 580 165 C576.956 165 572.836 162.283 571.636 159.485 L565 144 C538 84 483 30 426 8 C396 -3 364 -9 329 -9 C190 -9 97 145 97 375 C97 605 194 758 339 758 C380 758 414 750 444 736 C492 712 539 661 564 605 L570.72 588.573 C571.92 585.639 575.841 583.237 579 583.5 C582.3 583.775 585 586.709 585 590.021 L585 590.021 Z M582 126 L582 126 L582 126 L582 126 Z " />
<glyph glyph-name="D" unicode="D" horiz-adv-x="688" d="M208 1 C150 1 144 38 144 94 L144 702 C144 727.943 165.057 749 191 749 L238 749 C482 749 607 599 607 375 C607 128 447 1 208 1 L208 1 Z M82.4648 742.505 L86 742 C107 740 121 713 121 674 L121 76 C121 37 107 10 86 8 L82.4648 7.49497 C80.5716 7.22451 79 5.41248 79 3.5 C79 1.5681 80.5681 0 82.5 0 L210 0 C464 0 633 128 633 375 C633 600 500 750 243 750 L82.5 750 C80.5681 750 79 748.432 79 746.5 C79 744.588 80.5716 742.775 82.4648 742.505 L82.4648 742.505 Z " />
<glyph glyph-name="E" unicode="E" horiz-adv-x="495" d="M350.764 473.673 L348 464 C334 417 287 386 230 386 L187 386 C163.265 386 144 405.265 144 429 L144 692.68 C144 723.767 169.233 749 200.32 749 L289 749 C346 749 397 718 417 671 L421.227 661.136 C422.127 659.038 425.217 657 427.5 657 C429.977 657 431.796 658.914 431.523 661.376 C428.902 685.069 425.072 714.2 422.244 738.825 C421.37 746.437 414.582 750 406.92 750 L62.5 750 C60.5681 750 59 748.432 59 746.5 C59 744.578 60.5699 742.843 62.4826 742.652 L69 742 C100 740 121 705 121 654 L121 96 C121 45 100 10 69 8 L62.4826 7.34826 C60.5699 7.15699 59 5.42231 59 3.5 C59 1.5681 60.5681 0 62.5 0 L433.341 0 C440.184 0 446.958 5.97582 448.087 12.7251 C451.648 34.0235 456.039 58.6425 459.334 78.8783 C459.73 81.3049 457.958 83 455.5 83 C453.245 83 450.059 80.9619 449.114 78.9142 L445 70 C424 29 362 1 290 1 L238 1 C153 1 144 38 144 94 L144 342 C144 365.735 163.265 385 187 385 L230 385 C287 385 334 354 348 307 L350.764 297.327 C351.42 295.03 354.112 293 356.5 293 C358.984 293 361 295.016 361 297.5 L361 473.5 C361 475.984 358.984 478 356.5 478 C354.112 478 351.42 475.97 350.764 473.673 L350.764 473.673 Z " />
<glyph glyph-name="F" unicode="F" horiz-adv-x="470" d="M340.764 473.673 L338 464 C324 417 277 386 220 386 L182 386 C161.025 386 144 403.025 144 424 L144 692.68 C144 723.767 169.233 749 200.32 749 L289 749 C346 749 397 718 417 671 L421.227 661.136 C422.127 659.038 425.217 657 427.5 657 C429.977 657 431.796 658.914 431.523 661.376 C428.902 685.069 425.072 714.2 422.244 738.825 C421.37 746.437 414.582 750 406.92 750 L62.5 750 C60.5681 750 59 748.432 59 746.5 C59 744.578 60.5699 742.843 62.4826 742.652 L69 742 C100 740 121 705 121 654 L121 96 C121 45 100 10 69 8 L62.4826 7.34826 C60.5699 7.15699 59 5.42231 59 3.5 C59 1.5681 60.5681 0 62.5 0 L202.5 0 C204.432 0 206 1.5681 206 3.5 C206 5.42231 204.43 7.15699 202.517 7.34826 L196 8 C165 10 144 45 144 96 L144 347 C144 367.975 161.025 385 182 385 L220 385 C277 385 324 354 338 307 L340.764 297.327 C341.42 295.03 344.112 293 346.5 293 C348.984 293 351 295.016 351 297.5 L351 473.5 C351 475.984 348.984 478 346.5 478 C344.112 478 341.42 475.97 340.764 473.673 L340.764 473.673 Z " />
<glyph glyph-name="G" unicode="G" horiz-adv-x="663" d="M585 590.576 L585 695 C585 697.208 583.208 699 581 699 C578.905 699 576.397 697.192 575.735 695.205 L573 687 C569 675 537 686 493 714 C451 743 403 760 338 760 C178 760 71 606 71 375 C71 144 175 -10 331 -10 C399.4 -10 460.51 -1.09 517.246 14.543 C518.174 14.7988 517.942 16.1984 517 16 L501.726 12.7845 C501.323 12.6995 501.121 13.3376 501.5 13.5 C501.952 13.6938 501.897 14.473 501.412 14.3909 C453.974 6.35812 375.95 -6 335 -6 C192 -6 96 146 96 374 C96 604 193 757 338 757 C379 757 413 749 443 735 C491 711 538 660 563 604 L569.51 588.087 C570.846 584.82 575.011 582.463 578.5 583 C582.046 583.546 585 586.989 585 590.576 L585 590.576 Z M510.54 16.0613 C526.524 22.4259 536.743 30.3843 539.931 39.0926 C539.931 39.0926 542.434 38.6917 542.434 38.6917 L538.497 39.4009 C538.497 39.4009 541 39 541 39 L541 29.3246 C541 25.9111 537.597 21.8633 534.336 20.8555 C527.004 18.5898 519.844 16.7148 512.121 15.2305 C511.476 15.1065 509.93 15.8183 510.54 16.0613 L510.54 16.0613 Z M611.969 323 L493.5 323 C491.016 323 489 320.984 489 318.5 L489 318.031 C489 315.823 490.809 313.774 493 313.5 L497 313 C523 310 541 269 541 209 L541 23.0414 C541 21.3855 539.633 19.7722 538 19.5 C537.623 19.4372 537.455 20.0228 537.807 20.1698 L538 20.25 C538.197 20.3322 543.922 22.3258 544.128 22.3839 L564 28 C586.622 35.5405 608.541 46.24 630.347 56.5694 C630.452 56.6189 630.522 56.6728 630.417 56.625 C613.528 48.9583 596.194 41.9583 578.417 35.625 C571.294 33.0875 565 37.669 565 45.2302 L565 210 C565 270 583 311 609 314 L613 314.5 C615.208 314.776 616.776 316.792 616.5 319 C616.226 321.191 614.177 323 611.969 323 L611.969 323 Z " />
<glyph glyph-name="H" unicode="H" horiz-adv-x="657" d="M594.535 7.49497 L591 8 C570 10 556 37 556 76 L556 674 C556 713 570 740 591 742 L594.535 742.505 C596.428 742.775 598 744.588 598 746.5 C598 748.432 596.432 750 594.5 750 L493.5 750 C491.568 750 490 748.432 490 746.5 C490 744.588 491.572 742.775 493.465 742.505 L497 742 C518 740 532 713 532 674 L532 441.32 C532 410.233 506.767 385 475.68 385 L236.32 385 C205.233 385 180 410.233 180 441.32 L180 674 C180 713 194 740 215 742 L218.535 742.505 C220.428 742.775 222 744.588 222 746.5 C222 748.432 220.432 750 218.5 750 L118.5 750 C116.568 750 115 748.432 115 746.5 C115 744.588 116.572 742.775 118.465 742.505 L122 742 C143 740 157 713 157 674 L157 76 C157 37 143 10 122 8 L118.465 7.49497 C116.572 7.22451 115 5.41248 115 3.5 C115 1.5681 116.568 0 118.5 0 L218.5 0 C220.432 0 222 1.5681 222 3.5 C222 5.41248 220.428 7.22451 218.535 7.49497 L215 8 C194 10 180 37 180 76 L180 326.68 C180 357.767 205.233 383 236.32 383 L475.68 383 C506.767 383 532 357.767 532 326.68 L532 76 C532 37 518 10 497 8 L493.465 7.49497 C491.572 7.22451 490 5.41248 490 3.5 C490 1.5681 491.568 0 493.5 0 L594.5 0 C596.432 0 598 1.5681 598 3.5 C598 5.41248 596.428 7.22451 594.535 7.49497 L594.535 7.49497 Z " />
<glyph glyph-name="I" unicode="I" horiz-adv-x="259" d="M196.535 7.49497 L193 8 C172 10 158 37 158 76 L158 674 C158 713 172 740 193 742 L196.535 742.505 C198.428 742.775 200 744.588 200 746.5 C200 748.432 198.432 750 196.5 750 L96.5 750 C94.5681 750 93 748.432 93 746.5 C93 744.588 94.5716 742.775 96.4648 742.505 L100 742 C121 740 135 713 135 674 L135 76 C135 37 121 10 100 8 L96.4648 7.49497 C94.5716 7.22451 93 5.41248 93 3.5 C93 1.5681 94.5681 0 96.5 0 L196.5 0 C198.432 0 200 1.5681 200 3.5 C200 5.41248 198.428 7.22451 196.535 7.49497 L196.535 7.49497 Z " />
<glyph glyph-name="J" unicode="J" horiz-adv-x="259" d="M196.5 750 L96.5 750 C94.5681 750 93 748.432 93 746.5 C93 744.588 94.5716 742.775 96.4648 742.505 L100 742 C121 740 135 713 135 674 L135 0 C135 -183 68 -218 19 -218 C7 -218 13 -199 1 -199 C-5 -199 -9 -203 -9 -210 C-9 -216 2 -220 18 -220 C77 -220 158 -178 158 44 L158 674 C158 713 172 740 193 742 L196.535 742.505 C198.428 742.775 200 744.588 200 746.5 C200 748.432 198.432 750 196.5 750 L196.5 750 Z " />
<glyph glyph-name="K" unicode="K" horiz-adv-x="537" d="M182.959 750 L82.5 750 C80.5681 750 79 748.432 79 746.5 C79 744.588 80.5716 742.775 82.4648 742.505 L86 742 C107 740 121 713 121 674 L121 76 C121 37 107 10 86 8 L82.4648 7.49497 C80.5716 7.22451 79 5.41248 79 3.5 C79 1.5681 80.5681 0 82.5 0 L182.5 0 C184.432 0 186 1.5681 186 3.5 C186 5.41248 184.428 7.22451 182.535 7.49497 L179 8 C158 10 144 37 144 76 L144 225.5 C144 279.354 206.421 302.53 241.567 261.726 L450.148 19.5645 C457.196 11.3822 482.022 0 492.821 0 L527.5 0 C529.432 0 531 1.5681 531 3.5 C531 5.35787 530.509 7.04505 528.673 7.33197 C498.397 12.0644 467.075 33.1 431 76 L190.522 356.557 C174.601 375.132 173.606 407.669 188.363 427.182 L372 670 C407 712 449 740 479 742 L485.517 742.652 C487.43 742.843 489 744.578 489 746.5 C489 748.432 487.432 750 485.5 750 L315.5 750 C313.568 750 312 748.432 312 746.5 C312 744.572 313.569 742.902 315.493 742.782 L328 742 C380 740 381 693 330 624 C274 548 216 471 159 395 L152 385.5 C149.708 382.389 145 383.937 145 387.8 L145 675 C145 714 159 741 180 743 L183.989 743.57 C185.651 743.807 186.776 745.345 186.5 747 C186.228 748.633 184.615 750 182.959 750 L182.959 750 Z " />
<glyph glyph-name="L" unicode="L" horiz-adv-x="481" d="M196.5 750 L96.5 750 C94.5681 750 93 748.432 93 746.5 C93 744.588 94.5716 742.775 96.4648 742.505 L100 742 C121 740 135 713 135 674 L135 76 C135 37 121 10 100 8 L96.4648 7.49497 C94.5716 7.22451 93 5.41248 93 3.5 C93 1.56811 94.5681 0.00439245 96.5 0.00980388 L437.341 0.964541 C444.207 0.983772 450.976 7.09067 452.087 13.8658 C455.771 36.3393 460.343 63.2548 463.671 83.9515 C464.061 86.3747 461.954 86 459.5 86 C457.245 86 454.059 83.9619 453.114 81.9142 L449 73 C428 32 366 4 294 4 L252 4 C167 4 158 40 158 94 L158 674 C158 713 172 740 193 742 L196.535 742.505 C198.428 742.775 200 744.588 200 746.5 C200 748.432 198.432 750 196.5 750 L196.5 750 Z " />
<glyph glyph-name="M" unicode="M" horiz-adv-x="701" d="M663.5 750 L635 750 C618.177 750 598.376 735.545 593.25 719.521 L424.31 191.4 C407.273 138.139 335.925 137.202 317.495 189.997 L133.041 718.372 C127.287 734.854 105.958 750 88.5 750 L58.5 750 C56.5681 750 55 748.432 55 746.5 C55 744.692 57.1106 742.657 58.8819 742.292 C78.6055 738.229 93.2501 727.756 106.616 704.358 C108.863 700.425 112.755 683.125 112.63 678.597 L96 76 C95 37 80 10 59 8 L56 7.5 C54.3666 7.22777 53 5.61453 53 3.95862 L53 3.5 C53 1.5681 54.5681 0 56.5 0 L141.5 0 C143.432 0 145 1.5681 145 3.5 C145 5.41248 143.428 7.22451 141.535 7.49497 L138 8 C117 10 104 37 105 76 L118.938 676.308 C118.951 676.892 119.783 677.042 120 676.5 L121 674 C202 449 283 225 363 0 C363.523 -1.47006 364.44 0 366 0 L366.45 0 C367.83 0 369.229 1.14687 369.5 2.5 C369.532 2.65974 370.736 7.27034 370.786 7.42531 L503.614 417.263 C521.988 473.954 610.536 461.076 612 401.5 L620 76 C621 37 608 10 587 8 L583.465 7.49497 C581.572 7.22451 580 5.41248 580 3.5 C580 1.5681 581.568 0 583.5 0 L683.5 0 C685.432 0 687 1.5681 687 3.5 L687 3.95862 C687 5.61453 685.633 7.22777 684 7.5 L681 8 C660 10 645 37 644 76 L627 680 C627 716 640 740 660 742 L663.535 742.505 C665.428 742.775 667 744.588 667 746.5 C667 748.432 665.432 750 663.5 750 L663.5 750 Z " />
<glyph glyph-name="N" unicode="N" horiz-adv-x="621" d="M48.9363 742.343 C63.7926 739.597 76.1019 734.069 90.3704 720.801 C95.3294 716.19 100 702.906 100 696.134 L100 76 C100 37 86 10 65 8 L61.4648 7.49497 C59.5716 7.22451 58 5.41248 58 3.5 C58 1.5681 59.5681 0 61.5 0 L145.5 0 C147.432 0 149 1.5681 149 3.5 C149 5.41248 147.428 7.22451 145.535 7.49497 L142 8 C121 10 107 37 107 76 L106.018 692.489 C106.013 696.069 110.479 697.454 112.5 694.5 L119 685 C250 457 383 230 512 0 L517 0 L519 674 C519 713 533 741 554 743 L557.535 743.505 C559.428 743.775 561 745.588 561 747.5 C561 749.432 559.432 751 557.5 751 L472.5 751 C470.568 751 469 749.432 469 747.5 C469 745.588 470.572 743.775 472.465 743.505 L476 743 C497 741 511 714 511 675 L511.66 261.09 C511.753 202.976 435.213 182.616 406.419 233.095 L127.208 722.585 C119.437 736.209 93.9716 751 78.2874 751 L48.0311 751 C45.8232 751 44.2261 749.191 44.5 747 C44.7539 744.969 46.9232 742.716 48.9363 742.343 L48.9363 742.343 Z M512 48 L512 48 L512 48 Z " />
<glyph glyph-name="O" unicode="O" horiz-adv-x="725" d="M96 375 C96 605 204 758 365 758 C532 758 644 605 644 375 C644 145 529 -8 356 -8 C200 -8 96 145 96 375 L96 375 Z M71 375 C71 144 185 -10 356 -10 C544 -10 670 144 670 375 C670 606 548 760 366 760 C189 760 71 606 71 375 L71 375 Z " />
<glyph glyph-name="P" unicode="P" horiz-adv-x="437" d="M188.535 7.49497 L185 8 C164 10 150 37 150 76 L150 339.5 C150 350.815 159.185 360 170.5 360 L191 360 C327 360 417 416 417 542 C417 667 343 750 233 750 L88.5 750 C86.5681 750 85 748.432 85 746.5 C85 744.588 86.5716 742.775 88.4648 742.505 L92 742 C113 740 127 713 127 674 L127 76 C127 37 113 10 92 8 L88.4648 7.49497 C86.5716 7.22451 85 5.41248 85 3.5 C85 1.5681 86.5681 0 88.5 0 L188.5 0 C190.432 0 192 1.5681 192 3.5 C192 5.41248 190.428 7.22451 188.535 7.49497 L188.535 7.49497 Z M150 385.5 L150 707.5 C150 728.751 167.249 746 188.5 746 L227 746 C328 746 395 666 395 546 C395 421 313 365 191 365 L170.5 365 C159.185 365 150 374.185 150 385.5 L150 385.5 Z " />
<glyph glyph-name="Q" unicode="Q" horiz-adv-x="720" d="M962.803 -62.418 C922.156 -82.1328 830.5 -94 722 -94 C564.05 -94 414.656 -62.6294 342.404 -13.791 C339.954 -12.1345 343.042 -10 346 -10 L355 -10 C543 -10 669 144 669 375 C669 606 547 760 365 760 C188 760 70 606 70 375 C70 166.35 163.161 20.4413 307.775 -5.26097 C310.326 -5.71435 329.568 -14.5622 331.725 -15.9974 C415.898 -71.9975 566.9 -109 717 -109 C820.5 -109 915.9 -91.18 962.376 -63.559 C962.459 -63.5094 962.89 -62.3756 962.803 -62.418 L962.803 -62.418 Z M319.369 -6.69605 C182.408 13.5431 94 161.475 94 375 C94 605 202 758 363 758 C530 758 642 605 642 375 C642 145 526 -9 352 -9 C345.7 -9 337.78 -8.19 331.885 -8.028 C331.664 -8.02194 319.588 -6.72831 319.369 -6.69605 L319.369 -6.69605 Z " />
<glyph glyph-name="R" unicode="R" horiz-adv-x="524" d="M82.5 742.5 L86 742 C107 740 121 713 121 674 L121 76 C121 37 107 10 86 8 L82.4648 7.49497 C80.5716 7.22451 79 5.41248 79 3.5 C79 1.5681 80.5681 0 82.5 0 L182.5 0 C184.432 0 186 1.5681 186 3.5 C186 5.41248 184.428 7.22451 182.535 7.49497 L179 8 C158 10 144 37 144 76 L144 317.68 C144 348.767 169.233 374 200.32 374 L266.5 374 C272.764 374 281.279 366.632 283.277 360.695 C297.031 319.844 336.625 212 390 72 C412.1 13.35 419.027 3.46875 478.336 1.824 C478.336 1.824 479.658 0.16304 479.658 0.16304 L479.878 4.15696 C479.878 4.15696 481.2 2.496 481.2 2.496 C444.56 5.76 438 19.2 418 72 C364.625 212.875 324.266 318.531 308.311 360.832 C305.716 367.71 308.681 375.398 315.964 376.396 C396.558 387.435 448 440.35 448 542 C448 667 381 750 281 750 L83.5355 750 C81.6036 750 79.7732 748.412 79.5 746.5 C79.224 744.568 80.5681 742.776 82.5 742.5 L82.5 742.5 Z M145 436.32 L145 688.68 C145 719.767 170.233 745 201.32 745 L274 745 C363 745 422 665 422 546 C422 431 366 380 281 380 L201.32 380 C170.233 380 145 405.233 145 436.32 L145 436.32 Z " />
<glyph glyph-name="S" unicode="S" horiz-adv-x="506" d="M59 151 L59 151 L59 151 L59 151 Z M55 182.917 L55 49 C55 46.7921 56.7921 45 59 45 C61.142 45 63.4506 46.8026 63.9701 48.8806 L67 61 C71 77 104 68 149 37 C166 25 184 15 202 8 C203 7 213 2 214 3 C239 -6 265 -11 291 -11 C397 -11 467 61 467 170 C467 252 410 334 298 386 C167 447 99 526 99 596 C99 708 161 772 261 754 C319 742 374 691 400 624 L406.893 605.618 C407.982 602.714 411.899 600 415 600 C418.312 600 421 602.688 421 606 L421 704 C421 706.208 419.208 708 417 708 C415.025 708 412.094 706.189 411.211 704.422 L409 700 C406 694 379 705 341 726 C316 741 284 753 253 757 C146 771 78 700 78 586 C78 508 147 424 282 361 C391 310 447 235 447 162 C447 59 384 -10 289 -10 C264 -10 239 -5 215 4 C158 25 102 88 76 161 L68.9897 181.252 C68.0251 184.039 63.9089 187.515 61 188 C57.7332 188.544 55 186.229 55 182.917 L55 182.917 Z " />
<glyph glyph-name="T" unicode="T" horiz-adv-x="740" d="M321.031 0 L420.5 0 C422.432 0 424 1.5681 424 3.5 C424 5.41248 422.428 7.22451 420.535 7.49497 L417 8 C396 10 382 37 382 76 L382 687.68 C382 718.767 407.233 744 438.32 744 L546 744 C607 744 667 716 698 675 L704.439 665.7 C705.601 664.021 709.458 662 711.5 662 C713.758 662 715.152 663.927 714.263 666.003 C704.424 688.997 694.626 717.003 685.587 739.997 C685.338 740.63 683.898 747.069 683.875 747.75 C683.808 749.768 682.049 751.829 680.066 752.213 L679.875 752.25 C679.266 752.368 673.106 752.529 672.491 752.444 C648.955 749.195 600.6 751 536 751 L203 751 C137.45 751 89.95 749.195 66.5016 752.444 C66.3008 752.472 59.7028 753 59.5 753 L58.6101 753 C57.2302 753 55.6465 751.822 55.25 750.5 L55.221 750.403 C55.1858 750.286 53.7891 746.222 53.7435 746.108 C44.3351 722.577 32.0604 691.709 21.668 666.958 C20.784 664.852 22.2166 663 24.5 663 C26.5422 663 30.399 665.021 31.5614 666.7 L38 676 C68 717 128 745 188 745 L303.68 745 C334.767 745 360 719.767 360 688.68 L360 77 C360 38 346 11 325 9 L321.5 8.5 C319.636 8.23374 317.795 6.35997 317.561 4.49177 L317.5 4 C317.226 1.80917 318.823 0 321.031 0 L321.031 0 Z " />
<glyph glyph-name="U" unicode="U" horiz-adv-x="515" d="M482.535 20.505 L479 20 C458 17 444 40 444 79 L444 717 C444 735.215 429.215 750 411 750 L381.5 750 C379.568 750 378 748.432 378 746.5 C378 744.588 379.572 742.775 381.465 742.505 L385 742 C406 740 420 713 420 674 L420 169.637 C420 165.837 414.994 146.914 413.173 143.579 C367.585 60.0525 278 5 183 5 C139 5 109 88 109 213 L109 717.5 C109 735.439 94.439 750 76.5 750 L47.5 750 C45.5681 750 44 748.432 44 746.5 C44 744.588 45.5716 742.775 47.4648 742.505 L51 742 C72 740 86 713 86 674 L86 213 C86 79 121 -10 173 -10 C258.8 -10 341.197 32.8794 392.115 100.67 C399.002 109.838 420 106.573 420 95.1059 L420 6 C420 2.68818 422.688 0 426 0 C426.803 0 437.042 1.2604 437.821 1.45521 L444 3 C456.526 6.57895 470.654 10.1579 482.085 13.0206 C483.902 13.4756 486 15.6268 486 17.5 C486 19.4125 484.428 20.7755 482.535 20.505 L482.535 20.505 Z " />
<glyph glyph-name="V" unicode="V" horiz-adv-x="617" d="M563.975 750 L414.5 750 C412.016 750 410 747.984 410 745.5 C410 743.021 412.017 740.874 414.491 740.719 L426 740 C478 737 497 690 475 621 L340.762 208.447 C323.182 154.417 248.863 155.659 233.098 210.246 L111 633 C96 695 113 737 155 740 L164.511 740.679 C166.983 740.856 169 743.022 169 745.5 C169 747.984 166.984 750 164.5 750 L25.5 750 C23.0161 750 21 747.984 21 745.5 L21 743.55 C21 742.17 22.1469 740.771 23.5 740.5 L26 740 C43 737 67 689 87 621 C148 411 208 200 269 -10 L274 -10 L488 638 C510 697 538 736 561 739 L564.5 739.5 C566.376 739.768 568.163 741.633 568.352 743.518 L568.5 745 C568.775 747.746 566.735 750 563.975 750 L563.975 750 Z " />
<glyph glyph-name="W" unicode="W" horiz-adv-x="868" d="M137.41 750 L25.5 750 C23.0161 750 21 747.984 21 745.5 L21 743.55 C21 742.17 22.1469 740.771 23.5 740.5 L26 740 C42 737 61 700 76 646 C132 427 187 207 244 -11 C244.405 -12.5499 245.398 -11 247 -11 C248.518 -11 250.592 -9.64143 251.198 -8.24976 L399.302 331.637 C421.668 382.966 492.955 376.527 505.76 322.02 L583.314 -8.07952 C583.683 -9.64881 585.388 -11 587 -11 C588.593 -11 590.384 -9.64645 590.82 -8.1141 L776 644 C792 699 820 736 846 739 L850 739.5 C852.191 739.774 854 741.823 854 744.031 L854 744.5 C854 746.984 851.984 749 849.5 749 L697.5 749 C695.016 749 693 746.984 693 744.5 C693 742.022 695.017 739.866 697.49 739.701 L708 739 C755 736 778 702 768 651 L654.497 244.884 C638.782 188.655 558.482 190.506 545.374 247.399 L454 644 C443 699 463 736 504 739 L512.513 739.655 C514.983 739.845 517 742.023 517 744.5 C517 746.984 514.984 749 512.5 749 L374.5 749 C372.016 749 370 746.984 370 744.5 L370 742.55 C370 741.17 371.147 739.771 372.5 739.5 L375 739 C393 736 412 705 425 658 L458.679 516.193 C460.106 510.187 458.031 486.502 455.581 480.835 L324.374 177.257 C302.287 126.155 231.929 131.698 218.117 185.627 L102 639 C87 696 99 735 131 738 L136 738.5 C138.653 738.765 141.422 741.321 141.899 743.944 L142 744.5 C142.543 747.487 140.446 750 137.41 750 L137.41 750 Z " />
<glyph glyph-name="X" unicode="X" horiz-adv-x="626" d="M167.512 7.29066 L159 8 C124 10 114 35 133 72 L257.634 281.386 C281.596 321.642 332.847 320.752 355.396 279.687 L464.5 81 C487.5 39 484 10 456 8 L450.479 7.38651 C448.57 7.17447 447 5.42008 447 3.5 C447 1.5681 448.568 0 450.5 0 L555.5 0 C557.432 0 559 1.5681 559 3.5 C559 5.23046 557.898 7.2242 556.238 7.71127 C539.243 12.6963 522.872 28.8974 502 64 L338.468 362.742 C331.109 376.187 331.658 405.499 339.516 418.659 L489 669 C514 710 549 740 576 742 L580.527 742.566 C582.429 742.804 584 744.583 584 746.5 C584 748.432 582.432 750 580.5 750 L447.5 750 C445.568 750 444 748.432 444 746.5 C444 744.575 445.569 742.869 447.488 742.709 L456 742 C491 740 502 715 484 678 L370.898 480.245 C347.407 439.172 295.406 439.627 272.638 481.105 L169.5 669 C146.5 711 150 740 178 742 L183.521 742.613 C185.43 742.826 187 744.58 187 746.5 C187 748.432 185.432 750 183.5 750 L78.5 750 C76.5681 750 75 748.432 75 746.5 C75 744.77 76.1016 742.776 77.7622 742.289 C94.7567 737.304 111.128 721.103 132 686 L289.257 400.573 C296.795 386.892 296.164 357.473 288.047 344.128 L128 81 C103 39 67 10 40 8 L35.473 7.43412 C33.5708 7.19635 32 5.41698 32 3.5 C32 1.5681 33.5681 0 35.5 0 L167.5 0 C169.432 0 171 1.5681 171 3.5 C171 5.42522 169.431 7.13078 167.512 7.29066 L167.512 7.29066 Z " />
<glyph glyph-name="Y" unicode="Y" horiz-adv-x="541" d="M141.838 750 L36.5 750 C34.5681 750 33 748.432 33 746.5 C33 744.772 34.2367 742.742 35.8939 742.254 C52.6362 737.32 67.0811 722.108 86 689 L260.796 348.1 C262.358 345.052 267 325.827 267 322.403 L267 96 C267 45 246 10 215 8 L208.483 7.34826 C206.57 7.15699 205 5.42231 205 3.5 C205 1.5681 206.568 0 208.5 0 L349.5 0 C351.432 0 353 1.5681 353 3.5 C353 5.42231 351.43 7.15699 349.517 7.34826 L343 8 C312 10 291 45 291 96 L291 325.849 C291 329.064 295.4 347.909 296.824 350.791 L454 669 C475 711 507 740 534 742 L538.527 742.566 C540.429 742.804 542 744.583 542 746.5 C542 748.432 540.432 750 538.5 750 L411.5 750 C409.568 750 408 748.432 408 746.5 C408 744.575 409.569 742.869 411.488 742.709 L420 742 C459 740 469 710 450 669 L339.55 442.578 C317.714 397.814 261.328 397.337 238.738 441.725 L119 677 C102 715 108 741 134 743 L139.857 743.651 C141.432 743.826 143.499 745.497 144 747 C144.524 748.571 143.494 750 141.838 750 L141.838 750 Z " />
<glyph glyph-name="Z" unicode="Z" horiz-adv-x="596" d="M72.4359 664.733 L76 674 C93 713 145 740 210 744 L441.596 744.679 C490.745 744.823 516.135 695.857 487.696 655.771 L26 5 L26 0 L569.464 0 C571.396 0 573.227 1.58752 573.5 3.5 L574 7 C575.95 16.75 581.702 45.5125 591.258 85.8726 C591.814 88.2216 589.914 89 587.5 89 C585.313 89 581.903 86.9634 580.867 85.0379 L576 76 C554 37 499 10 434 6 L163.122 5.28716 C114.026 5.15796 88.6448 54.0194 116.981 94.1126 L577 745 L577 750 L74.5089 750 C72.577 750 70.8876 748.427 70.75 746.5 L70.5 743 C69.525 733.25 67.1241 704.487 63.2972 664.127 C63.0898 661.94 64.8029 661 67 661 C69.0607 661 71.6962 662.81 72.4359 664.733 L72.4359 664.733 Z " />
<glyph glyph-name="bracketleft" unicode="&#x5b;" horiz-adv-x="277" d="M173.32 744 L324 744 C325.656 744 327 745.344 327 747 C327 748.656 325.656 750 324 750 L166.32 750 C135.233 750 110 724.767 110 693.68 L110 -138.68 C110 -169.767 135.233 -195 166.32 -195 L324 -195 C325.656 -195 327 -193.656 327 -192 C327 -190.344 325.656 -189 324 -189 L173.32 -189 C142.233 -189 117 -163.767 117 -132.68 L117 687.68 C117 718.767 142.233 744 173.32 744 L173.32 744 Z " />
<glyph glyph-name="backslash" unicode="&#x5c;" horiz-adv-x="328" d="M47.755 764.262 L304.245 -74.2624 C305.171 -77.2909 308.833 -80 312 -80 C315.167 -80 317.171 -77.2909 316.245 -74.2624 L59.755 764.262 C58.8287 767.291 55.167 770 52 770 C48.833 770 46.8287 767.291 47.755 764.262 L47.755 764.262 Z " />
<glyph glyph-name="bracketright" unicode="&#x5d;" horiz-adv-x="280" d="M163 687.68 L163 -132.68 C163 -163.767 137.767 -189 106.68 -189 L-44 -189 C-45.6559 -189 -47 -190.344 -47 -192 C-47 -193.656 -45.6559 -195 -44 -195 L113.68 -195 C144.767 -195 170 -169.767 170 -138.68 L170 693.68 C170 724.767 144.767 750 113.68 750 L-44 750 C-45.6559 750 -47 748.656 -47 747 C-47 745.344 -45.6559 744 -44 744 L106.68 744 C137.767 744 163 718.767 163 687.68 L163 687.68 Z " />
<glyph glyph-name="asciicircum" unicode="&#x5e;" horiz-adv-x="297" d="M153.784 777.84 C151.216 780.72 147.784 780.72 145.216 777.84 C145.045 777.648 140.819 770.629 140.679 770.414 L71.2516 663.14 C69.0668 659.764 74.8689 655.76 77.25 659 L104.538 696.134 C128.474 728.706 171.478 728.671 195.36 696.06 L222.5 659 C224.742 655.939 230.226 659.724 228.159 662.906 L158.327 770.417 C158.191 770.627 153.95 777.654 153.784 777.84 L153.784 777.84 Z " />
<glyph glyph-name="underscore" unicode="&#x5f;" horiz-adv-x="378" d="M5 -55.5 C5 -58.5358 7.46416 -61 10.5 -61 L367.5 -61 C370.536 -61 373 -58.5358 373 -55.5 C373 -52.4642 370.536 -50 367.5 -50 L10.5 -50 C7.46416 -50 5 -52.4642 5 -55.5 L5 -55.5 Z " />
<glyph glyph-name="grave" unicode="&#x60;" horiz-adv-x="297" d="M-60 762 C-60 759 -30 731 16 690 L85.0809 627.677 C87.6857 625.327 91.9377 629.727 89.5 632.25 L25 699 C-17 743 -47 772 -50 772 C-55 772 -60 767 -60 762 L-60 762 Z " />
<glyph glyph-name="a" unicode="a" horiz-adv-x="477" d="M484.5 58 C483.188 58.5249 481.858 58.0979 481.58 56.7122 C475.817 27.9875 453.256 9 425 9 C390 9 366 31 366 64 L366 361 C366 464 318 510 246 510 C147 510 81 414 81 360 C81 352 85 346 91 346 C106 346 116 352 116 356 C116 361 96 370 96 373 C96 422 155 508 244 508 C305 508 346 465 346 368 L346 298.642 C346 283.055 331.453 257.667 317.942 249.895 C144.932 150.38 61 97.75 61 74 C61 24 103 -10 165 -10 C208.7 -10 265.035 15.27 334.862 81.2427 C338.824 84.9859 346 83.4504 346 78 L346 64 C346 23 374 -5 417 -5 C451.125 -5 478.596 18.7656 486.436 54.2477 C486.762 55.7247 485.904 57.4382 484.5 58 L484.5 58 Z M346 179 L346 116.822 C346 106.602 338.462 85.6793 330.886 78.8191 C269.518 23.2463 217.625 1 176 1 C119 1 81 31 81 76 C81 103.2 143.857 147.017 272.029 222.191 C307.763 243.15 346 220.427 346 179 L346 179 Z " />
<glyph glyph-name="b" unicode="b" horiz-adv-x="401" d="M32 664 L30 125 C31 121 30 117 31 113 L31.333 37.7397 C31.3438 35.3023 35.4755 35.0781 35.75 37.5 L39.4932 70.5286 C39.7712 72.981 42.0319 75 44.5 75 C46.5321 75 50.3342 72.8425 51.4373 71.1358 C83.6031 21.3706 134.425 -10 190 -10 C288 -10 354 94 354 251 C354 403 280 505 170 505 C134.525 505 95.6469 478.456 66.842 436.036 C62.5121 429.659 50 432.163 50 439.871 L50 745 C50 747.76 47.7599 750 45 750 C44.2792 750 35.9504 748.813 35.2572 748.615 C26.355 746.077 16.4615 743.538 8 741 L8 736 C23 729 31 705 31 664 L32 664 Z M50 120.347 L50 390.914 C50 394.942 54.6108 412.99 56.5936 416.496 C84.8663 466.486 127 499 164 499 C265 499 332 399 332 248 C332 95 276 -7 191 -7 C134.95 -7 82.51 34.515 54.257 99.5401 C53.2308 101.902 50 117.772 50 120.347 L50 120.347 Z " />
<glyph glyph-name="c" unicode="c" horiz-adv-x="391" d="M339.158 88.62 C302.063 31.0731 249.5 -5 200 -5 C118 -5 64 99 64 254 C64 407 123 509 212 509 C267 509 318 467 341 405 C343 399 347 395 351 395 C359 395 363 399 361 405 C338 468 278 510 212 510 C112 510 45 403 45 242 C45 91 106 -10 197 -10 C248.15 -10 301.342 27.4344 339.169 87.1422 C339.214 87.214 339.204 88.6914 339.158 88.62 L339.158 88.62 Z " />
<glyph glyph-name="d" unicode="d" horiz-adv-x="506" d="M488.5 19.5 L485 19 C464 15 450 38 450 77 L450 745 C450 747.76 447.76 750 445 750 C443.975 750 436.309 748.524 435.358 748.143 L432.675 747.07 C432.572 747.029 427.738 745.331 427.632 745.299 C421.235 743.346 414.222 740.778 408 739 L408 734 C423 727 430 703 430 662 L430 426.288 C430 419.636 417.51 418.562 414.182 424.322 C385.339 474.246 338.85 511 291 511 C129 511 45 409 45 257 C45 100 133 -4 266 -4 C317.15 -4 370.342 18.4606 407.607 54.3976 C414.295 60.8476 429 57.4859 429 48.1942 L429 5 C429 2.24015 431.24 0 434 0 C434.669 0 443.201 1.05033 443.851 1.21268 L487.57 12.1425 C489.323 12.5808 491.244 14.7109 491.5 16.5 C491.765 18.3546 490.355 19.7649 488.5 19.5 L488.5 19.5 Z M429 366.734 L429 98.1124 C429 90.1548 423.606 72.6146 418.289 66.694 C383.81 28.3 329 4 275 4 C149 4 65 107 65 262 C65 408 143 505 294 505 C349.1 505 402.846 451.301 426.088 385.915 C426.689 384.223 429 368.529 429 366.734 L429 366.734 Z " />
<glyph glyph-name="e" unicode="e" horiz-adv-x="475" d="M88.2215 340 L383.016 340 C421.9 340 443.343 361.111 429.352 397.391 C398.526 477.33 339.25 510 265 510 C133 510 45 434 45 238 C45 89 125 -10 245 -10 C311.825 -10 374.226 29.4762 411.988 92.1448 C412.002 92.1677 412.446 93.6454 412.432 93.6226 C375.257 33.115 313 -5 247 -5 C138 -5 66 95 66 246 C66 274.875 68.0419 301.027 71.5641 325.019 C72.7282 332.948 80.2076 340 88.2215 340 L88.2215 340 Z M361.596 341.824 L135.601 341.174 C97.5368 341.065 76.89 361.953 91.3671 397.156 C123.646 475.649 185.975 509 266 509 C329.525 509 381.139 477.691 409.05 398.79 C421.744 362.907 399.658 341.933 361.596 341.824 L361.596 341.824 Z " />
<glyph glyph-name="f" unicode="f" horiz-adv-x="248" d="M131.332 7.9722 C119.612 11.7438 113 21 113 41 L113 432.68 C113 463.767 138.233 489 169.32 489 L232.5 489 C235.536 489 238 491.464 238 494.5 C238 497.536 235.536 500 232.5 500 L169.32 500 C136.19 500 112.505 520.42 114.682 553.479 C122.516 672.438 157.625 749 218 749 C245 749 270 635 292 635 C319 635 337 653 337 680 C337 725 292 755 225 755 C148.875 755 104.906 676.906 95.1035 554.885 C93.0373 529.165 67.4754 497.68 41.779 495.344 L37.7764 494.98 C34.7654 494.706 34.9768 489.527 38 489.5 C68.3571 489.224 93 464.356 93 433.998 L93 41 C93 21 86.3884 11.7438 74.6679 7.9722 C73.0899 7.46441 71 5.1577 71 3.5 C71 1.5681 72.5681 0 74.5 0 L131.5 0 C133.432 0 135 1.5681 135 3.5 C135 5.1577 132.91 7.46441 131.332 7.9722 L131.332 7.9722 Z " />
<glyph glyph-name="g" unicode="g" horiz-adv-x="486" d="M490 454 C450.4 454 419.648 440.387 402.798 417.655 C399.838 413.662 391.084 411.786 389.333 416.437 C367.638 474.064 315.375 510 246 510 C153 510 91 446 91 350 C91 274.925 128.434 218.907 188.704 197.67 C191.058 196.84 189.88 186.115 187.403 185.807 C111.685 176.385 64 148.25 64 110 C64 72.875 92.5862 45.9594 137.967 35.9913 C142.558 34.9828 144.787 24.1968 140.473 22.3284 C89.79 0.375 58 -41.7 58 -91 C58 -174 136 -230 254 -230 C372 -230 450 -173 450 -88 C450 -4 403 52 282 52 L178 52 C116 52 75 77 75 115 C75 159 143 188 245 188 C338 188 400 253 400 350 C400 364.571 398.531 378.408 395.592 391.51 C394.884 394.664 395.392 401.109 397.017 403.903 C410.706 427.454 440.075 442 478 442 C483 442 489 434 494 434 C507 434 503 454.5 489 454.5 L490 454 Z M172.5 33 L177 33 L280 33 C390 33 433 -17 433 -92 C433 -174 361 -228 254 -228 C146 -228 74 -171 74 -85 C74 -30.4 109.173 15.1691 164.69 31.3163 C165.436 31.5333 171.723 33 172.5 33 L172.5 33 Z M246 189 C165 189 111 253 111 350 C111 445 165 509 246 509 C327 509 381 445 381 350 C381 253 327 189 246 189 L246 189 Z " />
<glyph glyph-name="h" unicode="h" horiz-adv-x="365" d="M57 664 L57 41 C57 21 50.3884 11.7438 38.6679 7.9722 C37.0899 7.46441 35 5.1577 35 3.5 C35 1.5681 36.5681 0 38.5 0 L95.5 0 C97.4319 0 99 1.5681 99 3.5 C99 5.1577 96.9101 7.46441 95.3321 7.9722 C83.6116 11.7438 77 21 77 41 L77 357.078 C77 359.377 80.509 376.23 81.3769 378.359 C110.197 449.07 159.55 496 208 496 C265 496 294 456 294 395 L294 41 C294 21 287.388 11.7438 275.668 7.9722 C274.09 7.46441 272 5.1577 272 3.5 C272 1.5681 273.568 0 275.5 0 L332.5 0 C334.432 0 336 1.5681 336 3.5 C336 5.1577 333.91 7.46441 332.332 7.9722 C320.612 11.7438 314 21 314 41 L314 395 C314 464 282 510 219 510 C173.625 510 126.889 471.885 95.0752 410.816 C91.3604 403.685 77 406.029 77 414.069 L77 745 C77 747.76 74.7599 750 72 750 C71.2792 750 62.9504 748.813 62.2572 748.615 C53.355 746.077 43.4615 743.538 35 741 L35 736 C50 729 57 705 57 664 L57 664 Z " />
<glyph glyph-name="i" unicode="i" horiz-adv-x="138" d="M97 635 C97 661 57 661 57 635 C57 609 97 609 97 635 L97 635 Z M67 414 L67 41 C67 21 60.3884 11.7438 48.6679 7.9722 C47.0899 7.46441 45 5.1577 45 3.5 C45 1.5681 46.5681 0 48.5 0 L105.5 0 C107.432 0 109 1.5681 109 3.5 C109 5.1577 106.91 7.46441 105.332 7.9722 C93.6116 11.7438 87 21 87 41 L87 495 C87 497.76 84.7599 500 82 500 C81.2792 500 72.9504 498.813 72.2572 498.615 C63.355 496.077 53.4615 493.538 45 491 L45 486 C60 479 67 455 67 414 L67 414 Z " />
<glyph glyph-name="j" unicode="j" horiz-adv-x="162" d="M82 635 C82 661 42 661 42 635 C42 609 82 609 82 635 L82 635 Z M52 414 L52 12 C52 -48.35 41.1625 -97.8625 24.4005 -119.342 C16.1246 -129.947 14.2246 -128.929 0.952224 -126.737 C-32.094 -121.281 -72.4872 -100 -103 -100 C-130 -100 -148 -116 -148 -140 C-148 -169 -124 -187 -88 -185 C-81 -185 -39 -163 17 -130 C50 -111 72 -54 72 12 L72 495 C72 497.76 69.7599 500 67 500 C66.2792 500 57.9504 498.813 57.2572 498.615 C48.355 496.077 38.4615 493.538 30 491 L30 486 C45 479 52 455 52 414 L52 414 Z " />
<glyph glyph-name="k" unicode="k" horiz-adv-x="280" d="M297.464 500 L133.5 500 C131.568 500 130 498.432 130 496.5 C130 494.571 131.569 492.917 133.495 492.816 L149 492 C211 490 214 443 156 374 L116.5 327 C102.472 310.309 77 319.591 77 341.394 L77 745 C77 747.76 74.7599 750 72 750 C71.2792 750 62.9504 748.813 62.2572 748.615 C53.355 746.077 43.4615 743.538 35 741 L35 736 C50 729 57 705 57 664 L57 41 C57 21 50.3884 11.7438 38.6679 7.9722 C37.0899 7.46441 35 5.1577 35 3.5 C35 1.5681 36.5681 0 38.5 0 L95.5 0 C97.4319 0 99 1.5681 99 3.5 C99 5.1577 96.9101 7.46441 95.3321 7.9722 C83.6116 11.7438 77 21 77 41 L77 160.5 C77 194.938 121.411 207.451 139.39 178.08 L208 66 C223.882 37.7647 233.147 15.3685 229.612 9.11571 C229.53 8.97085 226.783 3.91319 226.75 3.75 C226.344 1.72031 227.754 0 229.824 0 L271.242 0 C273.312 0 274.888 1.6847 274.75 3.75 L274.679 4.81338 C274.635 5.46752 273.059 8.43567 272.575 8.878 C265.555 15.295 247.6 41.8 226 76 L112.582 258.309 C101.258 276.512 103.49 307.869 117.279 324.284 L196 418 C235.9 463.6 266.775 486.637 295.484 492.257 C297.181 492.589 300.255 494.788 300.5 496.5 C300.773 498.412 299.396 500 297.464 500 L297.464 500 Z " />
<glyph glyph-name="l" unicode="l" horiz-adv-x="128" d="M57 664 L57 41 C57 21 50.3884 11.7438 38.6679 7.9722 C37.0899 7.46441 35 5.1577 35 3.5 C35 1.5681 36.5681 0 38.5 0 L95.5 0 C97.4319 0 99 1.5681 99 3.5 C99 5.1577 96.9101 7.46441 95.3321 7.9722 C83.6116 11.7438 77 21 77 41 L77 745 C77 747.76 74.7599 750 72 750 C71.2792 750 62.9504 748.813 62.2572 748.615 C53.355 746.077 43.4615 743.538 35 741 L35 736 C50 729 57 705 57 664 L57 664 Z " />
<glyph glyph-name="m" unicode="m" horiz-adv-x="630" d="M57 414 L57 41 C57 21 50.3884 11.7438 38.6679 7.9722 C37.0899 7.46441 35 5.1577 35 3.5 C35 1.5681 36.5681 0 38.5 0 L95.5 0 C97.4319 0 99 1.5681 99 3.5 C99 5.1577 96.9101 7.46441 95.3321 7.9722 C83.6116 11.7438 77 21 77 41 L77 362.394 C77 364.612 80.2691 380.85 81.0917 382.909 C108.2 450.777 157.6 495 207 495 C280 495 308 455 308 395 L308 41 C308 21 301.388 11.7438 289.668 7.9722 C288.09 7.46441 286 5.1577 286 3.5 C286 1.5681 287.568 0 289.5 0 L346.5 0 C348.432 0 350 1.5681 350 3.5 C350 5.1577 347.91 7.46441 346.332 7.9722 C334.612 11.7438 328 21 328 41 L328 366.012 C328 368.394 331.177 384.275 332.092 386.474 C359.197 451.68 408.55 495 457 495 C530 495 558 455 558 395 L558 41 C558 21 551.388 11.7438 539.668 7.9722 C538.09 7.46441 536 5.1577 536 3.5 C536 1.5681 537.568 0 539.5 0 L596.5 0 C598.432 0 600 1.5681 600 3.5 C600 5.1577 597.91 7.46441 596.332 7.9722 C584.612 11.7438 578 21 578 41 L578 395 C578 464 546 510 465 510 C413.325 510 359.749 459.617 330.223 382.949 C329.617 381.375 328 384.313 328 386 L328 395 C328 464 296 510 215 510 C170.45 510 125.219 473.246 94.469 414.338 C90.8727 407.449 77 409.717 77 417.489 L77 495 C77 497.76 74.7599 500 72 500 C71.2792 500 62.9504 498.813 62.2572 498.615 C53.355 496.077 43.4615 493.538 35 491 L35 486 C50 479 57 455 57 414 L57 414 Z " />
<glyph glyph-name="n" unicode="n" horiz-adv-x="379" d="M57 414 L57 41 C57 21 50.3884 11.7438 38.6679 7.9722 C37.0899 7.46441 35 5.1577 35 3.5 C35 1.5681 36.5681 0 38.5 0 L95.5 0 C97.4319 0 99 1.5681 99 3.5 C99 5.1577 96.9101 7.46441 95.3321 7.9722 C83.6116 11.7438 77 21 77 41 L77 362.078 C77 364.383 80.506 381.218 81.377 383.352 C110.2 453.972 159.6 500 209 500 C274 500 308 437 308 342 L308 41 C308 21 301.388 11.7438 289.668 7.9722 C288.09 7.46441 286 5.1577 286 3.5 C286 1.5681 287.568 0 289.5 0 L346.5 0 C348.432 0 350 1.5681 350 3.5 C350 5.1577 347.91 7.46441 346.332 7.9722 C334.612 11.7438 328 21 328 41 L328 342 C328 443 290 510 215 510 C170.45 510 125.219 473.246 94.469 414.9 C90.8467 408.026 77 410.248 77 418.017 L77 495 C77 497.76 74.7599 500 72 500 C71.2792 500 62.9504 498.813 62.2572 498.615 C53.355 496.077 43.4615 493.538 35 491 L35 486 C50 479 57 455 57 414 L57 414 Z " />
<glyph glyph-name="o" unicode="o" horiz-adv-x="561" d="M67 250 C67 405 153 508 281 508 C409 508 494 405 494 250 C494 95 409 -8 281 -8 C153 -8 67 95 67 250 L67 250 Z M45 250 C45 94 139 -10 281 -10 C422 -10 516 94 516 250 C516 406 422 510 281 510 C139 510 45 406 45 250 L45 250 Z " />
<glyph glyph-name="p" unicode="p" horiz-adv-x="415" d="M42 414 L42 -179 C42 -199 35.3884 -208.256 23.6679 -212.028 C22.0899 -212.536 20 -214.842 20 -216.5 C20 -218.432 21.5681 -220 23.5 -220 L80.5 -220 C82.4319 -220 84 -218.432 84 -216.5 C84 -214.842 81.9101 -212.536 80.3321 -212.028 C68.6116 -208.256 62 -199 62 -179 L62 52.4831 C62 59.4383 72.8227 61.9213 76.6017 56.0822 C100.95 18.4606 131.475 -4 162 -4 C287 -4 370 114 370 253 C370 408 296 511 185 511 C147.875 511 108.028 489.22 78.9339 454.083 C74.0774 448.217 62 450.854 62 458.469 L62 497 C62 499.76 59.7599 502 57 502 C56.2792 502 47.9504 500.813 47.2572 500.615 C38.355 498.077 28.4615 495.538 20 493 L20 488 C35 481 42 456 42 415 L42 414 Z M62 140.469 L62 406.583 C62 412.293 67.8876 431.514 71.186 436.175 C100.13 477.08 140.9 503 176 503 C279 503 348 400 348 246 C348 114 274 1 163 1 C126.925 1 87.9981 50.9078 63.8297 125.698 C63.3666 127.131 62 138.963 62 140.469 L62 140.469 Z " />
<glyph glyph-name="q" unicode="q" horiz-adv-x="484" d="M476.332 -212.028 C464.612 -208.256 458 -199 458 -179 L457.522 469.767 C457.521 471.849 454.008 472.066 453.75 470 L451.052 448.42 C450.696 445.566 446.033 436.033 444 434 L441.182 431.182 C439.94 429.94 438 425.256 438 423.5 C438 422.221 436.091 422.085 435.398 423.16 C400.895 476.728 340.25 510 272 510 C120 510 42 408 42 256 C42 99 134 -5 273 -5 C296.1 -5 345.064 16.0994 401.361 49.8754 C417.758 59.7127 438 49.5478 438 30.4265 L438 -180 C438 -200 431.388 -209.256 419.668 -213.028 C418.09 -213.536 416 -215.842 416 -217.5 C416 -219.432 417.568 -221 419.5 -221 L476 -221 C478.208 -221 480 -219.208 480 -217 C480 -215.105 478.136 -212.608 476.332 -212.028 L476.332 -212.028 Z M438 377.154 L438 109.382 C438 94.6745 424.641 70.2336 412.141 62.4844 C352.859 25.7344 302 2 281 2 C150 2 62 105 62 260 C62 406 133 504 271 504 C341.3 504 403.478 462.485 433.526 398.317 C434.77 395.66 438 380.088 438 377.154 L438 377.154 Z " />
<glyph glyph-name="r" unicode="r" horiz-adv-x="230" d="M58 414 L58 41 C58 21 51.3884 11.7438 39.6679 7.9722 C38.0899 7.46441 36 5.1577 36 3.5 C36 1.5681 37.5681 0 39.5 0 L96.5 0 C98.4319 0 100 1.5681 100 3.5 C100 5.1577 97.9101 7.46441 96.3321 7.9722 C84.6116 11.7438 78 21 78 41 L78 381.792 C78 382.099 78.6223 389.901 78.6653 390.205 C88.1606 457.271 130.5 501 189 501 C193 501 196 487 196 466 C196 450 220 450 220 466 C220 492 211 510 198 510 C144.375 510 103.001 476.649 85.1091 423.424 C84.3354 421.123 77 421.845 77 424.273 L77 495 C77 497.76 74.7599 500 72 500 C71.2792 500 62.9504 498.813 62.2572 498.615 C53.355 496.077 43.4615 493.538 35 491 L35 486 C50 479 57.5 455 57.5 414 L58 414 Z " />
<glyph glyph-name="s" unicode="s" horiz-adv-x="382" d="M207 502.5 C250 490.5 282 451 293 405 L296.176 393.885 C296.613 392.354 298.408 391 300 391 C301.656 391 303 392.344 303 394 L303 461.176 C303 463.246 301.28 464.656 299.25 464.25 C298.462 464.092 296.354 464.962 296.279 465.762 C295.614 472.823 269.607 483.866 227.636 496.88 C227.408 496.951 220.022 499.898 219.804 499.997 C205.043 506.673 189.522 510.087 174 511 C109 514 66 466 66 396 C66 335 114 276 208 242 C279 216 316 165 316 108 C316 38 274 -9 212 -9 C209 -9 182 -7 183 -5 C129 8 84 56 70 114 L66.8242 125.115 C66.3868 126.646 64.5922 128 63 128 C61.3441 128 60 126.656 60 125 L60 47 C60 45.3441 61.3441 44 63 44 L63.0845 44 C64.4644 44 66.79 45.3167 67.5 46.5 L69 49 C67 45 99 27 150 4 C161 -1 171 -5.5 182 -8.5 C269 -27.5 331 30 331 112 C331 173 292 228 216 256 C126 289 79 344 79 401 C79 480 134.5 527 206.5 502 L207 502.5 Z " />
<glyph glyph-name="t" unicode="t" horiz-adv-x="285" d="M242.5 500 L166.853 500 C136.025 500 110.791 525.024 110.535 555.851 L110.5 560 C110.34 579.217 86.6119 586.588 75.5911 570.844 L28.8673 504.096 C27.9597 502.8 26 496.583 26 495 C26 492.24 28.2402 490 31 490 L58.5 490 C76.439 490 91 475.439 91 457.5 L91 103 C91 22 128 -10 183 -10 C203.4 -10 232.47 6.25625 259.77 31.3992 C259.815 31.4405 259.677 31.7606 259.63 31.721 C236.087 11.5916 208.8 -1 189 -1 C142 -1 110 27 110 98 L110.856 432.824 C110.936 463.831 136.169 489 167.176 489 L242.5 489 C245.536 489 248 491.464 248 494.5 C248 497.536 245.536 500 242.5 500 L242.5 500 Z " />
<glyph glyph-name="u" unicode="u" horiz-adv-x="356" d="M342 18 L337 18 C321 16 310 40 310 79 L310 479 C310 490.591 300.591 500 289 500 L271.5 500 C269.568 500 268 498.432 268 496.5 C268 494.842 270.09 492.536 271.668 492.028 C283.388 488.256 290 479 290 459 L290 137.463 C290 134.551 286.441 117.88 285.21 115.24 C254.007 48.32 206.65 5 162 5 C109 5 73 65 73 156 L73 480 C73 491.591 63.5914 501 52 501 L34.5 501 C32.5681 501 31 499.432 31 497.5 C31 495.842 33.0899 493.536 34.6679 493.028 C46.3884 489.256 53 480 53 460 L53 156 C53 57 93 -9 153 -9 C194.25 -9 237.542 27.0731 270.522 85.1815 C275.028 93.1198 290 90.2046 290 81.0768 L290 5 C290 2.24015 292.24 0 295 0 C295.746 0 303.483 1.05167 304.198 1.26199 C314.907 4.41114 327.093 7.49468 337.802 10.0206 C339.623 10.4501 342 12.629 342 14.5 L342 18 L342 18 Z " />
<glyph glyph-name="v" unicode="v" horiz-adv-x="328" d="M302.684 500 L260.824 500 C258.754 500 257.344 498.28 257.75 496.25 C257.843 495.787 260.594 491.383 260.914 491.035 C267.295 484.105 265.9 454.9 256 418 L137.802 -8.10916 C137.375 -9.64676 138.404 -11 140 -11 C141.593 -11 143.385 -9.64643 143.821 -8.11442 L265 418 C275.8 455.8 290.245 483.475 301.774 490.09 C302.823 490.692 306.04 494.558 306.25 495.75 C306.658 498.06 305.03 500 302.684 500 L302.684 500 Z M66.6646 499 L10.5 499 C8.5681 499 7 497.432 7 495.5 C7 494.03 9.15225 491.273 10.4733 490.629 C21.8182 485.099 30.9091 469.727 40 437 L132.174 11.2871 C133.403 5.61206 141.472 5.39808 143 11 L145.385 19.7439 C146.304 23.1135 146.84 43.0174 146.104 46.4317 L66 418 C58.8 454.9 58.485 484.105 65.784 491.035 C66.1273 491.361 69.1435 495.289 69.25 495.75 C69.6534 497.498 68.4585 499 66.6646 499 L66.6646 499 Z " />
<glyph glyph-name="w" unicode="w" horiz-adv-x="500" d="M481.959 500 L438.824 500 C436.754 500 435.344 498.28 435.75 496.25 C435.852 495.74 438.82 491.316 439.182 490.944 C445.481 484.469 444.889 459.778 436 426 L376.458 227.018 C361.557 177.219 289.744 180.539 279.5 231.5 L240 428 C234.686 460.771 236.824 484.521 243.636 490.911 C244.076 491.324 247.132 495.659 247.25 496.25 C247.656 498.28 246.246 500 244.176 500 L186.824 500 C184.754 500 183.344 498.28 183.75 496.25 C183.942 495.292 187.094 491.607 187.923 491.09 C198.525 484.475 211.8 456.8 219 419 C221.7 419 230.07 367.97 232.446 353.39 C232.554 352.725 232.402 347.709 232.232 347.057 L139 -10 L144 -10 L191.217 164.654 C202.481 206.318 263.012 204.317 271.5 162 L305.41 -7.05859 C305.729 -8.65045 307.376 -10 309 -10 C310.584 -10 312.412 -8.64552 312.873 -7.12974 L447 434 C459.278 469.889 470.664 487.046 483.685 493.054 C485.026 493.673 485.743 495.543 485.5 497 C485.228 498.633 483.615 500 481.959 500 L481.959 500 Z M82.1757 501 L25.8243 501 C23.7544 501 22.3441 499.28 22.75 497.25 C22.9311 496.345 26.0966 492.571 26.868 492.063 C37.155 485.295 48.9 456.9 57 420 L134.15 16.3719 C135.298 10.3659 143.961 10.082 145.5 16 L148.806 28.7143 C149.562 31.6235 150.18 50.5157 149.615 53.4681 L79.5 420 C72.3 457.8 74.01 485.475 81.714 492.09 C82.2243 492.528 85.1181 496.591 85.25 497.25 C85.6559 499.28 84.2456 501 82.1757 501 L82.1757 501 Z " />
<glyph glyph-name="x" unicode="x" horiz-adv-x="346" d="M271.596 0 L327.5 0 C329.432 0 331 1.5681 331 3.5 C331 5.07461 328.828 7.62531 327.367 8.21391 C313.69 13.7261 300.378 29.9189 282 63 L197.934 232.007 C192.823 242.283 192.339 269.947 197.089 280.395 L266 432 C283.538 468 297.669 486.107 310.75 492.612 C312.112 493.289 314 495.979 314 497.5 C314 499.432 312.432 501 310.5 501 L268.824 501 C266.754 501 265.344 499.28 265.75 497.25 C265.818 496.912 268.584 492.222 268.794 491.949 C273.563 485.75 269.4 462.886 257 431 L218.387 342.293 C203.468 308.021 160.297 306.984 143.75 340.5 L104.5 420 C86.125 456.75 78.4688 483.93 82.2012 491.49 C82.2512 491.592 85.2278 497.139 85.25 497.25 C85.6559 499.28 84.2456 501 82.1757 501 L25.5 501 C23.5681 501 22 499.432 22 497.5 C22 495.925 24.1722 493.375 25.6327 492.786 C39.3097 487.274 52.6216 471.081 71 438 L157.22 265.56 C163.625 252.749 162.556 223.836 155.222 211.533 L78 82 C53.025 39.45 32.3281 16.5794 16.7008 9.43086 C15.3053 8.79247 13 6.03465 13 4.5 C13 2.5681 14.5681 1 16.5 1 L57.1757 1 C59.2456 1 60.6559 2.72031 60.25 4.75 C60.2188 4.90584 57.7542 9.79809 57.677 9.937 C53.915 16.705 65.3 45.1 86 82 L131.427 160.464 C151.053 194.363 194.482 193.035 212 158 L250 82 C268.375 45.25 276.414 18.0703 272.777 10.5098 C272.774 10.503 268.933 4.6944 268.93 4.68745 L268.75 4.25 C267.857 2.08082 269.25 0 271.596 0 L271.596 0 Z " />
<glyph glyph-name="y" unicode="y" horiz-adv-x="365" d="M81.1757 500 L25.8243 500 C23.7544 500 22.3441 498.28 22.75 496.25 C22.9493 495.254 26.2922 491.608 27.167 491.091 C38.345 484.485 50.9 456.9 59 420 L143.819 14.2181 C144.707 9.97137 142.583 -13.8461 141.183 -17.9525 C124.297 -67.4767 108.051 -117.641 91 -167 C86 -183 72 -194 64 -194 C42 -194 37 -184 15 -184 C-7 -184 -22 -199 -22 -221 C-22 -244 -6 -260 19 -260 C36 -260 77 -224 96 -169 L151 -10 L295 419 C308.5 455.9 324.835 484.295 336.715 491.063 C337.63 491.584 341.044 495.218 341.25 496.25 C341.656 498.28 340.246 500 338.176 500 L295.824 500 C293.754 500 292.344 498.28 292.75 496.25 C292.809 495.953 296.2 490.734 296.379 490.49 C301.93 482.93 299.25 455.75 287 419 C287 419 193.85 136.31 167.201 57.173 C165.677 52.6482 158.566 50.4159 157.571 55.0854 L77 433 C71.75 462.75 73.7734 484.461 80.3906 490.764 C80.817 491.17 84.1345 495.673 84.25 496.25 C84.6559 498.28 83.2456 500 81.1757 500 L81.1757 500 Z " />
<glyph glyph-name="z" unicode="z" horiz-adv-x="441" d="M60 493 C60 492 60 491 60 490 C60 491 60 492 60 493 L60 493 Z M51 439 C53.077 439 57.9248 441.2 59.2925 442.763 L63 447 C85 473 134 491 189 493 L282.5 493.5 C324.866 493.727 347.023 451.868 323.015 416.96 L39 4 L39 -1 L384.031 1.17456 C390.582 1.21585 395.189 -5.18073 396.009 1.3192 C396.177 2.65335 398.758 23.1723 402.262 53.5724 C402.577 56.2987 400.744 60 398 60 C395.792 60 391.325 57.7663 390 56 L387 52 C369 26 323 8 269 6 L166.5 5.5 C119.996 5.27315 95.6677 51.1821 121.967 89.5357 L400 495 L400 500 L61 497.75 C59.1714 497.75 51.0735 462.85 46.6416 443.875 C46.0314 441.262 48.317 439 51 439 L51 439 Z " />
<glyph glyph-name="bar" unicode="&#x7c;" horiz-adv-x="136" d="M60 792 L60 -242 C60 -246.416 63.5842 -250 68 -250 C72.4158 -250 76 -246.416 76 -242 L76 792 C76 796.416 72.4158 800 68 800 C63.5842 800 60 796.416 60 792 L60 792 Z " />
<glyph glyph-name="asciitilde" unicode="&#x7e;" horiz-adv-x="297" d="M28.0564 331.879 L32.025 331.379 C32.025 331.379 30.4271 331.127 30.4271 331.127 C34.845 361.942 49.2 381 69 381 C115 381 177 316 223 316 C246.8 316 263.014 337.675 267.342 371.813 C267.342 371.813 269.124 372.027 269.124 372.027 L265.17 372.63 C265.17 372.63 266.952 372.845 266.952 372.845 C262.303 347.158 247.513 331 227 331 C181 331 119 396 73 396 C50.05 396 33.9638 371.435 29.6542 332.131 C29.6542 332.131 28.0564 331.879 28.0564 331.879 L32.025 331.379 C32.025 331.379 30.4271 331.127 30.4271 331.127 L28.0564 331.879 Z " />
<glyph glyph-name="exclamdown" unicode="&#xa1;" horiz-adv-x="164" d="M62 485 C62 459 102 459 102 485 C102 511 62 511 62 485 L62 485 Z M82 -255 C91 -255 95 -228 94 -188 C94 -188 85.33 54.0375 82.729 214.469 C82.729 214.469 84 214.469 84 214.469 L80 214.469 C80 214.469 81.271 214.469 81.271 214.469 C78.67 54.0375 70 -188 70 -188 C69 -228 73 -255 82 -255 L82 -255 Z " />
<glyph glyph-name="cent" unicode="&#xa2;" horiz-adv-x="391" d="M190 567 L190 541.5 C190 528.667 170.184 503.648 158.504 498.332 C88.6406 466.531 45 371.375 45 241 C45 112.375 89.4063 19.7344 158.791 -4.76563 C170.741 -8.98537 190 -30.8264 190 -43.5 L190 -69 C190 -72.8638 193.136 -76 197 -76 C200.864 -76 204 -72.8638 204 -69 L204 -41.0666 C204 -28.5565 219.056 -9.59361 231.01 -5.906 C271.404 6.5545 310.636 40.156 340.402 87.5174 C340.415 87.5387 340.778 88.5886 340.765 88.5674 C311.284 42.556 271.745 10.3045 231.682 -0.806 C212.449 -6.13969 205 4.5585 205 24.5169 L205 478.434 C205 500.126 214.862 511.268 236.096 506.84 C283.342 496.987 322.2 457.8 342 405 C344 399 348 395 352 395 C360 395 364 399 362 405 C342.45 459.4 294.722 500.072 237.241 508.594 C222.927 510.716 206 528.03 206 542.5 L206 567 C206 571.416 202.416 575 198 575 C193.584 575 190 571.416 190 567 L190 567 Z M159.636 5.78637 C102.125 35.6575 66 128.35 66 255 C66 374 101.402 461.933 159.311 495.461 C182.25 508.742 192 495.184 192 468.678 L192 34.2099 C192 6.47094 184.253 -6.99943 159.636 5.78637 L159.636 5.78637 Z " />
<glyph glyph-name="acute" unicode="&#xb4;" horiz-adv-x="297" d="M222.32 626.835 L291 690 C337 733 367 762 367 762 C367 767 362 772 357 772 C356 772 326 743 282 699 L217.5 632.25 C215.403 630.08 220.099 624.791 222.32 626.835 L222.32 626.835 Z " />
<glyph glyph-name="questiondown" unicode="&#xbf;" horiz-adv-x="309" d="M164 485 C164 459 204 459 204 485 C204 511 164 511 164 485 L164 485 Z M189.996 354.605 C189.899 344.433 187.9 140.975 184 140 C107 140 71 100 31 40 C15 16 4 -20 4 -51 C4 -176 68 -260 164 -260 C175 -260 183 -254 183 -245 C183 -239 179 -235 172 -235 C167 -235 161 -239 157 -239 C69 -239 10 -163 10 -49 C10 -24 20 8 36 31 C72 84 105 120 191 120 C193 121 192 355 192 355 C192 355 190 355.008 189.996 354.605 L189.996 354.605 Z " />
<glyph glyph-name="Agrave" unicode="&#xc0;" horiz-adv-x="552" d="M-15.9751 0 L157.5 0 C159.984 0 162 2.01613 162 4.5 C162 6.97755 159.983 9.14409 157.511 9.32061 L148 10 C106 13 89 54 103 115 L144.226 257.347 C150.469 278.901 175.884 298 198.323 298 L353.683 298 C376.792 298 402.186 278.469 408.117 256.134 L444 121 C458 57 441 14 398 11 L388.489 10.3206 C386.017 10.1441 384 7.97755 384 5.5 C384 3.01613 386.016 1 388.5 1 L545.5 1 C547.984 1 550 3.01613 550 5.5 L550 5.96887 C550 8.17675 548.191 10.2261 546 10.5 L542 11 C515 14 485 62 466 130 L302 744 C302 744 295.5 771 293.5 771 C295.971 758.647 291.32 749.685 283.458 745.79 C281.411 744.775 278.87 740.811 279.471 738.607 L279.5 738.5 C279.933 736.912 279.863 729.108 279.401 727.528 L101 117 C79 55 37 14 -8 11 L-16.9878 10.358 C-19.7533 10.1605 -21.7759 7.75874 -21.5 5 C-21.2254 2.25385 -18.7349 0 -15.9751 0 L-15.9751 0 Z M83 1013 C83 1010 113 982 158 941 L226.822 878.685 C229.423 876.33 233.683 880.722 231.25 883.25 L167 950 C125 994 96 1023 93 1023 C88 1023 83 1018 83 1013 L83 1013 Z M176.968 371.056 L225.446 537.653 C241.57 593.061 319.144 592.146 333.956 536.374 L378.202 369.777 C388.23 332.019 362.836 299 323.77 299 L231.045 299 C191.272 299 165.855 332.867 176.968 371.056 L176.968 371.056 Z " />
<glyph glyph-name="Aacute" unicode="&#xc1;" horiz-adv-x="552" d="M364.963 876.966 L433 940 C478 983 508 1011 508 1012 C508 1017 503 1022 498 1022 C498 1022 468 993 424 949 L359.75 882.25 C357.721 880.143 362.817 874.978 364.963 876.966 L364.963 876.966 Z M-15.9751 0 L157.5 0 C159.984 0 162 2.01613 162 4.5 C162 6.97755 159.983 9.14409 157.511 9.32061 L148 10 C106 13 89 54 103 115 L144.226 257.347 C150.469 278.901 175.884 298 198.323 298 L353.683 298 C376.792 298 402.186 278.469 408.117 256.134 L444 121 C458 57 441 14 398 11 L388.489 10.3206 C386.017 10.1441 384 7.97755 384 5.5 C384 3.01613 386.016 1 388.5 1 L545.5 1 C547.984 1 550 3.01613 550 5.5 L550 5.96887 C550 8.17675 548.191 10.2261 546 10.5 L542 11 C515 14 485 62 466 130 L302 744 C302 744 295.5 771 293.5 771 C295.971 758.647 291.32 749.685 283.458 745.79 C281.411 744.775 278.87 740.811 279.471 738.607 L279.5 738.5 C279.933 736.912 279.863 729.108 279.401 727.528 L101 117 C79 55 37 14 -8 11 L-16.9878 10.358 C-19.7533 10.1605 -21.7759 7.75874 -21.5 5 C-21.2254 2.25385 -18.7349 0 -15.9751 0 L-15.9751 0 Z M176.968 371.056 L225.446 537.653 C241.57 593.061 319.144 592.146 333.956 536.374 L378.202 369.777 C388.23 332.019 362.836 299 323.77 299 L231.045 299 C191.272 299 165.855 332.867 176.968 371.056 L176.968 371.056 Z " />
<glyph glyph-name="Acircumflex" unicode="&#xc2;" horiz-adv-x="552" d="M-15.9751 0 L157.5 0 C159.984 0 162 2.01613 162 4.5 C162 6.97755 159.983 9.14409 157.511 9.32061 L148 10 C106 13 89 54 103 115 L144.226 257.347 C150.469 278.901 175.884 298 198.323 298 L353.683 298 C376.792 298 402.186 278.469 408.117 256.134 L444 121 C458 57 441 14 398 11 L388.489 10.3206 C386.017 10.1441 384 7.97755 384 5.5 C384 3.01613 386.016 1 388.5 1 L545.5 1 C547.984 1 550 3.01613 550 5.5 L550 5.96887 C550 8.17675 548.191 10.2261 546 10.5 L542 11 C515 14 485 62 466 130 L302 744 C302 744 295.5 771 293.5 771 C295.971 758.647 291.32 749.685 283.458 745.79 C281.411 744.775 278.87 740.811 279.471 738.607 L279.5 738.5 C279.933 736.912 279.863 729.108 279.401 727.528 L101 117 C79 55 37 14 -8 11 L-16.9878 10.358 C-19.7533 10.1605 -21.7759 7.75874 -21.5 5 C-21.2254 2.25385 -18.7349 0 -15.9751 0 L-15.9751 0 Z M294.784 1028.84 C292.216 1031.72 288.784 1031.72 286.216 1028.84 C286.045 1028.65 281.819 1021.63 281.679 1021.41 L212.252 914.14 C210.067 910.764 215.869 906.76 218.25 910 L245.616 947.24 C269.523 979.774 312.477 979.774 336.384 947.24 L363.75 910 C365.999 906.939 371.484 910.738 369.41 913.92 L299.333 1021.42 C299.2 1021.62 294.945 1028.66 294.784 1028.84 L294.784 1028.84 Z M177.968 371.056 L226.446 537.653 C242.57 593.061 320.144 592.146 334.956 536.374 L379.202 369.777 C389.23 332.019 363.836 299 324.77 299 L232.045 299 C192.272 299 166.855 332.867 177.968 371.056 L177.968 371.056 Z " />
<glyph glyph-name="Atilde" unicode="&#xc3;" horiz-adv-x="552" d="M170.058 891.88 L174.027 891.378 C174.027 891.378 172.427 891.127 172.427 891.127 C176.845 921.942 191.2 941 211 941 C257 941 319 876 365 876 C388.8 876 405.736 897.675 410.282 931.813 C410.282 931.813 412.089 932.229 412.089 932.229 L408.138 932.851 C408.138 932.851 409.946 933.267 409.946 933.267 C405.145 907.335 389.625 891 369 891 C323 891 262 956 216 956 C192.2 956 175.986 931.435 171.658 892.131 C171.658 892.131 170.058 891.88 170.058 891.88 L174.027 891.378 C174.027 891.378 172.427 891.127 172.427 891.127 L170.058 891.88 Z M-15.9751 0 L157.5 0 C159.984 0 162 2.01613 162 4.5 C162 6.97755 159.983 9.14409 157.511 9.32061 L148 10 C106 13 89 54 103 115 L144.226 257.347 C150.469 278.901 175.884 298 198.323 298 L353.683 298 C376.792 298 402.186 278.469 408.117 256.134 L444 121 C458 57 441 14 398 11 L388.489 10.3206 C386.017 10.1441 384 7.97755 384 5.5 C384 3.01613 386.016 1 388.5 1 L545.5 1 C547.984 1 550 3.01613 550 5.5 L550 5.96887 C550 8.17675 548.191 10.2261 546 10.5 L542 11 C515 14 485 62 466 130 L302 744 C302 744 295.5 771 293.5 771 C295.971 758.647 291.32 749.685 283.458 745.79 C281.411 744.775 278.87 740.811 279.471 738.607 L279.5 738.5 C279.933 736.912 279.863 729.108 279.401 727.528 L101 117 C79 55 37 14 -8 11 L-16.9878 10.358 C-19.7533 10.1605 -21.7759 7.75874 -21.5 5 C-21.2254 2.25385 -18.7349 0 -15.9751 0 L-15.9751 0 Z M176.968 371.056 L225.446 537.653 C241.57 593.061 319.144 592.146 333.956 536.374 L378.202 369.777 C388.23 332.019 362.836 299 323.77 299 L231.045 299 C191.272 299 165.855 332.867 176.968 371.056 L176.968 371.056 Z " />
<glyph glyph-name="Adieresis" unicode="&#xc4;" horiz-adv-x="552" d="M374 885 C374 911 334 911 334 885 C334 859 374 859 374 885 L374 885 Z M248 885 C248 911 208 911 208 885 C208 859 248 859 248 885 L248 885 Z M-15.9751 0 L157.5 0 C159.984 0 162 2.01613 162 4.5 C162 6.97755 159.983 9.14409 157.511 9.32061 L148 10 C106 13 89 54 103 115 L144.226 257.347 C150.469 278.901 175.884 298 198.323 298 L353.683 298 C376.792 298 402.186 278.469 408.117 256.134 L444 121 C458 57 441 14 398 11 L388.489 10.3206 C386.017 10.1441 384 7.97755 384 5.5 C384 3.01613 386.016 1 388.5 1 L545.5 1 C547.984 1 550 3.01613 550 5.5 L550 5.96887 C550 8.17675 548.191 10.2261 546 10.5 L542 11 C515 14 485 62 466 130 L302 744 C302 744 295.5 771 293.5 771 C295.971 758.647 291.32 749.685 283.458 745.79 C281.411 744.775 278.87 740.811 279.471 738.607 L279.5 738.5 C279.933 736.912 279.863 729.108 279.401 727.528 L101 117 C79 55 37 14 -8 11 L-16.9878 10.358 C-19.7533 10.1605 -21.7759 7.75874 -21.5 5 C-21.2254 2.25385 -18.7349 0 -15.9751 0 L-15.9751 0 Z M176.968 371.056 L225.446 537.653 C241.57 593.061 319.144 592.146 333.956 536.374 L378.202 369.777 C388.23 332.019 362.836 299 323.77 299 L231.045 299 C191.272 299 165.855 332.867 176.968 371.056 L176.968 371.056 Z " />
<glyph glyph-name="Aring" unicode="&#xc5;" horiz-adv-x="552" d="M202 905 C202 959 238 995 291 995 C344 995 380 959 380 905 C380 856 339 815 291 815 C243 815 202 856 202 905 L202 905 Z M196 905 C196 854 240 810 291 810 C342 810 386 854 386 905 C386 962 348 1000 291 1000 C234 1000 196 962 196 905 L196 905 Z M-15.9751 0 L157.5 0 C159.984 0 162 2.01613 162 4.5 C162 6.97755 159.983 9.14409 157.511 9.32061 L148 10 C106 13 89 54 103 115 L144.226 257.347 C150.469 278.901 175.884 298 198.323 298 L353.683 298 C376.792 298 402.186 278.469 408.117 256.134 L444 121 C458 57 441 14 398 11 L388.489 10.3206 C386.017 10.1441 384 7.97755 384 5.5 C384 3.01613 386.016 1 388.5 1 L545.5 1 C547.984 1 550 3.01613 550 5.5 L550 5.96887 C550 8.17675 548.191 10.2261 546 10.5 L542 11 C515 14 485 62 466 130 L302 744 C302 744 295.5 771 293.5 771 C295.971 758.647 291.32 749.685 283.458 745.79 C281.411 744.775 278.87 740.811 279.471 738.607 L279.5 738.5 C279.933 736.912 279.863 729.108 279.401 727.528 L101 117 C79 55 37 14 -8 11 L-16.9878 10.358 C-19.7533 10.1605 -21.7759 7.75874 -21.5 5 C-21.2254 2.25385 -18.7349 0 -15.9751 0 L-15.9751 0 Z M176.968 371.056 L225.446 537.653 C241.57 593.061 319.144 592.146 333.956 536.374 L378.202 369.777 C388.23 332.019 362.836 299 323.77 299 L231.045 299 C191.272 299 165.855 332.867 176.968 371.056 L176.968 371.056 Z " />
<glyph glyph-name="Egrave" unicode="&#xc8;" horiz-adv-x="495" d="M63 1012 C63 1009 93 981 139 940 L208.081 877.677 C210.686 875.327 214.938 879.727 212.5 882.25 L148 949 C106 993 76 1022 73 1022 C68 1022 63 1017 63 1012 L63 1012 Z M350.764 473.673 L348 464 C334 417 287 386 230 386 L187 386 C163.265 386 144 405.265 144 429 L144 692.68 C144 723.767 169.233 749 200.32 749 L289 749 C346 749 397 718 417 671 L421.227 661.136 C422.127 659.038 425.217 657 427.5 657 C429.977 657 431.796 658.914 431.523 661.376 C428.902 685.069 425.072 714.2 422.244 738.825 C421.37 746.437 414.582 750 406.92 750 L62.5 750 C60.5681 750 59 748.432 59 746.5 C59 744.578 60.5699 742.843 62.4826 742.652 L69 742 C100 740 121 705 121 654 L121 96 C121 45 100 10 69 8 L62.4826 7.34826 C60.5699 7.15699 59 5.42231 59 3.5 C59 1.5681 60.5681 0 62.5 0 L433.341 0 C440.184 0 446.958 5.97582 448.087 12.7251 C451.648 34.0235 456.039 58.6425 459.334 78.8783 C459.73 81.3049 457.958 83 455.5 83 C453.245 83 450.059 80.9619 449.114 78.9142 L445 70 C424 29 362 1 290 1 L238 1 C153 1 144 38 144 94 L144 342 C144 365.735 163.265 385 187 385 L230 385 C287 385 334 354 348 307 L350.764 297.327 C351.42 295.03 354.112 293 356.5 293 C358.984 293 361 295.016 361 297.5 L361 473.5 C361 475.984 358.984 478 356.5 478 C354.112 478 351.42 475.97 350.764 473.673 L350.764 473.673 Z " />
<glyph glyph-name="Eacute" unicode="&#xc9;" horiz-adv-x="495" d="M345.32 876.835 L414 940 C460 983 490 1012 490 1012 C490 1017 485 1022 480 1022 C479 1022 449 993 405 949 L340.5 882.25 C338.403 880.08 343.099 874.791 345.32 876.835 L345.32 876.835 Z M350.764 473.673 L348 464 C334 417 287 386 230 386 L187 386 C163.265 386 144 405.265 144 429 L144 692.68 C144 723.767 169.233 749 200.32 749 L289 749 C346 749 397 718 417 671 L421.227 661.136 C422.127 659.038 425.217 657 427.5 657 C429.977 657 431.796 658.914 431.523 661.376 C428.902 685.069 425.072 714.2 422.244 738.825 C421.37 746.437 414.582 750 406.92 750 L62.5 750 C60.5681 750 59 748.432 59 746.5 C59 744.578 60.5699 742.843 62.4826 742.652 L69 742 C100 740 121 705 121 654 L121 96 C121 45 100 10 69 8 L62.4826 7.34826 C60.5699 7.15699 59 5.42231 59 3.5 C59 1.5681 60.5681 0 62.5 0 L433.341 0 C440.184 0 446.958 5.97582 448.087 12.7251 C451.648 34.0235 456.039 58.6425 459.334 78.8783 C459.73 81.3049 457.958 83 455.5 83 C453.245 83 450.059 80.9619 449.114 78.9142 L445 70 C424 29 362 1 290 1 L238 1 C153 1 144 38 144 94 L144 342 C144 365.735 163.265 385 187 385 L230 385 C287 385 334 354 348 307 L350.764 297.327 C351.42 295.03 354.112 293 356.5 293 C358.984 293 361 295.016 361 297.5 L361 473.5 C361 475.984 358.984 478 356.5 478 C354.112 478 351.42 475.97 350.764 473.673 L350.764 473.673 Z " />
<glyph glyph-name="Ecircumflex" unicode="&#xca;" horiz-adv-x="495" d="M277.056 1027.68 C273.944 1031.51 269.056 1031.13 265.944 1027.4 C265.834 1027.27 261.784 1020.55 261.691 1020.41 L192.693 913.021 C190.318 909.324 196.64 904.966 199.25 908.5 L226.54 945.45 C250.499 977.888 293.405 977.818 317.257 945.301 L344.25 908.5 C346.711 905.144 352.717 909.27 350.467 912.771 L281.564 1020.01 C281.495 1020.12 277.136 1027.58 277.056 1027.68 L277.056 1027.68 Z M350.764 473.673 L348 464 C334 417 287 386 230 386 L187 386 C163.265 386 144 405.265 144 429 L144 692.68 C144 723.767 169.233 749 200.32 749 L289 749 C346 749 397 718 417 671 L421.227 661.136 C422.127 659.038 425.217 657 427.5 657 C429.977 657 431.796 658.914 431.523 661.376 C428.902 685.069 425.072 714.2 422.244 738.825 C421.37 746.437 414.582 750 406.92 750 L62.5 750 C60.5681 750 59 748.432 59 746.5 C59 744.578 60.5699 742.843 62.4826 742.652 L69 742 C100 740 121 705 121 654 L121 96 C121 45 100 10 69 8 L62.4826 7.34826 C60.5699 7.15699 59 5.42231 59 3.5 C59 1.5681 60.5681 0 62.5 0 L433.341 0 C440.184 0 446.958 5.97582 448.087 12.7251 C451.648 34.0235 456.039 58.6425 459.334 78.8783 C459.73 81.3049 457.958 83 455.5 83 C453.245 83 450.059 80.9619 449.114 78.9142 L445 70 C424 29 362 1 290 1 L238 1 C153 1 144 38 144 94 L144 342 C144 365.735 163.265 385 187 385 L230 385 C287 385 334 354 348 307 L350.764 297.327 C351.42 295.03 354.112 293 356.5 293 C358.984 293 361 295.016 361 297.5 L361 473.5 C361 475.984 358.984 478 356.5 478 C354.112 478 351.42 475.97 350.764 473.673 L350.764 473.673 Z " />
<glyph glyph-name="Edieresis" unicode="&#xcb;" horiz-adv-x="495" d="M354 885 C354 911 314 911 314 885 C314 859 354 859 354 885 L354 885 Z M229 885 C229 911 189 911 189 885 C189 859 229 859 229 885 L229 885 Z M350.764 473.673 L348 464 C334 417 287 386 230 386 L187 386 C163.265 386 144 405.265 144 429 L144 692.68 C144 723.767 169.233 749 200.32 749 L289 749 C346 749 397 718 417 671 L421.227 661.136 C422.127 659.038 425.217 657 427.5 657 C429.977 657 431.796 658.914 431.523 661.376 C428.902 685.069 425.072 714.2 422.244 738.825 C421.37 746.437 414.582 750 406.92 750 L62.5 750 C60.5681 750 59 748.432 59 746.5 C59 744.578 60.5699 742.843 62.4826 742.652 L69 742 C100 740 121 705 121 654 L121 96 C121 45 100 10 69 8 L62.4826 7.34826 C60.5699 7.15699 59 5.42231 59 3.5 C59 1.5681 60.5681 0 62.5 0 L433.341 0 C440.184 0 446.958 5.97582 448.087 12.7251 C451.648 34.0235 456.039 58.6425 459.334 78.8783 C459.73 81.3049 457.958 83 455.5 83 C453.245 83 450.059 80.9619 449.114 78.9142 L445 70 C424 29 362 1 290 1 L238 1 C153 1 144 38 144 94 L144 342 C144 365.735 163.265 385 187 385 L230 385 C287 385 334 354 348 307 L350.764 297.327 C351.42 295.03 354.112 293 356.5 293 C358.984 293 361 295.016 361 297.5 L361 473.5 C361 475.984 358.984 478 356.5 478 C354.112 478 351.42 475.97 350.764 473.673 L350.764 473.673 Z " />
<glyph glyph-name="Igrave" unicode="&#xcc;" horiz-adv-x="259" d="M-60 1012 C-60 1009 -30 981 15 940 L83.822 877.685 C86.4227 875.33 90.683 879.722 88.25 882.25 L24 949 C-18 993 -47 1022 -50 1022 C-55 1022 -60 1017 -60 1012 L-60 1012 Z M196.535 7.49497 L193 8 C172 10 158 37 158 76 L158 674 C158 713 172 740 193 742 L196.535 742.505 C198.428 742.775 200 744.588 200 746.5 C200 748.432 198.432 750 196.5 750 L96.5 750 C94.5681 750 93 748.432 93 746.5 C93 744.588 94.5716 742.775 96.4648 742.505 L100 742 C121 740 135 713 135 674 L135 76 C135 37 121 10 100 8 L96.4648 7.49497 C94.5716 7.22451 93 5.41248 93 3.5 C93 1.5681 94.5681 0 96.5 0 L196.5 0 C198.432 0 200 1.5681 200 3.5 C200 5.41248 198.428 7.22451 196.535 7.49497 L196.535 7.49497 Z " />
<glyph glyph-name="Iacute" unicode="&#xcd;" horiz-adv-x="259" d="M220.963 876.966 L289 940 C334 983 364 1011 364 1012 C364 1017 359 1022 354 1022 C354 1022 324 993 280 949 L215.75 882.25 C213.721 880.143 218.817 874.978 220.963 876.966 L220.963 876.966 Z M196.535 7.49497 L193 8 C172 10 158 37 158 76 L158 674 C158 713 172 740 193 742 L196.535 742.505 C198.428 742.775 200 744.588 200 746.5 C200 748.432 198.432 750 196.5 750 L96.5 750 C94.5681 750 93 748.432 93 746.5 C93 744.588 94.5716 742.775 96.4648 742.505 L100 742 C121 740 135 713 135 674 L135 76 C135 37 121 10 100 8 L96.4648 7.49497 C94.5716 7.22451 93 5.41248 93 3.5 C93 1.5681 94.5681 0 96.5 0 L196.5 0 C198.432 0 200 1.5681 200 3.5 C200 5.41248 198.428 7.22451 196.535 7.49497 L196.535 7.49497 Z " />
<glyph glyph-name="Icircumflex" unicode="&#xce;" horiz-adv-x="259" d="M151.784 1027.84 C149.216 1030.72 145.784 1030.72 143.216 1027.84 C143.045 1027.65 138.819 1020.63 138.679 1020.41 L69.2516 913.14 C67.0668 909.764 72.8689 905.76 75.25 909 L102.616 946.24 C126.523 978.774 169.477 978.774 193.384 946.24 L220.75 909 C222.999 905.939 228.484 909.738 226.41 912.92 L156.333 1020.42 C156.2 1020.62 151.945 1027.66 151.784 1027.84 L151.784 1027.84 Z M197.535 7.49497 L194 8 C173 10 159 37 159 76 L159 674 C159 713 173 740 194 742 L197.535 742.505 C199.428 742.775 201 744.588 201 746.5 C201 748.432 199.432 750 197.5 750 L97.5 750 C95.5681 750 94 748.432 94 746.5 C94 744.588 95.5716 742.775 97.4648 742.505 L101 742 C122 740 136 713 136 674 L136 76 C136 37 122 10 101 8 L97.4648 7.49497 C95.5716 7.22451 94 5.41248 94 3.5 C94 1.5681 95.5681 0 97.5 0 L197.5 0 C199.432 0 201 1.5681 201 3.5 C201 5.41248 199.428 7.22451 197.535 7.49497 L197.535 7.49497 Z " />
<glyph glyph-name="Idieresis" unicode="&#xcf;" horiz-adv-x="259" d="M230 885 C230 911 190 911 190 885 C190 859 230 859 230 885 L230 885 Z M104 885 C104 911 64 911 64 885 C64 859 104 859 104 885 L104 885 Z M196.535 7.49497 L193 8 C172 10 158 37 158 76 L158 674 C158 713 172 740 193 742 L196.535 742.505 C198.428 742.775 200 744.588 200 746.5 C200 748.432 198.432 750 196.5 750 L96.5 750 C94.5681 750 93 748.432 93 746.5 C93 744.588 94.5716 742.775 96.4648 742.505 L100 742 C121 740 135 713 135 674 L135 76 C135 37 121 10 100 8 L96.4648 7.49497 C94.5716 7.22451 93 5.41248 93 3.5 C93 1.5681 94.5681 0 96.5 0 L196.5 0 C198.432 0 200 1.5681 200 3.5 C200 5.41248 198.428 7.22451 196.535 7.49497 L196.535 7.49497 Z " />
<glyph glyph-name="Ntilde" unicode="&#xd1;" horiz-adv-x="621" d="M189.058 891.88 L193.027 891.378 C193.027 891.378 191.427 891.127 191.427 891.127 C195.845 921.942 210.2 941 230 941 C276 941 338 876 384 876 C407.8 876 424.736 897.675 429.282 931.813 C429.282 931.813 431.089 932.229 431.089 932.229 L427.138 932.851 C427.138 932.851 428.946 933.267 428.946 933.267 C424.145 907.335 408.625 891 388 891 C342 891 281 956 235 956 C211.2 956 194.986 931.435 190.658 892.131 C190.658 892.131 189.058 891.88 189.058 891.88 L193.027 891.378 C193.027 891.378 191.427 891.127 191.427 891.127 L189.058 891.88 Z M48.9363 742.343 C63.7926 739.597 76.1019 734.069 90.3704 720.801 C95.3294 716.19 100 702.906 100 696.134 L100 76 C100 37 86 10 65 8 L61.4648 7.49497 C59.5716 7.22451 58 5.41248 58 3.5 C58 1.5681 59.5681 0 61.5 0 L145.5 0 C147.432 0 149 1.5681 149 3.5 C149 5.41248 147.428 7.22451 145.535 7.49497 L142 8 C121 10 107 37 107 76 L106.018 692.489 C106.013 696.069 110.479 697.454 112.5 694.5 L119 685 C250 457 383 230 512 0 L517 0 L519 674 C519 713 533 741 554 743 L557.535 743.505 C559.428 743.775 561 745.588 561 747.5 C561 749.432 559.432 751 557.5 751 L472.5 751 C470.568 751 469 749.432 469 747.5 C469 745.588 470.572 743.775 472.465 743.505 L476 743 C497 741 511 714 511 675 L511.66 261.09 C511.753 202.976 435.213 182.616 406.419 233.095 L127.208 722.585 C119.437 736.209 93.9716 751 78.2874 751 L48.0311 751 C45.8232 751 44.2261 749.191 44.5 747 C44.7539 744.969 46.9232 742.716 48.9363 742.343 L48.9363 742.343 Z M512 48 L512 48 L512 48 Z " />
<glyph glyph-name="Ograve" unicode="&#xd2;" horiz-adv-x="725" d="M96 375 C96 605 204 758 365 758 C532 758 644 605 644 375 C644 145 529 -8 356 -8 C200 -8 96 145 96 375 L96 375 Z M71 375 C71 144 185 -10 356 -10 C544 -10 670 144 670 375 C670 606 548 760 366 760 C189 760 71 606 71 375 L71 375 Z M159 1012 C159 1009 189 981 234 940 L302.822 877.685 C305.423 875.33 309.683 879.722 307.25 882.25 L243 949 C201 993 172 1022 169 1022 C164 1022 159 1017 159 1012 L159 1012 Z " />
<glyph glyph-name="Oacute" unicode="&#xd3;" horiz-adv-x="725" d="M439.963 876.966 L508 940 C553 983 583 1011 583 1012 C583 1017 578 1022 573 1022 C573 1022 543 993 499 949 L434.75 882.25 C432.721 880.143 437.817 874.978 439.963 876.966 L439.963 876.966 Z M96 375 C96 605 204 758 365 758 C532 758 644 605 644 375 C644 145 529 -8 356 -8 C200 -8 96 145 96 375 L96 375 Z M71 375 C71 144 185 -10 356 -10 C544 -10 670 144 670 375 C670 606 548 760 366 760 C189 760 71 606 71 375 L71 375 Z " />
<glyph glyph-name="Ocircumflex" unicode="&#xd4;" horiz-adv-x="725" d="M96 375 C96 605 204 758 365 758 C532 758 644 605 644 375 C644 145 529 -8 356 -8 C200 -8 96 145 96 375 L96 375 Z M71 375 C71 144 185 -10 356 -10 C544 -10 670 144 670 375 C670 606 548 760 366 760 C189 760 71 606 71 375 L71 375 Z M370.784 1027.84 C368.216 1030.72 364.784 1030.72 362.216 1027.84 C362.045 1027.65 357.819 1020.63 357.679 1020.41 L288.252 913.14 C286.067 909.764 291.869 905.76 294.25 909 L321.616 946.24 C345.523 978.774 388.477 978.774 412.384 946.24 L439.75 909 C441.999 905.939 447.484 909.738 445.41 912.92 L375.333 1020.42 C375.2 1020.62 370.945 1027.66 370.784 1027.84 L370.784 1027.84 Z " />
<glyph glyph-name="Otilde" unicode="&#xd5;" horiz-adv-x="725" d="M245.058 891.88 L249.027 891.378 C249.027 891.378 247.427 891.127 247.427 891.127 C251.845 921.942 266.2 941 286 941 C332 941 394 876 440 876 C463.8 876 480.736 897.675 485.282 931.813 C485.282 931.813 487.089 932.229 487.089 932.229 L483.138 932.851 C483.138 932.851 484.946 933.267 484.946 933.267 C480.145 907.335 464.625 891 444 891 C398 891 337 956 291 956 C267.2 956 250.986 931.435 246.658 892.131 C246.658 892.131 245.058 891.88 245.058 891.88 L249.027 891.378 C249.027 891.378 247.427 891.127 247.427 891.127 L245.058 891.88 Z M96 375 C96 605 204 758 365 758 C532 758 644 605 644 375 C644 145 529 -8 356 -8 C200 -8 96 145 96 375 L96 375 Z M71 375 C71 144 185 -10 356 -10 C544 -10 670 144 670 375 C670 606 548 760 366 760 C189 760 71 606 71 375 L71 375 Z " />
<glyph glyph-name="Odieresis" unicode="&#xd6;" horiz-adv-x="725" d="M449 885 C449 911 409 911 409 885 C409 859 449 859 449 885 L449 885 Z M323 885 C323 911 283 911 283 885 C283 859 323 859 323 885 L323 885 Z M96 375 C96 605 204 758 365 758 C532 758 644 605 644 375 C644 145 529 -8 356 -8 C200 -8 96 145 96 375 L96 375 Z M71 375 C71 144 185 -10 356 -10 C544 -10 670 144 670 375 C670 606 548 760 366 760 C189 760 71 606 71 375 L71 375 Z " />
<glyph glyph-name="Oslash" unicode="&#xd8;" horiz-adv-x="725" d="M86.1392 7.20425 L126.848 59.6172 C138.737 74.9239 166.121 73.9664 180.055 60.4957 C226.929 15.1831 286.7 -10 356 -10 C544 -10 670 144 670 375 C670 480.45 644.331 569.643 599.325 635.456 C593.243 644.351 595.669 660.963 602.18 669.548 C619.75 692.713 637.394 716.576 655.387 740.586 C655.387 740.586 656.895 739.454 656.895 739.454 L653.715 741.88 C653.715 741.88 655.224 740.748 655.224 740.748 C636.856 717.113 618.288 694.176 600.343 671.386 C593.447 662.629 581.151 659.301 573.69 667.582 C521.516 725.486 450.175 758 366 758 C189 758 71 604 71 373 C71 274.4 91.9525 189.528 129.559 125.138 C139.064 108.862 137.465 75.5539 125.967 60.6188 C90.2172 14.1831 71.5 -11 71.5 -11 C71.5 -11 86.0565 7.0977 86.1392 7.20425 L86.1392 7.20425 Z M548.837 603.978 C392.081 401.905 265.184 239.033 181.545 131.439 C168.31 114.413 153.148 117 143.782 136.425 C113.618 198.982 97 279.35 97 372 C97 602 205 755 366 755 C440.8 755 504.762 724.294 552.36 669.637 C568.829 650.725 564.208 623.792 548.837 603.978 L548.837 603.978 Z M596.051 604.704 C627.66 542.618 645 463.95 645 373 C645 143 530 -10 357 -10 C288.15 -10 229.415 19.6225 185.094 72.7262 C169.353 91.5868 175.681 119.178 190.82 138.525 C274.46 245.412 398.56 404.681 550.837 600.978 C564.361 618.41 586.041 624.365 596.051 604.704 L596.051 604.704 Z " />
<glyph glyph-name="Ugrave" unicode="&#xd9;" horiz-adv-x="515" d="M58 1012 C58 1009 88 981 133 940 L201.822 877.685 C204.423 875.33 208.683 879.722 206.25 882.25 L142 949 C100 993 71 1022 68 1022 C63 1022 58 1017 58 1012 L58 1012 Z M482.535 20.505 L479 20 C458 17 444 40 444 79 L444 717 C444 735.215 429.215 750 411 750 L381.5 750 C379.568 750 378 748.432 378 746.5 C378 744.588 379.572 742.775 381.465 742.505 L385 742 C406 740 420 713 420 674 L420 169.637 C420 165.837 414.994 146.914 413.173 143.579 C367.585 60.0525 278 5 183 5 C139 5 109 88 109 213 L109 717.5 C109 735.439 94.439 750 76.5 750 L47.5 750 C45.5681 750 44 748.432 44 746.5 C44 744.588 45.5716 742.775 47.4648 742.505 L51 742 C72 740 86 713 86 674 L86 213 C86 79 121 -10 173 -10 C258.8 -10 341.197 32.8794 392.115 100.67 C399.002 109.838 420 106.573 420 95.1059 L420 6 C420 2.68818 422.688 0 426 0 C426.803 0 437.042 1.2604 437.821 1.45521 L444 3 C456.526 6.57895 470.654 10.1579 482.085 13.0206 C483.902 13.4756 486 15.6268 486 17.5 C486 19.4125 484.428 20.7755 482.535 20.505 L482.535 20.505 Z " />
<glyph glyph-name="Uacute" unicode="&#xda;" horiz-adv-x="515" d="M338.963 876.966 L407 940 C452 983 482 1011 482 1012 C482 1017 477 1022 472 1022 C472 1022 442 993 398 949 L333.75 882.25 C331.721 880.143 336.817 874.978 338.963 876.966 L338.963 876.966 Z M482.535 20.505 L479 20 C458 17 444 40 444 79 L444 717 C444 735.215 429.215 750 411 750 L381.5 750 C379.568 750 378 748.432 378 746.5 C378 744.588 379.572 742.775 381.465 742.505 L385 742 C406 740 420 713 420 674 L420 169.637 C420 165.837 414.994 146.914 413.173 143.579 C367.585 60.0525 278 5 183 5 C139 5 109 88 109 213 L109 717.5 C109 735.439 94.439 750 76.5 750 L47.5 750 C45.5681 750 44 748.432 44 746.5 C44 744.588 45.5716 742.775 47.4648 742.505 L51 742 C72 740 86 713 86 674 L86 213 C86 79 121 -10 173 -10 C258.8 -10 341.197 32.8794 392.115 100.67 C399.002 109.838 420 106.573 420 95.1059 L420 6 C420 2.68818 422.688 0 426 0 C426.803 0 437.042 1.2604 437.821 1.45521 L444 3 C456.526 6.57895 470.654 10.1579 482.085 13.0206 C483.902 13.4756 486 15.6268 486 17.5 C486 19.4125 484.428 20.7755 482.535 20.505 L482.535 20.505 Z " />
<glyph glyph-name="Ucircumflex" unicode="&#xdb;" horiz-adv-x="515" d="M269.784 1027.84 C267.216 1030.72 263.784 1030.72 261.216 1027.84 C261.045 1027.65 256.819 1020.63 256.679 1020.41 L187.252 913.14 C185.067 909.764 190.869 905.76 193.25 909 L220.616 946.24 C244.523 978.774 287.477 978.774 311.384 946.24 L338.75 909 C340.999 905.939 346.484 909.738 344.41 912.92 L274.333 1020.42 C274.2 1020.62 269.945 1027.66 269.784 1027.84 L269.784 1027.84 Z M483.535 20.505 L480 20 C459 17 445 40 445 79 L445 717 C445 735.215 430.215 750 412 750 L382.5 750 C380.568 750 379 748.432 379 746.5 C379 744.588 380.572 742.775 382.465 742.505 L386 742 C407 740 421 713 421 674 L421 169.637 C421 165.837 415.994 146.914 414.173 143.579 C368.585 60.0525 279 5 184 5 C140 5 110 88 110 213 L110 717.5 C110 735.439 95.439 750 77.5 750 L48.5 750 C46.5681 750 45 748.432 45 746.5 C45 744.588 46.5716 742.775 48.4648 742.505 L52 742 C73 740 87 713 87 674 L87 213 C87 79 122 -10 174 -10 C259.8 -10 342.197 32.8794 393.115 100.67 C400.002 109.838 421 106.573 421 95.1059 L421 6 C421 2.68818 423.688 0 427 0 C427.803 0 438.042 1.2604 438.821 1.45521 L445 3 C457.526 6.57895 471.654 10.1579 483.085 13.0206 C484.902 13.4756 487 15.6268 487 17.5 C487 19.4125 485.428 20.7755 483.535 20.505 L483.535 20.505 Z " />
<glyph glyph-name="Udieresis" unicode="&#xdc;" horiz-adv-x="515" d="M348 885 C348 911 308 911 308 885 C308 859 348 859 348 885 L348 885 Z M222 885 C222 911 182 911 182 885 C182 859 222 859 222 885 L222 885 Z M482.535 20.505 L479 20 C458 17 444 40 444 79 L444 717 C444 735.215 429.215 750 411 750 L381.5 750 C379.568 750 378 748.432 378 746.5 C378 744.588 379.572 742.775 381.465 742.505 L385 742 C406 740 420 713 420 674 L420 169.637 C420 165.837 414.994 146.914 413.173 143.579 C367.585 60.0525 278 5 183 5 C139 5 109 88 109 213 L109 717.5 C109 735.439 94.439 750 76.5 750 L47.5 750 C45.5681 750 44 748.432 44 746.5 C44 744.588 45.5716 742.775 47.4648 742.505 L51 742 C72 740 86 713 86 674 L86 213 C86 79 121 -10 173 -10 C258.8 -10 341.197 32.8794 392.115 100.67 C399.002 109.838 420 106.573 420 95.1059 L420 6 C420 2.68818 422.688 0 426 0 C426.803 0 437.042 1.2604 437.821 1.45521 L444 3 C456.526 6.57895 470.654 10.1579 482.085 13.0206 C483.902 13.4756 486 15.6268 486 17.5 C486 19.4125 484.428 20.7755 482.535 20.505 L482.535 20.505 Z " />
<glyph glyph-name="Yacute" unicode="&#xdd;" horiz-adv-x="530" d="M342.963 876.966 L411 940 C456 983 486 1011 486 1012 C486 1017 481 1022 476 1022 C476 1022 446 993 402 949 L337.75 882.25 C335.721 880.143 340.817 874.978 342.963 876.966 L342.963 876.966 Z M130.838 750 L25.5 750 C23.5681 750 22 748.432 22 746.5 C22 744.772 23.2367 742.742 24.8939 742.254 C41.6362 737.32 56.0811 722.108 75 689 L249.796 348.1 C251.358 345.052 256 325.827 256 322.403 L256 96 C256 45 235 10 204 8 L197.483 7.34826 C195.57 7.15699 194 5.42231 194 3.5 C194 1.5681 195.568 0 197.5 0 L338.5 0 C340.432 0 342 1.5681 342 3.5 C342 5.42231 340.43 7.15699 338.517 7.34826 L332 8 C301 10 280 45 280 96 L280 325.849 C280 329.064 284.4 347.909 285.824 350.791 L443 669 C464 711 496 740 523 742 L527.527 742.566 C529.429 742.804 531 744.583 531 746.5 C531 748.432 529.432 750 527.5 750 L400.5 750 C398.568 750 397 748.432 397 746.5 C397 744.575 398.569 742.869 400.488 742.709 L409 742 C448 740 458 710 439 669 L328.55 442.578 C306.714 397.814 250.328 397.337 227.738 441.725 L108 677 C91 715 97 741 123 743 L128.857 743.651 C130.432 743.826 132.499 745.497 133 747 C133.524 748.571 132.494 750 130.838 750 L130.838 750 Z " />
<glyph glyph-name="agrave" unicode="&#xe0;" horiz-adv-x="477" d="M484.5 58 C483.188 58.5249 481.858 58.0979 481.58 56.7122 C475.817 27.9875 453.256 9 425 9 C390 9 366 31 366 64 L366 361 C366 464 318 510 246 510 C147 510 81 414 81 360 C81 352 85 346 91 346 C106 346 116 352 116 356 C116 361 96 370 96 373 C96 422 155 508 244 508 C305 508 346 465 346 368 L346 298.642 C346 283.055 331.453 257.667 317.942 249.895 C144.932 150.38 61 97.75 61 74 C61 24 103 -10 165 -10 C208.7 -10 265.035 15.27 334.862 81.2427 C338.824 84.9859 346 83.4504 346 78 L346 64 C346 23 374 -5 417 -5 C451.125 -5 478.596 18.7656 486.436 54.2477 C486.762 55.7247 485.904 57.4382 484.5 58 L484.5 58 Z M39 762 C39 759 69 731 114 690 L182.822 627.685 C185.423 625.33 189.683 629.722 187.25 632.25 L123 699 C81 743 52 772 49 772 C44 772 39 767 39 762 L39 762 Z M346 179 L346 116.822 C346 106.602 338.462 85.6793 330.886 78.8191 C269.518 23.2463 217.625 1 176 1 C119 1 81 31 81 76 C81 103.2 143.857 147.017 272.029 222.191 C307.763 243.15 346 220.427 346 179 L346 179 Z " />
<glyph glyph-name="aacute" unicode="&#xe1;" horiz-adv-x="477" d="M319.963 626.966 L388 690 C433 733 463 761 463 762 C463 767 458 772 453 772 C453 772 423 743 379 699 L314.75 632.25 C312.721 630.143 317.817 624.978 319.963 626.966 L319.963 626.966 Z M484.5 58 C483.188 58.5249 481.858 58.0979 481.58 56.7122 C475.817 27.9875 453.256 9 425 9 C390 9 366 31 366 64 L366 361 C366 464 318 510 246 510 C147 510 81 414 81 360 C81 352 85 346 91 346 C106 346 116 352 116 356 C116 361 96 370 96 373 C96 422 155 508 244 508 C305 508 346 465 346 368 L346 298.642 C346 283.055 331.453 257.667 317.942 249.895 C144.932 150.38 61 97.75 61 74 C61 24 103 -10 165 -10 C208.7 -10 265.035 15.27 334.862 81.2427 C338.824 84.9859 346 83.4504 346 78 L346 64 C346 23 374 -5 417 -5 C451.125 -5 478.596 18.7656 486.436 54.2477 C486.762 55.7247 485.904 57.4382 484.5 58 L484.5 58 Z M346 179 L346 116.822 C346 106.602 338.462 85.6793 330.886 78.8191 C269.518 23.2463 217.625 1 176 1 C119 1 81 31 81 76 C81 103.2 143.857 147.017 272.029 222.191 C307.763 243.15 346 220.427 346 179 L346 179 Z " />
<glyph glyph-name="acircumflex" unicode="&#xe2;" horiz-adv-x="477" d="M484.5 58 C483.188 58.5249 481.858 58.0979 481.58 56.7122 C475.817 27.9875 453.256 9 425 9 C390 9 366 31 366 64 L366 361 C366 464 318 510 246 510 C147 510 81 414 81 360 C81 352 85 346 91 346 C106 346 116 352 116 356 C116 361 96 370 96 373 C96 422 155 508 244 508 C305 508 346 465 346 368 L346 298.642 C346 283.055 331.453 257.667 317.942 249.895 C144.932 150.38 61 97.75 61 74 C61 24 103 -10 165 -10 C208.7 -10 265.035 15.27 334.862 81.2427 C338.824 84.9859 346 83.4504 346 78 L346 64 C346 23 374 -5 417 -5 C451.125 -5 478.596 18.7656 486.436 54.2477 C486.762 55.7247 485.904 57.4382 484.5 58 L484.5 58 Z M250.784 777.84 C248.216 780.72 244.784 780.72 242.216 777.84 C242.045 777.648 237.819 770.629 237.679 770.414 L168.252 663.14 C166.067 659.764 171.869 655.76 174.25 659 L201.616 696.24 C225.523 728.774 268.477 728.774 292.384 696.24 L319.75 659 C321.999 655.939 327.484 659.738 325.41 662.92 L255.333 770.421 C255.2 770.624 250.945 777.659 250.784 777.84 L250.784 777.84 Z M347 179 L347 116.822 C347 106.602 339.462 85.6793 331.886 78.8191 C270.518 23.2463 218.625 1 177 1 C120 1 82 31 82 76 C82 103.2 144.858 147.017 273.029 222.191 C308.763 243.15 347 220.427 347 179 L347 179 Z " />
<glyph glyph-name="atilde" unicode="&#xe3;" horiz-adv-x="477" d="M125.058 641.88 L129.027 641.378 C129.027 641.378 127.427 641.127 127.427 641.127 C131.845 671.943 146.2 691 166 691 C212 691 274 626 320 626 C343.8 626 360.736 647.675 365.282 681.813 C365.282 681.813 367.089 682.229 367.089 682.229 L363.138 682.851 C363.138 682.851 364.946 683.267 364.946 683.267 C360.145 657.335 344.625 641 324 641 C278 641 217 706 171 706 C147.2 706 130.986 681.435 126.658 642.131 C126.658 642.131 125.058 641.88 125.058 641.88 L129.027 641.378 C129.027 641.378 127.427 641.127 127.427 641.127 L125.058 641.88 Z M484.5 58 C483.188 58.5249 481.858 58.0979 481.58 56.7122 C475.817 27.9875 453.256 9 425 9 C390 9 366 31 366 64 L366 361 C366 464 318 510 246 510 C147 510 81 414 81 360 C81 352 85 346 91 346 C106 346 116 352 116 356 C116 361 96 370 96 373 C96 422 155 508 244 508 C305 508 346 465 346 368 L346 298.642 C346 283.055 331.453 257.667 317.942 249.895 C144.932 150.38 61 97.75 61 74 C61 24 103 -10 165 -10 C208.7 -10 265.035 15.27 334.862 81.2427 C338.824 84.9859 346 83.4504 346 78 L346 64 C346 23 374 -5 417 -5 C451.125 -5 478.596 18.7656 486.436 54.2477 C486.762 55.7247 485.904 57.4382 484.5 58 L484.5 58 Z M346 179 L346 116.822 C346 106.602 338.462 85.6793 330.886 78.8191 C269.518 23.2463 217.625 1 176 1 C119 1 81 31 81 76 C81 103.2 143.857 147.017 272.029 222.191 C307.763 243.15 346 220.427 346 179 L346 179 Z " />
<glyph glyph-name="adieresis" unicode="&#xe4;" horiz-adv-x="477" d="M329 635 C329 661 289 661 289 635 C289 609 329 609 329 635 L329 635 Z M203 635 C203 661 163 661 163 635 C163 609 203 609 203 635 L203 635 Z M484.5 58 C483.188 58.5249 481.858 58.0979 481.58 56.7122 C475.817 27.9875 453.256 9 425 9 C390 9 366 31 366 64 L366 361 C366 464 318 510 246 510 C147 510 81 414 81 360 C81 352 85 346 91 346 C106 346 116 352 116 356 C116 361 96 370 96 373 C96 422 155 508 244 508 C305 508 346 465 346 368 L346 298.642 C346 283.055 331.453 257.667 317.942 249.895 C144.932 150.38 61 97.75 61 74 C61 24 103 -10 165 -10 C208.7 -10 265.035 15.27 334.862 81.2427 C338.824 84.9859 346 83.4504 346 78 L346 64 C346 23 374 -5 417 -5 C451.125 -5 478.596 18.7656 486.436 54.2477 C486.762 55.7247 485.904 57.4382 484.5 58 L484.5 58 Z M346 179 L346 116.822 C346 106.602 338.462 85.6793 330.886 78.8191 C269.518 23.2463 217.625 1 176 1 C119 1 81 31 81 76 C81 103.2 143.857 147.017 272.029 222.191 C307.763 243.15 346 220.427 346 179 L346 179 Z " />
<glyph glyph-name="aring" unicode="&#xe5;" horiz-adv-x="477" d="M157 655 C157 709 193 745 246 745 C299 745 335 709 335 655 C335 606 294 565 246 565 C198 565 157 606 157 655 L157 655 Z M151 655 C151 604 195 560 246 560 C297 560 341 604 341 655 C341 712 303 750 246 750 C189 750 151 712 151 655 L151 655 Z M484.5 58 C483.188 58.5249 481.858 58.0979 481.58 56.7122 C475.817 27.9875 453.256 9 425 9 C390 9 366 31 366 64 L366 361 C366 464 318 510 246 510 C147 510 81 414 81 360 C81 352 85 346 91 346 C106 346 116 352 116 356 C116 361 96 370 96 373 C96 422 155 508 244 508 C305 508 346 465 346 368 L346 298.642 C346 283.055 331.453 257.667 317.942 249.895 C144.932 150.38 61 97.75 61 74 C61 24 103 -10 165 -10 C208.7 -10 265.035 15.27 334.862 81.2427 C338.824 84.9859 346 83.4504 346 78 L346 64 C346 23 374 -5 417 -5 C451.125 -5 478.596 18.7656 486.436 54.2477 C486.762 55.7247 485.904 57.4382 484.5 58 L484.5 58 Z M346 179 L346 116.822 C346 106.602 338.462 85.6793 330.886 78.8191 C269.518 23.2463 217.625 1 176 1 C119 1 81 31 81 76 C81 103.2 143.857 147.017 272.029 222.191 C307.763 243.15 346 220.427 346 179 L346 179 Z " />
<glyph glyph-name="egrave" unicode="&#xe8;" horiz-adv-x="475" d="M58 762 C58 759 88 731 133 690 L201.822 627.685 C204.423 625.33 208.683 629.722 206.25 632.25 L142 699 C100 743 71 772 68 772 C63 772 58 767 58 762 L58 762 Z M88.2215 340 L383.016 340 C421.9 340 443.343 361.111 429.352 397.391 C398.526 477.33 339.25 510 265 510 C133 510 45 434 45 238 C45 89 125 -10 245 -10 C311.825 -10 374.226 29.4762 411.988 92.1448 C412.002 92.1677 412.446 93.6454 412.432 93.6226 C375.257 33.115 313 -5 247 -5 C138 -5 66 95 66 246 C66 274.875 68.0419 301.027 71.5641 325.019 C72.7282 332.948 80.2076 340 88.2215 340 L88.2215 340 Z M361.596 341.824 L135.601 341.174 C97.5368 341.065 76.89 361.953 91.3671 397.156 C123.646 475.649 185.975 509 266 509 C329.525 509 381.139 477.691 409.05 398.79 C421.744 362.907 399.658 341.933 361.596 341.824 L361.596 341.824 Z " />
<glyph glyph-name="eacute" unicode="&#xe9;" horiz-adv-x="475" d="M338.963 626.966 L407 690 C452 733 482 761 482 762 C482 767 477 772 472 772 C472 772 442 743 398 699 L333.75 632.25 C331.721 630.143 336.817 624.978 338.963 626.966 L338.963 626.966 Z M88.2215 340 L383.016 340 C421.9 340 443.343 361.111 429.352 397.391 C398.526 477.33 339.25 510 265 510 C133 510 45 434 45 238 C45 89 125 -10 245 -10 C311.825 -10 374.226 29.4762 411.988 92.1448 C412.002 92.1677 412.446 93.6454 412.432 93.6226 C375.257 33.115 313 -5 247 -5 C138 -5 66 95 66 246 C66 274.875 68.0419 301.027 71.5641 325.019 C72.7282 332.948 80.2076 340 88.2215 340 L88.2215 340 Z M361.596 341.824 L135.601 341.174 C97.5368 341.065 76.89 361.953 91.3671 397.156 C123.646 475.649 185.975 509 266 509 C329.525 509 381.139 477.691 409.05 398.79 C421.744 362.907 399.658 341.933 361.596 341.824 L361.596 341.824 Z " />
<glyph glyph-name="ecircumflex" unicode="&#xea;" horiz-adv-x="475" d="M269.784 777.84 C267.216 780.72 263.784 780.72 261.216 777.84 C261.045 777.648 256.819 770.629 256.679 770.414 L187.252 663.14 C185.067 659.764 190.869 655.76 193.25 659 L220.616 696.24 C244.523 728.774 287.477 728.774 311.384 696.24 L338.75 659 C340.999 655.939 346.484 659.738 344.41 662.92 L274.333 770.421 C274.2 770.624 269.945 777.659 269.784 777.84 L269.784 777.84 Z M89.2215 340 L384.016 340 C422.9 340 444.343 361.111 430.352 397.391 C399.526 477.33 340.25 510 266 510 C134 510 46 434 46 238 C46 89 126 -10 246 -10 C312.825 -10 375.226 29.4762 412.988 92.1448 C413.002 92.1677 413.446 93.6454 413.432 93.6226 C376.257 33.115 314 -5 248 -5 C139 -5 67 95 67 246 C67 274.875 69.0419 301.027 72.5641 325.019 C73.7282 332.948 81.2076 340 89.2215 340 L89.2215 340 Z M362.596 341.824 L136.601 341.174 C98.5368 341.065 77.89 361.953 92.3671 397.156 C124.646 475.649 186.975 509 267 509 C330.525 509 382.139 477.691 410.05 398.79 C422.744 362.907 400.658 341.933 362.596 341.824 L362.596 341.824 Z " />
<glyph glyph-name="edieresis" unicode="&#xeb;" horiz-adv-x="475" d="M348 635 C348 661 308 661 308 635 C308 609 348 609 348 635 L348 635 Z M222 635 C222 661 182 661 182 635 C182 609 222 609 222 635 L222 635 Z M88.2215 340 L383.016 340 C421.9 340 443.343 361.111 429.352 397.391 C398.526 477.33 339.25 510 265 510 C133 510 45 434 45 238 C45 89 125 -10 245 -10 C311.825 -10 374.226 29.4762 411.988 92.1448 C412.002 92.1677 412.446 93.6454 412.432 93.6226 C375.257 33.115 313 -5 247 -5 C138 -5 66 95 66 246 C66 274.875 68.0419 301.027 71.5641 325.019 C72.7282 332.948 80.2076 340 88.2215 340 L88.2215 340 Z M361.596 341.824 L135.601 341.174 C97.5368 341.065 76.89 361.953 91.3671 397.156 C123.646 475.649 185.975 509 266 509 C329.525 509 381.139 477.691 409.05 398.79 C421.744 362.907 399.658 341.933 361.596 341.824 L361.596 341.824 Z " />
<glyph glyph-name="igrave" unicode="&#xec;" horiz-adv-x="184" d="M-99 762 C-99 759 -69 731 -24 690 L44.822 627.685 C47.4227 625.33 51.683 629.722 49.25 632.25 L-15 699 C-57 743 -86 772 -89 772 C-94 772 -99 767 -99 762 L-99 762 Z M80.0689 483.803 C92.2698 482.54 98 475 98 456 L98 41 C98 21 91.3884 11.7438 79.6679 7.9722 C78.0899 7.46441 76 5.1577 76 3.5 C76 1.5681 77.5681 0 79.5 0 L136.5 0 C138.432 0 140 1.5681 140 3.5 C140 5.1577 137.91 7.46441 136.332 7.9722 C124.612 11.7438 118 21 118 41 L118 495 C118 497.76 115.76 500 113 500 C112.279 500 103.95 498.813 103.257 498.615 C95.1643 496.308 86.2522 494 78.3414 491.692 C76.5468 491.169 76 489.369 76 487.5 C76 485.767 78.3453 483.982 80.0689 483.803 L80.0689 483.803 Z " />
<glyph glyph-name="iacute" unicode="&#xed;" horiz-adv-x="184" d="M-99 762 C-99 759 -69 731 -24 690 L44.822 627.685 C47.4227 625.33 51.683 629.722 49.25 632.25 L-15 699 C-57 743 -86 772 -89 772 C-94 772 -99 767 -99 762 L-99 762 Z M80.0689 483.803 C92.2698 482.54 98 475 98 456 L98 41 C98 21 91.3884 11.7438 79.6679 7.9722 C78.0899 7.46441 76 5.1577 76 3.5 C76 1.5681 77.5681 0 79.5 0 L136.5 0 C138.432 0 140 1.5681 140 3.5 C140 5.1577 137.91 7.46441 136.332 7.9722 C124.612 11.7438 118 21 118 41 L118 495 C118 497.76 115.76 500 113 500 C112.279 500 103.95 498.813 103.257 498.615 C95.1643 496.308 86.2522 494 78.3414 491.692 C76.5468 491.169 76 489.369 76 487.5 C76 485.767 78.3453 483.982 80.0689 483.803 L80.0689 483.803 Z " />
<glyph glyph-name="icircumflex" unicode="&#xee;" horiz-adv-x="184" d="M112.784 777.84 C110.216 780.72 106.784 780.72 104.216 777.84 C104.045 777.648 99.8186 770.629 99.6789 770.414 L30.2516 663.14 C28.0668 659.764 33.8689 655.76 36.25 659 L63.6161 696.24 C87.523 728.774 130.477 728.774 154.384 696.24 L181.75 659 C183.999 655.939 189.484 659.738 187.41 662.92 L117.333 770.421 C117.2 770.624 112.945 777.659 112.784 777.84 L112.784 777.84 Z M81.0689 483.803 C93.2698 482.54 99 475 99 456 L99 41 C99 21 92.3884 11.7438 80.6679 7.9722 C79.0899 7.46441 77 5.1577 77 3.5 C77 1.5681 78.5681 0 80.5 0 L137.5 0 C139.432 0 141 1.5681 141 3.5 C141 5.1577 138.91 7.46441 137.332 7.9722 C125.612 11.7438 119 21 119 41 L119 495 C119 497.76 116.76 500 114 500 C113.279 500 104.95 498.813 104.257 498.615 C96.1643 496.308 87.2522 494 79.3414 491.692 C77.5468 491.169 77 489.369 77 487.5 C77 485.767 79.3453 483.982 81.0689 483.803 L81.0689 483.803 Z " />
<glyph glyph-name="idieresis" unicode="&#xef;" horiz-adv-x="184" d="M191 635 C191 661 151 661 151 635 C151 609 191 609 191 635 L191 635 Z M65 635 C65 661 25 661 25 635 C25 609 65 609 65 635 L65 635 Z M80.0689 483.803 C92.2698 482.54 98 475 98 456 L98 41 C98 21 91.3884 11.7438 79.6679 7.9722 C78.0899 7.46441 76 5.1577 76 3.5 C76 1.5681 77.5681 0 79.5 0 L136.5 0 C138.432 0 140 1.5681 140 3.5 C140 5.1577 137.91 7.46441 136.332 7.9722 C124.612 11.7438 118 21 118 41 L118 495 C118 497.76 115.76 500 113 500 C112.279 500 103.95 498.813 103.257 498.615 C95.1643 496.308 86.2522 494 78.3414 491.692 C76.5468 491.169 76 489.369 76 487.5 C76 485.767 78.3453 483.982 80.0689 483.803 L80.0689 483.803 Z " />
<glyph glyph-name="ntilde" unicode="&#xf1;" horiz-adv-x="379" d="M72.0564 641.879 L76.025 641.379 C76.025 641.379 74.4271 641.127 74.4271 641.127 C78.845 671.943 93.2 691 113 691 C159 691 221 626 267 626 C290.8 626 307.014 647.675 311.342 681.813 C311.342 681.813 313.124 682.027 313.124 682.027 L309.17 682.63 C309.17 682.63 310.952 682.845 310.952 682.845 C306.303 657.158 291.513 641 271 641 C225 641 163 706 117 706 C94.05 706 77.9638 681.435 73.6542 642.131 C73.6542 642.131 72.0564 641.879 72.0564 641.879 L76.025 641.379 C76.025 641.379 74.4271 641.127 74.4271 641.127 L72.0564 641.879 Z M57 414 L57 41 C57 21 50.3884 11.7438 38.6679 7.9722 C37.0899 7.46441 35 5.1577 35 3.5 C35 1.5681 36.5681 0 38.5 0 L95.5 0 C97.4319 0 99 1.5681 99 3.5 C99 5.1577 96.9101 7.46441 95.3321 7.9722 C83.6116 11.7438 77 21 77 41 L77 362.078 C77 364.383 80.506 381.218 81.377 383.352 C110.2 453.972 159.6 500 209 500 C274 500 308 437 308 342 L308 41 C308 21 301.388 11.7438 289.668 7.9722 C288.09 7.46441 286 5.1577 286 3.5 C286 1.5681 287.568 0 289.5 0 L346.5 0 C348.432 0 350 1.5681 350 3.5 C350 5.1577 347.91 7.46441 346.332 7.9722 C334.612 11.7438 328 21 328 41 L328 342 C328 443 290 510 215 510 C170.45 510 125.219 473.246 94.469 414.9 C90.8467 408.026 77 410.248 77 418.017 L77 495 C77 497.76 74.7599 500 72 500 C71.2792 500 62.9504 498.813 62.2572 498.615 C53.355 496.077 43.4615 493.538 35 491 L35 486 C50 479 57 455 57 414 L57 414 Z " />
<glyph glyph-name="ograve" unicode="&#xf2;" horiz-adv-x="561" d="M67 250 C67 405 153 508 281 508 C409 508 494 405 494 250 C494 95 409 -8 281 -8 C153 -8 67 95 67 250 L67 250 Z M45 250 C45 94 139 -10 281 -10 C422 -10 516 94 516 250 C516 406 422 510 281 510 C139 510 45 406 45 250 L45 250 Z M74 762 C74 759 104 731 149 690 L217.822 627.685 C220.423 625.33 224.683 629.722 222.25 632.25 L158 699 C116 743 87 772 84 772 C79 772 74 767 74 762 L74 762 Z " />
<glyph glyph-name="oacute" unicode="&#xf3;" horiz-adv-x="561" d="M354.963 626.966 L423 690 C468 733 498 761 498 762 C498 767 493 772 488 772 C488 772 458 743 414 699 L349.75 632.25 C347.721 630.143 352.817 624.978 354.963 626.966 L354.963 626.966 Z M67 250 C67 405 153 508 281 508 C409 508 494 405 494 250 C494 95 409 -8 281 -8 C153 -8 67 95 67 250 L67 250 Z M45 250 C45 94 139 -10 281 -10 C422 -10 516 94 516 250 C516 406 422 510 281 510 C139 510 45 406 45 250 L45 250 Z " />
<glyph glyph-name="ocircumflex" unicode="&#xf4;" horiz-adv-x="561" d="M67 250 C67 405 153 508 281 508 C409 508 494 405 494 250 C494 95 409 -8 281 -8 C153 -8 67 95 67 250 L67 250 Z M45 250 C45 94 139 -10 281 -10 C422 -10 516 94 516 250 C516 406 422 510 281 510 C139 510 45 406 45 250 L45 250 Z M285.784 777.84 C283.216 780.72 279.784 780.72 277.216 777.84 C277.045 777.648 272.819 770.629 272.679 770.414 L203.252 663.14 C201.067 659.764 206.869 655.76 209.25 659 L236.616 696.24 C260.523 728.774 303.477 728.774 327.384 696.24 L354.75 659 C356.999 655.939 362.484 659.738 360.41 662.92 L290.333 770.421 C290.2 770.624 285.945 777.659 285.784 777.84 L285.784 777.84 Z " />
<glyph glyph-name="otilde" unicode="&#xf5;" horiz-adv-x="561" d="M160.058 641.88 L164.027 641.378 C164.027 641.378 162.427 641.127 162.427 641.127 C166.845 671.943 181.2 691 201 691 C247 691 309 626 355 626 C378.8 626 395.736 647.675 400.282 681.813 C400.282 681.813 402.089 682.229 402.089 682.229 L398.138 682.851 C398.138 682.851 399.946 683.267 399.946 683.267 C395.145 657.335 379.625 641 359 641 C313 641 252 706 206 706 C182.2 706 165.986 681.435 161.658 642.131 C161.658 642.131 160.058 641.88 160.058 641.88 L164.027 641.378 C164.027 641.378 162.427 641.127 162.427 641.127 L160.058 641.88 Z M67 250 C67 405 153 508 281 508 C409 508 494 405 494 250 C494 95 409 -8 281 -8 C153 -8 67 95 67 250 L67 250 Z M45 250 C45 94 139 -10 281 -10 C422 -10 516 94 516 250 C516 406 422 510 281 510 C139 510 45 406 45 250 L45 250 Z " />
<glyph glyph-name="odieresis" unicode="&#xf6;" horiz-adv-x="561" d="M364 635 C364 661 324 661 324 635 C324 609 364 609 364 635 L364 635 Z M238 635 C238 661 198 661 198 635 C198 609 238 609 238 635 L238 635 Z M67 250 C67 405 153 508 281 508 C409 508 494 405 494 250 C494 95 409 -8 281 -8 C153 -8 67 95 67 250 L67 250 Z M45 250 C45 94 139 -10 281 -10 C422 -10 516 94 516 250 C516 406 422 510 281 510 C139 510 45 406 45 250 L45 250 Z " />
<glyph glyph-name="oslash" unicode="&#xf8;" horiz-adv-x="561" d="M46.0431 -10.9532 C46.9611 -9.95519 62.5351 6.97881 90.7171 37.8008 C100.438 48.4327 122.946 47.2252 134.141 38.1581 C172.987 6.69625 223.25 -11 281 -11 C422 -11 516 93 516 249 C516 312.525 500.346 367.882 471.844 410.58 C464.1 422.183 462.955 448.324 472.222 458.75 L505.185 495.833 C505.276 495.936 504.468 495.587 504.374 495.487 C489.906 480.094 475.238 465.05 461.193 450.08 C455.746 444.275 446.211 442.266 440.49 447.801 C400.233 486.754 345.75 509 281 509 C139 509 45 405 45 249 C45 185.475 60.6544 130.118 89.1555 87.4196 C96.8588 75.8793 98.0808 50.0325 88.7982 39.7197 C59.9737 7.69625 45 -10 45 -10 C45 -10 45.9113 -11.0964 46.0431 -10.9532 L46.0431 -10.9532 Z M419.919 406.699 C298.242 272.245 199.38 163.63 134.053 90.9037 C123.064 78.6703 110.04 83.2917 101.988 97.6297 C78.9319 138.687 66 190.6 66 250 C66 405 152 508 280 508 C335.275 508 383.063 488.602 418.872 453.737 C433.344 439.647 433.472 421.675 419.919 406.699 L419.919 406.699 Z M456.931 402.37 C479.749 361.313 492 309.4 492 250 C492 95 407 -8 279 -8 C222.9 -8 174.968 11.7381 138.572 46.7223 C123.914 60.811 125.137 80.1088 138.748 95.211 C204.139 167.767 301.175 273.63 419.416 404.203 C430.518 416.462 448.896 416.827 456.931 402.37 L456.931 402.37 Z " />
<glyph glyph-name="ugrave" unicode="&#xf9;" horiz-adv-x="356" d="M-27 762 C-27 759 3 731 49 690 L118.081 627.677 C120.686 625.327 124.938 629.727 122.5 632.25 L58 699 C16 743 -14 772 -17 772 C-22 772 -27 767 -27 762 L-27 762 Z M342 18 L337 18 C321 16 310 40 310 79 L310 479 C310 490.591 300.591 500 289 500 L271.5 500 C269.568 500 268 498.432 268 496.5 C268 494.842 270.09 492.536 271.668 492.028 C283.388 488.256 290 479 290 459 L290 137.463 C290 134.551 286.441 117.88 285.21 115.24 C254.007 48.32 206.65 5 162 5 C109 5 73 65 73 156 L73 480 C73 491.591 63.5914 501 52 501 L34.5 501 C32.5681 501 31 499.432 31 497.5 C31 495.842 33.0899 493.536 34.6679 493.028 C46.3884 489.256 53 480 53 460 L53 156 C53 57 93 -9 153 -9 C194.25 -9 237.542 27.0731 270.522 85.1815 C275.028 93.1198 290 90.2046 290 81.0768 L290 5 C290 2.24015 292.24 0 295 0 C295.746 0 303.483 1.05167 304.198 1.26199 C314.907 4.41114 327.093 7.49468 337.802 10.0206 C339.623 10.4501 342 12.629 342 14.5 L342 18 L342 18 Z " />
<glyph glyph-name="uacute" unicode="&#xfa;" horiz-adv-x="356" d="M255.32 626.835 L324 690 C370 733 400 762 400 762 C400 767 395 772 390 772 C389 772 359 743 315 699 L250.5 632.25 C248.403 630.08 253.099 624.791 255.32 626.835 L255.32 626.835 Z M342 18 L337 18 C321 16 310 40 310 79 L310 479 C310 490.591 300.591 500 289 500 L271.5 500 C269.568 500 268 498.432 268 496.5 C268 494.842 270.09 492.536 271.668 492.028 C283.388 488.256 290 479 290 459 L290 137.463 C290 134.551 286.441 117.88 285.21 115.24 C254.007 48.32 206.65 5 162 5 C109 5 73 65 73 156 L73 480 C73 491.591 63.5914 501 52 501 L34.5 501 C32.5681 501 31 499.432 31 497.5 C31 495.842 33.0899 493.536 34.6679 493.028 C46.3884 489.256 53 480 53 460 L53 156 C53 57 93 -9 153 -9 C194.25 -9 237.542 27.0731 270.522 85.1815 C275.028 93.1198 290 90.2046 290 81.0768 L290 5 C290 2.24015 292.24 0 295 0 C295.746 0 303.483 1.05167 304.198 1.26199 C314.907 4.41114 327.093 7.49468 337.802 10.0206 C339.623 10.4501 342 12.629 342 14.5 L342 18 L342 18 Z " />
<glyph glyph-name="ucircumflex" unicode="&#xfb;" horiz-adv-x="356" d="M187.056 777.681 C183.944 781.514 179.056 781.125 175.944 777.403 C175.834 777.27 171.784 770.551 171.691 770.406 L102.693 663.021 C100.318 659.324 106.64 654.966 109.25 658.5 L136.54 695.45 C160.499 727.888 203.405 727.818 227.257 695.301 L254.25 658.5 C256.711 655.144 262.717 659.27 260.467 662.771 L191.564 770.009 C191.495 770.117 187.136 777.581 187.056 777.681 L187.056 777.681 Z M342 18 L337 18 C321 16 310 40 310 79 L310 479 C310 490.591 300.591 500 289 500 L271.5 500 C269.568 500 268 498.432 268 496.5 C268 494.842 270.09 492.536 271.668 492.028 C283.388 488.256 290 479 290 459 L290 137.463 C290 134.551 286.441 117.88 285.21 115.24 C254.007 48.32 206.65 5 162 5 C109 5 73 65 73 156 L73 480 C73 491.591 63.5914 501 52 501 L34.5 501 C32.5681 501 31 499.432 31 497.5 C31 495.842 33.0899 493.536 34.6679 493.028 C46.3884 489.256 53 480 53 460 L53 156 C53 57 93 -9 153 -9 C194.25 -9 237.542 27.0731 270.522 85.1815 C275.028 93.1198 290 90.2046 290 81.0768 L290 5 C290 2.24015 292.24 0 295 0 C295.746 0 303.483 1.05167 304.198 1.26199 C314.907 4.41114 327.093 7.49468 337.802 10.0206 C339.623 10.4501 342 12.629 342 14.5 L342 18 L342 18 Z " />
<glyph glyph-name="udieresis" unicode="&#xfc;" horiz-adv-x="356" d="M264 635 C264 661 224 661 224 635 C224 609 264 609 264 635 L264 635 Z M139 635 C139 661 99 661 99 635 C99 609 139 609 139 635 L139 635 Z M342 18 L337 18 C321 16 310 40 310 79 L310 479 C310 490.591 300.591 500 289 500 L271.5 500 C269.568 500 268 498.432 268 496.5 C268 494.842 270.09 492.536 271.668 492.028 C283.388 488.256 290 479 290 459 L290 137.463 C290 134.551 286.441 117.88 285.21 115.24 C254.007 48.32 206.65 5 162 5 C109 5 73 65 73 156 L73 480 C73 491.591 63.5914 501 52 501 L34.5 501 C32.5681 501 31 499.432 31 497.5 C31 495.842 33.0899 493.536 34.6679 493.028 C46.3884 489.256 53 480 53 460 L53 156 C53 57 93 -9 153 -9 C194.25 -9 237.542 27.0731 270.522 85.1815 C275.028 93.1198 290 90.2046 290 81.0768 L290 5 C290 2.24015 292.24 0 295 0 C295.746 0 303.483 1.05167 304.198 1.26199 C314.907 4.41114 327.093 7.49468 337.802 10.0206 C339.623 10.4501 342 12.629 342 14.5 L342 18 L342 18 Z " />
<glyph glyph-name="ydieresis" unicode="&#xff;" horiz-adv-x="334" d="M256 635 C256 661 216 661 216 635 C216 609 256 609 256 635 L256 635 Z M131 635 C131 661 91 661 91 635 C91 609 131 609 131 635 L131 635 Z M66.1757 500 L10.8243 500 C8.75438 500 7.34406 498.28 7.75 496.25 C7.94929 495.254 11.2922 491.608 12.167 491.091 C23.345 484.485 35.9 456.9 44 420 L128.819 14.2181 C129.707 9.97137 127.583 -13.8461 126.183 -17.9525 C109.297 -67.4767 93.0513 -117.641 76 -167 C71 -183 57 -194 49 -194 C27 -194 22 -184 0 -184 C-22 -184 -37 -199 -37 -221 C-37 -244 -21 -260 4 -260 C21 -260 62 -224 81 -169 L136 -10 L280 419 C293.5 455.9 309.835 484.295 321.715 491.063 C322.63 491.584 326.044 495.218 326.25 496.25 C326.656 498.28 325.246 500 323.176 500 L280.824 500 C278.754 500 277.344 498.28 277.75 496.25 C277.809 495.953 281.2 490.734 281.379 490.49 C286.93 482.93 284.25 455.75 272 419 C272 419 178.85 136.31 152.201 57.173 C150.677 52.6482 143.566 50.4159 142.571 55.0854 L62 433 C56.75 462.75 58.7734 484.461 65.3906 490.764 C65.817 491.17 69.1345 495.673 69.25 496.25 C69.6559 498.28 68.2456 500 66.1757 500 L66.1757 500 Z " />
<glyph glyph-name="Amacron" unicode="&#x100;" horiz-adv-x="552" d="M173.5 907 L408.5 907 C412.088 907 415 909.912 415 913.5 C415 917.088 412.088 920 408.5 920 L173.5 920 C169.912 920 167 917.088 167 913.5 C167 909.912 169.912 907 173.5 907 L173.5 907 Z M-15.9751 0 L157.5 0 C159.984 0 162 2.01613 162 4.5 C162 6.97755 159.983 9.14409 157.511 9.32061 L148 10 C106 13 89 54 103 115 L144.226 257.347 C150.469 278.901 175.884 298 198.323 298 L353.683 298 C376.792 298 402.186 278.469 408.117 256.134 L444 121 C458 57 441 14 398 11 L388.489 10.3206 C386.017 10.1441 384 7.97755 384 5.5 C384 3.01613 386.016 1 388.5 1 L545.5 1 C547.984 1 550 3.01613 550 5.5 L550 5.96887 C550 8.17675 548.191 10.2261 546 10.5 L542 11 C515 14 485 62 466 130 L302 744 C302 744 295.5 771 293.5 771 C295.971 758.647 291.32 749.685 283.458 745.79 C281.411 744.775 278.87 740.811 279.471 738.607 L279.5 738.5 C279.933 736.912 279.863 729.108 279.401 727.528 L101 117 C79 55 37 14 -8 11 L-16.9878 10.358 C-19.7533 10.1605 -21.7759 7.75874 -21.5 5 C-21.2254 2.25385 -18.7349 0 -15.9751 0 L-15.9751 0 Z M176.968 371.056 L225.446 537.653 C241.57 593.061 319.144 592.146 333.956 536.374 L378.202 369.777 C388.23 332.019 362.836 299 323.77 299 L231.045 299 C191.272 299 165.855 332.867 176.968 371.056 L176.968 371.056 Z " />
<glyph glyph-name="amacron" unicode="&#x101;" horiz-adv-x="477" d="M128.5 657 L363.5 657 C367.088 657 370 659.912 370 663.5 C370 667.088 367.088 670 363.5 670 L128.5 670 C124.912 670 122 667.088 122 663.5 C122 659.912 124.912 657 128.5 657 L128.5 657 Z M484.5 58 C483.188 58.5249 481.858 58.0979 481.58 56.7122 C475.817 27.9875 453.256 9 425 9 C390 9 366 31 366 64 L366 361 C366 464 318 510 246 510 C147 510 81 414 81 360 C81 352 85 346 91 346 C106 346 116 352 116 356 C116 361 96 370 96 373 C96 422 155 508 244 508 C305 508 346 465 346 368 L346 298.642 C346 283.055 331.453 257.667 317.942 249.895 C144.932 150.38 61 97.75 61 74 C61 24 103 -10 165 -10 C208.7 -10 265.035 15.27 334.862 81.2427 C338.824 84.9859 346 83.4504 346 78 L346 64 C346 23 374 -5 417 -5 C451.125 -5 478.596 18.7656 486.436 54.2477 C486.762 55.7247 485.904 57.4382 484.5 58 L484.5 58 Z M346 179 L346 116.822 C346 106.602 338.462 85.6793 330.886 78.8191 C269.518 23.2463 217.625 1 176 1 C119 1 81 31 81 76 C81 103.2 143.857 147.017 272.029 222.191 C307.763 243.15 346 220.427 346 179 L346 179 Z " />
<glyph glyph-name="Abreve" unicode="&#x102;" horiz-adv-x="552" d="M196.947 971.59 C207.105 930.01 242.55 904 291 904 C339.45 904 373.45 930.371 383.174 971.445 C383.183 971.485 382.115 971.974 382.102 971.936 C370.86 939.078 336.375 919 291 919 C245.625 919 211.14 939.419 199.898 972.395 C199.884 972.438 196.937 971.634 196.947 971.59 L196.947 971.59 Z M-15.9751 0 L157.5 0 C159.984 0 162 2.01613 162 4.5 C162 6.97755 159.983 9.14409 157.511 9.32061 L148 10 C106 13 89 54 103 115 L144.226 257.347 C150.469 278.901 175.884 298 198.323 298 L353.683 298 C376.792 298 402.186 278.469 408.117 256.134 L444 121 C458 57 441 14 398 11 L388.489 10.3206 C386.017 10.1441 384 7.97755 384 5.5 C384 3.01613 386.016 1 388.5 1 L545.5 1 C547.984 1 550 3.01613 550 5.5 L550 5.96887 C550 8.17675 548.191 10.2261 546 10.5 L542 11 C515 14 485 62 466 130 L302 744 C302 744 295.5 771 293.5 771 C295.971 758.647 291.32 749.685 283.458 745.79 C281.411 744.775 278.87 740.811 279.471 738.607 L279.5 738.5 C279.933 736.912 279.863 729.108 279.401 727.528 L101 117 C79 55 37 14 -8 11 L-16.9878 10.358 C-19.7533 10.1605 -21.7759 7.75874 -21.5 5 C-21.2254 2.25385 -18.7349 0 -15.9751 0 L-15.9751 0 Z M176.968 371.056 L225.446 537.653 C241.57 593.061 319.144 592.146 333.956 536.374 L378.202 369.777 C388.23 332.019 362.836 299 323.77 299 L231.045 299 C191.272 299 165.855 332.867 176.968 371.056 L176.968 371.056 Z " />
<glyph glyph-name="abreve" unicode="&#x103;" horiz-adv-x="477" d="M151.947 721.59 C162.105 680.01 197.55 654 246 654 C294.45 654 328.45 680.371 338.174 721.445 C338.183 721.485 337.115 721.974 337.102 721.936 C325.86 689.078 291.375 669 246 669 C200.625 669 166.14 689.419 154.898 722.395 C154.884 722.438 151.937 721.634 151.947 721.59 L151.947 721.59 Z M484.5 58 C483.188 58.5249 481.858 58.0979 481.58 56.7122 C475.817 27.9875 453.256 9 425 9 C390 9 366 31 366 64 L366 361 C366 464 318 510 246 510 C147 510 81 414 81 360 C81 352 85 346 91 346 C106 346 116 352 116 356 C116 361 96 370 96 373 C96 422 155 508 244 508 C305 508 346 465 346 368 L346 298.642 C346 283.055 331.453 257.667 317.942 249.895 C144.932 150.38 61 97.75 61 74 C61 24 103 -10 165 -10 C208.7 -10 265.035 15.27 334.862 81.2427 C338.824 84.9859 346 83.4504 346 78 L346 64 C346 23 374 -5 417 -5 C451.125 -5 478.596 18.7656 486.436 54.2477 C486.762 55.7247 485.904 57.4382 484.5 58 L484.5 58 Z M346 179 L346 116.822 C346 106.602 338.462 85.6793 330.886 78.8191 C269.518 23.2463 217.625 1 176 1 C119 1 81 31 81 76 C81 103.2 143.857 147.017 272.029 222.191 C307.763 243.15 346 220.427 346 179 L346 179 Z " />
<glyph glyph-name="Cacute" unicode="&#x106;" horiz-adv-x="633" d="M411.963 876.966 L480 940 C525 983 555 1011 555 1012 C555 1017 550 1022 545 1022 C545 1022 515 993 471 949 L406.75 882.25 C404.721 880.143 409.817 874.978 411.963 876.966 L411.963 876.966 Z M585 590.021 L585 695 C585 697.208 583.208 699 581 699 C578.905 699 576.397 697.192 575.735 695.205 L573 687 C569 675 537 686 493 714 C451 743 403 760 338 760 C178 760 71 606 71 375 C71 144 174 -10 328 -10 C364 -10 396 -5.5 426 4.5 C447 12.5 467 21 486 33 C533 62 569 73 574 59 L576.735 50.7947 C577.397 48.8076 579.905 47 582 47 C584.208 47 586 48.7921 586 51 L586 159 C586 162.312 583.312 165 580 165 C576.956 165 572.836 162.283 571.636 159.485 L565 144 C538 84 483 30 426 8 C396 -3 364 -9 329 -9 C190 -9 97 145 97 375 C97 605 194 758 339 758 C380 758 414 750 444 736 C492 712 539 661 564 605 L570.72 588.573 C571.92 585.639 575.841 583.237 579 583.5 C582.3 583.775 585 586.709 585 590.021 L585 590.021 Z M582 126 L582 126 L582 126 L582 126 Z " />
<glyph glyph-name="Ccircumflex" unicode="&#x108;" horiz-adv-x="633" d="M585 590.021 L585 695 C585 697.208 583.208 699 581 699 C578.905 699 576.397 697.192 575.735 695.205 L573 687 C569 675 537 686 493 714 C451 743 403 760 338 760 C178 760 71 606 71 375 C71 144 174 -10 328 -10 C364 -10 396 -5.5 426 4.5 C447 12.5 467 21 486 33 C533 62 569 73 574 59 L576.735 50.7947 C577.397 48.8076 579.905 47 582 47 C584.208 47 586 48.7921 586 51 L586 159 C586 162.312 583.312 165 580 165 C576.956 165 572.836 162.283 571.636 159.485 L565 144 C538 84 483 30 426 8 C396 -3 364 -9 329 -9 C190 -9 97 145 97 375 C97 605 194 758 339 758 C380 758 414 750 444 736 C492 712 539 661 564 605 L570.72 588.573 C571.92 585.639 575.841 583.237 579 583.5 C582.3 583.775 585 586.709 585 590.021 L585 590.021 Z M342.784 1026.84 C340.216 1029.72 336.784 1029.72 334.216 1026.84 C334.045 1026.65 329.819 1019.63 329.679 1019.41 L260.252 912.14 C258.067 908.764 263.869 904.76 266.25 908 L293.616 945.24 C317.523 977.774 360.477 977.774 384.384 945.24 L411.75 908 C413.999 904.939 419.484 908.738 417.41 911.92 L347.333 1019.42 C347.2 1019.62 342.945 1026.66 342.784 1026.84 L342.784 1026.84 Z M583 126 L583 126 L583 126 L583 126 Z " />
<glyph glyph-name="Cdot" unicode="&#x10a;" horiz-adv-x="633" d="M358 885 C358 911 318 911 318 885 C318 859 358 859 358 885 L358 885 Z M585 590.021 L585 695 C585 697.208 583.208 699 581 699 C578.905 699 576.397 697.192 575.735 695.205 L573 687 C569 675 537 686 493 714 C451 743 403 760 338 760 C178 760 71 606 71 375 C71 144 174 -10 328 -10 C364 -10 396 -5.5 426 4.5 C447 12.5 467 21 486 33 C533 62 569 73 574 59 L576.735 50.7947 C577.397 48.8076 579.905 47 582 47 C584.208 47 586 48.7921 586 51 L586 159 C586 162.312 583.312 165 580 165 C576.956 165 572.836 162.283 571.636 159.485 L565 144 C538 84 483 30 426 8 C396 -3 364 -9 329 -9 C190 -9 97 145 97 375 C97 605 194 758 339 758 C380 758 414 750 444 736 C492 712 539 661 564 605 L570.72 588.573 C571.92 585.639 575.841 583.237 579 583.5 C582.3 583.775 585 586.709 585 590.021 L585 590.021 Z M582 126 L582 126 L582 126 L582 126 Z " />
<glyph glyph-name="cdot" unicode="&#x10b;" horiz-adv-x="391" d="M232 635 C232 661 192 661 192 635 C192 609 232 609 232 635 L232 635 Z M339.158 88.62 C302.063 31.0731 249.5 -5 200 -5 C118 -5 64 99 64 254 C64 407 123 509 212 509 C267 509 318 467 341 405 C343 399 347 395 351 395 C359 395 363 399 361 405 C338 468 278 510 212 510 C112 510 45 403 45 242 C45 91 106 -10 197 -10 C248.15 -10 301.342 27.4344 339.169 87.1422 C339.214 87.214 339.204 88.6914 339.158 88.62 L339.158 88.62 Z " />
<glyph glyph-name="Ccaron" unicode="&#x10c;" horiz-adv-x="633" d="M410 941.5 L383.277 904.57 C359.482 871.686 316.301 871.528 292.266 904.236 L265.25 941 C262.869 944.24 257.067 940.236 259.252 936.86 L328.679 829.586 C328.819 829.371 333.045 822.352 333.216 822.16 C335.784 819.28 339.216 819.28 341.784 822.16 C341.95 822.346 346.191 829.373 346.327 829.583 L416.099 937.002 C417.958 939.864 412 944.264 410 941.5 L410 941.5 Z M584 590.021 L584 695 C584 697.208 582.208 699 580 699 C577.905 699 575.397 697.192 574.735 695.205 L572 687 C568 675 536 686 492 714 C450 743 402 760 337 760 C177 760 70 606 70 375 C70 144 173 -10 327 -10 C363 -10 395 -5.5 425 4.5 C446 12.5 466 21 485 33 C532 62 568 73 573 59 L575.735 50.7947 C576.397 48.8076 578.905 47 581 47 C583.208 47 585 48.7921 585 51 L585 159 C585 162.312 582.312 165 579 165 C575.956 165 571.836 162.283 570.636 159.485 L564 144 C537 84 482 30 425 8 C395 -3 363 -9 328 -9 C189 -9 96 145 96 375 C96 605 193 758 338 758 C379 758 413 750 443 736 C491 712 538 661 563 605 L569.72 588.573 C570.92 585.639 574.841 583.237 578 583.5 C581.3 583.775 584 586.709 584 590.021 L584 590.021 Z M581 126 L581 126 L581 126 L581 126 Z " />
<glyph glyph-name="ccaron" unicode="&#x10d;" horiz-adv-x="391" d="M284 691.5 L257.277 654.57 C233.482 621.686 190.301 621.528 166.266 654.236 L139.25 691 C136.869 694.24 131.067 690.236 133.252 686.86 L202.679 579.586 C202.819 579.371 207.045 572.352 207.216 572.16 C209.784 569.28 213.216 569.28 215.784 572.16 C215.95 572.346 220.191 579.373 220.327 579.583 L290.099 687.002 C291.958 689.864 286 694.264 284 691.5 L284 691.5 Z M338.158 88.62 C301.063 31.0731 248.5 -5 199 -5 C117 -5 63 99 63 254 C63 407 122 509 211 509 C266 509 317 467 340 405 C342 399 346 395 350 395 C358 395 362 399 360 405 C337 468 277 510 211 510 C111 510 44 403 44 242 C44 91 105 -10 196 -10 C247.15 -10 300.342 27.4344 338.169 87.1422 C338.214 87.214 338.204 88.6914 338.158 88.62 L338.158 88.62 Z " />
<glyph glyph-name="Dcaron" unicode="&#x10e;" horiz-adv-x="688" d="M436 941.5 L409.277 904.57 C385.482 871.686 342.301 871.528 318.266 904.236 L291.25 941 C288.869 944.24 283.067 940.236 285.252 936.86 L354.679 829.586 C354.819 829.371 359.045 822.352 359.216 822.16 C361.784 819.28 365.216 819.28 367.784 822.16 C367.95 822.346 372.191 829.373 372.327 829.583 L442.099 937.002 C443.958 939.864 438 944.264 436 941.5 L436 941.5 Z M207 1 C149 1 143 38 143 94 L143 702 C143 727.943 164.057 749 190 749 L237 749 C481 749 606 599 606 375 C606 128 446 1 207 1 L207 1 Z M81.4648 742.505 L85 742 C106 740 120 713 120 674 L120 76 C120 37 106 10 85 8 L81.4648 7.49497 C79.5716 7.22451 78 5.41248 78 3.5 C78 1.5681 79.5681 0 81.5 0 L209 0 C463 0 632 128 632 375 C632 600 499 750 242 750 L81.5 750 C79.5681 750 78 748.432 78 746.5 C78 744.588 79.5716 742.775 81.4648 742.505 L81.4648 742.505 Z " />
<glyph glyph-name="dcaron" unicode="&#x10f;" horiz-adv-x="506" d="M531 757 C526 757 518 696 513 652 L506.923 595.536 C506.62 592.72 511.437 591.974 512 594.75 L523 649 C533 702 540 744 540 754 C540 756 536 757 531 757 L531 757 Z M488.5 19.5 L485 19 C464 15 450 38 450 77 L450 745 C450 747.76 447.76 750 445 750 C443.975 750 436.309 748.524 435.358 748.143 L432.675 747.07 C432.572 747.029 427.738 745.331 427.632 745.299 C421.235 743.346 414.222 740.778 408 739 L408 734 C423 727 430 703 430 662 L430 426.288 C430 419.636 417.51 418.562 414.182 424.322 C385.339 474.246 338.85 511 291 511 C129 511 45 409 45 257 C45 100 133 -4 266 -4 C317.15 -4 370.342 18.4606 407.607 54.3976 C414.295 60.8476 429 57.4859 429 48.1942 L429 5 C429 2.24015 431.24 0 434 0 C434.669 0 443.201 1.05033 443.851 1.21268 L487.57 12.1425 C489.323 12.5808 491.244 14.7109 491.5 16.5 C491.765 18.3546 490.355 19.7649 488.5 19.5 L488.5 19.5 Z M429 366.734 L429 98.1124 C429 90.1548 423.606 72.6146 418.289 66.694 C383.81 28.3 329 4 275 4 C149 4 65 107 65 262 C65 408 143 505 294 505 C349.1 505 402.846 451.301 426.088 385.915 C426.689 384.223 429 368.529 429 366.734 L429 366.734 Z " />
<glyph glyph-name="Emacron" unicode="&#x112;" horiz-adv-x="495" d="M153.5 907 L389.5 907 C393.088 907 396 909.912 396 913.5 C396 917.088 393.088 920 389.5 920 L153.5 920 C149.912 920 147 917.088 147 913.5 C147 909.912 149.912 907 153.5 907 L153.5 907 Z M350.764 473.673 L348 464 C334 417 287 386 230 386 L187 386 C163.265 386 144 405.265 144 429 L144 692.68 C144 723.767 169.233 749 200.32 749 L289 749 C346 749 397 718 417 671 L421.227 661.136 C422.127 659.038 425.217 657 427.5 657 C429.977 657 431.796 658.914 431.523 661.376 C428.902 685.069 425.072 714.2 422.244 738.825 C421.37 746.437 414.582 750 406.92 750 L62.5 750 C60.5681 750 59 748.432 59 746.5 C59 744.578 60.5699 742.843 62.4826 742.652 L69 742 C100 740 121 705 121 654 L121 96 C121 45 100 10 69 8 L62.4826 7.34826 C60.5699 7.15699 59 5.42231 59 3.5 C59 1.5681 60.5681 0 62.5 0 L433.341 0 C440.184 0 446.958 5.97582 448.087 12.7251 C451.648 34.0235 456.039 58.6425 459.334 78.8783 C459.73 81.3049 457.958 83 455.5 83 C453.245 83 450.059 80.9619 449.114 78.9142 L445 70 C424 29 362 1 290 1 L238 1 C153 1 144 38 144 94 L144 342 C144 365.735 163.265 385 187 385 L230 385 C287 385 334 354 348 307 L350.764 297.327 C351.42 295.03 354.112 293 356.5 293 C358.984 293 361 295.016 361 297.5 L361 473.5 C361 475.984 358.984 478 356.5 478 C354.112 478 351.42 475.97 350.764 473.673 L350.764 473.673 Z " />
<glyph glyph-name="emacron" unicode="&#x113;" horiz-adv-x="475" d="M147.5 657 L382.5 657 C386.088 657 389 659.912 389 663.5 C389 667.088 386.088 670 382.5 670 L147.5 670 C143.912 670 141 667.088 141 663.5 C141 659.912 143.912 657 147.5 657 L147.5 657 Z M88.2215 340 L383.016 340 C421.9 340 443.343 361.111 429.352 397.391 C398.526 477.33 339.25 510 265 510 C133 510 45 434 45 238 C45 89 125 -10 245 -10 C311.825 -10 374.226 29.4762 411.988 92.1448 C412.002 92.1677 412.446 93.6454 412.432 93.6226 C375.257 33.115 313 -5 247 -5 C138 -5 66 95 66 246 C66 274.875 68.0419 301.027 71.5641 325.019 C72.7282 332.948 80.2076 340 88.2215 340 L88.2215 340 Z M361.596 341.824 L135.601 341.174 C97.5368 341.065 76.89 361.953 91.3671 397.156 C123.646 475.649 185.975 509 266 509 C329.525 509 381.139 477.691 409.05 398.79 C421.744 362.907 399.658 341.933 361.596 341.824 L361.596 341.824 Z " />
<glyph glyph-name="Ebreve" unicode="&#x114;" horiz-adv-x="495" d="M177.947 971.59 C188.105 930.01 223.55 904 272 904 C319.6 904 353.472 930.371 363.177 971.445 C363.187 971.485 362.12 971.974 362.107 971.936 C350.891 939.078 316.55 919 272 919 C226.625 919 192.14 939.419 180.898 972.395 C180.884 972.438 177.937 971.634 177.947 971.59 L177.947 971.59 Z M350.764 473.673 L348 464 C334 417 287 386 230 386 L187 386 C163.265 386 144 405.265 144 429 L144 692.68 C144 723.767 169.233 749 200.32 749 L289 749 C346 749 397 718 417 671 L421.227 661.136 C422.127 659.038 425.217 657 427.5 657 C429.977 657 431.796 658.914 431.523 661.376 C428.902 685.069 425.072 714.2 422.244 738.825 C421.37 746.437 414.582 750 406.92 750 L62.5 750 C60.5681 750 59 748.432 59 746.5 C59 744.578 60.5699 742.843 62.4826 742.652 L69 742 C100 740 121 705 121 654 L121 96 C121 45 100 10 69 8 L62.4826 7.34826 C60.5699 7.15699 59 5.42231 59 3.5 C59 1.5681 60.5681 0 62.5 0 L433.341 0 C440.184 0 446.958 5.97582 448.087 12.7251 C451.648 34.0235 456.039 58.6425 459.334 78.8783 C459.73 81.3049 457.958 83 455.5 83 C453.245 83 450.059 80.9619 449.114 78.9142 L445 70 C424 29 362 1 290 1 L238 1 C153 1 144 38 144 94 L144 342 C144 365.735 163.265 385 187 385 L230 385 C287 385 334 354 348 307 L350.764 297.327 C351.42 295.03 354.112 293 356.5 293 C358.984 293 361 295.016 361 297.5 L361 473.5 C361 475.984 358.984 478 356.5 478 C354.112 478 351.42 475.97 350.764 473.673 L350.764 473.673 Z " />
<glyph glyph-name="ebreve" unicode="&#x115;" horiz-adv-x="475" d="M170.947 721.59 C181.105 680.01 216.55 654 265 654 C313.45 654 347.45 680.371 357.174 721.445 C357.183 721.485 356.115 721.974 356.102 721.936 C344.86 689.078 310.375 669 265 669 C219.625 669 185.14 689.419 173.898 722.395 C173.884 722.438 170.937 721.634 170.947 721.59 L170.947 721.59 Z M88.2215 340 L383.016 340 C421.9 340 443.343 361.111 429.352 397.391 C398.526 477.33 339.25 510 265 510 C133 510 45 434 45 238 C45 89 125 -10 245 -10 C311.825 -10 374.226 29.4762 411.988 92.1448 C412.002 92.1677 412.446 93.6454 412.432 93.6226 C375.257 33.115 313 -5 247 -5 C138 -5 66 95 66 246 C66 274.875 68.0419 301.027 71.5641 325.019 C72.7282 332.948 80.2076 340 88.2215 340 L88.2215 340 Z M361.596 341.824 L135.601 341.174 C97.5368 341.065 76.89 361.953 91.3671 397.156 C123.646 475.649 185.975 509 266 509 C329.525 509 381.139 477.691 409.05 398.79 C421.744 362.907 399.658 341.933 361.596 341.824 L361.596 341.824 Z " />
<glyph glyph-name="Edot" unicode="&#x116;" horiz-adv-x="495" d="M292 885 C292 911 252 911 252 885 C252 859 292 859 292 885 L292 885 Z M350.764 473.673 L348 464 C334 417 287 386 230 386 L187 386 C163.265 386 144 405.265 144 429 L144 692.68 C144 723.767 169.233 749 200.32 749 L289 749 C346 749 397 718 417 671 L421.227 661.136 C422.127 659.038 425.217 657 427.5 657 C429.977 657 431.796 658.914 431.523 661.376 C428.902 685.069 425.072 714.2 422.244 738.825 C421.37 746.437 414.582 750 406.92 750 L62.5 750 C60.5681 750 59 748.432 59 746.5 C59 744.578 60.5699 742.843 62.4826 742.652 L69 742 C100 740 121 705 121 654 L121 96 C121 45 100 10 69 8 L62.4826 7.34826 C60.5699 7.15699 59 5.42231 59 3.5 C59 1.5681 60.5681 0 62.5 0 L433.341 0 C440.184 0 446.958 5.97582 448.087 12.7251 C451.648 34.0235 456.039 58.6425 459.334 78.8783 C459.73 81.3049 457.958 83 455.5 83 C453.245 83 450.059 80.9619 449.114 78.9142 L445 70 C424 29 362 1 290 1 L238 1 C153 1 144 38 144 94 L144 342 C144 365.735 163.265 385 187 385 L230 385 C287 385 334 354 348 307 L350.764 297.327 C351.42 295.03 354.112 293 356.5 293 C358.984 293 361 295.016 361 297.5 L361 473.5 C361 475.984 358.984 478 356.5 478 C354.112 478 351.42 475.97 350.764 473.673 L350.764 473.673 Z " />
<glyph glyph-name="edot" unicode="&#x117;" horiz-adv-x="475" d="M285 635 C285 661 245 661 245 635 C245 609 285 609 285 635 L285 635 Z M88.2215 340 L383.016 340 C421.9 340 443.343 361.111 429.352 397.391 C398.526 477.33 339.25 510 265 510 C133 510 45 434 45 238 C45 89 125 -10 245 -10 C311.825 -10 374.226 29.4762 411.988 92.1448 C412.002 92.1677 412.446 93.6454 412.432 93.6226 C375.257 33.115 313 -5 247 -5 C138 -5 66 95 66 246 C66 274.875 68.0419 301.027 71.5641 325.019 C72.7282 332.948 80.2076 340 88.2215 340 L88.2215 340 Z M361.596 341.824 L135.601 341.174 C97.5368 341.065 76.89 361.953 91.3671 397.156 C123.646 475.649 185.975 509 266 509 C329.525 509 381.139 477.691 409.05 398.79 C421.744 362.907 399.658 341.933 361.596 341.824 L361.596 341.824 Z " />
<glyph glyph-name="Ecaron" unicode="&#x11a;" horiz-adv-x="495" d="M343.5 942 L317.148 905.513 C293.409 872.644 250.276 872.414 226.188 905.028 L199.25 941.5 C196.64 945.034 190.318 940.676 192.693 936.979 L261.691 829.594 C261.784 829.449 265.834 822.73 265.944 822.597 C269.056 818.875 273.944 818.486 277.056 822.319 C277.136 822.419 281.495 829.883 281.564 829.991 L350.487 937.26 C352.468 940.342 345.645 944.97 343.5 942 L343.5 942 Z M350.764 473.673 L348 464 C334 417 287 386 230 386 L187 386 C163.265 386 144 405.265 144 429 L144 692.68 C144 723.767 169.233 749 200.32 749 L289 749 C346 749 397 718 417 671 L421.227 661.136 C422.127 659.038 425.217 657 427.5 657 C429.977 657 431.796 658.914 431.523 661.376 C428.902 685.069 425.072 714.2 422.244 738.825 C421.37 746.437 414.582 750 406.92 750 L62.5 750 C60.5681 750 59 748.432 59 746.5 C59 744.578 60.5699 742.843 62.4826 742.652 L69 742 C100 740 121 705 121 654 L121 96 C121 45 100 10 69 8 L62.4826 7.34826 C60.5699 7.15699 59 5.42231 59 3.5 C59 1.5681 60.5681 0 62.5 0 L433.341 0 C440.184 0 446.958 5.97582 448.087 12.7251 C451.648 34.0235 456.039 58.6425 459.334 78.8783 C459.73 81.3049 457.958 83 455.5 83 C453.245 83 450.059 80.9619 449.114 78.9142 L445 70 C424 29 362 1 290 1 L238 1 C153 1 144 38 144 94 L144 342 C144 365.735 163.265 385 187 385 L230 385 C287 385 334 354 348 307 L350.764 297.327 C351.42 295.03 354.112 293 356.5 293 C358.984 293 361 295.016 361 297.5 L361 473.5 C361 475.984 358.984 478 356.5 478 C354.112 478 351.42 475.97 350.764 473.673 L350.764 473.673 Z " />
<glyph glyph-name="ecaron" unicode="&#x11b;" horiz-adv-x="475" d="M337 691.5 L310.277 654.57 C286.482 621.686 243.301 621.528 219.266 654.236 L192.25 691 C189.869 694.24 184.067 690.236 186.252 686.86 L255.679 579.586 C255.819 579.371 260.045 572.352 260.216 572.16 C262.784 569.28 266.216 569.28 268.784 572.16 C268.95 572.346 273.191 579.373 273.327 579.583 L343.099 687.002 C344.958 689.864 339 694.264 337 691.5 L337 691.5 Z M87.2215 340 L382.016 340 C420.9 340 442.343 361.111 428.352 397.391 C397.526 477.33 338.25 510 264 510 C132 510 44 434 44 238 C44 89 124 -10 244 -10 C310.825 -10 373.226 29.4762 410.988 92.1448 C411.002 92.1677 411.446 93.6454 411.432 93.6226 C374.257 33.115 312 -5 246 -5 C137 -5 65 95 65 246 C65 274.875 67.0419 301.027 70.5641 325.019 C71.7282 332.948 79.2076 340 87.2215 340 L87.2215 340 Z M360.596 341.824 L134.601 341.174 C96.5368 341.065 75.89 361.953 90.3671 397.156 C122.646 475.649 184.975 509 265 509 C328.525 509 380.139 477.691 408.05 398.79 C420.744 362.907 398.658 341.933 360.596 341.824 L360.596 341.824 Z " />
<glyph glyph-name="Gcircumflex" unicode="&#x11c;" horiz-adv-x="663" d="M342.784 1027.84 C340.216 1030.72 336.784 1030.72 334.216 1027.84 C334.045 1027.65 329.819 1020.63 329.679 1020.41 L260.252 913.14 C258.067 909.764 263.869 905.76 266.25 909 L293.616 946.24 C317.523 978.774 360.477 978.774 384.384 946.24 L411.75 909 C413.999 905.939 419.484 909.738 417.41 912.92 L347.333 1020.42 C347.2 1020.62 342.945 1027.66 342.784 1027.84 L342.784 1027.84 Z M586 590.576 L586 695 C586 697.208 584.208 699 582 699 C579.905 699 577.397 697.192 576.735 695.205 L574 687 C570 675 538 686 494 714 C452 743 404 760 339 760 C179 760 72 606 72 375 C72 144 176 -10 332 -10 C400.4 -10 461.51 -1.09 518.246 14.543 C519.174 14.7988 518.942 16.1984 518 16 L502.726 12.7845 C502.323 12.6995 502.121 13.3376 502.5 13.5 C502.952 13.6938 502.897 14.473 502.412 14.3909 C454.974 6.35812 376.95 -6 336 -6 C193 -6 97 146 97 374 C97 604 194 757 339 757 C380 757 414 749 444 735 C492 711 539 660 564 604 L570.51 588.087 C571.846 584.82 576.011 582.463 579.5 583 C583.046 583.546 586 586.989 586 590.576 L586 590.576 Z M511.54 16.0613 C527.524 22.4259 537.743 30.3843 540.931 39.0926 C540.931 39.0926 543.434 38.6917 543.434 38.6917 L539.497 39.4009 C539.497 39.4009 542 39 542 39 L542 29.3246 C542 25.9111 538.597 21.8633 535.336 20.8555 C528.004 18.5898 520.844 16.7148 513.121 15.2305 C512.476 15.1065 510.93 15.8183 511.54 16.0613 L511.54 16.0613 Z M612.969 323 L494.5 323 C492.016 323 490 320.984 490 318.5 L490 318.031 C490 315.823 491.809 313.774 494 313.5 L498 313 C524 310 542 269 542 209 L542 23.0414 C542 21.3855 540.633 19.7722 539 19.5 C538.623 19.4372 538.455 20.0228 538.807 20.1698 L539 20.25 C539.197 20.3322 544.922 22.3258 545.128 22.3839 L565 28 C587.622 35.5405 609.541 46.24 631.347 56.5694 C631.452 56.6189 631.522 56.6728 631.417 56.625 C614.528 48.9583 597.194 41.9583 579.417 35.625 C572.294 33.0875 566 37.669 566 45.2302 L566 210 C566 270 584 311 610 314 L614 314.5 C616.208 314.776 617.776 316.792 617.5 319 C617.226 321.191 615.177 323 612.969 323 L612.969 323 Z " />
<glyph glyph-name="Gbreve" unicode="&#x11e;" horiz-adv-x="663" d="M243.947 971.59 C254.105 930.01 289.55 904 338 904 C386.45 904 420.45 930.371 430.174 971.445 C430.183 971.485 429.115 971.974 429.102 971.936 C417.86 939.078 383.375 919 338 919 C292.625 919 258.14 939.419 246.898 972.395 C246.884 972.438 243.937 971.634 243.947 971.59 L243.947 971.59 Z M585 590.576 L585 695 C585 697.208 583.208 699 581 699 C578.905 699 576.397 697.192 575.735 695.205 L573 687 C569 675 537 686 493 714 C451 743 403 760 338 760 C178 760 71 606 71 375 C71 144 175 -10 331 -10 C399.4 -10 460.51 -1.09 517.246 14.543 C518.174 14.7988 517.942 16.1984 517 16 L501.726 12.7845 C501.323 12.6995 501.121 13.3376 501.5 13.5 C501.952 13.6938 501.897 14.473 501.412 14.3909 C453.974 6.35812 375.95 -6 335 -6 C192 -6 96 146 96 374 C96 604 193 757 338 757 C379 757 413 749 443 735 C491 711 538 660 563 604 L569.51 588.087 C570.846 584.82 575.011 582.463 578.5 583 C582.046 583.546 585 586.989 585 590.576 L585 590.576 Z M510.54 16.0613 C526.524 22.4259 536.743 30.3843 539.931 39.0926 C539.931 39.0926 542.434 38.6917 542.434 38.6917 L538.497 39.4009 C538.497 39.4009 541 39 541 39 L541 29.3246 C541 25.9111 537.597 21.8633 534.336 20.8555 C527.004 18.5898 519.844 16.7148 512.121 15.2305 C511.476 15.1065 509.93 15.8183 510.54 16.0613 L510.54 16.0613 Z M611.969 323 L493.5 323 C491.016 323 489 320.984 489 318.5 L489 318.031 C489 315.823 490.809 313.774 493 313.5 L497 313 C523 310 541 269 541 209 L541 23.0414 C541 21.3855 539.633 19.7722 538 19.5 C537.623 19.4372 537.455 20.0228 537.807 20.1698 L538 20.25 C538.197 20.3322 543.922 22.3258 544.128 22.3839 L564 28 C586.622 35.5405 608.541 46.24 630.347 56.5694 C630.452 56.6189 630.522 56.6728 630.417 56.625 C613.528 48.9583 596.194 41.9583 578.417 35.625 C571.294 33.0875 565 37.669 565 45.2302 L565 210 C565 270 583 311 609 314 L613 314.5 C615.208 314.776 616.776 316.792 616.5 319 C616.226 321.191 614.177 323 611.969 323 L611.969 323 Z " />
<glyph glyph-name="gbreve" unicode="&#x11f;" horiz-adv-x="486" d="M151.947 721.59 C162.105 680.01 197.55 654 246 654 C294.45 654 328.45 680.371 338.174 721.445 C338.183 721.485 337.115 721.974 337.102 721.936 C325.86 689.078 291.375 669 246 669 C200.625 669 166.14 689.419 154.898 722.395 C154.884 722.438 151.937 721.634 151.947 721.59 L151.947 721.59 Z M490 454 C450.4 454 419.648 440.387 402.798 417.655 C399.838 413.662 391.084 411.786 389.333 416.437 C367.638 474.064 315.375 510 246 510 C153 510 91 446 91 350 C91 274.925 128.434 218.907 188.704 197.67 C191.058 196.84 189.88 186.115 187.403 185.807 C111.685 176.385 64 148.25 64 110 C64 72.875 92.5862 45.9594 137.967 35.9913 C142.558 34.9828 144.787 24.1968 140.473 22.3284 C89.79 0.375 58 -41.7 58 -91 C58 -174 136 -230 254 -230 C372 -230 450 -173 450 -88 C450 -4 403 52 282 52 L178 52 C116 52 75 77 75 115 C75 159 143 188 245 188 C338 188 400 253 400 350 C400 364.571 398.531 378.408 395.592 391.51 C394.884 394.664 395.392 401.109 397.017 403.903 C410.706 427.454 440.075 442 478 442 C483 442 489 434 494 434 C507 434 503 454.5 489 454.5 L490 454 Z M172.5 33 L177 33 L280 33 C390 33 433 -17 433 -92 C433 -174 361 -228 254 -228 C146 -228 74 -171 74 -85 C74 -30.4 109.173 15.1691 164.69 31.3163 C165.436 31.5333 171.723 33 172.5 33 L172.5 33 Z M246 189 C165 189 111 253 111 350 C111 445 165 509 246 509 C327 509 381 445 381 350 C381 253 327 189 246 189 L246 189 Z " />
<glyph glyph-name="Gdot" unicode="&#x120;" horiz-adv-x="663" d="M358 885 C358 911 318 911 318 885 C318 859 358 859 358 885 L358 885 Z M585 590.576 L585 695 C585 697.208 583.208 699 581 699 C578.905 699 576.397 697.192 575.735 695.205 L573 687 C569 675 537 686 493 714 C451 743 403 760 338 760 C178 760 71 606 71 375 C71 144 175 -10 331 -10 C399.4 -10 460.51 -1.09 517.246 14.543 C518.174 14.7988 517.942 16.1984 517 16 L501.726 12.7845 C501.323 12.6995 501.121 13.3376 501.5 13.5 C501.952 13.6938 501.897 14.473 501.412 14.3909 C453.974 6.35812 375.95 -6 335 -6 C192 -6 96 146 96 374 C96 604 193 757 338 757 C379 757 413 749 443 735 C491 711 538 660 563 604 L569.51 588.087 C570.846 584.82 575.011 582.463 578.5 583 C582.046 583.546 585 586.989 585 590.576 L585 590.576 Z M510.54 16.0613 C526.524 22.4259 536.743 30.3843 539.931 39.0926 C539.931 39.0926 542.434 38.6917 542.434 38.6917 L538.497 39.4009 C538.497 39.4009 541 39 541 39 L541 29.3246 C541 25.9111 537.597 21.8633 534.336 20.8555 C527.004 18.5898 519.844 16.7148 512.121 15.2305 C511.476 15.1065 509.93 15.8183 510.54 16.0613 L510.54 16.0613 Z M611.969 323 L493.5 323 C491.016 323 489 320.984 489 318.5 L489 318.031 C489 315.823 490.809 313.774 493 313.5 L497 313 C523 310 541 269 541 209 L541 23.0414 C541 21.3855 539.633 19.7722 538 19.5 C537.623 19.4372 537.455 20.0228 537.807 20.1698 L538 20.25 C538.197 20.3322 543.922 22.3258 544.128 22.3839 L564 28 C586.622 35.5405 608.541 46.24 630.347 56.5694 C630.452 56.6189 630.522 56.6728 630.417 56.625 C613.528 48.9583 596.194 41.9583 578.417 35.625 C571.294 33.0875 565 37.669 565 45.2302 L565 210 C565 270 583 311 609 314 L613 314.5 C615.208 314.776 616.776 316.792 616.5 319 C616.226 321.191 614.177 323 611.969 323 L611.969 323 Z " />
<glyph glyph-name="gdot" unicode="&#x121;" horiz-adv-x="486" d="M266 635 C266 661 226 661 226 635 C226 609 266 609 266 635 L266 635 Z M490 454 C450.4 454 419.648 440.387 402.798 417.655 C399.838 413.662 391.084 411.786 389.333 416.437 C367.638 474.064 315.375 510 246 510 C153 510 91 446 91 350 C91 274.925 128.434 218.907 188.704 197.67 C191.058 196.84 189.88 186.115 187.403 185.807 C111.685 176.385 64 148.25 64 110 C64 72.875 92.5862 45.9594 137.967 35.9913 C142.558 34.9828 144.787 24.1968 140.473 22.3284 C89.79 0.375 58 -41.7 58 -91 C58 -174 136 -230 254 -230 C372 -230 450 -173 450 -88 C450 -4 403 52 282 52 L178 52 C116 52 75 77 75 115 C75 159 143 188 245 188 C338 188 400 253 400 350 C400 364.571 398.531 378.408 395.592 391.51 C394.884 394.664 395.392 401.109 397.017 403.903 C410.706 427.454 440.075 442 478 442 C483 442 489 434 494 434 C507 434 503 454.5 489 454.5 L490 454 Z M172.5 33 L177 33 L280 33 C390 33 433 -17 433 -92 C433 -174 361 -228 254 -228 C146 -228 74 -171 74 -85 C74 -30.4 109.173 15.1691 164.69 31.3163 C165.436 31.5333 171.723 33 172.5 33 L172.5 33 Z M246 189 C165 189 111 253 111 350 C111 445 165 509 246 509 C327 509 381 445 381 350 C381 253 327 189 246 189 L246 189 Z " />
<glyph glyph-name="Hcircumflex" unicode="&#x124;" horiz-adv-x="657" d="M362.056 1027.68 C358.944 1031.51 354.056 1031.13 350.944 1027.4 C350.834 1027.27 346.784 1020.55 346.691 1020.41 L277.693 913.021 C275.318 909.324 281.64 904.966 284.25 908.5 L311.54 945.45 C335.499 977.888 378.405 977.818 402.257 945.301 L429.25 908.5 C431.711 905.144 437.717 909.27 435.467 912.771 L366.564 1020.01 C366.495 1020.12 362.136 1027.58 362.056 1027.68 L362.056 1027.68 Z M594.535 7.49497 L591 8 C570 10 556 37 556 76 L556 674 C556 713 570 740 591 742 L594.535 742.505 C596.428 742.775 598 744.588 598 746.5 C598 748.432 596.432 750 594.5 750 L493.5 750 C491.568 750 490 748.432 490 746.5 C490 744.588 491.572 742.775 493.465 742.505 L497 742 C518 740 532 713 532 674 L532 441.32 C532 410.233 506.767 385 475.68 385 L236.32 385 C205.233 385 180 410.233 180 441.32 L180 674 C180 713 194 740 215 742 L218.535 742.505 C220.428 742.775 222 744.588 222 746.5 C222 748.432 220.432 750 218.5 750 L118.5 750 C116.568 750 115 748.432 115 746.5 C115 744.588 116.572 742.775 118.465 742.505 L122 742 C143 740 157 713 157 674 L157 76 C157 37 143 10 122 8 L118.465 7.49497 C116.572 7.22451 115 5.41248 115 3.5 C115 1.5681 116.568 0 118.5 0 L218.5 0 C220.432 0 222 1.5681 222 3.5 C222 5.41248 220.428 7.22451 218.535 7.49497 L215 8 C194 10 180 37 180 76 L180 326.68 C180 357.767 205.233 383 236.32 383 L475.68 383 C506.767 383 532 357.767 532 326.68 L532 76 C532 37 518 10 497 8 L493.465 7.49497 C491.572 7.22451 490 5.41248 490 3.5 C490 1.5681 491.568 0 493.5 0 L594.5 0 C596.432 0 598 1.5681 598 3.5 C598 5.41248 596.428 7.22451 594.535 7.49497 L594.535 7.49497 Z " />
<glyph glyph-name="Itilde" unicode="&#x128;" horiz-adv-x="259" d="M26.0582 891.88 L30.0266 891.378 C30.0266 891.378 28.4271 891.127 28.4271 891.127 C32.845 921.942 47.2 941 67 941 C113 941 175 876 221 876 C244.8 876 261.736 897.675 266.282 931.813 C266.282 931.813 268.089 932.229 268.089 932.229 L264.138 932.851 C264.138 932.851 265.946 933.267 265.946 933.267 C261.145 907.335 245.625 891 225 891 C179 891 118 956 72 956 C48.2 956 31.9863 931.435 27.6576 892.131 C27.6576 892.131 26.0582 891.88 26.0582 891.88 L30.0266 891.378 C30.0266 891.378 28.4271 891.127 28.4271 891.127 L26.0582 891.88 Z M196.535 7.49497 L193 8 C172 10 158 37 158 76 L158 674 C158 713 172 740 193 742 L196.535 742.505 C198.428 742.775 200 744.588 200 746.5 C200 748.432 198.432 750 196.5 750 L96.5 750 C94.5681 750 93 748.432 93 746.5 C93 744.588 94.5716 742.775 96.4648 742.505 L100 742 C121 740 135 713 135 674 L135 76 C135 37 121 10 100 8 L96.4648 7.49497 C94.5716 7.22451 93 5.41248 93 3.5 C93 1.5681 94.5681 0 96.5 0 L196.5 0 C198.432 0 200 1.5681 200 3.5 C200 5.41248 198.428 7.22451 196.535 7.49497 L196.535 7.49497 Z " />
<glyph glyph-name="itilde" unicode="&#x129;" horiz-adv-x="184" d="M-12.9418 641.88 L-8.97342 641.378 C-8.97342 641.378 -10.5729 641.127 -10.5729 641.127 C-6.155 671.943 8.2 691 28 691 C74 691 136 626 182 626 C205.8 626 222.736 647.675 227.282 681.813 C227.282 681.813 229.089 682.229 229.089 682.229 L225.138 682.851 C225.138 682.851 226.946 683.267 226.946 683.267 C222.145 657.335 206.625 641 186 641 C140 641 79 706 33 706 C9.2 706 -7.01375 681.435 -11.3424 642.131 C-11.3424 642.131 -12.9418 641.88 -12.9418 641.88 L-8.97342 641.378 C-8.97342 641.378 -10.5729 641.127 -10.5729 641.127 L-12.9418 641.88 Z M80.0689 483.803 C92.2698 482.54 98 475 98 456 L98 41 C98 21 91.3884 11.7438 79.6679 7.9722 C78.0899 7.46441 76 5.1577 76 3.5 C76 1.5681 77.5681 0 79.5 0 L136.5 0 C138.432 0 140 1.5681 140 3.5 C140 5.1577 137.91 7.46441 136.332 7.9722 C124.612 11.7438 118 21 118 41 L118 495 C118 497.76 115.76 500 113 500 C112.279 500 103.95 498.813 103.257 498.615 C95.1643 496.308 86.2522 494 78.3414 491.692 C76.5468 491.169 76 489.369 76 487.5 C76 485.767 78.3453 483.982 80.0689 483.803 L80.0689 483.803 Z " />
<glyph glyph-name="Imacron" unicode="&#x12a;" horiz-adv-x="259" d="M29.5 907 L264.5 907 C268.088 907 271 909.912 271 913.5 C271 917.088 268.088 920 264.5 920 L29.5 920 C25.9122 920 23 917.088 23 913.5 C23 909.912 25.9122 907 29.5 907 L29.5 907 Z M196.535 7.49497 L193 8 C172 10 158 37 158 76 L158 674 C158 713 172 740 193 742 L196.535 742.505 C198.428 742.775 200 744.588 200 746.5 C200 748.432 198.432 750 196.5 750 L96.5 750 C94.5681 750 93 748.432 93 746.5 C93 744.588 94.5716 742.775 96.4648 742.505 L100 742 C121 740 135 713 135 674 L135 76 C135 37 121 10 100 8 L96.4648 7.49497 C94.5716 7.22451 93 5.41248 93 3.5 C93 1.5681 94.5681 0 96.5 0 L196.5 0 C198.432 0 200 1.5681 200 3.5 C200 5.41248 198.428 7.22451 196.535 7.49497 L196.535 7.49497 Z " />
<glyph glyph-name="imacron" unicode="&#x12b;" horiz-adv-x="184" d="M-9.5 657 L225.5 657 C229.088 657 232 659.912 232 663.5 C232 667.088 229.088 670 225.5 670 L-9.5 670 C-13.0878 670 -16 667.088 -16 663.5 C-16 659.912 -13.0878 657 -9.5 657 L-9.5 657 Z M80.0689 483.803 C92.2698 482.54 98 475 98 456 L98 41 C98 21 91.3884 11.7438 79.6679 7.9722 C78.0899 7.46441 76 5.1577 76 3.5 C76 1.5681 77.5681 0 79.5 0 L136.5 0 C138.432 0 140 1.5681 140 3.5 C140 5.1577 137.91 7.46441 136.332 7.9722 C124.612 11.7438 118 21 118 41 L118 495 C118 497.76 115.76 500 113 500 C112.279 500 103.95 498.813 103.257 498.615 C95.1643 496.308 86.2522 494 78.3414 491.692 C76.5468 491.169 76 489.369 76 487.5 C76 485.767 78.3453 483.982 80.0689 483.803 L80.0689 483.803 Z " />
<glyph glyph-name="Ibreve" unicode="&#x12c;" horiz-adv-x="259" d="M52.9475 971.59 C63.105 930.01 98.55 904 147 904 C195.45 904 229.45 930.371 239.174 971.445 C239.183 971.485 238.115 971.974 238.102 971.936 C226.86 939.078 192.375 919 147 919 C101.625 919 67.14 939.419 55.8983 972.395 C55.8838 972.438 52.9368 971.634 52.9475 971.59 L52.9475 971.59 Z M196.535 7.49497 L193 8 C172 10 158 37 158 76 L158 674 C158 713 172 740 193 742 L196.535 742.505 C198.428 742.775 200 744.588 200 746.5 C200 748.432 198.432 750 196.5 750 L96.5 750 C94.5681 750 93 748.432 93 746.5 C93 744.588 94.5716 742.775 96.4648 742.505 L100 742 C121 740 135 713 135 674 L135 76 C135 37 121 10 100 8 L96.4648 7.49497 C94.5716 7.22451 93 5.41248 93 3.5 C93 1.5681 94.5681 0 96.5 0 L196.5 0 C198.432 0 200 1.5681 200 3.5 C200 5.41248 198.428 7.22451 196.535 7.49497 L196.535 7.49497 Z " />
<glyph glyph-name="ibreve" unicode="&#x12d;" horiz-adv-x="184" d="M13.9475 721.59 C24.105 680.01 59.55 654 108 654 C156.45 654 190.45 680.371 200.174 721.445 C200.183 721.485 199.115 721.974 199.102 721.936 C187.86 689.078 153.375 669 108 669 C62.625 669 28.14 689.419 16.8983 722.395 C16.8838 722.438 13.9368 721.634 13.9475 721.59 L13.9475 721.59 Z M80.0689 483.803 C92.2698 482.54 98 475 98 456 L98 41 C98 21 91.3884 11.7438 79.6679 7.9722 C78.0899 7.46441 76 5.1577 76 3.5 C76 1.5681 77.5681 0 79.5 0 L136.5 0 C138.432 0 140 1.5681 140 3.5 C140 5.1577 137.91 7.46441 136.332 7.9722 C124.612 11.7438 118 21 118 41 L118 495 C118 497.76 115.76 500 113 500 C112.279 500 103.95 498.813 103.257 498.615 C95.1643 496.308 86.2522 494 78.3414 491.692 C76.5468 491.169 76 489.369 76 487.5 C76 485.767 78.3453 483.982 80.0689 483.803 L80.0689 483.803 Z " />
<glyph glyph-name="Idot" unicode="&#x130;" horiz-adv-x="259" d="M167 885 C167 911 127 911 127 885 C127 859 167 859 167 885 L167 885 Z M196.535 7.49497 L193 8 C172 10 158 37 158 76 L158 674 C158 713 172 740 193 742 L196.535 742.505 C198.428 742.775 200 744.588 200 746.5 C200 748.432 198.432 750 196.5 750 L96.5 750 C94.5681 750 93 748.432 93 746.5 C93 744.588 94.5716 742.775 96.4648 742.505 L100 742 C121 740 135 713 135 674 L135 76 C135 37 121 10 100 8 L96.4648 7.49497 C94.5716 7.22451 93 5.41248 93 3.5 C93 1.5681 94.5681 0 96.5 0 L196.5 0 C198.432 0 200 1.5681 200 3.5 C200 5.41248 198.428 7.22451 196.535 7.49497 L196.535 7.49497 Z " />
<glyph glyph-name="dotlessi" unicode="&#x131;" horiz-adv-x="184" d="M80.0689 483.803 C92.2698 482.54 98 475 98 456 L98 41 C98 21 91.3884 11.7438 79.6679 7.9722 C78.0899 7.46441 76 5.1577 76 3.5 C76 1.5681 77.5681 0 79.5 0 L136.5 0 C138.432 0 140 1.5681 140 3.5 C140 5.1577 137.91 7.46441 136.332 7.9722 C124.612 11.7438 118 21 118 41 L118 495 C118 497.76 115.76 500 113 500 C112.279 500 103.95 498.813 103.257 498.615 C95.1643 496.308 86.2522 494 78.3414 491.692 C76.5468 491.169 76 489.369 76 487.5 C76 485.767 78.3453 483.982 80.0689 483.803 L80.0689 483.803 Z " />
<glyph glyph-name="Jcircumflex" unicode="&#x134;" horiz-adv-x="259" d="M151.784 1027.84 C149.216 1030.72 145.784 1030.72 143.216 1027.84 C143.045 1027.65 138.819 1020.63 138.679 1020.41 L69.2516 913.14 C67.0668 909.764 72.8689 905.76 75.25 909 L102.616 946.24 C126.523 978.774 169.477 978.774 193.384 946.24 L220.75 909 C222.999 905.939 228.484 909.738 226.41 912.92 L156.333 1020.42 C156.2 1020.62 151.945 1027.66 151.784 1027.84 L151.784 1027.84 Z M197.5 750 L97.5 750 C95.5681 750 94 748.432 94 746.5 C94 744.588 95.5716 742.775 97.4648 742.505 L101 742 C122 740 136 713 136 674 L136 0 C136 -183 69 -218 20 -218 C8 -218 14 -199 2 -199 C-4 -199 -8 -203 -8 -210 C-8 -216 3 -220 19 -220 C78 -220 159 -178 159 44 L159 674 C159 713 173 740 194 742 L197.535 742.505 C199.428 742.775 201 744.588 201 746.5 C201 748.432 199.432 750 197.5 750 L197.5 750 Z " />
<glyph glyph-name="Lacute" unicode="&#x139;" horiz-adv-x="481" d="M220.963 876.966 L289 940 C334 983 364 1011 364 1012 C364 1017 359 1022 354 1022 C354 1022 324 993 280 949 L215.75 882.25 C213.721 880.143 218.817 874.978 220.963 876.966 L220.963 876.966 Z M196.5 750 L96.5 750 C94.5681 750 93 748.432 93 746.5 C93 744.588 94.5716 742.775 96.4648 742.505 L100 742 C121 740 135 713 135 674 L135 76 C135 37 121 10 100 8 L96.4648 7.49497 C94.5716 7.22451 93 5.41248 93 3.5 C93 1.56811 94.5681 0.00439245 96.5 0.00980388 L437.341 0.964541 C444.207 0.983772 450.976 7.09067 452.087 13.8658 C455.771 36.3393 460.343 63.2548 463.671 83.9515 C464.061 86.3747 461.954 86 459.5 86 C457.245 86 454.059 83.9619 453.114 81.9142 L449 73 C428 32 366 4 294 4 L252 4 C167 4 158 40 158 94 L158 674 C158 713 172 740 193 742 L196.535 742.505 C198.428 742.775 200 744.588 200 746.5 C200 748.432 198.432 750 196.5 750 L196.5 750 Z " />
<glyph glyph-name="Lcaron" unicode="&#x13d;" horiz-adv-x="481" d="M295 809 C290 809 282 748 277 704 L271.184 647.612 C270.866 644.523 276.12 643.71 276.75 646.75 L288 701 C298 748 304 790 304 806 C304 808 300 809 295 809 L295 809 Z M196.5 750 L96.5 750 C94.5681 750 93 748.432 93 746.5 C93 744.588 94.5716 742.775 96.4648 742.505 L100 742 C121 740 135 713 135 674 L135 76 C135 37 121 10 100 8 L96.4648 7.49497 C94.5716 7.22451 93 5.41248 93 3.5 C93 1.56811 94.5681 0.00439245 96.5 0.00980388 L437.341 0.964541 C444.207 0.983772 450.976 7.09067 452.087 13.8658 C455.771 36.3393 460.343 63.2548 463.671 83.9515 C464.061 86.3747 461.954 86 459.5 86 C457.245 86 454.059 83.9619 453.114 81.9142 L449 73 C428 32 366 4 294 4 L252 4 C167 4 158 40 158 94 L158 674 C158 713 172 740 193 742 L196.535 742.505 C198.428 742.775 200 744.588 200 746.5 C200 748.432 198.432 750 196.5 750 L196.5 750 Z " />
<glyph glyph-name="lcaron" unicode="&#x13e;" horiz-adv-x="128" d="M158 759 C153 759 145 698 140 654 L133.923 597.536 C133.62 594.72 138.437 593.974 139 596.75 L150 651 C160 704 167 746 167 756 C167 758 163 759 158 759 L158 759 Z M57 664 L57 41 C57 21 50.3884 11.7438 38.6679 7.9722 C37.0899 7.46441 35 5.1577 35 3.5 C35 1.5681 36.5681 0 38.5 0 L95.5 0 C97.4319 0 99 1.5681 99 3.5 C99 5.1577 96.9101 7.46441 95.3321 7.9722 C83.6116 11.7438 77 21 77 41 L77 745 C77 747.76 74.7599 750 72 750 C71.2792 750 62.9504 748.813 62.2572 748.615 C53.355 746.077 43.4615 743.538 35 741 L35 736 C50 729 57 705 57 664 L57 664 Z " />
<glyph glyph-name="Nacute" unicode="&#x143;" horiz-adv-x="621" d="M283.963 876.966 L352 940 C397 983 427 1011 427 1012 C427 1017 422 1022 417 1022 C417 1022 387 993 343 949 L278.75 882.25 C276.721 880.143 281.817 874.978 283.963 876.966 L283.963 876.966 Z M48.9363 742.343 C63.7926 739.597 76.1019 734.069 90.3704 720.801 C95.3294 716.19 100 702.906 100 696.134 L100 76 C100 37 86 10 65 8 L61.4648 7.49497 C59.5716 7.22451 58 5.41248 58 3.5 C58 1.5681 59.5681 0 61.5 0 L145.5 0 C147.432 0 149 1.5681 149 3.5 C149 5.41248 147.428 7.22451 145.535 7.49497 L142 8 C121 10 107 37 107 76 L106.018 692.489 C106.013 696.069 110.479 697.454 112.5 694.5 L119 685 C250 457 383 230 512 0 L517 0 L519 674 C519 713 533 741 554 743 L557.535 743.505 C559.428 743.775 561 745.588 561 747.5 C561 749.432 559.432 751 557.5 751 L472.5 751 C470.568 751 469 749.432 469 747.5 C469 745.588 470.572 743.775 472.465 743.505 L476 743 C497 741 511 714 511 675 L511.66 261.09 C511.753 202.976 435.213 182.616 406.419 233.095 L127.208 722.585 C119.437 736.209 93.9716 751 78.2874 751 L48.0311 751 C45.8232 751 44.2261 749.191 44.5 747 C44.7539 744.969 46.9232 742.716 48.9363 742.343 L48.9363 742.343 Z M512 48 L512 48 L512 48 Z " />
<glyph glyph-name="Ncaron" unicode="&#x147;" horiz-adv-x="621" d="M382 941.5 L355.277 904.57 C331.482 871.686 288.301 871.528 264.266 904.236 L237.25 941 C234.869 944.24 229.067 940.236 231.252 936.86 L300.679 829.586 C300.819 829.371 305.045 822.352 305.216 822.16 C307.784 819.28 311.216 819.28 313.784 822.16 C313.95 822.346 318.191 829.373 318.327 829.583 L388.099 937.002 C389.958 939.864 384 944.264 382 941.5 L382 941.5 Z M47.9363 742.343 C62.7926 739.597 75.1019 734.069 89.3704 720.801 C94.3294 716.19 99 702.906 99 696.134 L99 76 C99 37 85 10 64 8 L60.4648 7.49497 C58.5716 7.22451 57 5.41248 57 3.5 C57 1.5681 58.5681 0 60.5 0 L144.5 0 C146.432 0 148 1.5681 148 3.5 C148 5.41248 146.428 7.22451 144.535 7.49497 L141 8 C120 10 106 37 106 76 L105.018 692.489 C105.013 696.069 109.479 697.454 111.5 694.5 L118 685 C249 457 382 230 511 0 L516 0 L518 674 C518 713 532 741 553 743 L556.535 743.505 C558.428 743.775 560 745.588 560 747.5 C560 749.432 558.432 751 556.5 751 L471.5 751 C469.568 751 468 749.432 468 747.5 C468 745.588 469.572 743.775 471.465 743.505 L475 743 C496 741 510 714 510 675 L510.66 261.09 C510.753 202.976 434.213 182.616 405.419 233.095 L126.208 722.585 C118.437 736.209 92.9716 751 77.2874 751 L47.0311 751 C44.8232 751 43.2261 749.191 43.5 747 C43.7539 744.969 45.9232 742.716 47.9363 742.343 L47.9363 742.343 Z M511 48 L511 48 L511 48 Z " />
<glyph glyph-name="ncaron" unicode="&#x148;" horiz-adv-x="379" d="M264.5 692 L238.148 655.513 C214.409 622.644 171.276 622.414 147.188 655.028 L120.25 691.5 C117.64 695.034 111.318 690.676 113.693 686.979 L182.691 579.594 C182.784 579.449 186.834 572.73 186.944 572.597 C190.056 568.875 194.944 568.486 198.056 572.319 C198.136 572.419 202.495 579.883 202.564 579.991 L271.487 687.26 C273.468 690.342 266.645 694.97 264.5 692 L264.5 692 Z M57 414 L57 41 C57 21 50.3884 11.7438 38.6679 7.9722 C37.0899 7.46441 35 5.1577 35 3.5 C35 1.5681 36.5681 0 38.5 0 L95.5 0 C97.4319 0 99 1.5681 99 3.5 C99 5.1577 96.9101 7.46441 95.3321 7.9722 C83.6116 11.7438 77 21 77 41 L77 362.078 C77 364.383 80.506 381.218 81.377 383.352 C110.2 453.972 159.6 500 209 500 C274 500 308 437 308 342 L308 41 C308 21 301.388 11.7438 289.668 7.9722 C288.09 7.46441 286 5.1577 286 3.5 C286 1.5681 287.568 0 289.5 0 L346.5 0 C348.432 0 350 1.5681 350 3.5 C350 5.1577 347.91 7.46441 346.332 7.9722 C334.612 11.7438 328 21 328 41 L328 342 C328 443 290 510 215 510 C170.45 510 125.219 473.246 94.469 414.9 C90.8467 408.026 77 410.248 77 418.017 L77 495 C77 497.76 74.7599 500 72 500 C71.2792 500 62.9504 498.813 62.2572 498.615 C53.355 496.077 43.4615 493.538 35 491 L35 486 C50 479 57 455 57 414 L57 414 Z " />
<glyph glyph-name="Omacron" unicode="&#x14c;" horiz-adv-x="725" d="M248.5 907 L483.5 907 C487.088 907 490 909.912 490 913.5 C490 917.088 487.088 920 483.5 920 L248.5 920 C244.912 920 242 917.088 242 913.5 C242 909.912 244.912 907 248.5 907 L248.5 907 Z M96 375 C96 605 204 758 365 758 C532 758 644 605 644 375 C644 145 529 -8 356 -8 C200 -8 96 145 96 375 L96 375 Z M71 375 C71 144 185 -10 356 -10 C544 -10 670 144 670 375 C670 606 548 760 366 760 C189 760 71 606 71 375 L71 375 Z " />
<glyph glyph-name="omacron" unicode="&#x14d;" horiz-adv-x="561" d="M163.5 657 L398.5 657 C402.088 657 405 659.912 405 663.5 C405 667.088 402.088 670 398.5 670 L163.5 670 C159.912 670 157 667.088 157 663.5 C157 659.912 159.912 657 163.5 657 L163.5 657 Z M67 250 C67 405 153 508 281 508 C409 508 494 405 494 250 C494 95 409 -8 281 -8 C153 -8 67 95 67 250 L67 250 Z M45 250 C45 94 139 -10 281 -10 C422 -10 516 94 516 250 C516 406 422 510 281 510 C139 510 45 406 45 250 L45 250 Z " />
<glyph glyph-name="Obreve" unicode="&#x14e;" horiz-adv-x="725" d="M271.947 971.59 C282.105 930.01 317.55 904 366 904 C414.45 904 448.45 930.371 458.174 971.445 C458.183 971.485 457.115 971.974 457.102 971.936 C445.86 939.078 411.375 919 366 919 C320.625 919 286.14 939.419 274.898 972.395 C274.884 972.438 271.937 971.634 271.947 971.59 L271.947 971.59 Z M96 375 C96 605 204 758 365 758 C532 758 644 605 644 375 C644 145 529 -8 356 -8 C200 -8 96 145 96 375 L96 375 Z M71 375 C71 144 185 -10 356 -10 C544 -10 670 144 670 375 C670 606 548 760 366 760 C189 760 71 606 71 375 L71 375 Z " />
<glyph glyph-name="obreve" unicode="&#x14f;" horiz-adv-x="561" d="M186.947 721.59 C197.105 680.01 232.55 654 281 654 C329.45 654 363.45 680.371 373.174 721.445 C373.183 721.485 372.115 721.974 372.102 721.936 C360.86 689.078 326.375 669 281 669 C235.625 669 201.14 689.419 189.898 722.395 C189.884 722.438 186.937 721.634 186.947 721.59 L186.947 721.59 Z M67 250 C67 405 153 508 281 508 C409 508 494 405 494 250 C494 95 409 -8 281 -8 C153 -8 67 95 67 250 L67 250 Z M45 250 C45 94 139 -10 281 -10 C422 -10 516 94 516 250 C516 406 422 510 281 510 C139 510 45 406 45 250 L45 250 Z " />
<glyph glyph-name="Racute" unicode="&#x154;" horiz-adv-x="524" d="M344.963 876.966 L413 940 C458 983 488 1011 488 1012 C488 1017 483 1022 478 1022 C478 1022 448 993 404 949 L339.75 882.25 C337.721 880.143 342.817 874.978 344.963 876.966 L344.963 876.966 Z M82.5 742.5 L86 742 C107 740 121 713 121 674 L121 76 C121 37 107 10 86 8 L82.4648 7.49497 C80.5716 7.22451 79 5.41248 79 3.5 C79 1.5681 80.5681 0 82.5 0 L182.5 0 C184.432 0 186 1.5681 186 3.5 C186 5.41248 184.428 7.22451 182.535 7.49497 L179 8 C158 10 144 37 144 76 L144 317.68 C144 348.767 169.233 374 200.32 374 L266.5 374 C272.764 374 281.279 366.632 283.277 360.695 C297.031 319.844 336.625 212 390 72 C412.1 13.35 419.027 3.46875 478.336 1.824 C478.336 1.824 479.658 0.16304 479.658 0.16304 L479.878 4.15696 C479.878 4.15696 481.2 2.496 481.2 2.496 C444.56 5.76 438 19.2 418 72 C364.625 212.875 324.266 318.531 308.311 360.832 C305.716 367.71 308.681 375.398 315.964 376.396 C396.558 387.435 448 440.35 448 542 C448 667 381 750 281 750 L83.5355 750 C81.6036 750 79.7732 748.412 79.5 746.5 C79.224 744.568 80.5681 742.776 82.5 742.5 L82.5 742.5 Z M145 436.32 L145 688.68 C145 719.767 170.233 745 201.32 745 L274 745 C363 745 422 665 422 546 C422 431 366 380 281 380 L201.32 380 C170.233 380 145 405.233 145 436.32 L145 436.32 Z " />
<glyph glyph-name="Rcaron" unicode="&#x158;" horiz-adv-x="524" d="M343 941.5 L316.277 904.57 C292.482 871.686 249.301 871.528 225.266 904.236 L198.25 941 C195.869 944.24 190.067 940.236 192.252 936.86 L261.679 829.586 C261.819 829.371 266.045 822.352 266.216 822.16 C268.784 819.28 272.216 819.28 274.784 822.16 C274.95 822.346 279.191 829.373 279.327 829.583 L349.099 937.002 C350.958 939.864 345 944.264 343 941.5 L343 941.5 Z M81.5 742.5 L85 742 C106 740 120 713 120 674 L120 76 C120 37 106 10 85 8 L81.4648 7.49497 C79.5716 7.22451 78 5.41248 78 3.5 C78 1.5681 79.5681 0 81.5 0 L181.5 0 C183.432 0 185 1.5681 185 3.5 C185 5.41248 183.428 7.22451 181.535 7.49497 L178 8 C157 10 143 37 143 76 L143 317.68 C143 348.767 168.233 374 199.32 374 L265.5 374 C271.764 374 280.279 366.632 282.277 360.695 C296.031 319.844 335.625 212 389 72 C411.1 13.35 418.027 3.46875 477.336 1.824 C477.336 1.824 478.658 0.16304 478.658 0.16304 L478.878 4.15696 C478.878 4.15696 480.2 2.496 480.2 2.496 C443.56 5.76 437 19.2 417 72 C363.625 212.875 323.266 318.531 307.311 360.832 C304.716 367.71 307.681 375.398 314.964 376.396 C395.557 387.435 447 440.35 447 542 C447 667 380 750 280 750 L82.5355 750 C80.6036 750 78.7732 748.412 78.5 746.5 C78.224 744.568 79.5681 742.776 81.5 742.5 L81.5 742.5 Z M144 436.32 L144 688.68 C144 719.767 169.233 745 200.32 745 L273 745 C362 745 421 665 421 546 C421 431 365 380 280 380 L200.32 380 C169.233 380 144 405.233 144 436.32 L144 436.32 Z " />
<glyph glyph-name="rcaron" unicode="&#x159;" horiz-adv-x="230" d="M209 691.5 L182.277 654.57 C158.482 621.686 115.301 621.528 91.2657 654.236 L64.25 691 C61.8689 694.24 56.0668 690.236 58.2516 686.86 L127.679 579.586 C127.819 579.371 132.045 572.352 132.216 572.16 C134.784 569.28 138.216 569.28 140.784 572.16 C140.95 572.346 145.191 579.373 145.327 579.583 L215.099 687.002 C216.958 689.864 211 694.264 209 691.5 L209 691.5 Z M57 414 L57 41 C57 21 50.3884 11.7438 38.6679 7.9722 C37.0899 7.46441 35 5.1577 35 3.5 C35 1.5681 36.5681 0 38.5 0 L95.5 0 C97.4319 0 99 1.5681 99 3.5 C99 5.1577 96.9101 7.46441 95.3321 7.9722 C83.6116 11.7438 77 21 77 41 L77 381.792 C77 382.099 77.6223 389.901 77.6653 390.205 C87.1606 457.271 129.5 501 188 501 C192 501 195 487 195 466 C195 450 219 450 219 466 C219 492 210 510 197 510 C143.375 510 102.001 476.649 84.1091 423.424 C83.3354 421.123 76 421.845 76 424.273 L76 495 C76 497.76 73.7599 500 71 500 C70.2792 500 61.9504 498.813 61.2572 498.615 C52.355 496.077 42.4615 493.538 34 491 L34 486 C49 479 56.5 455 56.5 414 L57 414 Z " />
<glyph glyph-name="Sacute" unicode="&#x15a;" horiz-adv-x="506" d="M330.963 876.966 L399 940 C444 983 474 1011 474 1012 C474 1017 469 1022 464 1022 C464 1022 434 993 390 949 L325.75 882.25 C323.721 880.143 328.817 874.978 330.963 876.966 L330.963 876.966 Z M59 151 L59 151 L59 151 L59 151 Z M55 182.917 L55 49 C55 46.7921 56.7921 45 59 45 C61.142 45 63.4506 46.8026 63.9701 48.8806 L67 61 C71 77 104 68 149 37 C166 25 184 15 202 8 C203 7 213 2 214 3 C239 -6 265 -11 291 -11 C397 -11 467 61 467 170 C467 252 410 334 298 386 C167 447 99 526 99 596 C99 708 161 772 261 754 C319 742 374 691 400 624 L406.893 605.618 C407.982 602.714 411.899 600 415 600 C418.312 600 421 602.688 421 606 L421 704 C421 706.208 419.208 708 417 708 C415.025 708 412.094 706.189 411.211 704.422 L409 700 C406 694 379 705 341 726 C316 741 284 753 253 757 C146 771 78 700 78 586 C78 508 147 424 282 361 C391 310 447 235 447 162 C447 59 384 -10 289 -10 C264 -10 239 -5 215 4 C158 25 102 88 76 161 L68.9897 181.252 C68.0251 184.039 63.9089 187.515 61 188 C57.7332 188.544 55 186.229 55 182.917 L55 182.917 Z " />
<glyph glyph-name="Scircumflex" unicode="&#x15c;" horiz-adv-x="506" d="M261.784 1027.84 C259.216 1030.72 255.784 1030.72 253.216 1027.84 C253.045 1027.65 248.819 1020.63 248.679 1020.41 L179.252 913.14 C177.067 909.764 182.869 905.76 185.25 909 L212.616 946.24 C236.523 978.774 279.477 978.774 303.384 946.24 L330.75 909 C332.999 905.939 338.484 909.738 336.41 912.92 L266.333 1020.42 C266.2 1020.62 261.945 1027.66 261.784 1027.84 L261.784 1027.84 Z M60 151 L60 151 L60 151 L60 151 Z M56 182.917 L56 49 C56 46.7921 57.7921 45 60 45 C62.142 45 64.4506 46.8026 64.9701 48.8806 L68 61 C72 77 105 68 150 37 C167 25 185 15 203 8 C204 7 214 2 215 3 C240 -6 266 -11 292 -11 C398 -11 468 61 468 170 C468 252 411 334 299 386 C168 447 100 526 100 596 C100 708 162 772 262 754 C320 742 375 691 401 624 L407.893 605.618 C408.982 602.714 412.899 600 416 600 C419.312 600 422 602.688 422 606 L422 704 C422 706.208 420.208 708 418 708 C416.025 708 413.094 706.189 412.211 704.422 L410 700 C407 694 380 705 342 726 C317 741 285 753 254 757 C147 771 79 700 79 586 C79 508 148 424 283 361 C392 310 448 235 448 162 C448 59 385 -10 290 -10 C265 -10 240 -5 216 4 C159 25 103 88 77 161 L69.9897 181.252 C69.0251 184.039 64.9089 187.515 62 188 C58.7332 188.544 56 186.229 56 182.917 L56 182.917 Z " />
<glyph glyph-name="Scaron" unicode="&#x160;" horiz-adv-x="506" d="M329 941.5 L302.277 904.57 C278.482 871.686 235.301 871.528 211.266 904.236 L184.25 941 C181.869 944.24 176.067 940.236 178.252 936.86 L247.679 829.586 C247.819 829.371 252.045 822.352 252.216 822.16 C254.784 819.28 258.216 819.28 260.784 822.16 C260.95 822.346 265.191 829.373 265.327 829.583 L335.099 937.002 C336.958 939.864 331 944.264 329 941.5 L329 941.5 Z M58 151 L58 151 L58 151 L58 151 Z M54 182.917 L54 49 C54 46.7921 55.7921 45 58 45 C60.142 45 62.4506 46.8026 62.9701 48.8806 L66 61 C70 77 103 68 148 37 C165 25 183 15 201 8 C202 7 212 2 213 3 C238 -6 264 -11 290 -11 C396 -11 466 61 466 170 C466 252 409 334 297 386 C166 447 98 526 98 596 C98 708 160 772 260 754 C318 742 373 691 399 624 L405.893 605.618 C406.982 602.714 410.899 600 414 600 C417.312 600 420 602.688 420 606 L420 704 C420 706.208 418.208 708 416 708 C414.025 708 411.094 706.189 410.211 704.422 L408 700 C405 694 378 705 340 726 C315 741 283 753 252 757 C145 771 77 700 77 586 C77 508 146 424 281 361 C390 310 446 235 446 162 C446 59 383 -10 288 -10 C263 -10 238 -5 214 4 C157 25 101 88 75 161 L67.9897 181.252 C67.0251 184.039 62.9089 187.515 60 188 C56.7332 188.544 54 186.229 54 182.917 L54 182.917 Z " />
<glyph glyph-name="scaron" unicode="&#x161;" horiz-adv-x="382" d="M284 691.5 L257.277 654.57 C233.482 621.686 190.301 621.528 166.266 654.236 L139.25 691 C136.869 694.24 131.067 690.236 133.252 686.86 L202.679 579.586 C202.819 579.371 207.045 572.352 207.216 572.16 C209.784 569.28 213.216 569.28 215.784 572.16 C215.95 572.346 220.191 579.373 220.327 579.583 L290.099 687.002 C291.958 689.864 286 694.264 284 691.5 L284 691.5 Z M206 502.5 C249 490.5 281 451 292 405 L295.176 393.885 C295.613 392.354 297.408 391 299 391 C300.656 391 302 392.344 302 394 L302 461.176 C302 463.246 300.28 464.656 298.25 464.25 C297.462 464.092 295.354 464.962 295.279 465.762 C294.614 472.823 268.607 483.866 226.636 496.88 C226.408 496.951 219.022 499.898 218.804 499.997 C204.043 506.673 188.522 510.087 173 511 C108 514 65 466 65 396 C65 335 113 276 207 242 C278 216 315 165 315 108 C315 38 273 -9 211 -9 C208 -9 181 -7 182 -5 C128 8 83 56 69 114 L65.8242 125.115 C65.3868 126.646 63.5922 128 62 128 C60.3441 128 59 126.656 59 125 L59 47 C59 45.3441 60.3441 44 62 44 L62.0845 44 C63.4644 44 65.79 45.3167 66.5 46.5 L68 49 C66 45 98 27 149 4 C160 -1 170 -5.5 181 -8.5 C268 -27.5 330 30 330 112 C330 173 291 228 215 256 C125 289 78 344 78 401 C78 480 133.5 527 205.5 502 L206 502.5 Z " />
<glyph glyph-name="Tcaron" unicode="&#x164;" horiz-adv-x="740" d="M437 941.5 L410.277 904.57 C386.482 871.686 343.301 871.528 319.266 904.236 L292.25 941 C289.869 944.24 284.067 940.236 286.252 936.86 L355.679 829.586 C355.819 829.371 360.045 822.352 360.216 822.16 C362.784 819.28 366.216 819.28 368.784 822.16 C368.95 822.346 373.191 829.373 373.327 829.583 L443.099 937.002 C444.958 939.864 439 944.264 437 941.5 L437 941.5 Z M320.031 0 L419.5 0 C421.432 0 423 1.5681 423 3.5 C423 5.41248 421.428 7.22451 419.535 7.49497 L416 8 C395 10 381 37 381 76 L381 687.68 C381 718.767 406.233 744 437.32 744 L545 744 C606 744 666 716 697 675 L703.439 665.7 C704.601 664.021 708.458 662 710.5 662 C712.758 662 714.152 663.927 713.263 666.003 C703.424 688.997 693.626 717.003 684.587 739.997 C684.338 740.63 682.898 747.069 682.875 747.75 C682.808 749.768 681.049 751.829 679.066 752.213 L678.875 752.25 C678.266 752.368 672.106 752.529 671.491 752.444 C647.955 749.195 599.6 751 535 751 L202 751 C136.45 751 88.95 749.195 65.5016 752.444 C65.3008 752.472 58.7028 753 58.5 753 L57.6101 753 C56.2302 753 54.6465 751.822 54.25 750.5 L54.221 750.403 C54.1858 750.286 52.7891 746.222 52.7435 746.108 C43.3351 722.577 31.0604 691.709 20.668 666.958 C19.784 664.852 21.2166 663 23.5 663 C25.5422 663 29.399 665.021 30.5614 666.7 L37 676 C67 717 127 745 187 745 L302.68 745 C333.767 745 359 719.767 359 688.68 L359 77 C359 38 345 11 324 9 L320.5 8.5 C318.636 8.23374 316.795 6.35997 316.561 4.49177 L316.5 4 C316.226 1.80917 317.823 0 320.031 0 L320.031 0 Z " />
<glyph glyph-name="tcaron" unicode="&#x165;" horiz-adv-x="285" d="M242.5 500 L166.853 500 C136.025 500 110.791 525.024 110.535 555.851 L110.5 560 C110.34 579.217 86.6119 586.588 75.5911 570.844 L28.8673 504.096 C27.9597 502.8 26 496.583 26 495 C26 492.24 28.2402 490 31 490 L58.5 490 C76.439 490 91 475.439 91 457.5 L91 103 C91 22 128 -10 183 -10 C203.4 -10 232.47 6.25625 259.77 31.3992 C259.815 31.4405 259.677 31.7606 259.63 31.721 C236.087 11.5916 208.8 -1 189 -1 C142 -1 110 27 110 98 L110.856 432.824 C110.936 463.831 136.169 489 167.176 489 L242.5 489 C245.536 489 248 491.464 248 494.5 C248 497.536 245.536 500 242.5 500 L242.5 500 Z M326 759 C321 759 313 698 308 654 L301.923 597.536 C301.62 594.72 306.437 593.974 307 596.75 L318 651 C328 704 335 746 335 756 C335 758 331 759 326 759 L326 759 Z " />
<glyph glyph-name="Utilde" unicode="&#x168;" horiz-adv-x="515" d="M144.058 891.88 L148.027 891.378 C148.027 891.378 146.427 891.127 146.427 891.127 C150.845 921.942 165.2 941 185 941 C231 941 293 876 339 876 C362.8 876 379.736 897.675 384.282 931.813 C384.282 931.813 386.089 932.229 386.089 932.229 L382.138 932.851 C382.138 932.851 383.946 933.267 383.946 933.267 C379.145 907.335 363.625 891 343 891 C297 891 236 956 190 956 C166.2 956 149.986 931.435 145.658 892.131 C145.658 892.131 144.058 891.88 144.058 891.88 L148.027 891.378 C148.027 891.378 146.427 891.127 146.427 891.127 L144.058 891.88 Z M482.535 20.505 L479 20 C458 17 444 40 444 79 L444 717 C444 735.215 429.215 750 411 750 L381.5 750 C379.568 750 378 748.432 378 746.5 C378 744.588 379.572 742.775 381.465 742.505 L385 742 C406 740 420 713 420 674 L420 169.637 C420 165.837 414.994 146.914 413.173 143.579 C367.585 60.0525 278 5 183 5 C139 5 109 88 109 213 L109 717.5 C109 735.439 94.439 750 76.5 750 L47.5 750 C45.5681 750 44 748.432 44 746.5 C44 744.588 45.5716 742.775 47.4648 742.505 L51 742 C72 740 86 713 86 674 L86 213 C86 79 121 -10 173 -10 C258.8 -10 341.197 32.8794 392.115 100.67 C399.002 109.838 420 106.573 420 95.1059 L420 6 C420 2.68818 422.688 0 426 0 C426.803 0 437.042 1.2604 437.821 1.45521 L444 3 C456.526 6.57895 470.654 10.1579 482.085 13.0206 C483.902 13.4756 486 15.6268 486 17.5 C486 19.4125 484.428 20.7755 482.535 20.505 L482.535 20.505 Z " />
<glyph glyph-name="utilde" unicode="&#x169;" horiz-adv-x="356" d="M61.0564 641.879 L65.025 641.379 C65.025 641.379 63.4271 641.127 63.4271 641.127 C67.845 671.943 82.2 691 102 691 C148 691 210 626 256 626 C279.8 626 296.014 647.675 300.342 681.813 C300.342 681.813 302.124 682.027 302.124 682.027 L298.17 682.63 C298.17 682.63 299.952 682.845 299.952 682.845 C295.303 657.158 280.513 641 260 641 C214 641 152 706 106 706 C83.05 706 66.9638 681.435 62.6542 642.131 C62.6542 642.131 61.0564 641.879 61.0564 641.879 L65.025 641.379 C65.025 641.379 63.4271 641.127 63.4271 641.127 L61.0564 641.879 Z M342 18 L337 18 C321 16 310 40 310 79 L310 479 C310 490.591 300.591 500 289 500 L271.5 500 C269.568 500 268 498.432 268 496.5 C268 494.842 270.09 492.536 271.668 492.028 C283.388 488.256 290 479 290 459 L290 137.463 C290 134.551 286.441 117.88 285.21 115.24 C254.007 48.32 206.65 5 162 5 C109 5 73 65 73 156 L73 480 C73 491.591 63.5914 501 52 501 L34.5 501 C32.5681 501 31 499.432 31 497.5 C31 495.842 33.0899 493.536 34.6679 493.028 C46.3884 489.256 53 480 53 460 L53 156 C53 57 93 -9 153 -9 C194.25 -9 237.542 27.0731 270.522 85.1815 C275.028 93.1198 290 90.2046 290 81.0768 L290 5 C290 2.24015 292.24 0 295 0 C295.746 0 303.483 1.05167 304.198 1.26199 C314.907 4.41114 327.093 7.49468 337.802 10.0206 C339.623 10.4501 342 12.629 342 14.5 L342 18 L342 18 Z " />
<glyph glyph-name="Umacron" unicode="&#x16a;" horiz-adv-x="515" d="M147.5 907 L382.5 907 C386.088 907 389 909.912 389 913.5 C389 917.088 386.088 920 382.5 920 L147.5 920 C143.912 920 141 917.088 141 913.5 C141 909.912 143.912 907 147.5 907 L147.5 907 Z M482.535 20.505 L479 20 C458 17 444 40 444 79 L444 717 C444 735.215 429.215 750 411 750 L381.5 750 C379.568 750 378 748.432 378 746.5 C378 744.588 379.572 742.775 381.465 742.505 L385 742 C406 740 420 713 420 674 L420 169.637 C420 165.837 414.994 146.914 413.173 143.579 C367.585 60.0525 278 5 183 5 C139 5 109 88 109 213 L109 717.5 C109 735.439 94.439 750 76.5 750 L47.5 750 C45.5681 750 44 748.432 44 746.5 C44 744.588 45.5716 742.775 47.4648 742.505 L51 742 C72 740 86 713 86 674 L86 213 C86 79 121 -10 173 -10 C258.8 -10 341.197 32.8794 392.115 100.67 C399.002 109.838 420 106.573 420 95.1059 L420 6 C420 2.68818 422.688 0 426 0 C426.803 0 437.042 1.2604 437.821 1.45521 L444 3 C456.526 6.57895 470.654 10.1579 482.085 13.0206 C483.902 13.4756 486 15.6268 486 17.5 C486 19.4125 484.428 20.7755 482.535 20.505 L482.535 20.505 Z " />
<glyph glyph-name="umacron" unicode="&#x16b;" horiz-adv-x="356" d="M63.5 657 L299.5 657 C303.088 657 306 659.912 306 663.5 C306 667.088 303.088 670 299.5 670 L63.5 670 C59.9122 670 57 667.088 57 663.5 C57 659.912 59.9122 657 63.5 657 L63.5 657 Z M342 18 L337 18 C321 16 310 40 310 79 L310 479 C310 490.591 300.591 500 289 500 L271.5 500 C269.568 500 268 498.432 268 496.5 C268 494.842 270.09 492.536 271.668 492.028 C283.388 488.256 290 479 290 459 L290 137.463 C290 134.551 286.441 117.88 285.21 115.24 C254.007 48.32 206.65 5 162 5 C109 5 73 65 73 156 L73 480 C73 491.591 63.5914 501 52 501 L34.5 501 C32.5681 501 31 499.432 31 497.5 C31 495.842 33.0899 493.536 34.6679 493.028 C46.3884 489.256 53 480 53 460 L53 156 C53 57 93 -9 153 -9 C194.25 -9 237.542 27.0731 270.522 85.1815 C275.028 93.1198 290 90.2046 290 81.0768 L290 5 C290 2.24015 292.24 0 295 0 C295.746 0 303.483 1.05167 304.198 1.26199 C314.907 4.41114 327.093 7.49468 337.802 10.0206 C339.623 10.4501 342 12.629 342 14.5 L342 18 L342 18 Z " />
<glyph glyph-name="Ubreve" unicode="&#x16c;" horiz-adv-x="515" d="M170.947 971.59 C181.105 930.01 216.55 904 265 904 C313.45 904 347.45 930.371 357.174 971.445 C357.183 971.485 356.115 971.974 356.102 971.936 C344.86 939.078 310.375 919 265 919 C219.625 919 185.14 939.419 173.898 972.395 C173.884 972.438 170.937 971.634 170.947 971.59 L170.947 971.59 Z M482.535 20.505 L479 20 C458 17 444 40 444 79 L444 717 C444 735.215 429.215 750 411 750 L381.5 750 C379.568 750 378 748.432 378 746.5 C378 744.588 379.572 742.775 381.465 742.505 L385 742 C406 740 420 713 420 674 L420 169.637 C420 165.837 414.994 146.914 413.173 143.579 C367.585 60.0525 278 5 183 5 C139 5 109 88 109 213 L109 717.5 C109 735.439 94.439 750 76.5 750 L47.5 750 C45.5681 750 44 748.432 44 746.5 C44 744.588 45.5716 742.775 47.4648 742.505 L51 742 C72 740 86 713 86 674 L86 213 C86 79 121 -10 173 -10 C258.8 -10 341.197 32.8794 392.115 100.67 C399.002 109.838 420 106.573 420 95.1059 L420 6 C420 2.68818 422.688 0 426 0 C426.803 0 437.042 1.2604 437.821 1.45521 L444 3 C456.526 6.57895 470.654 10.1579 482.085 13.0206 C483.902 13.4756 486 15.6268 486 17.5 C486 19.4125 484.428 20.7755 482.535 20.505 L482.535 20.505 Z " />
<glyph glyph-name="ubreve" unicode="&#x16d;" horiz-adv-x="356" d="M87.9475 721.59 C98.105 680.01 133.55 654 182 654 C229.6 654 263.473 680.371 273.177 721.445 C273.187 721.485 272.12 721.974 272.107 721.936 C260.891 689.078 226.55 669 182 669 C136.625 669 102.14 689.419 90.8983 722.395 C90.8838 722.438 87.9368 721.634 87.9475 721.59 L87.9475 721.59 Z M342 18 L337 18 C321 16 310 40 310 79 L310 479 C310 490.591 300.591 500 289 500 L271.5 500 C269.568 500 268 498.432 268 496.5 C268 494.842 270.09 492.536 271.668 492.028 C283.388 488.256 290 479 290 459 L290 137.463 C290 134.551 286.441 117.88 285.21 115.24 C254.007 48.32 206.65 5 162 5 C109 5 73 65 73 156 L73 480 C73 491.591 63.5914 501 52 501 L34.5 501 C32.5681 501 31 499.432 31 497.5 C31 495.842 33.0899 493.536 34.6679 493.028 C46.3884 489.256 53 480 53 460 L53 156 C53 57 93 -9 153 -9 C194.25 -9 237.542 27.0731 270.522 85.1815 C275.028 93.1198 290 90.2046 290 81.0768 L290 5 C290 2.24015 292.24 0 295 0 C295.746 0 303.483 1.05167 304.198 1.26199 C314.907 4.41114 327.093 7.49468 337.802 10.0206 C339.623 10.4501 342 12.629 342 14.5 L342 18 L342 18 Z " />
<glyph glyph-name="Uring" unicode="&#x16e;" horiz-adv-x="515" d="M176 905 C176 959 212 995 265 995 C318 995 354 959 354 905 C354 856 313 815 265 815 C217 815 176 856 176 905 L176 905 Z M170 905 C170 854 214 810 265 810 C316 810 360 854 360 905 C360 962 322 1000 265 1000 C208 1000 170 962 170 905 L170 905 Z M482.535 20.505 L479 20 C458 17 444 40 444 79 L444 717 C444 735.215 429.215 750 411 750 L381.5 750 C379.568 750 378 748.432 378 746.5 C378 744.588 379.572 742.775 381.465 742.505 L385 742 C406 740 420 713 420 674 L420 169.637 C420 165.837 414.994 146.914 413.173 143.579 C367.585 60.0525 278 5 183 5 C139 5 109 88 109 213 L109 717.5 C109 735.439 94.439 750 76.5 750 L47.5 750 C45.5681 750 44 748.432 44 746.5 C44 744.588 45.5716 742.775 47.4648 742.505 L51 742 C72 740 86 713 86 674 L86 213 C86 79 121 -10 173 -10 C258.8 -10 341.197 32.8794 392.115 100.67 C399.002 109.838 420 106.573 420 95.1059 L420 6 C420 2.68818 422.688 0 426 0 C426.803 0 437.042 1.2604 437.821 1.45521 L444 3 C456.526 6.57895 470.654 10.1579 482.085 13.0206 C483.902 13.4756 486 15.6268 486 17.5 C486 19.4125 484.428 20.7755 482.535 20.505 L482.535 20.505 Z " />
<glyph glyph-name="uring" unicode="&#x16f;" horiz-adv-x="356" d="M92 655 C92 709 128 745 182 745 C235 745 271 709 271 655 C271 606 230 565 182 565 C133 565 92 606 92 655 L92 655 Z M86 655 C86 604 130 560 182 560 C233 560 277 604 277 655 C277 712 239 750 182 750 C124 750 86 712 86 655 L86 655 Z M342 18 L337 18 C321 16 310 40 310 79 L310 479 C310 490.591 300.591 500 289 500 L271.5 500 C269.568 500 268 498.432 268 496.5 C268 494.842 270.09 492.536 271.668 492.028 C283.388 488.256 290 479 290 459 L290 137.463 C290 134.551 286.441 117.88 285.21 115.24 C254.007 48.32 206.65 5 162 5 C109 5 73 65 73 156 L73 480 C73 491.591 63.5914 501 52 501 L34.5 501 C32.5681 501 31 499.432 31 497.5 C31 495.842 33.0899 493.536 34.6679 493.028 C46.3884 489.256 53 480 53 460 L53 156 C53 57 93 -9 153 -9 C194.25 -9 237.542 27.0731 270.522 85.1815 C275.028 93.1198 290 90.2046 290 81.0768 L290 5 C290 2.24015 292.24 0 295 0 C295.746 0 303.483 1.05167 304.198 1.26199 C314.907 4.41114 327.093 7.49468 337.802 10.0206 C339.623 10.4501 342 12.629 342 14.5 L342 18 L342 18 Z " />
<glyph glyph-name="Wcircumflex" unicode="&#x174;" horiz-adv-x="868" d="M434.056 1027.68 C430.944 1031.51 426.056 1031.13 422.944 1027.4 C422.834 1027.27 418.784 1020.55 418.691 1020.41 L349.693 913.021 C347.318 909.324 353.64 904.966 356.25 908.5 L383.54 945.45 C407.499 977.888 450.405 977.818 474.257 945.301 L501.25 908.5 C503.711 905.144 509.717 909.27 507.467 912.771 L438.564 1020.01 C438.495 1020.12 434.136 1027.58 434.056 1027.68 L434.056 1027.68 Z M137.41 750 L25.5 750 C23.0161 750 21 747.984 21 745.5 L21 743.55 C21 742.17 22.1469 740.771 23.5 740.5 L26 740 C42 737 61 700 76 646 C132 427 187 207 244 -11 C244.405 -12.5499 245.398 -11 247 -11 C248.518 -11 250.592 -9.64143 251.198 -8.24976 L399.302 331.637 C421.668 382.966 492.955 376.527 505.76 322.02 L583.314 -8.07952 C583.683 -9.64881 585.388 -11 587 -11 C588.593 -11 590.384 -9.64645 590.82 -8.1141 L776 644 C792 699 820 736 846 739 L850 739.5 C852.191 739.774 854 741.823 854 744.031 L854 744.5 C854 746.984 851.984 749 849.5 749 L697.5 749 C695.016 749 693 746.984 693 744.5 C693 742.022 695.017 739.866 697.49 739.701 L708 739 C755 736 778 702 768 651 L654.497 244.884 C638.782 188.655 558.482 190.506 545.374 247.399 L454 644 C443 699 463 736 504 739 L512.513 739.655 C514.983 739.845 517 742.023 517 744.5 C517 746.984 514.984 749 512.5 749 L374.5 749 C372.016 749 370 746.984 370 744.5 L370 742.55 C370 741.17 371.147 739.771 372.5 739.5 L375 739 C393 736 412 705 425 658 L458.679 516.193 C460.106 510.187 458.031 486.502 455.581 480.835 L324.374 177.257 C302.287 126.155 231.929 131.698 218.117 185.627 L102 639 C87 696 99 735 131 738 L136 738.5 C138.653 738.765 141.422 741.321 141.899 743.944 L142 744.5 C142.543 747.487 140.446 750 137.41 750 L137.41 750 Z " />
<glyph glyph-name="Ycircumflex" unicode="&#x176;" horiz-adv-x="530" d="M130.838 750 L25.5 750 C23.5681 750 22 748.432 22 746.5 C22 744.772 23.2367 742.742 24.8939 742.254 C41.6362 737.32 56.0811 722.108 75 689 L249.796 348.1 C251.358 345.052 256 325.827 256 322.403 L256 96 C256 45 235 10 204 8 L197.483 7.34826 C195.57 7.15699 194 5.42231 194 3.5 C194 1.5681 195.568 0 197.5 0 L338.5 0 C340.432 0 342 1.5681 342 3.5 C342 5.42231 340.43 7.15699 338.517 7.34826 L332 8 C301 10 280 45 280 96 L280 325.849 C280 329.064 284.4 347.909 285.824 350.791 L443 669 C464 711 496 740 523 742 L527.527 742.566 C529.429 742.804 531 744.583 531 746.5 C531 748.432 529.432 750 527.5 750 L400.5 750 C398.568 750 397 748.432 397 746.5 C397 744.575 398.569 742.869 400.488 742.709 L409 742 C448 740 458 710 439 669 L328.55 442.578 C306.714 397.814 250.328 397.337 227.738 441.725 L108 677 C91 715 97 741 123 743 L128.857 743.651 C130.432 743.826 132.499 745.497 133 747 C133.524 748.571 132.494 750 130.838 750 L130.838 750 Z M271.784 1028.84 C269.216 1031.72 265.784 1031.72 263.216 1028.84 C263.045 1028.65 258.819 1021.63 258.679 1021.41 L189.252 914.14 C187.067 910.764 192.869 906.76 195.25 910 L222.616 947.24 C246.523 979.774 289.477 979.774 313.384 947.24 L340.75 910 C342.999 906.939 348.484 910.738 346.41 913.92 L276.333 1021.42 C276.2 1021.62 271.945 1028.66 271.784 1028.84 L271.784 1028.84 Z " />
<glyph glyph-name="Ydieresis" unicode="&#x178;" horiz-adv-x="530" d="M352 885 C352 911 312 911 312 885 C312 859 352 859 352 885 L352 885 Z M226 885 C226 911 186 911 186 885 C186 859 226 859 226 885 L226 885 Z M130.838 750 L25.5 750 C23.5681 750 22 748.432 22 746.5 C22 744.772 23.2367 742.742 24.8939 742.254 C41.6362 737.32 56.0811 722.108 75 689 L249.796 348.1 C251.358 345.052 256 325.827 256 322.403 L256 96 C256 45 235 10 204 8 L197.483 7.34826 C195.57 7.15699 194 5.42231 194 3.5 C194 1.5681 195.568 0 197.5 0 L338.5 0 C340.432 0 342 1.5681 342 3.5 C342 5.42231 340.43 7.15699 338.517 7.34826 L332 8 C301 10 280 45 280 96 L280 325.849 C280 329.064 284.4 347.909 285.824 350.791 L443 669 C464 711 496 740 523 742 L527.527 742.566 C529.429 742.804 531 744.583 531 746.5 C531 748.432 529.432 750 527.5 750 L400.5 750 C398.568 750 397 748.432 397 746.5 C397 744.575 398.569 742.869 400.488 742.709 L409 742 C448 740 458 710 439 669 L328.55 442.578 C306.714 397.814 250.328 397.337 227.738 441.725 L108 677 C91 715 97 741 123 743 L128.857 743.651 C130.432 743.826 132.499 745.497 133 747 C133.524 748.571 132.494 750 130.838 750 L130.838 750 Z " />
<glyph glyph-name="Zacute" unicode="&#x179;" horiz-adv-x="596" d="M395.963 876.966 L464 940 C509 983 539 1011 539 1012 C539 1017 534 1022 529 1022 C529 1022 499 993 455 949 L390.75 882.25 C388.721 880.143 393.817 874.978 395.963 876.966 L395.963 876.966 Z M72.4359 664.733 L76 674 C93 713 145 740 210 744 L441.596 744.679 C490.745 744.823 516.135 695.857 487.696 655.771 L26 5 L26 0 L569.464 0 C571.396 0 573.227 1.58752 573.5 3.5 L574 7 C575.95 16.75 581.702 45.5125 591.258 85.8726 C591.814 88.2216 589.914 89 587.5 89 C585.313 89 581.903 86.9634 580.867 85.0379 L576 76 C554 37 499 10 434 6 L163.122 5.28716 C114.026 5.15796 88.6448 54.0194 116.981 94.1126 L577 745 L577 750 L74.5089 750 C72.577 750 70.8876 748.427 70.75 746.5 L70.5 743 C69.525 733.25 67.1241 704.487 63.2972 664.127 C63.0898 661.94 64.8029 661 67 661 C69.0607 661 71.6962 662.81 72.4359 664.733 L72.4359 664.733 Z " />
<glyph glyph-name="Zdot" unicode="&#x17b;" horiz-adv-x="596" d="M342 885 C342 911 302 911 302 885 C302 859 342 859 342 885 L342 885 Z M72.4359 664.733 L76 674 C93 713 145 740 210 744 L441.596 744.679 C490.745 744.823 516.135 695.857 487.696 655.771 L26 5 L26 0 L569.464 0 C571.396 0 573.227 1.58752 573.5 3.5 L574 7 C575.95 16.75 581.702 45.5125 591.258 85.8726 C591.814 88.2216 589.914 89 587.5 89 C585.313 89 581.903 86.9634 580.867 85.0379 L576 76 C554 37 499 10 434 6 L163.122 5.28716 C114.026 5.15796 88.6448 54.0194 116.981 94.1126 L577 745 L577 750 L74.5089 750 C72.577 750 70.8876 748.427 70.75 746.5 L70.5 743 C69.525 733.25 67.1241 704.487 63.2972 664.127 C63.0898 661.94 64.8029 661 67 661 C69.0607 661 71.6962 662.81 72.4359 664.733 L72.4359 664.733 Z " />
</font>
</svg>
