<?xml version="1.0" encoding="UTF-8"?>
<svg xmlns="http://www.w3.org/2000/svg" xmlns:xlink="http://www.w3.org/1999/xlink" version="1.2" >
<font id="Wensley Bold">
<font-face  font-family="Wensley" units-per-em="1024" ascent="936" descent="-280" font-style="normal" font-weight="700" font-stretch="normal" cap-height="929" x-height="468" underline-position="-125" underline-thickness="50" />
<missing-glyph  horiz-adv-x="100" d="" />
<glyph glyph-name="NULL" d="" />
<glyph glyph-name="CR" unicode="&#xd;" horiz-adv-x="256" d="" />
<glyph glyph-name="space" unicode="&#x20;" horiz-adv-x="256" d="" />
<glyph glyph-name="exclam" unicode="&#x21;" horiz-adv-x="265" d="M143 -5 C191 -5 223 27 223 75 C223 123 191 155 143 155 C95 155 63 123 63 75 C63 27 95 -5 143 -5 L143 -5 Z M205 583 C213 632 185 665 135 665 C83 665 55 632 65 583 C65 477 135 230 135 230 L151 230 C151 230 205 477 205 583 L205 583 Z " />
<glyph glyph-name="quotedbl" unicode="&#x22;" horiz-adv-x="403" d="M216 660 L280 400 L299 400 L363 660 L216 660 L216 660 Z M39 660 L103 400 L122 400 L186 660 L39 660 L39 660 Z " />
<glyph glyph-name="numbersign" unicode="&#x23;" horiz-adv-x="587" d="M412 656 L389 504 L244 504 L267 656 L222 656 L199 504 L71 504 L59 416 L185 416 L159 244 L28 244 L16 156 L146 156 L122 0 L167 0 L191 156 L336 156 L312 0 L357 0 L381 156 L506 156 L519 244 L394 244 L420 416 L554 416 L567 504 L434 504 L457 656 L412 656 L412 656 Z M230 416 L375 416 L349 244 L204 244 L230 416 L230 416 Z " />
<glyph glyph-name="dollar" unicode="&#x24;" horiz-adv-x="539" d="M39 204 L39 40 C76 19 139 3 206 -3 L206 -75 L244 -75 L244 -5 C258 -5 272 -5 286 -4 L286 -75 L324 -75 L324 1 C427 21 493 91 493 188 C493 269 426 343 324 376 L324 623 C361 608 394 574 410 533 C419 510 431 478 440 455 L449 455 L449 619 C415 638 369 653 323 660 L323 734 L285 734 L285 664 C271 665 257 665 243 664 L243 735 L205 735 L205 659 C102 638 37 564 37 461 C37 385 103 315 205 284 L205 33 C143 48 87 100 60 170 C56 181 50 195 46 206 L39 204 L39 204 Z M243 406 L243 635 C257 637 270 637 285 635 L285 391 C270 396 256 401 243 407 L243 406 L243 406 Z M205 425 C155 452 125 484 125 514 C125 569 156 610 205 628 L205 425 L205 425 Z M243 274 C258 269 272 263 285 257 L285 31 C272 29 258 29 244 30 L243 274 L243 274 Z M324 237 C373 208 402 173 402 139 C402 92 373 56 324 39 L324 237 L324 237 Z " />
<glyph glyph-name="ampersand" unicode="&#x26;" horiz-adv-x="743" d="M644 300 L469 300 L469 289 L480 288 C525 286 544 262 544 211 L544 181 C544 163 540 146 532 131 C474 190 377 305 325 377 C418 405 478 470 478 548 C478 618 413 665 316 665 C219 665 155 598 155 497 C155 457 176 408 212 351 C112 304 49 230 49 154 C49 59 133 -5 259 -5 C351 -5 428 13 482 45 C575 -18 652 -16 741 0 L741 19 C693 11 645 18 548 112 C560 133 566 156 566 181 L566 211 C566 262 585 286 630 288 L641 289 L644 300 L644 300 Z M240 548 C240 603 266 640 306 640 C354 640 386 601 386 542 C386 475 356 421 308 397 C265 459 240 510 240 549 L240 548 L240 548 Z M451 69 C416 55 372 47 321 47 C222 47 156 108 156 199 C156 249 182 296 225 328 C278 251 379 127 451 69 L451 69 Z " />
<glyph glyph-name="quotesingle" unicode="&#x27;" horiz-adv-x="226" d="M39 660 L103 400 L122 400 L186 660 L39 660 L39 660 Z " />
<glyph glyph-name="parenleft" unicode="&#x28;" horiz-adv-x="288" d="M266 690 C142 599 59 480 59 270 C59 60 142 -59 266 -150 L278 -135 C201 -79 149 28 149 270 C149 512 201 619 278 675 L266 690 L266 690 Z " />
<glyph glyph-name="parenright" unicode="&#x29;" horiz-adv-x="288" d="M10 -150 C134 -59 217 60 217 270 C217 480 134 599 10 690 L-2 675 C75 619 127 512 127 270 C127 28 75 -79 -2 -135 L10 -150 L10 -150 Z " />
<glyph glyph-name="asterisk" unicode="&#x2a;" horiz-adv-x="300" d="M234 450 C250 434 269 439 283 462 C297 485 292 504 271 509 C271 509 247 467 237 449 L234 450 L234 450 Z M273 569 L273 570 C293 576 297 594 285 616 C272 638 254 643 239 629 L239 630 C212 615 166 561 153 546 C156 585 185 661 185 661 C191 682 177 696 150 696 C123 696 109 682 115 661 C115 661 144 586 147 547 C114 569 64 632 63 631 C47 647 28 642 15 619 C1 595 6 576 27 571 L28 571 C31 577 36 586 41 595 L28 572 L29 572 C29 572 112 559 146 542 C111 525 29 512 29 512 L64 451 L65 451 C65 451 112 508 144 532 C136 509 116 450 116 421 C110 400 124 386 151 386 C178 386 192 400 186 421 C186 449 167 505 158 530 C175 510 214 466 238 452 L273 513 C251 526 199 537 171 542 C198 547 250 558 273 571 L271 572 C273 572 273 571 275 572 L273 569 L273 569 Z M274 571 L274 571 L274 571 L274 571 Z M66 452 C55 470 31 512 31 512 C9 507 4 488 18 465 C31 441 50 436 65 452 L66 452 L66 452 Z " />
<glyph glyph-name="plus" unicode="&#x2b;" horiz-adv-x="555" d="M247 450 L247 276 L75 276 L75 224 L247 224 L247 50 L303 50 L303 224 L475 224 L475 276 L303 276 L303 450 L247 450 L247 450 Z " />
<glyph glyph-name="comma" unicode="&#x2c;" horiz-adv-x="283" d="M139 154 C92 154 60 122 60 74 C60 27 92 -5 139 -5 C147 -5 156 3 165 14 C167 5 168 -4 168 -13 C168 -81 136 -138 89 -156 L89 -174 C176 -141 234 -55 234 42 C234 97 200 154 140 154 L139 154 L139 154 Z " />
<glyph glyph-name="hyphen" unicode="&#x2d;" horiz-adv-x="313" d="M20 190 L293 190 L293 280 L20 280 L20 190 L20 190 Z " />
<glyph glyph-name="period" unicode="&#x2e;" horiz-adv-x="265" d="M125 -5 C173 -5 205 27 205 75 C205 123 173 155 125 155 C77 155 45 123 45 75 C45 27 77 -5 125 -5 L125 -5 Z " />
<glyph glyph-name="slash" unicode="&#x2f;" horiz-adv-x="361" d="M0 -145 L51 -145 L361 710 L310 710 L0 -145 L0 -145 Z " />
<glyph glyph-name="zero" unicode="0" horiz-adv-x="642" d="M178 250 C178 387 236 479 322 479 C408 479 465 387 465 250 C465 113 408 21 322 21 C236 21 178 113 178 250 L178 250 Z M50 250 C50 97 159 -5 322 -5 C484 -5 592 97 592 250 C592 403 484 505 322 505 C159 505 50 403 50 250 L50 250 Z " />
<glyph glyph-name="one" unicode="1" horiz-adv-x="375" d="M320 11 L309 12 C264 14 245 38 245 89 L245 411 C245 462 264 486 309 488 L320 489 L320 500 L55 500 L55 489 L66 488 C111 486 130 462 130 411 L130 89 C130 38 111 14 66 12 L55 11 L55 0 L320 0 L320 11 L320 11 Z " />
<glyph glyph-name="two" unicode="2" horiz-adv-x="512" d="M475 190 L473 179 C467 134 441 115 390 115 L215 115 C371 210 467 276 467 355 C467 445 395 505 288 505 C192 505 104 447 69 359 L84 350 C101 392 160 420 231 420 C296 420 339 378 339 316 C339 189 213 142 25 26 L25 0 L470 0 L475 57 C475 58 475 59 475 60 L480 114 C480 114 486 186 486 189 L475 190 L475 190 Z " />
<glyph glyph-name="three" unicode="3" horiz-adv-x="497" d="M175 164 C265 164 325 112 325 35 C325 -95 204 -187 23 -195 L24 -215 C278 -203 447 -101 447 41 C447 130 376 193 266 207 C361 257 419 318 419 374 C419 453 353 506 254 506 C169 506 72 452 10 370 L23 360 C52 398 121 423 196 423 C260 423 303 389 303 337 C303 280 252 224 173 189 C161 184 146 179 130 173 L130 154 C142 158 165 166 177 166 L175 164 L175 164 Z " />
<glyph glyph-name="four" unicode="4" horiz-adv-x="528" d="M2 21 L2 0 L279 0 L279 -150 L394 -150 L394 0 L518 0 L518 51 L394 51 L394 505 L375 505 C342 486 2 21 2 21 L2 21 Z M69 51 C118 118 207 238 280 333 C279 329 279 325 279 321 L279 51 L69 51 L69 51 Z " />
<glyph glyph-name="five" unicode="5" horiz-adv-x="482" d="M64 173 L93 173 C93 173 94 182 96 198 C95 183 94 173 93 173 L118 173 C237 173 317 123 317 47 C317 -72 202 -154 30 -159 L31 -182 C272 -175 432 -68 432 85 C432 206 330 286 176 286 L106 286 C109 315 112 347 115 378 L381 378 L407 457 C420 495 435 539 446 574 L435 574 L430 563 C413 518 383 499 332 499 L89 499 C89 401 66 172 66 172 L64 173 L64 173 Z " />
<glyph glyph-name="six" unicode="6" horiz-adv-x="595" d="M514 715 C237 705 53 537 53 293 C53 114 147 -5 288 -5 C449 -5 552 84 545 217 C545 346 459 432 331 432 C256 432 211 400 186 345 C191 550 322 690 515 697 L514 715 L514 715 Z M312 401 C379 401 423 325 423 211 C429 101 380 28 301 28 C231 28 185 90 185 184 C186 314 216 401 312 401 L312 401 Z " />
<glyph glyph-name="seven" unicode="7" horiz-adv-x="469" d="M25 307 L27 318 C33 363 59 382 110 382 L405 382 L124 -140 L252 -140 C321 70 390 279 459 489 L450 500 L30 500 L20 382 C20 382 14 310 14 307 L25 307 L25 307 Z " />
<glyph glyph-name="eight" unicode="8" horiz-adv-x="565" d="M366 358 C438 391 482 450 482 520 C482 607 401 665 280 665 C158 665 77 595 77 489 C77 425 116 363 179 319 C99 295 50 237 50 160 C50 61 143 -5 283 -5 C423 -5 516 69 516 180 C516 243 459 310 367 359 L366 358 L366 358 Z M345 370 C329 377 312 384 295 390 C222 416 174 474 174 534 C174 598 214 640 275 640 C343 640 388 584 388 501 C388 444 372 397 345 369 L345 370 L345 370 Z M158 179 C158 234 175 277 204 302 C220 293 237 285 255 278 C347 245 408 189 408 140 C408 67 360 19 289 19 C210 19 158 83 158 178 L158 179 L158 179 Z " />
<glyph glyph-name="nine" unicode="9" horiz-adv-x="595" d="M81 -215 C358 -205 542 -37 542 207 C542 386 448 505 307 505 C146 505 43 416 50 283 C50 154 136 68 264 68 C339 68 384 100 409 155 C404 -50 273 -190 80 -197 L81 -215 L81 -215 Z M283 99 C216 99 172 175 172 289 C166 399 215 472 294 472 C364 472 410 410 410 316 C409 186 379 99 283 99 L283 99 Z " />
<glyph glyph-name="colon" unicode="&#x3a;" horiz-adv-x="265" d="M125 408 C173 408 205 440 205 488 C205 536 173 568 125 568 C77 568 45 536 45 488 C45 440 77 408 125 408 L125 408 Z M125 -5 C173 -5 205 27 205 75 C205 123 173 155 125 155 C77 155 45 123 45 75 C45 27 77 -5 125 -5 L125 -5 Z " />
<glyph glyph-name="semicolon" unicode="&#x3b;" horiz-adv-x="283" d="M139 411 C186 411 218 443 218 490 C218 538 186 570 139 570 C92 570 60 538 60 490 C60 443 92 411 139 411 L139 411 Z M139 154 C92 154 60 122 60 74 C60 27 92 -5 139 -5 C147 -5 156 3 165 14 C167 5 168 -4 168 -13 C168 -81 136 -138 89 -156 L89 -174 C176 -141 234 -55 234 42 C234 97 200 154 140 154 L139 154 L139 154 Z " />
<glyph glyph-name="less" unicode="&#x3c;" horiz-adv-x="565" d="M490 500 L50 309 C47 309 43 305 40 305 L40 246 L50 242 L490 50 L490 108 L92 276 L490 444 L490 500 L490 500 Z " />
<glyph glyph-name="equal" unicode="&#x3d;" horiz-adv-x="563" d="M88 226 L88 174 L493 174 L493 226 L88 226 L88 226 Z M88 326 L88 274 L493 274 L493 326 L88 326 L88 326 Z " />
<glyph glyph-name="greater" unicode="&#x3e;" horiz-adv-x="555" d="M75 50 C222 116 370 181 516 248 L516 303 C512 303 508 309 504 309 L76 500 L76 443 L464 276 L76 109 L75 50 L75 50 Z " />
<glyph glyph-name="question" unicode="&#x3f;" horiz-adv-x="398" d="M147 -5 C195 -5 227 27 227 75 C227 123 195 155 147 155 C99 155 67 123 67 75 C67 27 99 -5 147 -5 L147 -5 Z M166 290 L201 290 C337 290 363 371 363 416 C363 565 268 665 126 665 C72 665 36 636 36 592 C36 562 56 542 85 542 C108 542 140 575 163 575 C267 575 337 517 337 429 C337 410 309 377 162 377 L127 377 C117 377 112 370 114 360 L139 235 L155 235 L166 290 L166 290 Z " />
<glyph glyph-name="at" unicode="&#x40;" horiz-adv-x="1216" d="M1077 0 C1012 -140 833 -234 631 -234 C339 -234 145 -37 145 259 C145 555 330 752 608 752 C886 752 1072 588 1072 343 C1072 143 1000 10 893 10 C816 10 784 86 812 200 L882 480 L774 480 L757 412 C736 460 684 490 614 490 C420 490 291 369 291 188 C291 78 368 4 483 4 C575 4 653 42 697 103 C709 21 772 -29 872 -29 C1045 -29 1161 120 1161 344 C1161 609 940 785 608 785 C277 785 56 575 56 260 C56 -55 286 -265 631 -265 C848 -265 1042 -159 1116 1 L1077 0 L1077 0 Z M743 357 L704 201 C684 122 619 69 542 69 C467 69 417 126 417 211 C417 360 495 459 611 459 C690 459 743 418 744 357 L743 357 L743 357 Z " />
<glyph glyph-name="A" unicode="A" horiz-adv-x="734" d="M425 0 L729 0 L729 11 C685 11 661 24 635 75 L360 675 L328 675 L96 77 C76 34 49 14 7 12 L-5 11 L-5 0 L219 0 L219 11 L203 12 C142 14 126 43 148 104 L196 232 L427 232 L491 89 C514 37 503 14 451 12 L427 11 L425 0 L425 0 Z M414 264 L209 264 L302 514 L414 264 L414 264 Z " />
<glyph glyph-name="B" unicode="B" horiz-adv-x="698" d="M33 649 L44 648 C89 646 108 622 108 571 L108 89 C108 38 89 14 44 12 L33 11 L33 0 L399 0 C566 0 678 74 678 184 C678 273 592 337 456 355 C559 377 622 430 622 501 C622 596 522 659 373 659 L33 659 L33 649 L33 649 Z M236 363 L236 627 L373 627 C446 627 494 577 494 501 C494 418 435 363 346 363 L236 363 L236 363 Z M236 335 L334 335 C460 335 544 274 544 183 C544 92 481 31 387 31 L236 31 L236 335 L236 335 Z " />
<glyph glyph-name="C" unicode="C" horiz-adv-x="757" d="M697 53 L688 68 L688 68 L697 53 L697 53 Z M687 207 C683 196 677 181 673 170 C644 93 567 38 477 29 C461 28 445 27 430 27 C281 27 181 148 181 330 C181 512 281 633 430 633 C456 633 482 631 508 628 C579 619 645 564 673 490 C677 479 683 464 687 453 L696 453 L696 607 L688 593 L688 593 L696 607 C636 642 529 665 430 665 C197 665 41 531 41 330 C41 129 197 -5 430 -5 C529 -5 636 18 696 53 L696 207 L687 207 L687 207 Z " />
<glyph glyph-name="D" unicode="D" horiz-adv-x="792" d="M33 649 L44 648 C89 646 108 622 108 571 L108 89 C108 38 89 14 44 12 L33 11 L33 0 L397 0 C604 0 742 132 742 330 C742 528 588 660 356 660 L33 660 L33 649 L33 649 Z M236 32 L236 628 L356 628 C511 628 614 509 614 330 C614 151 527 32 397 32 L236 32 L236 32 Z " />
<glyph glyph-name="E" unicode="E" horiz-adv-x="672" d="M492 251 L492 443 L483 443 L479 432 C463 387 428 368 360 368 L243 368 L243 628 L398 628 C474 628 519 595 545 519 L554 493 L562 493 L562 660 L40 660 L40 649 L51 648 C96 646 115 622 115 571 L115 89 C115 38 96 14 51 12 L40 11 L40 0 L561 0 L564 16 C572 61 583 122 591 167 L583 167 L569 141 C530 65 479 32 403 32 L243 32 L243 336 L360 336 C428 336 464 314 479 264 L483 251 L492 251 L492 251 Z " />
<glyph glyph-name="F" unicode="F" horiz-adv-x="587" d="M40 649 L51 648 C96 646 115 622 115 571 L115 89 C115 38 96 14 51 12 L40 11 L40 0 L328 0 L328 11 L315 12 C265 14 243 38 243 89 L243 331 L350 331 C418 331 454 309 469 259 L473 246 L482 246 L482 438 L473 438 L469 427 C453 382 418 363 350 363 L243 363 L243 628 L428 628 C504 628 549 595 575 519 L584 493 L592 493 L592 660 L40 660 L40 649 L40 649 Z " />
<glyph glyph-name="G" unicode="G" horiz-adv-x="852" d="M677 453 L677 607 L669 593 L669 593 L677 607 C617 642 514 665 421 665 C194 665 42 531 42 330 C42 129 194 -5 421 -5 C517 -5 622 18 682 53 L682 221 C682 272 701 296 746 298 L757 299 L757 310 L492 310 L492 299 L503 298 C548 296 567 272 567 221 L567 44 C522 33 471 27 422 27 C279 27 183 148 183 330 C183 512 279 633 422 633 C446 633 471 631 495 628 C564 617 628 563 655 490 C659 479 665 464 669 453 L677 453 L677 453 Z " />
<glyph glyph-name="H" unicode="H" horiz-adv-x="812" d="M772 11 L761 12 C716 14 697 38 697 89 L697 571 C697 622 716 646 761 648 L772 649 L772 660 L495 660 L495 649 L506 648 C551 646 570 622 570 571 L570 363 L243 363 L243 571 C243 622 262 646 307 648 L318 649 L318 660 L40 660 L40 649 L51 648 C96 646 115 622 115 571 L115 89 C115 38 96 14 51 12 L40 11 L40 0 L318 0 L318 11 L307 12 C262 14 243 38 243 89 L243 331 L570 331 L570 89 C570 38 551 14 506 12 L495 11 L495 0 L772 0 L772 11 L772 11 Z " />
<glyph glyph-name="I" unicode="I" horiz-adv-x="358" d="M318 11 L307 12 C262 14 243 38 243 89 L243 571 C243 622 262 646 307 648 L318 649 L318 660 L40 660 L40 649 L51 648 C96 646 115 622 115 571 L115 89 C115 38 96 14 51 12 L40 11 L40 0 L318 0 L318 11 L318 11 Z " />
<glyph glyph-name="J" unicode="J" horiz-adv-x="457" d="M417 660 L139 660 L139 649 L150 648 C195 646 214 622 214 571 L214 200 C214 68 200 16 165 16 C138 16 115 35 108 64 C100 95 78 115 51 115 C13 115 -8 95 0 64 C11 20 64 -10 133 -10 C283 -10 342 79 342 308 L342 571 C342 622 361 646 406 648 L417 649 L417 660 L417 660 Z " />
<glyph glyph-name="K" unicode="K" horiz-adv-x="714" d="M644 660 L456 660 L456 649 L465 648 C499 646 496 625 454 580 L236 355 L236 571 C236 622 255 646 300 648 L311 649 L311 660 L33 660 L33 649 L44 648 C89 646 108 622 108 571 L108 89 C108 38 89 14 44 12 L33 11 L33 0 L311 0 L311 11 L300 12 C255 14 236 38 236 89 L236 355 C236 355 304 261 405 119 C469 30 540 -5 660 -5 L704 -5 L704 20 C647 20 594 70 494 210 C425 307 371 382 344 420 L493 572 C543 623 585 647 632 649 L644 650 L644 660 L644 660 Z " />
<glyph glyph-name="L" unicode="L" horiz-adv-x="672" d="M318 660 L40 660 L40 649 L51 648 C96 646 115 622 115 571 L115 89 C115 38 96 14 51 12 L40 11 L40 0 L559 0 L562 16 L564 16 C573 63 584 127 592 174 C592 175 591 175 590 176 C583 180 578 182 578 182 L555 131 C523 62 480 32 411 32 L243 32 L243 571 C243 622 262 646 307 648 L318 649 L318 660 L318 660 Z " />
<glyph glyph-name="M" unicode="M" horiz-adv-x="922" d="M882 660 L692 660 L416 -5 L447 -5 L695 563 L707 80 C706 36 688 15 646 13 L635 12 L635 1 L913 1 L913 12 L901 13 C857 15 836 39 834 90 L812 575 C811 624 828 647 871 649 L883 650 L882 660 L882 660 Z M58 650 L69 649 C110 647 129 627 130 584 L111 90 C108 40 89 15 45 13 L33 12 L33 1 L257 1 L257 12 L237 13 C175 15 149 43 151 105 L166 505 C250 335 333 165 417 -4 L478 143 L477 145 L232 661 L58 661 L58 650 L58 650 Z " />
<glyph glyph-name="N" unicode="N" horiz-adv-x="749" d="M37 649 L48 648 C93 646 112 622 112 571 L112 89 C112 38 93 14 48 12 L37 11 L37 0 L226 0 L226 11 L215 12 C170 14 151 38 151 89 L151 550 C298 360 445 170 592 -20 L634 -20 L634 571 C634 622 653 646 698 648 L709 649 L709 660 L521 660 L521 649 L532 648 C577 646 596 622 596 571 L596 180 L227 660 L37 660 L37 649 L37 649 Z " />
<glyph glyph-name="O" unicode="O" horiz-adv-x="785" d="M182 330 C182 494 252 633 389 633 C524 633 594 494 594 330 C594 166 524 27 389 27 C252 27 182 166 182 330 L182 330 Z M42 330 C42 149 160 -5 389 -5 C617 -5 735 149 735 330 C735 511 617 665 389 665 C160 665 42 511 42 330 L42 330 Z " />
<glyph glyph-name="P" unicode="P" horiz-adv-x="634" d="M311 11 L300 12 C255 14 236 38 236 89 L236 293 L340 293 C504 293 614 367 614 478 C614 587 515 660 366 660 L33 660 L33 649 L44 648 C89 646 108 622 108 571 L108 89 C108 38 89 14 44 12 L33 11 L33 0 L311 0 L311 11 L311 11 Z M236 325 L236 628 L366 628 C434 628 480 568 480 478 C480 386 424 325 340 325 L236 325 L236 325 Z " />
<glyph glyph-name="Q" unicode="Q" horiz-adv-x="785" d="M838 3 L825 11 C813 -8 749 -21 665 -21 C539 -21 461 -15 419 -5 C627 8 735 156 735 329 C735 510 617 664 389 664 C160 664 42 510 42 329 C42 157 149 9 356 -5 C424 -66 520 -105 652 -105 C724 -105 798 -62 838 2 L838 3 L838 3 Z M182 329 C182 493 252 632 389 632 C524 632 594 493 594 329 C594 165 524 26 389 26 C252 26 182 165 182 329 L182 329 Z " />
<glyph glyph-name="R" unicode="R" horiz-adv-x="741" d="M33 649 L44 648 C89 646 108 622 108 571 L108 89 C108 38 89 14 44 12 L33 11 L33 0 L311 0 L311 11 L300 12 C255 14 236 38 236 89 L236 312 L322 312 C351 273 405 200 474 106 C550 4 559 0 696 0 L740 0 L740 25 C691 25 690 25 649 81 C560 201 493 289 465 325 C566 351 628 411 628 490 C628 592 526 660 373 660 L33 660 L33 649 L33 649 Z M346 344 L236 344 L236 628 L373 628 C446 628 494 573 494 490 C494 402 435 344 346 344 L346 344 Z " />
<glyph glyph-name="S" unicode="S" horiz-adv-x="539" d="M450 456 L450 620 C403 647 332 665 271 665 C132 665 39 583 39 460 C39 382 109 310 215 280 C328 248 403 191 403 137 C403 71 346 27 260 27 C246 27 231 28 216 30 C151 42 91 96 63 169 C59 180 53 194 49 205 L40 205 L40 41 C87 14 175 -4 261 -4 C401 -4 495 74 495 190 C495 274 423 350 315 381 C203 413 128 465 128 512 C128 605 218 653 319 627 C359 614 396 578 413 534 C422 511 434 479 443 456 L450 456 L450 456 Z " />
<glyph glyph-name="T" unicode="T" horiz-adv-x="645" d="M1 478 L27 539 C53 601 91 628 153 628 L259 628 L259 89 C259 38 240 14 195 12 L184 11 L184 0 L461 0 L461 11 L450 12 C405 14 386 38 386 89 L386 628 L486 628 C550 628 588 601 614 538 L640 477 L649 477 C644 527 638 593 634 643 L633 643 L632 659 L7 659 L6 643 L7 643 C2 593 -4 527 -8 477 L1 478 L1 478 Z " />
<glyph glyph-name="U" unicode="U" horiz-adv-x="764" d="M708 660 L495 660 L495 649 L509 648 C559 646 582 622 584 570 L583 204 C583 106 527 40 384 40 C270 40 225 103 225 197 L225 571 C225 622 244 646 289 648 L300 649 L300 660 L22 660 L22 649 L33 648 C78 646 97 622 97 571 L97 222 C97 86 172 -5 365 -5 C550 -5 622 74 622 192 L622 561 C622 619 644 646 694 648 L707 649 L708 660 L708 660 Z " />
<glyph glyph-name="V" unicode="V" horiz-adv-x="805" d="M311 660 L16 660 L16 649 L25 648 C59 646 85 626 108 583 L388 -15 L420 -15 L646 582 C665 626 693 647 735 649 L747 650 L747 661 L518 661 L518 650 L535 649 C601 647 620 616 597 549 L449 149 L250 579 C231 625 244 647 293 649 L312 650 L311 660 L311 660 Z " />
<glyph glyph-name="W" unicode="W" horiz-adv-x="1100" d="M1060 660 L846 660 L846 649 L872 648 C922 646 938 625 926 578 L738 -15 L770 -15 L961 571 C978 622 1005 646 1050 648 L1061 649 L1060 660 L1060 660 Z M738 -15 L798 175 L587 670 L555 670 L325 -15 L357 -15 L520 469 L738 -15 L738 -15 Z M286 660 L-1 660 L-1 649 L9 648 C43 646 66 625 86 582 L325 -16 L384 160 L230 570 C212 620 224 645 274 647 L287 648 L286 660 L286 660 Z " />
<glyph glyph-name="X" unicode="X" horiz-adv-x="764" d="M27 0 L255 0 L255 11 L240 12 C184 14 175 40 211 96 L338 282 L469 90 C503 39 497 15 446 13 L430 12 L430 1 L723 1 L723 12 L714 13 C681 15 653 36 621 81 C554 179 486 278 420 376 L569 578 C606 625 642 647 686 649 L698 650 L698 661 L468 661 L468 650 L493 649 C543 647 551 626 520 578 L400 405 L286 572 C252 623 258 647 309 649 L325 650 L325 661 L32 661 L32 650 L41 649 C74 647 102 626 134 581 L318 311 L158 89 C121 38 85 14 39 12 L27 11 L27 0 L27 0 Z " />
<glyph glyph-name="Y" unicode="Y" horiz-adv-x="757" d="M314 660 L23 660 L23 649 L31 648 C63 646 90 626 119 583 L304 288 L305 80 C303 36 284 15 242 13 L231 12 L231 1 L508 1 L508 12 L497 13 C452 15 433 39 433 90 L433 326 L433 326 L605 572 C641 623 674 647 714 649 L724 650 L724 661 L519 661 L519 650 L534 649 C594 647 599 616 555 552 L419 353 L282 572 C250 623 256 647 304 649 L316 650 L314 660 L314 660 Z " />
<glyph glyph-name="Z" unicode="Z" horiz-adv-x="618" d="M522 16 L524 16 C533 64 544 127 552 175 C552 176 551 176 550 177 C543 181 538 183 538 183 L515 132 C483 63 440 33 371 33 L194 33 L555 660 L80 660 L76 644 L77 644 C66 603 52 549 41 508 L50 508 L71 539 C114 601 159 628 221 628 L391 628 L32 0 L519 0 L522 16 L522 16 Z " />
<glyph glyph-name="bracketleft" unicode="&#x5b;" horiz-adv-x="269" d="M154 634 L259 634 L259 660 L65 660 L65 -120 L259 -120 L259 -94 L154 -94 L154 634 L154 634 Z " />
<glyph glyph-name="backslash" unicode="&#x5c;" horiz-adv-x="270" d="M230 -145 L270 -145 L-20 710 L-60 710 L230 -145 L230 -145 Z " />
<glyph glyph-name="bracketright" unicode="&#x5d;" horiz-adv-x="269" d="M109 634 L109 -94 L4 -94 L4 -120 L199 -120 L199 660 L4 660 L4 634 L109 634 L109 634 Z " />
<glyph glyph-name="asciicircum" unicode="&#x5e;" horiz-adv-x="371" d="M223 712 C218 722 204 744 186 744 C168 744 154 722 149 712 C149 712 63 546 59 541 L70 531 C126 598 163 634 186 653 C232 608 301 531 301 531 L313 541 C313 541 268 621 223 712 L223 712 Z M149 676 C146 683 146 685 149 684 L149 676 L149 676 Z " />
<glyph glyph-name="underscore" unicode="&#x5f;" horiz-adv-x="512" d="M5 -50 L5 -114 L507 -114 L507 -50 L5 -50 L5 -50 Z " />
<glyph glyph-name="grave" unicode="&#x60;" horiz-adv-x="371" d="M102 701 C102 693 116 676 138 654 C170 613 258 530 258 530 L270 539 C270 539 229 659 197 699 C184 729 173 749 167 749 C148 749 102 715 102 701 L102 701 Z " />
<glyph glyph-name="a" unicode="a" horiz-adv-x="537" d="M515 64 C507 53 495 45 470 45 C439 45 430 72 430 112 L430 352 C430 444 369 505 278 505 C154 505 63 458 49 388 L164 388 C174 440 209 474 252 474 C286 474 309 436 309 378 L309 266 C283 263 253 258 230 252 C114 223 36 164 36 105 C36 39 88 -5 166 -5 C224 -5 278 11 317 38 C328 8 350 -10 391 -10 C467 -10 505 13 528 48 L515 64 L515 64 Z M309 234 L309 100 C309 93 309 86 309 80 C285 74 256 71 224 71 C179 71 149 98 149 138 C149 173 181 204 228 216 C257 223 285 229 308 234 L309 234 L309 234 Z " />
<glyph glyph-name="b" unicode="b" horiz-adv-x="627" d="M88 0 L101 0 C112 19 138 32 165 32 C209 32 253 -5 313 -5 C468 -5 572 97 572 249 C572 403 491 505 369 505 C297 505 230 486 203 458 L203 720 L180 720 L13 669 L13 663 L24 660 C87 645 88 643 88 570 L88 0 L88 0 Z M313 27 C247 27 203 87 203 177 L203 439 C212 448 243 454 281 454 C381 454 447 355 447 207 C447 99 393 27 313 27 L313 27 Z " />
<glyph glyph-name="c" unicode="c" horiz-adv-x="547" d="M497 79 L486 91 C467 75 421 65 370 65 C251 65 172 148 172 273 C172 393 227 473 310 473 C353 473 384 445 388 404 C391 370 414 348 446 348 C477 348 497 368 497 399 C491 463 422 505 323 505 C159 505 50 395 50 229 C50 89 140 -5 274 -5 C348 -5 437 29 497 79 L497 79 Z " />
<glyph glyph-name="d" unicode="d" horiz-adv-x="636" d="M526 720 L503 720 L336 669 L336 663 L347 660 C410 645 411 643 411 570 L411 464 C381 489 342 505 301 505 C153 505 54 391 54 219 C54 85 135 -5 256 -5 C304 -5 364 21 411 62 L411 0 L434 0 L601 51 L601 57 L590 60 C527 75 526 77 526 150 L526 720 L526 720 Z M411 81 C395 72 360 66 319 66 C232 66 174 145 174 264 C174 391 222 475 295 475 C342 475 386 452 411 421 L411 81 L411 81 Z " />
<glyph glyph-name="e" unicode="e" horiz-adv-x="553" d="M503 79 L492 91 C473 75 426 65 373 65 C242 65 164 159 173 300 L503 300 C503 423 422 505 300 505 C150 505 50 395 50 229 C50 89 141 -5 277 -5 C353 -5 443 29 503 79 L503 79 Z M396 393 L396 396 C396 395 396 394 396 393 L396 393 Z M346 337 L175 322 C186 414 230 473 292 473 C354 473 395 442 395 396 C394 365 375 342 344 337 L346 337 L346 337 Z " />
<glyph glyph-name="f" unicode="f" horiz-adv-x="519" d="M313 11 L302 12 C257 14 238 38 238 89 L238 455 L390 455 L390 500 L238 500 L238 533 C238 629 315 694 348 694 C380 694 403 674 406 645 C409 614 431 594 463 594 C494 594 514 614 514 645 C510 690 456 720 379 720 C229 720 129 655 129 558 C126 558 123 500 123 500 L45 500 L45 455 L123 455 L123 89 C123 38 104 14 59 12 L48 11 L48 0 L313 0 L313 11 L313 11 Z " />
<glyph glyph-name="g" unicode="g" horiz-adv-x="504" d="M504 500 L364 471 C332 493 290 505 241 505 C129 505 54 441 54 346 C54 280 90 229 150 204 C84 194 42 151 42 90 C42 43 76 8 131 -8 C61 -24 17 -71 17 -133 L94 -120 L17 -134 C17 -199 83 -243 183 -243 C364 -243 485 -157 485 -28 C485 45 410 94 297 94 C273 94 199 91 199 91 C151 91 119 108 119 134 C119 166 143 187 180 187 L242 187 C355 187 430 251 430 346 C430 378 422 406 407 430 L506 436 L504 500 L504 500 Z M243 213 C196 213 164 266 164 346 C164 426 196 479 243 479 C290 479 322 426 322 346 C322 266 290 213 243 213 L243 213 Z M169 -16 C181 -17 194 -18 207 -18 C207 -18 265 -15 267 -15 C349 -15 404 -43 404 -86 C404 -161 322 -211 198 -211 C137 -211 96 -175 96 -120 C96 -65 125 -25 170 -16 L169 -16 L169 -16 Z " />
<glyph glyph-name="h" unicode="h" horiz-adv-x="661" d="M356 0 L621 0 L621 11 L610 12 C565 14 546 38 546 89 L546 338 C546 438 512 505 426 505 C361 505 286 476 234 431 L234 720 L211 720 L44 669 L44 663 L55 660 C118 645 119 643 119 570 L119 89 C119 38 100 14 55 12 L44 11 L44 0 L309 0 L309 11 L298 12 C253 14 234 38 234 89 L234 415 C255 423 293 428 338 428 C406 428 432 387 432 326 L432 89 C432 38 413 14 368 12 L357 11 L356 0 L356 0 Z " />
<glyph glyph-name="i" unicode="i" horiz-adv-x="355" d="M171 570 C217 570 248 601 248 647 C248 693 217 723 171 723 C125 723 94 693 94 647 C94 601 125 570 171 570 L171 570 Z M310 11 L299 12 C254 14 235 38 235 89 L235 500 L212 500 L45 449 L45 443 L56 440 C119 425 120 423 120 350 L120 89 C120 38 101 14 56 12 L45 11 L45 0 L310 0 L310 11 L310 11 Z " />
<glyph glyph-name="j" unicode="j" horiz-adv-x="360" d="M176 570 C222 570 253 601 253 647 C253 693 222 723 176 723 C130 723 99 693 99 647 C99 601 130 570 176 570 L176 570 Z M125 363 C125 224 125 -2 124 -1 C124 -132 93 -174 0 -223 L11 -239 C184 -148 241 -93 241 31 C240 33 240 470 240 470 L240 500 L217 500 L50 449 L50 443 L61 440 C120 426 125 423 125 363 L125 363 Z " />
<glyph glyph-name="k" unicode="k" horiz-adv-x="626" d="M587 500 L399 500 L399 489 L408 488 C442 486 432 462 376 411 L227 275 L227 720 L204 720 L37 669 L37 663 L48 660 C111 645 112 643 112 570 L112 89 C112 38 93 14 48 12 L37 11 L37 0 L302 0 L302 11 L291 12 C246 14 227 38 227 89 L227 275 C277 213 327 151 377 89 C416 39 420 14 382 12 L373 11 L373 0 L657 0 L657 11 L646 12 C599 14 562 39 521 90 L327 335 L419 412 C480 463 527 487 575 489 L587 490 L587 500 L587 500 Z " />
<glyph glyph-name="l" unicode="l" horiz-adv-x="355" d="M310 11 L299 12 C254 14 235 38 235 89 L235 720 L212 720 L45 669 L45 663 L56 660 C119 645 120 643 120 570 L120 89 C120 38 101 14 56 12 L45 11 L45 0 L310 0 L310 11 L310 11 Z " />
<glyph glyph-name="m" unicode="m" horiz-adv-x="993" d="M688 0 L953 0 L953 11 L942 12 C897 14 878 38 878 89 L878 338 C878 438 823 505 750 505 C664 505 588 474 538 428 C517 476 478 505 431 505 C356 505 285 476 234 431 L234 500 L211 500 L44 449 L44 443 L55 440 C118 425 119 423 119 350 L119 89 C119 38 100 14 55 12 L44 11 L44 0 L309 0 L309 11 L298 12 C253 14 234 38 234 89 L234 416 C256 428 293 435 342 435 C398 435 441 391 441 326 L441 89 C441 38 422 14 377 12 L366 11 L366 0 L631 0 L631 11 L620 12 C575 14 556 38 556 89 L556 338 C556 365 552 389 545 410 C563 420 603 427 662 427 C720 427 763 386 763 325 L763 88 C763 37 744 13 699 11 L688 10 L688 0 L688 0 Z " />
<glyph glyph-name="n" unicode="n" horiz-adv-x="661" d="M356 0 L621 0 L621 11 L610 12 C565 14 546 38 546 89 L546 338 C546 438 512 505 426 505 C361 505 286 476 234 431 L234 500 L211 500 L44 449 L44 443 L55 440 C118 425 119 423 119 350 L119 89 C119 38 100 14 55 12 L44 11 L44 0 L309 0 L309 11 L298 12 C253 14 234 38 234 89 L234 415 C255 423 293 428 338 428 C406 428 432 387 432 326 L432 89 C432 38 413 14 368 12 L357 11 L356 0 L356 0 Z " />
<glyph glyph-name="o" unicode="o" horiz-adv-x="632" d="M178 250 C178 387 233 479 316 479 C399 479 455 387 455 250 C455 113 399 21 316 21 C233 21 178 113 178 250 L178 250 Z M50 250 C50 97 156 -5 316 -5 C476 -5 582 97 582 250 C582 403 476 505 316 505 C156 505 50 403 50 250 L50 250 Z " />
<glyph glyph-name="p" unicode="p" horiz-adv-x="675" d="M309 -219 L298 -218 C253 -216 234 -192 234 -141 L234 16 C265 2 303 -6 346 -6 C510 -6 619 103 619 267 C619 409 539 504 420 504 C336 504 265 478 233 437 L233 499 L210 499 L43 448 L43 442 L54 439 C117 424 118 422 118 349 L118 -142 C118 -193 99 -217 54 -219 L43 -220 L43 -231 L308 -231 L309 -219 L309 -219 Z M233 134 L233 408 C252 419 288 426 332 426 C433 426 501 330 501 185 C501 89 439 25 347 25 C285 25 240 68 234 133 L233 134 L233 134 Z " />
<glyph glyph-name="q" unicode="q" horiz-adv-x="639" d="M594 -219 L583 -218 C538 -216 519 -192 519 -141 L519 500 L506 500 C495 481 467 468 435 468 C392 468 351 505 293 505 C146 505 48 391 48 219 C48 85 123 -5 236 -5 C289 -5 354 24 404 68 L404 -141 C404 -192 385 -216 340 -218 L329 -219 L329 -230 L594 -230 L594 -219 L594 -219 Z M404 89 C384 74 343 65 298 65 C219 65 167 144 167 263 C167 389 217 473 292 473 C359 473 403 413 403 323 L404 89 L404 89 Z " />
<glyph glyph-name="r" unicode="r" horiz-adv-x="463" d="M44 0 L309 0 L309 11 L298 12 C253 14 234 38 234 89 L234 411 C245 416 261 419 280 419 C315 419 363 375 398 375 C431 375 453 397 453 430 C453 474 430 504 372 504 C320 504 267 477 234 435 L234 499 L211 499 L44 448 L44 442 L55 439 C118 424 119 422 119 349 L119 88 C119 37 100 13 55 11 L44 10 L44 0 L44 0 Z " />
<glyph glyph-name="s" unicode="s" horiz-adv-x="446" d="M365 355 L374 355 L374 466 C333 489 281 505 243 505 C127 505 50 448 50 362 C50 308 110 247 201 209 C261 184 301 145 301 111 C301 49 252 14 184 23 C136 32 89 71 64 124 C60 132 56 142 52 150 L44 150 L44 29 C79 9 141 -5 199 -5 C317 -5 395 59 395 154 C395 208 349 263 281 291 C195 327 138 371 138 401 C138 448 180 479 242 479 C242 479 256 477 256 476 C307 461 348 412 364 356 L365 355 L365 355 Z " />
<glyph glyph-name="t" unicode="t" horiz-adv-x="377" d="M345 500 L210 500 L210 640 L191 640 C142 546 76 477 25 468 L25 455 L95 455 L95 125 C95 24 119 -5 203 -5 C267 -5 314 19 357 55 L349 65 C335 54 312 46 260 46 C220 46 209 59 209 105 C209 210 210 455 210 455 L345 455 L345 500 L345 500 Z " />
<glyph glyph-name="u" unicode="u" horiz-adv-x="626" d="M326 489 L337 488 C382 486 401 462 401 411 L401 92 C385 79 360 71 323 71 C245 71 205 109 205 166 L205 500 L15 500 L15 489 L26 488 C71 486 89 461 90 410 L91 153 C91 58 139 -6 233 -6 C293 -6 350 25 402 73 L402 -1 L425 -1 L592 50 L592 56 L581 59 C518 74 517 76 517 149 L517 499 L327 499 L326 489 L326 489 Z " />
<glyph glyph-name="v" unicode="v" horiz-adv-x="642" d="M260 500 L-17 500 L-17 489 L-5 488 C40 486 71 461 96 411 L297 -10 L316 -10 L512 417 C535 464 563 486 607 488 L619 489 L619 500 L436 500 L436 489 L446 488 C487 486 494 461 473 411 L355 131 L223 418 C203 464 212 486 250 488 L260 489 L260 500 L260 500 Z " />
<glyph glyph-name="w" unicode="w" horiz-adv-x="1024" d="M305 500 L28 500 L28 489 L38 488 C74 486 101 461 126 411 L327 -10 L346 -10 L509 350 L680 -10 L699 -10 L897 423 C919 466 948 486 990 488 L1002 489 L1002 500 L789 500 L789 489 L814 488 C862 486 877 466 862 422 L739 130 L607 417 C587 464 600 486 650 488 L664 489 L664 500 L388 500 L388 489 L397 488 C430 486 456 461 481 411 L497 377 L388 128 L258 412 C235 463 246 487 295 489 L307 490 L305 500 L305 500 Z " />
<glyph glyph-name="x" unicode="x" horiz-adv-x="632" d="M318 500 L35 500 L35 489 L45 488 C82 486 113 461 147 410 L266 231 L150 76 C115 33 77 13 29 11 L15 10 L15 -1 L253 -1 L253 10 L218 11 C168 13 160 34 192 82 L282 206 L368 77 C395 33 391 12 356 10 L346 9 L346 -2 L605 -2 L605 9 L597 10 C566 12 537 37 502 87 L357 304 L453 415 C495 462 534 484 579 486 L591 487 L591 498 L384 498 L384 487 L398 486 C449 484 453 460 413 409 L345 323 L280 421 C255 464 263 484 307 486 L319 487 L318 500 L318 500 Z " />
<glyph glyph-name="y" unicode="y" horiz-adv-x="622" d="M280 500 L3 500 L3 489 L15 488 C60 486 91 461 116 411 L308 7 C300 -8 287 -34 277 -62 C247 -128 220 -154 181 -154 C181 -154 117 -129 90 -129 C55 -129 32 -149 32 -178 C32 -209 64 -230 111 -230 C201 -230 256 -186 308 -72 C320 -38 336 -10 336 -10 L532 417 C555 464 583 486 627 488 L639 489 L639 500 L456 500 L456 489 L466 488 C507 486 514 461 493 411 L375 131 L243 418 C223 464 232 486 270 488 L280 489 L280 500 L280 500 Z " />
<glyph glyph-name="z" unicode="z" horiz-adv-x="509" d="M212 473 L311 473 L37 -1 L429 -1 L431 12 L433 12 C441 58 452 120 460 167 C460 168 459 168 458 169 C451 173 446 175 446 175 L423 124 C391 55 348 25 279 25 L188 25 L459 499 L70 499 L66 485 L67 485 C58 454 47 413 39 382 L48 382 L59 396 C103 449 150 471 213 472 L212 473 L212 473 Z " />
<glyph glyph-name="braceleft" unicode="&#x7b;" horiz-adv-x="272" d="M257 -120 L257 -101 L243 -101 C191 -101 157 -50 157 26 L156 139 C156 208 120 258 64 270 C120 282 156 332 156 402 L156 514 C156 590 191 641 243 641 L257 641 L257 660 L217 660 C127 660 67 602 67 514 L67 338 C67 299 43 280 5 280 L5 260 C43 260 67 241 67 203 L67 26 C67 -62 127 -120 217 -120 L257 -120 L257 -120 Z " />
<glyph glyph-name="bar" unicode="&#x7c;" horiz-adv-x="209" d="M60 770 L60 -234 L149 -234 L149 770 L60 770 L60 770 Z " />
<glyph glyph-name="braceright" unicode="&#x7d;" horiz-adv-x="272" d="M5 660 L5 641 L19 641 C71 641 105 590 105 514 L106 401 C106 332 142 282 198 270 C142 258 106 208 106 138 L106 26 C106 -50 71 -101 19 -101 L5 -101 L5 -120 L45 -120 C135 -120 195 -62 195 26 L195 202 C195 241 219 260 257 260 L257 280 C219 280 195 299 195 337 L195 514 C195 602 135 660 45 660 L5 660 L5 660 Z " />
<glyph glyph-name="asciitilde" unicode="&#x7e;" horiz-adv-x="371" d="M29 310 C29 344 47 366 74 366 C132 366 209 303 267 303 C324 303 362 358 362 440 L343 440 C343 404 323 380 292 380 C234 380 157 442 99 442 C46 442 10 389 10 310 L29 310 L29 310 Z " />
<glyph glyph-name="nbspace" unicode="&#xa0;" horiz-adv-x="247" d="" />
<glyph glyph-name="exclamdown" unicode="&#xa1;" horiz-adv-x="265" d="M122 505 C74 505 42 473 42 425 C42 377 74 345 122 345 C170 345 202 377 202 425 C202 473 170 505 122 505 L122 505 Z M60 -83 C52 -132 80 -165 130 -165 C182 -165 210 -132 200 -83 C200 129 130 270 130 270 L114 270 C114 270 60 129 60 -83 L60 -83 Z " />
<glyph glyph-name="cent" unicode="&#xa2;" horiz-adv-x="547" d="M289 575 L289 503 C144 489 50 383 50 229 C50 86 145 -13 289 -5 L289 -75 L327 -75 L327 0 C387 11 450 40 496 78 L485 90 C461 70 381 58 326 68 L326 471 C360 465 384 439 387 404 C390 370 413 348 445 348 C476 348 496 368 496 399 C490 462 423 504 326 505 L326 575 L289 575 L289 575 Z M288 80 C215 109 171 179 171 273 C171 383 217 459 288 471 L288 80 L288 80 Z " />
<glyph glyph-name="guillemotleft" unicode="&#xab;" horiz-adv-x="504" d="M202 244 C201 246 201 247 202 247 L202 244 C202 244 206 244 212 243 C258 213 447 34 447 34 L460 46 C460 46 361 168 315 249 C345 301 409 408 456 455 L444 467 C286 309 203 258 203 258 L202 244 L202 244 Z M133 249 C163 301 227 408 274 455 L262 467 C104 309 21 258 21 258 L21 248 L21 245 C20 247 20 248 21 248 L21 245 C21 245 25 245 31 244 C77 214 266 35 266 35 L279 47 C279 47 180 169 134 250 L133 249 L133 249 Z " />
<glyph glyph-name="acute" unicode="&#xb4;" horiz-adv-x="371" d="M110 530 C110 530 196 614 227 654 C248 677 262 694 262 701 C262 715 217 749 197 749 C193 749 182 729 168 699 C137 659 97 539 97 539 L110 530 L110 530 Z " />
<glyph glyph-name="guillemotright" unicode="&#xbb;" horiz-adv-x="504" d="M58 34 C58 34 247 213 293 243 C299 244 303 244 303 244 L303 247 C304 247 304 246 303 244 L303 257 C303 257 220 308 62 466 L50 454 C97 407 161 300 191 248 C145 167 46 45 46 45 L58 34 L58 34 Z M241 33 C241 33 430 212 476 242 C482 243 486 243 486 243 L486 246 C487 246 487 245 486 243 L486 256 C486 256 403 307 245 465 L233 453 C280 406 344 299 374 247 C328 166 229 44 229 44 L241 33 L241 33 Z " />
<glyph glyph-name="onequarter" unicode="&#xbc;" horiz-adv-x="792" d="M648 308 C610 272 464 77 463 76 L463 58 L486 58 L486 57 C487 57 487 57 488 58 L489 58 L487 57 L567 57 L567 4 L665 4 C665 18 665 37 665 57 L729 57 L729 100 L666 100 C666 132 666 158 666 158 L666 279 C667 280 668 280 669 280 L667 284 L667 309 L654 309 L653 310 C653 310 652 309 651 309 L648 308 L648 308 Z M316 626 L316 626 L319 626 L316 626 L316 626 Z M355 670 L269 670 L269 664 L265 664 L265 668 L179 668 L179 663 C194 663 204 660 210 652 L210 459 C210 431 200 420 174 420 L174 415 L210 415 L210 414 L307 414 L307 416 L349 416 L349 422 L344 423 C321 424 312 436 312 462 L311 460 L307 460 L307 626 L315 626 C315 650 325 662 348 663 L354 664 L355 670 L355 670 Z M145 -27 L698 643 L648 685 L95 15 L145 -27 L145 -27 Z M519 99 C533 117 550 139 567 161 C567 160 567 159 567 158 L567 100 L519 99 L519 99 Z " />
<glyph glyph-name="onehalf" unicode="&#xbd;" horiz-adv-x="792" d="M674 101 L640 101 C689 134 718 160 718 188 C718 231 680 260 623 260 C577 260 531 222 508 165 L520 158 C527 177 550 189 576 189 C596 189 610 176 610 156 C610 90 561 76 487 31 L487 10 L486 6 C488 7 490 8 492 9 L710 9 L714 56 L715 56 C717 81 720 114 722 139 L717 139 C712 114 704 102 675 102 C675 101 674 101 674 100 L674 101 L674 101 Z M315 625 L315 625 L318 625 L315 625 L315 625 Z M354 669 L268 669 L268 663 L264 663 L264 667 L178 667 L178 662 C193 662 203 659 209 651 L209 458 C209 430 199 419 173 419 L173 414 L209 414 L209 413 L306 413 L306 415 L348 415 L348 421 L343 422 C320 423 311 435 311 461 L310 459 L306 459 L306 625 L314 625 C314 649 324 661 347 662 L353 663 L354 669 L354 669 Z M144 -28 L697 642 L647 684 L94 14 L144 -28 L144 -28 Z M494 10 C512 21 529 31 545 41 C527 26 510 13 494 10 L494 10 Z " />
<glyph glyph-name="threequarters" unicode="&#xbe;" horiz-adv-x="792" d="M639 308 C601 272 455 77 454 76 L454 58 L477 58 L477 57 C478 57 478 57 479 58 L480 58 L478 57 L558 57 L558 4 L656 4 C656 18 656 37 656 57 L720 57 L720 100 L657 100 C657 132 657 158 657 158 L657 279 C658 280 659 280 660 280 L658 284 L658 309 L645 309 L644 310 C644 310 643 309 642 309 L639 308 L639 308 Z M131 340 C264 346 353 393 353 458 C353 489 329 514 289 526 C327 550 349 577 349 603 C349 644 313 672 259 672 C218 672 165 637 125 585 L136 577 C147 592 177 602 210 602 C258 602 261 563 239 534 L239 534 C227 518 208 505 185 498 L185 494 C184 494 183 494 182 494 L182 478 C192 481 201 484 205 484 C231 484 249 472 249 455 C249 402 201 365 130 362 L131 345 L131 340 L131 340 Z M145 -25 L698 645 L648 687 L95 17 L145 -25 L145 -25 Z M510 101 C524 119 541 141 558 163 C558 162 558 161 558 160 L558 102 L510 101 L510 101 Z " />
<glyph glyph-name="questiondown" unicode="&#xbf;" horiz-adv-x="398" d="M251 505 C203 505 171 473 171 425 C171 377 203 345 251 345 C299 345 331 377 331 425 C331 473 299 505 251 505 L251 505 Z M232 210 L197 210 C61 210 35 129 35 84 C35 -65 130 -165 272 -165 C326 -165 362 -136 362 -92 C362 -62 342 -42 313 -42 C290 -42 258 -75 235 -75 C131 -75 61 -17 61 71 C61 90 89 123 236 123 L271 123 C281 123 286 130 284 140 L259 265 L243 265 L232 210 L232 210 Z " />
<glyph glyph-name="Agrave" unicode="&#xc0;" horiz-adv-x="734" d="M425 0 L729 0 L729 11 C685 11 661 24 635 75 L360 675 L328 675 L96 77 C76 34 49 14 7 12 L-5 11 L-5 0 L219 0 L219 11 L203 12 C142 14 126 43 148 104 L196 232 L427 232 L491 89 C514 37 503 14 451 12 L427 11 L425 0 L425 0 Z M262 861 C262 853 276 836 298 814 C330 773 418 690 418 690 L431 699 C431 699 389 818 357 859 C343 889 332 909 327 909 C308 909 262 875 262 861 L262 861 Z M414 264 L209 264 L302 514 L414 264 L414 264 Z " />
<glyph glyph-name="Aacute" unicode="&#xc1;" horiz-adv-x="734" d="M283 690 C283 690 369 774 400 814 C421 837 435 854 435 861 C435 875 390 909 370 909 C366 909 355 889 341 859 C310 819 270 699 270 699 L283 690 L283 690 Z M425 0 L729 0 L729 11 C685 11 661 24 635 75 L360 675 L328 675 L96 77 C76 34 49 14 7 12 L-5 11 L-5 0 L219 0 L219 11 L203 12 C142 14 126 43 148 104 L196 232 L427 232 L491 89 C514 37 503 14 451 12 L427 11 L425 0 L425 0 Z M414 264 L209 264 L302 514 L414 264 L414 264 Z " />
<glyph glyph-name="Acircumflex" unicode="&#xc2;" horiz-adv-x="734" d="M425 0 L729 0 L729 11 C685 11 661 24 635 75 L360 675 L328 675 L96 77 C76 34 49 14 7 12 L-5 11 L-5 0 L219 0 L219 11 L203 12 C142 14 126 43 148 104 L196 232 L427 232 L491 89 C514 37 503 14 451 12 L427 11 L425 0 L425 0 Z M383 872 C378 882 364 904 346 904 C329 904 315 882 310 872 C310 872 225 708 219 701 L231 691 C287 757 324 793 347 812 C393 767 461 691 461 691 L473 701 C473 701 428 781 383 872 L383 872 Z M309 836 C306 843 306 845 309 844 L309 836 L309 836 Z M414 264 L209 264 L302 514 L414 264 L414 264 Z " />
<glyph glyph-name="Atilde" unicode="&#xc3;" horiz-adv-x="734" d="M187 755 C187 789 205 811 232 811 C290 811 367 748 425 748 C482 748 520 803 520 885 L501 885 C501 849 481 825 450 825 C392 825 315 887 257 887 C204 887 168 834 168 755 L187 755 L187 755 Z M425 0 L729 0 L729 11 C685 11 661 24 635 75 L360 675 L328 675 L96 77 C76 34 49 14 7 12 L-5 11 L-5 0 L219 0 L219 11 L203 12 C142 14 126 43 148 104 L196 232 L427 232 L491 89 C514 37 503 14 451 12 L427 11 L425 0 L425 0 Z M414 264 L209 264 L302 514 L414 264 L414 264 Z " />
<glyph glyph-name="Adieresis" unicode="&#xc4;" horiz-adv-x="734" d="M447 730 C489 730 517 758 517 800 C517 843 489 871 447 871 C405 871 377 843 377 800 C377 758 405 730 447 730 L447 730 Z M241 730 C283 730 311 758 311 800 C311 843 283 871 241 871 C199 871 171 843 171 800 C171 758 199 730 241 730 L241 730 Z M425 0 L729 0 L729 11 C685 11 661 24 635 75 L360 675 L328 675 L96 77 C76 34 49 14 7 12 L-5 11 L-5 0 L219 0 L219 11 L203 12 C142 14 126 43 148 104 L196 232 L427 232 L491 89 C514 37 503 14 451 12 L427 11 L425 0 L425 0 Z M414 264 L209 264 L302 514 L414 264 L414 264 Z " />
<glyph glyph-name="Aring" unicode="&#xc5;" horiz-adv-x="734" d="M280 788 C280 828 306 854 344 854 C382 854 408 828 408 788 C408 752 379 721 344 721 C309 721 280 752 280 788 L280 788 Z M248 788 C248 738 292 695 344 695 C396 695 440 738 440 788 C440 843 402 880 344 880 C286 880 248 843 248 788 L248 788 Z M425 0 L729 0 L729 11 C685 11 661 24 635 75 L360 675 L328 675 L96 77 C76 34 49 14 7 12 L-5 11 L-5 0 L219 0 L219 11 L203 12 C142 14 126 43 148 104 L196 232 L427 232 L491 89 C514 37 503 14 451 12 L427 11 L425 0 L425 0 Z M414 264 L209 264 L302 514 L414 264 L414 264 Z " />
<glyph glyph-name="Ccedilla" unicode="&#xc7;" horiz-adv-x="757" d="M384 -76 L371 -95 C375 -88 379 -82 383 -76 L384 -76 L384 -76 Z M687 207 C683 196 677 181 673 170 C644 93 567 38 477 29 C461 28 445 27 430 27 C281 27 181 148 181 330 C181 512 281 633 430 633 C456 633 482 631 508 628 C579 619 645 564 673 490 C677 479 683 464 687 453 L696 453 L696 607 L688 593 L688 593 L696 607 C636 642 529 665 430 665 C197 665 41 531 41 330 C41 133 191 0 417 -5 C410 -17 390 -48 363 -90 L371 -95 C389 -86 412 -80 429 -80 C464 -80 487 -102 487 -135 C487 -166 455 -187 406 -187 C375 -187 348 -181 339 -173 L331 -185 C355 -206 394 -220 429 -220 C506 -220 558 -186 558 -135 C558 -88 517 -57 456 -57 C434 -57 405 -64 385 -74 C415 -31 438 -12 450 -4 C543 -1 640 21 696 54 L687 69 L687 69 L695 54 L695 208 L687 207 L687 207 Z " />
<glyph glyph-name="Egrave" unicode="&#xc8;" horiz-adv-x="672" d="M231 861 C231 853 245 836 267 814 C299 773 387 690 387 690 L400 699 C400 699 358 818 326 859 C312 889 301 909 296 909 C277 909 231 875 231 861 L231 861 Z M492 251 L492 443 L483 443 L479 432 C463 387 428 368 360 368 L243 368 L243 628 L398 628 C474 628 519 595 545 519 L554 493 L562 493 L562 660 L40 660 L40 649 L51 648 C96 646 115 622 115 571 L115 89 C115 38 96 14 51 12 L40 11 L40 0 L561 0 L564 16 C572 61 583 122 591 167 L583 167 L569 141 C530 65 479 32 403 32 L243 32 L243 336 L360 336 C428 336 464 314 479 264 L483 251 L492 251 L492 251 Z " />
<glyph glyph-name="Eacute" unicode="&#xc9;" horiz-adv-x="672" d="M301 690 C301 690 387 774 418 814 C439 837 453 854 453 861 C453 875 408 909 388 909 C384 909 373 889 359 859 C328 819 288 699 288 699 L301 690 L301 690 Z M492 251 L492 443 L483 443 L479 432 C463 387 428 368 360 368 L243 368 L243 628 L398 628 C474 628 519 595 545 519 L554 493 L562 493 L562 660 L40 660 L40 649 L51 648 C96 646 115 622 115 571 L115 89 C115 38 96 14 51 12 L40 11 L40 0 L561 0 L564 16 C572 61 583 122 591 167 L583 167 L569 141 C530 65 479 32 403 32 L243 32 L243 336 L360 336 C428 336 464 314 479 264 L483 251 L492 251 L492 251 Z " />
<glyph glyph-name="Ecircumflex" unicode="&#xca;" horiz-adv-x="672" d="M368 872 C363 882 349 904 331 904 C314 904 300 882 295 872 C295 872 210 708 204 701 L216 691 C272 757 309 793 332 812 C378 767 446 691 446 691 L458 701 C458 701 413 781 368 872 L368 872 Z M294 836 C291 843 291 845 294 844 L294 836 L294 836 Z M492 251 L492 443 L483 443 L479 432 C463 387 428 368 360 368 L243 368 L243 628 L398 628 C474 628 519 595 545 519 L554 493 L562 493 L562 660 L40 660 L40 649 L51 648 C96 646 115 622 115 571 L115 89 C115 38 96 14 51 12 L40 11 L40 0 L561 0 L564 16 C572 61 583 122 591 167 L583 167 L569 141 C530 65 479 32 403 32 L243 32 L243 336 L360 336 C428 336 464 314 479 264 L483 251 L492 251 L492 251 Z " />
<glyph glyph-name="Edieresis" unicode="&#xcb;" horiz-adv-x="672" d="M434 730 C476 730 504 758 504 800 C504 843 476 871 434 871 C392 871 364 843 364 800 C364 758 392 730 434 730 L434 730 Z M228 730 C270 730 298 758 298 800 C298 843 270 871 228 871 C186 871 158 843 158 800 C158 758 186 730 228 730 L228 730 Z M492 251 L492 443 L483 443 L479 432 C463 387 428 368 360 368 L243 368 L243 628 L398 628 C474 628 519 595 545 519 L554 493 L562 493 L562 660 L40 660 L40 649 L51 648 C96 646 115 622 115 571 L115 89 C115 38 96 14 51 12 L40 11 L40 0 L561 0 L564 16 C572 61 583 122 591 167 L583 167 L569 141 C530 65 479 32 403 32 L243 32 L243 336 L360 336 C428 336 464 314 479 264 L483 251 L492 251 L492 251 Z " />
<glyph glyph-name="Igrave" unicode="&#xcc;" horiz-adv-x="358" d="M95 861 C95 853 109 836 131 814 C163 773 251 690 251 690 L264 699 C264 699 222 818 190 859 C176 889 165 909 160 909 C141 909 95 875 95 861 L95 861 Z M318 11 L307 12 C262 14 243 38 243 89 L243 571 C243 622 262 646 307 648 L318 649 L318 660 L40 660 L40 649 L51 648 C96 646 115 622 115 571 L115 89 C115 38 96 14 51 12 L40 11 L40 0 L318 0 L318 11 L318 11 Z " />
<glyph glyph-name="Iacute" unicode="&#xcd;" horiz-adv-x="358" d="M118 690 C118 690 204 774 235 814 C256 837 270 854 270 861 C270 875 225 909 205 909 C201 909 190 889 176 859 C145 819 105 699 105 699 L118 690 L118 690 Z M318 11 L307 12 C262 14 243 38 243 89 L243 571 C243 622 262 646 307 648 L318 649 L318 660 L40 660 L40 649 L51 648 C96 646 115 622 115 571 L115 89 C115 38 96 14 51 12 L40 11 L40 0 L318 0 L318 11 L318 11 Z " />
<glyph glyph-name="Icircumflex" unicode="&#xce;" horiz-adv-x="358" d="M216 872 C211 882 197 904 179 904 C162 904 148 882 143 872 C143 872 58 708 52 701 L64 691 C120 757 157 793 180 812 C226 767 294 691 294 691 L306 701 C306 701 261 781 216 872 L216 872 Z M142 836 C139 843 139 845 142 844 L142 836 L142 836 Z M318 11 L307 12 C262 14 243 38 243 89 L243 571 C243 622 262 646 307 648 L318 649 L318 660 L40 660 L40 649 L51 648 C96 646 115 622 115 571 L115 89 C115 38 96 14 51 12 L40 11 L40 0 L318 0 L318 11 L318 11 Z " />
<glyph glyph-name="Idieresis" unicode="&#xcf;" horiz-adv-x="358" d="M282 730 C324 730 352 758 352 800 C352 843 324 871 282 871 C240 871 212 843 212 800 C212 758 240 730 282 730 L282 730 Z M76 730 C118 730 146 758 146 800 C146 843 118 871 76 871 C34 871 6 843 6 800 C6 758 34 730 76 730 L76 730 Z M318 11 L307 12 C262 14 243 38 243 89 L243 571 C243 622 262 646 307 648 L318 649 L318 660 L40 660 L40 649 L51 648 C96 646 115 622 115 571 L115 89 C115 38 96 14 51 12 L40 11 L40 0 L318 0 L318 11 L318 11 Z " />
<glyph glyph-name="Ntilde" unicode="&#xd1;" horiz-adv-x="749" d="M216 755 C216 789 234 811 261 811 C319 811 396 748 454 748 C511 748 549 803 549 885 L530 885 C530 849 510 825 479 825 C421 825 344 887 286 887 C233 887 197 834 197 755 L216 755 L216 755 Z M37 649 L48 648 C93 646 112 622 112 571 L112 89 C112 38 93 14 48 12 L37 11 L37 0 L226 0 L226 11 L215 12 C170 14 151 38 151 89 L151 550 C298 360 445 170 592 -20 L634 -20 L634 571 C634 622 653 646 698 648 L709 649 L709 660 L521 660 L521 649 L532 648 C577 646 596 622 596 571 L596 180 L227 660 L37 660 L37 649 L37 649 Z " />
<glyph glyph-name="Ograve" unicode="&#xd2;" horiz-adv-x="785" d="M182 330 C182 494 252 633 389 633 C524 633 594 494 594 330 C594 166 524 27 389 27 C252 27 182 166 182 330 L182 330 Z M42 330 C42 149 160 -5 389 -5 C617 -5 735 149 735 330 C735 511 617 665 389 665 C160 665 42 511 42 330 L42 330 Z M304 861 C304 854 319 837 341 814 C373 774 460 690 460 690 L473 699 C473 699 431 818 399 859 C385 889 375 909 370 909 C350 909 304 875 304 861 L304 861 Z " />
<glyph glyph-name="Oacute" unicode="&#xd3;" horiz-adv-x="785" d="M366 690 C366 690 451 774 482 814 C504 838 518 855 518 861 C518 875 472 909 452 909 C448 909 438 889 424 859 C393 819 353 699 353 699 L366 690 L366 690 Z M182 330 C182 494 252 633 389 633 C524 633 594 494 594 330 C594 166 524 27 389 27 C252 27 182 166 182 330 L182 330 Z M42 330 C42 149 160 -5 389 -5 C617 -5 735 149 735 330 C735 511 617 665 389 665 C160 665 42 511 42 330 L42 330 Z " />
<glyph glyph-name="Ocircumflex" unicode="&#xd4;" horiz-adv-x="785" d="M182 330 C182 494 252 633 389 633 C524 633 594 494 594 330 C594 166 524 27 389 27 C252 27 182 166 182 330 L182 330 Z M42 330 C42 149 160 -5 389 -5 C617 -5 735 149 735 330 C735 511 617 665 389 665 C160 665 42 511 42 330 L42 330 Z M425 872 C420 882 406 904 389 904 C371 904 357 882 352 872 C352 872 267 708 261 701 L273 691 C329 758 366 794 389 813 C435 768 504 691 504 691 L516 701 C516 701 469 782 425 872 L425 872 Z M352 836 C349 843 349 845 352 844 L352 836 L352 836 Z " />
<glyph glyph-name="Otilde" unicode="&#xd5;" horiz-adv-x="785" d="M232 755 C232 789 250 811 277 811 C335 811 411 748 469 748 C527 748 565 803 565 885 L545 885 C545 849 525 825 494 825 C436 825 360 887 302 887 C248 887 212 834 212 755 L232 755 L232 755 Z M182 330 C182 494 252 633 389 633 C524 633 594 494 594 330 C594 166 524 27 389 27 C252 27 182 166 182 330 L182 330 Z M42 330 C42 149 160 -5 389 -5 C617 -5 735 149 735 330 C735 511 617 665 389 665 C160 665 42 511 42 330 L42 330 Z " />
<glyph glyph-name="Odieresis" unicode="&#xd6;" horiz-adv-x="785" d="M491 730 C534 730 562 758 562 800 C562 843 534 871 491 871 C449 871 421 843 421 800 C421 758 449 730 491 730 L491 730 Z M286 730 C328 730 356 758 356 800 C356 843 328 871 286 871 C243 871 215 843 215 800 C215 758 243 730 286 730 L286 730 Z M182 330 C182 494 252 633 389 633 C524 633 594 494 594 330 C594 166 524 27 389 27 C252 27 182 166 182 330 L182 330 Z M42 330 C42 149 160 -5 389 -5 C617 -5 735 149 735 330 C735 511 617 665 389 665 C160 665 42 511 42 330 L42 330 Z " />
<glyph glyph-name="Oslash" unicode="&#xd8;" horiz-adv-x="785" d="M62 -26 L159 68 C216 23 293 -4 390 -4 C618 -4 736 150 736 331 C736 415 711 493 661 553 L756 645 L716 687 L619 593 C563 638 486 665 390 665 C161 665 43 511 43 330 C43 246 68 168 118 108 L23 16 L62 -26 L62 -26 Z M552 527 L203 189 C190 231 183 279 183 329 C183 493 253 632 390 632 C464 632 518 591 552 527 L552 527 Z M576 469 C589 427 595 379 595 329 C595 165 525 26 390 26 C315 26 260 67 226 131 L576 469 L576 469 Z " />
<glyph glyph-name="Ugrave" unicode="&#xd9;" horiz-adv-x="728" d="M276 861 C276 854 291 837 313 814 C345 774 432 690 432 690 L445 699 C445 699 403 818 371 859 C357 889 347 909 342 909 C322 909 276 875 276 861 L276 861 Z M708 660 L495 660 L495 649 L509 648 C559 646 582 622 584 570 L583 204 C583 106 527 40 384 40 C270 40 225 103 225 197 L225 571 C225 622 244 646 289 648 L300 649 L300 660 L22 660 L22 649 L33 648 C78 646 97 622 97 571 L97 222 C97 86 172 -5 365 -5 C550 -5 622 74 622 192 L622 561 C622 619 644 646 694 648 L707 649 L708 660 L708 660 Z " />
<glyph glyph-name="Uacute" unicode="&#xda;" horiz-adv-x="728" d="M361 690 C361 690 446 774 477 814 C499 838 513 855 513 861 C513 875 467 909 447 909 C443 909 433 889 419 859 C388 819 348 699 348 699 L361 690 L361 690 Z M708 660 L495 660 L495 649 L509 648 C559 646 582 622 584 570 L583 204 C583 106 527 40 384 40 C270 40 225 103 225 197 L225 571 C225 622 244 646 289 648 L300 649 L300 660 L22 660 L22 649 L33 648 C78 646 97 622 97 571 L97 222 C97 86 172 -5 365 -5 C550 -5 622 74 622 192 L622 561 C622 619 644 646 694 648 L707 649 L708 660 L708 660 Z " />
<glyph glyph-name="Ucircumflex" unicode="&#xdb;" horiz-adv-x="728" d="M397 872 C392 882 378 904 361 904 C343 904 329 882 324 872 C324 872 239 708 233 701 L245 691 C301 758 338 794 361 813 C407 768 476 691 476 691 L488 701 C488 701 441 782 397 872 L397 872 Z M324 836 C321 843 321 845 324 844 L324 836 L324 836 Z M708 659 L495 659 L495 648 L509 647 C559 645 582 621 584 569 L583 203 C583 105 527 39 384 39 C270 39 225 102 225 196 L225 570 C225 621 244 645 289 647 L300 648 L300 659 L22 659 L22 648 L33 647 C78 645 97 621 97 570 L97 221 C97 85 172 -6 365 -6 C550 -6 622 73 622 191 L622 560 C622 618 644 645 694 647 L707 648 L708 659 L708 659 Z " />
<glyph glyph-name="Udieresis" unicode="&#xdc;" horiz-adv-x="728" d="M463 730 C506 730 534 758 534 800 C534 843 506 871 463 871 C421 871 393 843 393 800 C393 758 421 730 463 730 L463 730 Z M258 730 C300 730 328 758 328 800 C328 843 300 871 258 871 C215 871 187 843 187 800 C187 758 215 730 258 730 L258 730 Z M708 660 L495 660 L495 649 L509 648 C559 646 582 622 584 570 L583 204 C583 106 527 40 384 40 C270 40 225 103 225 197 L225 571 C225 622 244 646 289 648 L300 649 L300 660 L22 660 L22 649 L33 648 C78 646 97 622 97 571 L97 222 C97 86 172 -5 365 -5 C550 -5 622 74 622 192 L622 561 C622 619 644 646 694 648 L707 649 L708 660 L708 660 Z " />
<glyph glyph-name="Yacute" unicode="&#xdd;" horiz-adv-x="697" d="M345 690 C345 690 431 774 462 814 C483 837 497 854 497 861 C497 875 452 909 432 909 C428 909 417 889 403 859 C372 819 332 699 332 699 L345 690 L345 690 Z M290 660 L-1 660 L-1 649 L7 648 C39 646 66 626 95 583 L280 288 L281 80 C279 36 260 15 218 13 L207 12 L207 1 L484 1 L484 12 L473 13 C428 15 409 39 409 90 L409 326 L409 326 L581 572 C617 623 650 647 690 649 L700 650 L700 661 L495 661 L495 650 L510 649 C570 647 575 616 531 552 L395 353 L258 572 C226 623 232 647 280 649 L292 650 L290 660 L290 660 Z " />
<glyph glyph-name="agrave" unicode="&#xe0;" horiz-adv-x="537" d="M515 64 C507 53 495 45 470 45 C439 45 430 72 430 112 L430 352 C430 444 369 505 278 505 C154 505 63 458 49 388 L164 388 C174 440 209 474 252 474 C286 474 309 436 309 378 L309 266 C283 263 253 258 230 252 C114 223 36 164 36 105 C36 39 88 -5 166 -5 C224 -5 278 11 317 38 C328 8 350 -10 391 -10 C467 -10 505 13 528 48 L515 64 L515 64 Z M155 701 C155 694 170 677 192 654 C224 614 311 530 311 530 L324 539 C324 539 282 658 250 699 C236 729 226 749 221 749 C201 749 155 715 155 701 L155 701 Z M309 234 L309 100 C309 93 309 86 309 80 C285 74 256 71 224 71 C179 71 149 98 149 138 C149 173 181 204 228 216 C257 223 285 229 308 234 L309 234 L309 234 Z " />
<glyph glyph-name="aacute" unicode="&#xe1;" horiz-adv-x="537" d="M210 530 C210 530 295 614 326 654 C348 678 362 695 362 701 C362 715 316 749 296 749 C292 749 282 729 268 699 C237 659 197 539 197 539 L210 530 L210 530 Z M515 64 C507 53 495 45 470 45 C439 45 430 72 430 112 L430 352 C430 444 369 505 278 505 C154 505 63 458 49 388 L164 388 C174 440 209 474 252 474 C286 474 309 436 309 378 L309 266 C283 263 253 258 230 252 C114 223 36 164 36 105 C36 39 88 -5 166 -5 C224 -5 278 11 317 38 C328 8 350 -10 391 -10 C467 -10 505 13 528 48 L515 64 L515 64 Z M309 234 L309 100 C309 93 309 86 309 80 C285 74 256 71 224 71 C179 71 149 98 149 138 C149 173 181 204 228 216 C257 223 285 229 308 234 L309 234 L309 234 Z " />
<glyph glyph-name="acircumflex" unicode="&#xe2;" horiz-adv-x="537" d="M515 64 C507 53 495 45 470 45 C439 45 430 72 430 112 L430 352 C430 444 369 505 278 505 C154 505 63 458 49 388 L164 388 C174 440 209 474 252 474 C286 474 309 436 309 378 L309 266 C283 263 253 258 230 252 C114 223 36 164 36 105 C36 39 88 -5 166 -5 C224 -5 278 11 317 38 C328 8 350 -10 391 -10 C467 -10 505 13 528 48 L515 64 L515 64 Z M276 712 C271 722 257 744 240 744 C222 744 208 722 203 712 C203 712 118 548 112 541 L124 531 C180 598 217 634 240 653 C286 608 355 531 355 531 L367 541 C367 541 320 622 276 712 L276 712 Z M203 676 C200 683 200 685 203 684 L203 676 L203 676 Z M309 234 L309 100 C309 93 309 86 309 80 C285 74 256 71 224 71 C179 71 149 98 149 138 C149 173 181 204 228 216 C257 223 285 229 308 234 L309 234 L309 234 Z " />
<glyph glyph-name="atilde" unicode="&#xe3;" horiz-adv-x="537" d="M83 595 C83 629 101 651 128 651 C186 651 262 588 320 588 C378 588 416 643 416 725 L396 725 C396 689 376 665 345 665 C287 665 211 727 153 727 C99 727 63 674 63 595 L83 595 L83 595 Z M515 64 C507 53 495 45 470 45 C439 45 430 72 430 112 L430 352 C430 444 369 505 278 505 C154 505 63 458 49 388 L164 388 C174 440 209 474 252 474 C286 474 309 436 309 378 L309 266 C283 263 253 258 230 252 C114 223 36 164 36 105 C36 39 88 -5 166 -5 C224 -5 278 11 317 38 C328 8 350 -10 391 -10 C467 -10 505 13 528 48 L515 64 L515 64 Z M309 234 L309 100 C309 93 309 86 309 80 C285 74 256 71 224 71 C179 71 149 98 149 138 C149 173 181 204 228 216 C257 223 285 229 308 234 L309 234 L309 234 Z " />
<glyph glyph-name="adieresis" unicode="&#xe4;" horiz-adv-x="537" d="M342 570 C385 570 413 598 413 640 C413 683 385 711 342 711 C300 711 272 683 272 640 C272 598 300 570 342 570 L342 570 Z M137 570 C179 570 207 598 207 640 C207 683 179 711 137 711 C94 711 66 683 66 640 C66 598 94 570 137 570 L137 570 Z M515 64 C507 53 495 45 470 45 C439 45 430 72 430 112 L430 352 C430 444 369 505 278 505 C154 505 63 458 49 388 L164 388 C174 440 209 474 252 474 C286 474 309 436 309 378 L309 266 C283 263 253 258 230 252 C114 223 36 164 36 105 C36 39 88 -5 166 -5 C224 -5 278 11 317 38 C328 8 350 -10 391 -10 C467 -10 505 13 528 48 L515 64 L515 64 Z M309 234 L309 100 C309 93 309 86 309 80 C285 74 256 71 224 71 C179 71 149 98 149 138 C149 173 181 204 228 216 C257 223 285 229 308 234 L309 234 L309 234 Z " />
<glyph glyph-name="aring" unicode="&#xe5;" horiz-adv-x="537" d="M176 628 C176 668 202 694 240 694 C278 694 303 668 303 628 C303 592 274 561 240 561 C205 561 176 592 176 628 L176 628 Z M144 628 C144 578 188 535 240 535 C291 535 335 578 335 628 C335 683 297 720 240 720 C182 720 144 683 144 628 L144 628 Z M515 64 C507 53 495 45 470 45 C439 45 430 72 430 112 L430 352 C430 444 369 505 278 505 C154 505 63 458 49 388 L164 388 C174 440 209 474 252 474 C286 474 309 436 309 378 L309 266 C283 263 253 258 230 252 C114 223 36 164 36 105 C36 39 88 -5 166 -5 C224 -5 278 11 317 38 C328 8 350 -10 391 -10 C467 -10 505 13 528 48 L515 64 L515 64 Z M309 234 L309 100 C309 93 309 86 309 80 C285 74 256 71 224 71 C179 71 149 98 149 138 C149 173 181 204 228 216 C257 223 285 229 308 234 L309 234 L309 234 Z " />
<glyph glyph-name="ccedilla" unicode="&#xe7;" horiz-adv-x="547" d="M227 -76 L214 -95 C218 -88 222 -82 226 -76 L227 -76 L227 -76 Z M228 -74 C259 -30 283 -12 295 -5 C364 1 442 33 496 78 L485 90 C466 74 420 64 369 64 C250 64 171 147 171 272 C171 392 226 472 309 472 C352 472 383 444 387 403 C390 369 413 347 445 347 C476 347 496 367 496 398 C490 462 421 504 322 504 C158 504 49 394 49 228 C49 93 133 1 260 -5 C253 -16 233 -47 205 -90 L213 -95 C231 -86 254 -80 271 -80 C306 -80 329 -102 329 -135 C329 -166 297 -187 248 -187 C217 -187 190 -181 181 -173 L173 -185 C197 -206 236 -220 271 -220 C348 -220 400 -186 400 -135 C400 -88 359 -57 298 -57 C276 -57 247 -64 227 -74 L228 -74 L228 -74 Z " />
<glyph glyph-name="egrave" unicode="&#xe8;" horiz-adv-x="553" d="M503 79 L492 91 C473 75 426 65 373 65 C242 65 164 159 173 300 L503 300 C503 423 422 505 300 505 C150 505 50 395 50 229 C50 89 141 -5 277 -5 C353 -5 443 29 503 79 L503 79 Z M216 701 C216 693 230 676 252 654 C284 613 372 530 372 530 L385 539 C385 539 343 658 311 699 C297 729 286 749 281 749 C262 749 216 715 216 701 L216 701 Z M396 393 L396 396 C396 395 396 394 396 393 L396 393 Z M346 337 L175 322 C186 414 230 473 292 473 C354 473 395 442 395 396 C394 365 375 342 344 337 L346 337 L346 337 Z " />
<glyph glyph-name="eacute" unicode="&#xe9;" horiz-adv-x="553" d="M270 530 C270 530 356 614 387 654 C408 677 422 694 422 701 C422 715 377 749 357 749 C353 749 342 729 328 699 C297 659 257 539 257 539 L270 530 L270 530 Z M503 79 L492 91 C473 75 426 65 373 65 C242 65 164 159 173 300 L503 300 C503 423 422 505 300 505 C150 505 50 395 50 229 C50 89 141 -5 277 -5 C353 -5 443 29 503 79 L503 79 Z M396 393 L396 396 C396 395 396 394 396 393 L396 393 Z M346 337 L175 322 C186 414 230 473 292 473 C354 473 395 442 395 396 C394 365 375 342 344 337 L346 337 L346 337 Z " />
<glyph glyph-name="ecircumflex" unicode="&#xea;" horiz-adv-x="553" d="M503 79 L492 91 C473 75 426 65 373 65 C242 65 164 159 173 300 L503 300 C503 423 422 505 300 505 C150 505 50 395 50 229 C50 89 141 -5 277 -5 C353 -5 443 29 503 79 L503 79 Z M337 712 C332 722 318 744 300 744 C283 744 269 722 264 712 C264 712 179 548 173 541 L185 531 C241 597 278 633 301 652 C347 607 415 531 415 531 L427 541 C427 541 382 621 337 712 L337 712 Z M263 676 C260 683 260 685 263 684 L263 676 L263 676 Z M396 393 L396 396 C396 395 396 394 396 393 L396 393 Z M346 337 L175 322 C186 414 230 473 292 473 C354 473 395 442 395 396 C394 365 375 342 344 337 L346 337 L346 337 Z " />
<glyph glyph-name="edieresis" unicode="&#xeb;" horiz-adv-x="553" d="M403 570 C445 570 473 598 473 640 C473 683 445 711 403 711 C361 711 333 683 333 640 C333 598 361 570 403 570 L403 570 Z M197 570 C239 570 267 598 267 640 C267 683 239 711 197 711 C155 711 127 683 127 640 C127 598 155 570 197 570 L197 570 Z M503 79 L492 91 C473 75 426 65 373 65 C242 65 164 159 173 300 L503 300 C503 423 422 505 300 505 C150 505 50 395 50 229 C50 89 141 -5 277 -5 C353 -5 443 29 503 79 L503 79 Z M396 393 L396 396 C396 395 396 394 396 393 L396 393 Z M346 337 L175 322 C186 414 230 473 292 473 C354 473 395 442 395 396 C394 365 375 342 344 337 L346 337 L346 337 Z " />
<glyph glyph-name="igrave" unicode="&#xec;" horiz-adv-x="355" d="M94 701 C94 693 108 676 130 654 C162 613 250 530 250 530 L263 539 C263 539 221 658 189 699 C175 729 164 749 159 749 C140 749 94 715 94 701 L94 701 Z M310 11 L299 12 C254 14 235 38 235 89 L235 500 L212 500 L45 449 L45 443 L56 440 C119 425 120 423 120 350 L120 89 C120 38 101 14 56 12 L45 11 L45 0 L310 0 L310 11 L310 11 Z " />
<glyph glyph-name="iacute" unicode="&#xed;" horiz-adv-x="355" d="M102 530 C102 530 188 614 219 654 C240 677 254 694 254 701 C254 715 209 749 189 749 C185 749 174 729 160 699 C129 659 89 539 89 539 L102 530 L102 530 Z M310 11 L299 12 C254 14 235 38 235 89 L235 500 L212 500 L45 449 L45 443 L56 440 C119 425 120 423 120 350 L120 89 C120 38 101 14 56 12 L45 11 L45 0 L310 0 L310 11 L310 11 Z " />
<glyph glyph-name="icircumflex" unicode="&#xee;" horiz-adv-x="355" d="M215 712 C210 722 196 744 178 744 C161 744 147 722 142 712 C142 712 57 548 51 541 L63 531 C119 597 156 633 179 652 C225 607 293 531 293 531 L305 541 C305 541 260 621 215 712 L215 712 Z M141 676 C138 683 138 685 141 684 L141 676 L141 676 Z M310 11 L299 12 C254 14 235 38 235 89 L235 500 L212 500 L45 449 L45 443 L56 440 C119 425 120 423 120 350 L120 89 C120 38 101 14 56 12 L45 11 L45 0 L310 0 L310 11 L310 11 Z " />
<glyph glyph-name="idieresis" unicode="&#xef;" horiz-adv-x="355" d="M281 570 C323 570 351 598 351 640 C351 683 323 711 281 711 C239 711 211 683 211 640 C211 598 239 570 281 570 L281 570 Z M75 570 C117 570 145 598 145 640 C145 683 117 711 75 711 C33 711 5 683 5 640 C5 598 33 570 75 570 L75 570 Z M310 11 L299 12 C254 14 235 38 235 89 L235 500 L212 500 L45 449 L45 443 L56 440 C119 425 120 423 120 350 L120 89 C120 38 101 14 56 12 L45 11 L45 0 L310 0 L310 11 L310 11 Z " />
<glyph glyph-name="ntilde" unicode="&#xf1;" horiz-adv-x="661" d="M176 595 C176 629 194 651 221 651 C279 651 355 588 413 588 C471 588 509 643 509 725 L489 725 C489 689 469 665 438 665 C380 665 304 727 246 727 C192 727 156 674 156 595 L176 595 L176 595 Z M356 0 L621 0 L621 11 L610 12 C565 14 546 38 546 89 L546 338 C546 438 512 505 426 505 C361 505 286 476 234 431 L234 500 L211 500 L44 449 L44 443 L55 440 C118 425 119 423 119 350 L119 89 C119 38 100 14 55 12 L44 11 L44 0 L309 0 L309 11 L298 12 C253 14 234 38 234 89 L234 415 C255 423 293 428 338 428 C406 428 432 387 432 326 L432 89 C432 38 413 14 368 12 L357 11 L356 0 L356 0 Z " />
<glyph glyph-name="ograve" unicode="&#xf2;" horiz-adv-x="632" d="M178 250 C178 387 233 479 316 479 C399 479 455 387 455 250 C455 113 399 21 316 21 C233 21 178 113 178 250 L178 250 Z M50 250 C50 97 156 -5 316 -5 C476 -5 582 97 582 250 C582 403 476 505 316 505 C156 505 50 403 50 250 L50 250 Z M232 701 C232 693 246 676 268 654 C300 613 388 530 388 530 L401 539 C401 539 359 658 327 699 C313 729 302 749 297 749 C278 749 232 715 232 701 L232 701 Z " />
<glyph glyph-name="oacute" unicode="&#xf3;" horiz-adv-x="632" d="M286 530 C286 530 372 614 403 654 C424 677 438 694 438 701 C438 715 393 749 373 749 C369 749 358 729 344 699 C313 659 273 539 273 539 L286 530 L286 530 Z M178 250 C178 387 233 479 316 479 C399 479 455 387 455 250 C455 113 399 21 316 21 C233 21 178 113 178 250 L178 250 Z M50 250 C50 97 156 -5 316 -5 C476 -5 582 97 582 250 C582 403 476 505 316 505 C156 505 50 403 50 250 L50 250 Z " />
<glyph glyph-name="ocircumflex" unicode="&#xf4;" horiz-adv-x="632" d="M178 250 C178 387 233 479 316 479 C399 479 455 387 455 250 C455 113 399 21 316 21 C233 21 178 113 178 250 L178 250 Z M50 250 C50 97 156 -5 316 -5 C476 -5 582 97 582 250 C582 403 476 505 316 505 C156 505 50 403 50 250 L50 250 Z M353 712 C348 722 334 744 316 744 C299 744 285 722 280 712 C280 712 195 548 189 541 L201 531 C257 597 294 633 317 652 C363 607 431 531 431 531 L443 541 C443 541 398 621 353 712 L353 712 Z M279 676 C276 683 276 685 279 684 L279 676 L279 676 Z " />
<glyph glyph-name="otilde" unicode="&#xf5;" horiz-adv-x="632" d="M159 595 C159 629 177 651 204 651 C262 651 339 588 397 588 C454 588 492 643 492 725 L473 725 C473 689 453 665 422 665 C364 665 287 727 229 727 C176 727 140 674 140 595 L159 595 L159 595 Z M178 250 C178 387 233 479 316 479 C399 479 455 387 455 250 C455 113 399 21 316 21 C233 21 178 113 178 250 L178 250 Z M50 250 C50 97 156 -5 316 -5 C476 -5 582 97 582 250 C582 403 476 505 316 505 C156 505 50 403 50 250 L50 250 Z " />
<glyph glyph-name="odieresis" unicode="&#xf6;" horiz-adv-x="632" d="M419 570 C461 570 489 598 489 640 C489 683 461 711 419 711 C377 711 349 683 349 640 C349 598 377 570 419 570 L419 570 Z M213 570 C255 570 283 598 283 640 C283 683 255 711 213 711 C171 711 143 683 143 640 C143 598 171 570 213 570 L213 570 Z M178 250 C178 387 233 479 316 479 C399 479 455 387 455 250 C455 113 399 21 316 21 C233 21 178 113 178 250 L178 250 Z M50 250 C50 97 156 -5 316 -5 C476 -5 582 97 582 250 C582 403 476 505 316 505 C156 505 50 403 50 250 L50 250 Z " />
<glyph glyph-name="oslash" unicode="&#xf8;" horiz-adv-x="632" d="M63 -19 L137 52 C182 15 243 -6 315 -6 C475 -6 581 96 581 249 C581 318 559 377 521 421 L594 491 L568 519 L494 448 C449 485 388 506 316 506 C156 506 50 404 50 251 C50 182 72 123 110 79 L37 9 L63 -19 L63 -19 Z M431 387 L188 154 C181 182 177 214 177 249 C177 386 232 478 315 478 C366 478 407 444 431 386 L431 387 L431 387 Z M444 346 C451 317 455 285 455 250 C455 113 399 21 316 21 C265 21 225 55 201 113 L444 346 L444 346 Z " />
<glyph glyph-name="ugrave" unicode="&#xf9;" horiz-adv-x="626" d="M326 489 L337 488 C382 486 401 462 401 411 L401 92 C385 79 360 71 323 71 C245 71 205 109 205 166 L205 500 L15 500 L15 489 L26 488 C71 486 89 461 90 410 L91 153 C91 58 139 -6 233 -6 C293 -6 350 25 402 73 L402 -1 L425 -1 L592 50 L592 56 L581 59 C518 74 517 76 517 149 L517 499 L327 499 L326 489 L326 489 Z M219 700 C219 693 234 676 256 653 C288 613 375 529 375 529 L388 538 C388 538 346 657 314 698 C300 728 290 748 285 748 C265 748 219 714 219 700 L219 700 Z " />
<glyph glyph-name="uacute" unicode="&#xfa;" horiz-adv-x="626" d="M273 530 C273 530 358 614 389 654 C411 678 425 695 425 701 C425 715 379 749 359 749 C355 749 345 729 331 699 C300 659 260 539 260 539 L273 530 L273 530 Z M326 489 L337 488 C382 486 401 462 401 411 L401 92 C385 79 360 71 323 71 C245 71 205 109 205 166 L205 500 L15 500 L15 489 L26 488 C71 486 89 461 90 410 L91 153 C91 58 139 -6 233 -6 C293 -6 350 25 402 73 L402 -1 L425 -1 L592 50 L592 56 L581 59 C518 74 517 76 517 149 L517 499 L327 499 L326 489 L326 489 Z " />
<glyph glyph-name="ucircumflex" unicode="&#xfb;" horiz-adv-x="626" d="M326 489 L337 488 C382 486 401 462 401 411 L401 92 C385 79 360 71 323 71 C245 71 205 109 205 166 L205 500 L15 500 L15 489 L26 488 C71 486 89 461 90 410 L91 153 C91 58 139 -6 233 -6 C293 -6 350 25 402 73 L402 -1 L425 -1 L592 50 L592 56 L581 59 C518 74 517 76 517 149 L517 499 L327 499 L326 489 L326 489 Z M340 711 C335 721 321 743 304 743 C286 743 272 721 267 711 C267 711 182 547 176 540 L188 530 C244 597 281 633 304 652 C350 607 419 530 419 530 L431 540 C431 540 384 621 340 711 L340 711 Z M267 675 C264 682 264 684 267 683 L267 675 L267 675 Z " />
<glyph glyph-name="udieresis" unicode="&#xfc;" horiz-adv-x="626" d="M405 570 C448 570 476 598 476 640 C476 683 448 711 405 711 C363 711 335 683 335 640 C335 598 363 570 405 570 L405 570 Z M200 570 C242 570 270 598 270 640 C270 683 242 711 200 711 C157 711 129 683 129 640 C129 598 157 570 200 570 L200 570 Z M326 489 L337 488 C382 486 401 462 401 411 L401 92 C385 79 360 71 323 71 C245 71 205 109 205 166 L205 500 L15 500 L15 489 L26 488 C71 486 89 461 90 410 L91 153 C91 58 139 -6 233 -6 C293 -6 350 25 402 73 L402 -1 L425 -1 L592 50 L592 56 L581 59 C518 74 517 76 517 149 L517 499 L327 499 L326 489 L326 489 Z " />
<glyph glyph-name="ydieresis" unicode="&#xff;" horiz-adv-x="562" d="M404 570 C446 570 474 598 474 640 C474 683 446 711 404 711 C362 711 334 683 334 640 C334 598 362 570 404 570 L404 570 Z M198 570 C240 570 268 598 268 640 C268 683 240 711 198 711 C156 711 128 683 128 640 C128 598 156 570 198 570 L198 570 Z M260 500 L-17 500 L-17 489 L-5 488 C40 486 71 461 96 411 L288 7 C280 -8 267 -34 257 -62 C227 -128 200 -154 161 -154 C161 -154 97 -129 70 -129 C35 -129 12 -149 12 -178 C12 -209 44 -230 91 -230 C181 -230 236 -186 288 -72 C300 -38 316 -10 316 -10 L512 417 C535 464 563 486 607 488 L619 489 L619 500 L436 500 L436 489 L446 488 C487 486 494 461 473 411 L355 131 L223 418 C203 464 212 486 250 488 L260 489 L260 500 L260 500 Z " />
<glyph glyph-name="Amacron" unicode="&#x100;" horiz-adv-x="734" d="M181 761 L507 761 L507 825 L181 825 L181 761 L181 761 Z M425 0 L729 0 L729 11 C685 11 661 24 635 75 L360 675 L328 675 L96 77 C76 34 49 14 7 12 L-5 11 L-5 0 L219 0 L219 11 L203 12 C142 14 126 43 148 104 L196 232 L427 232 L491 89 C514 37 503 14 451 12 L427 11 L425 0 L425 0 Z M414 264 L209 264 L302 514 L414 264 L414 264 Z " />
<glyph glyph-name="amacron" unicode="&#x101;" horiz-adv-x="537" d="M77 601 L402 601 L402 665 L77 665 L77 601 L77 601 Z M515 64 C507 53 495 45 470 45 C439 45 430 72 430 112 L430 352 C430 444 369 505 278 505 C154 505 63 458 49 388 L164 388 C174 440 209 474 252 474 C286 474 309 436 309 378 L309 266 C283 263 253 258 230 252 C114 223 36 164 36 105 C36 39 88 -5 166 -5 C224 -5 278 11 317 38 C328 8 350 -10 391 -10 C467 -10 505 13 528 48 L515 64 L515 64 Z M309 234 L309 100 C309 93 309 86 309 80 C285 74 256 71 224 71 C179 71 149 98 149 138 C149 173 181 204 228 216 C257 223 285 229 308 234 L309 234 L309 234 Z " />
<glyph glyph-name="Abreve" unicode="&#x102;" horiz-adv-x="734" d="M199 870 C233 790 291 736 344 736 C397 736 455 790 489 870 L470 878 C453 838 403 812 344 812 C285 812 235 838 218 878 L199 870 L199 870 Z M425 0 L729 0 L729 11 C685 11 661 24 635 75 L360 675 L328 675 L96 77 C76 34 49 14 7 12 L-5 11 L-5 0 L219 0 L219 11 L203 12 C142 14 126 43 148 104 L196 232 L427 232 L491 89 C514 37 503 14 451 12 L427 11 L425 0 L425 0 Z M414 264 L209 264 L302 514 L414 264 L414 264 Z " />
<glyph glyph-name="abreve" unicode="&#x103;" horiz-adv-x="537" d="M94 680 C128 600 187 546 240 546 C293 546 351 600 385 680 L366 688 C349 648 299 622 240 622 C181 622 130 648 113 688 L94 680 L94 680 Z M515 64 C507 53 495 45 470 45 C439 45 430 72 430 112 L430 352 C430 444 369 505 278 505 C154 505 63 458 49 388 L164 388 C174 440 209 474 252 474 C286 474 309 436 309 378 L309 266 C283 263 253 258 230 252 C114 223 36 164 36 105 C36 39 88 -5 166 -5 C224 -5 278 11 317 38 C328 8 350 -10 391 -10 C467 -10 505 13 528 48 L515 64 L515 64 Z M309 234 L309 100 C309 93 309 86 309 80 C285 74 256 71 224 71 C179 71 149 98 149 138 C149 173 181 204 228 216 C257 223 285 229 308 234 L309 234 L309 234 Z " />
<glyph glyph-name="Aogonek" unicode="&#x104;" horiz-adv-x="734" d="M425 0 L481 0 C425 -37 357 -102 357 -155 C357 -204 413 -237 496 -237 C532 -237 567 -225 582 -207 L574 -197 C570 -202 549 -205 521 -205 C465 -205 428 -180 428 -143 C428 -80 499 -12 530 -1 L729 -1 L729 10 C685 10 661 23 635 74 L360 674 L328 674 L96 76 C76 33 49 13 7 11 L-5 10 L-5 -1 L219 -1 L219 10 L203 11 C142 13 126 42 148 103 L196 231 L427 231 L491 88 C514 36 503 13 451 11 L427 10 L425 0 L425 0 Z M414 263 L209 263 L302 513 L414 263 L414 263 Z " />
<glyph glyph-name="aogonek" unicode="&#x105;" horiz-adv-x="537" d="M515 64 C507 53 495 45 470 45 C439 45 430 72 430 112 L430 352 C430 444 369 505 278 505 C154 505 63 458 49 388 L164 388 C174 440 209 474 252 474 C286 474 309 436 309 378 L309 266 C283 263 253 258 230 252 C114 223 36 164 36 105 C36 39 88 -5 166 -5 C224 -5 278 11 317 38 C331 -1 363 -14 417 -10 C373 -48 333 -97 333 -140 C333 -198 389 -237 472 -237 C508 -237 543 -225 558 -207 L550 -197 C546 -202 525 -205 497 -205 C441 -205 404 -174 404 -128 C404 -77 446 -23 479 4 C501 14 517 29 529 47 L515 64 L515 64 Z M310 233 L310 99 C310 92 310 85 310 79 C286 73 257 70 225 70 C180 70 150 97 150 137 C150 172 182 203 229 215 C258 222 286 228 309 233 L310 233 L310 233 Z " />
<glyph glyph-name="Cacute" unicode="&#x106;" horiz-adv-x="757" d="M385 690 C385 690 471 774 502 814 C523 837 537 854 537 861 C537 875 492 909 472 909 C468 909 457 889 443 859 C412 819 372 699 372 699 L385 690 L385 690 Z M697 53 L688 68 L688 68 L697 53 L697 53 Z M687 207 C683 196 677 181 673 170 C644 93 567 38 477 29 C461 28 445 27 430 27 C281 27 181 148 181 330 C181 512 281 633 430 633 C456 633 482 631 508 628 C579 619 645 564 673 490 C677 479 683 464 687 453 L696 453 L696 607 L688 593 L688 593 L696 607 C636 642 529 665 430 665 C197 665 41 531 41 330 C41 129 197 -5 430 -5 C529 -5 636 18 696 53 L696 207 L687 207 L687 207 Z " />
<glyph glyph-name="cacute" unicode="&#x107;" horiz-adv-x="547" d="M247 530 C247 530 333 614 364 654 C385 677 399 694 399 701 C399 715 354 749 334 749 C330 749 319 729 305 699 C274 659 234 539 234 539 L247 530 L247 530 Z M497 79 L486 91 C467 75 421 65 370 65 C251 65 172 148 172 273 C172 393 227 473 310 473 C353 473 384 445 388 404 C391 370 414 348 446 348 C477 348 497 368 497 399 C491 463 422 505 323 505 C159 505 50 395 50 229 C50 89 140 -5 274 -5 C348 -5 437 29 497 79 L497 79 Z " />
<glyph glyph-name="Ccircumflex" unicode="&#x108;" horiz-adv-x="757" d="M468 872 C463 882 449 904 431 904 C414 904 400 882 395 872 C395 872 310 708 304 701 L316 691 C372 757 409 793 432 812 C478 767 546 691 546 691 L558 701 C558 701 513 781 468 872 L468 872 Z M394 836 C391 843 391 845 394 844 L394 836 L394 836 Z M697 53 L688 68 L688 68 L697 53 L697 53 Z M687 207 C683 196 677 181 673 170 C644 93 567 38 477 29 C461 28 445 27 430 27 C281 27 181 148 181 330 C181 512 281 633 430 633 C456 633 482 631 508 628 C579 619 645 564 673 490 C677 479 683 464 687 453 L696 453 L696 607 L688 593 L688 593 L696 607 C636 642 529 665 430 665 C197 665 41 531 41 330 C41 129 197 -5 430 -5 C529 -5 636 18 696 53 L696 207 L687 207 L687 207 Z " />
<glyph glyph-name="Cdot" unicode="&#x10a;" horiz-adv-x="757" d="M431 730 C473 730 501 758 501 800 C501 843 473 871 431 871 C389 871 361 843 361 800 C361 758 389 730 431 730 L431 730 Z M697 53 L688 68 L688 68 L697 53 L697 53 Z M687 207 C683 196 677 181 673 170 C644 93 567 38 477 29 C461 28 445 27 430 27 C281 27 181 148 181 330 C181 512 281 633 430 633 C456 633 482 631 508 628 C579 619 645 564 673 490 C677 479 683 464 687 453 L696 453 L696 607 L688 593 L688 593 L696 607 C636 642 529 665 430 665 C197 665 41 531 41 330 C41 129 197 -5 430 -5 C529 -5 636 18 696 53 L696 207 L687 207 L687 207 Z " />
<glyph glyph-name="cdot" unicode="&#x10b;" horiz-adv-x="547" d="M323 570 C365 570 393 598 393 640 C393 683 365 711 323 711 C281 711 253 683 253 640 C253 598 281 570 323 570 L323 570 Z M497 79 L486 91 C467 75 421 65 370 65 C251 65 172 148 172 273 C172 393 227 473 310 473 C353 473 384 445 388 404 C391 370 414 348 446 348 C477 348 497 368 497 399 C491 463 422 505 323 505 C159 505 50 395 50 229 C50 89 140 -5 274 -5 C348 -5 437 29 497 79 L497 79 Z " />
<glyph glyph-name="Ccaron" unicode="&#x10c;" horiz-adv-x="757" d="M546 929 C546 929 478 853 432 808 C409 827 372 863 316 929 L304 919 C310 912 395 748 395 748 C400 738 414 716 431 716 C449 716 463 738 468 748 C513 839 558 919 558 919 L546 929 L546 929 Z M394 776 C391 775 391 777 394 784 L394 776 L394 776 Z M697 53 L688 68 L688 68 L697 53 L697 53 Z M687 207 C683 196 677 181 673 170 C644 93 567 38 477 29 C461 28 445 27 430 27 C281 27 181 148 181 330 C181 512 281 633 430 633 C456 633 482 631 508 628 C579 619 645 564 673 490 C677 479 683 464 687 453 L696 453 L696 607 L688 593 L688 593 L696 607 C636 642 529 665 430 665 C197 665 41 531 41 330 C41 129 197 -5 430 -5 C529 -5 636 18 696 53 L696 207 L687 207 L687 207 Z " />
<glyph glyph-name="ccaron" unicode="&#x10d;" horiz-adv-x="547" d="M438 769 C438 769 370 693 324 648 C301 667 264 703 208 769 L196 759 C202 752 287 588 287 588 C292 578 306 556 323 556 C341 556 355 578 360 588 C405 679 450 759 450 759 L438 769 L438 769 Z M497 79 L486 91 C467 75 421 65 370 65 C251 65 172 148 172 273 C172 393 227 473 310 473 C353 473 384 445 388 404 C391 370 414 348 446 348 C477 348 497 368 497 399 C491 463 422 505 323 505 C159 505 50 395 50 229 C50 89 140 -5 274 -5 C348 -5 437 29 497 79 L497 79 Z M286 616 C283 615 283 617 286 624 L286 616 L286 616 Z " />
<glyph glyph-name="Dcaron" unicode="&#x10e;" horiz-adv-x="792" d="M476 929 C476 929 408 853 362 808 C339 827 302 863 246 929 L234 919 C240 912 325 748 325 748 C330 738 344 716 361 716 C379 716 393 738 398 748 C443 839 488 919 488 919 L476 929 L476 929 Z M324 776 C321 775 321 777 324 784 L324 776 L324 776 Z M33 649 L44 648 C89 646 108 622 108 571 L108 89 C108 38 89 14 44 12 L33 11 L33 0 L397 0 C604 0 742 132 742 330 C742 528 588 660 356 660 L33 660 L33 649 L33 649 Z M236 32 L236 628 L356 628 C511 628 614 509 614 330 C614 151 527 32 397 32 L236 32 L236 32 Z " />
<glyph glyph-name="dcaron" unicode="&#x10f;" horiz-adv-x="636" d="M651 751 C627 751 610 688 602 643 L572 477 L587 472 L674 616 C703 664 723 716 723 725 C723 744 673 751 651 751 L651 751 Z M526 720 L503 720 L336 669 L336 663 L347 660 C410 645 411 643 411 570 L411 464 C381 489 342 505 301 505 C153 505 54 391 54 219 C54 85 135 -5 256 -5 C304 -5 364 21 411 62 L411 0 L434 0 L601 51 L601 57 L590 60 C527 75 526 77 526 150 L526 720 L526 720 Z M411 81 C395 72 360 66 319 66 C232 66 174 145 174 264 C174 391 222 475 295 475 C342 475 386 452 411 421 L411 81 L411 81 Z " />
<glyph glyph-name="Emacron" unicode="&#x112;" horiz-adv-x="672" d="M168 761 L494 761 L494 825 L168 825 L168 761 L168 761 Z M492 251 L492 443 L483 443 L479 432 C463 387 428 368 360 368 L243 368 L243 628 L398 628 C474 628 519 595 545 519 L554 493 L562 493 L562 660 L40 660 L40 649 L51 648 C96 646 115 622 115 571 L115 89 C115 38 96 14 51 12 L40 11 L40 0 L561 0 L564 16 C572 61 583 122 591 167 L583 167 L569 141 C530 65 479 32 403 32 L243 32 L243 336 L360 336 C428 336 464 314 479 264 L483 251 L492 251 L492 251 Z " />
<glyph glyph-name="emacron" unicode="&#x113;" horiz-adv-x="553" d="M137 601 L463 601 L463 665 L137 665 L137 601 L137 601 Z M503 79 L492 91 C473 75 426 65 373 65 C242 65 164 159 173 300 L503 300 C503 423 422 505 300 505 C150 505 50 395 50 229 C50 89 141 -5 277 -5 C353 -5 443 29 503 79 L503 79 Z M396 393 L396 396 C396 395 396 394 396 393 L396 393 Z M346 337 L175 322 C186 414 230 473 292 473 C354 473 395 442 395 396 C394 365 375 342 344 337 L346 337 L346 337 Z " />
<glyph glyph-name="Ebreve" unicode="&#x114;" horiz-adv-x="672" d="M186 870 C220 790 278 736 331 736 C384 736 442 790 476 870 L457 878 C440 838 390 812 331 812 C272 812 222 838 205 878 L186 870 L186 870 Z M492 251 L492 443 L483 443 L479 432 C463 387 428 368 360 368 L243 368 L243 628 L398 628 C474 628 519 595 545 519 L554 493 L562 493 L562 660 L40 660 L40 649 L51 648 C96 646 115 622 115 571 L115 89 C115 38 96 14 51 12 L40 11 L40 0 L561 0 L564 16 C572 61 583 122 591 167 L583 167 L569 141 C530 65 479 32 403 32 L243 32 L243 336 L360 336 C428 336 464 314 479 264 L483 251 L492 251 L492 251 Z " />
<glyph glyph-name="ebreve" unicode="&#x115;" horiz-adv-x="553" d="M155 710 C189 630 247 576 300 576 C353 576 411 630 445 710 L426 718 C409 678 359 652 300 652 C241 652 191 678 174 718 L155 710 L155 710 Z M503 79 L492 91 C473 75 426 65 373 65 C242 65 164 159 173 300 L503 300 C503 423 422 505 300 505 C150 505 50 395 50 229 C50 89 141 -5 277 -5 C353 -5 443 29 503 79 L503 79 Z M396 393 L396 396 C396 395 396 394 396 393 L396 393 Z M346 337 L175 322 C186 414 230 473 292 473 C354 473 395 442 395 396 C394 365 375 342 344 337 L346 337 L346 337 Z " />
<glyph glyph-name="Edot" unicode="&#x116;" horiz-adv-x="672" d="M331 730 C373 730 401 758 401 800 C401 843 373 871 331 871 C289 871 261 843 261 800 C261 758 289 730 331 730 L331 730 Z M492 251 L492 443 L483 443 L479 432 C463 387 428 368 360 368 L243 368 L243 628 L398 628 C474 628 519 595 545 519 L554 493 L562 493 L562 660 L40 660 L40 649 L51 648 C96 646 115 622 115 571 L115 89 C115 38 96 14 51 12 L40 11 L40 0 L561 0 L564 16 C572 61 583 122 591 167 L583 167 L569 141 C530 65 479 32 403 32 L243 32 L243 336 L360 336 C428 336 464 314 479 264 L483 251 L492 251 L492 251 Z " />
<glyph glyph-name="edot" unicode="&#x117;" horiz-adv-x="553" d="M300 570 C342 570 370 598 370 640 C370 683 342 711 300 711 C258 711 230 683 230 640 C230 598 258 570 300 570 L300 570 Z M503 79 L492 91 C473 75 426 65 373 65 C242 65 164 159 173 300 L503 300 C503 423 422 505 300 505 C150 505 50 395 50 229 C50 89 141 -5 277 -5 C353 -5 443 29 503 79 L503 79 Z M396 393 L396 396 C396 395 396 394 396 393 L396 393 Z M346 337 L175 322 C186 414 230 473 292 473 C354 473 395 442 395 396 C394 365 375 342 344 337 L346 337 L346 337 Z " />
<glyph glyph-name="Eogonek" unicode="&#x118;" horiz-adv-x="672" d="M492 251 L492 443 L483 443 L479 432 C463 387 428 368 360 368 L243 368 L243 628 L398 628 C474 628 519 595 545 519 L554 493 L562 493 L562 660 L40 660 L40 649 L51 648 C96 646 115 622 115 571 L115 89 C115 38 96 14 51 12 L40 11 L40 0 L508 0 C452 -37 384 -102 384 -155 C384 -204 440 -237 523 -237 C559 -237 594 -225 609 -207 L601 -197 C597 -202 576 -205 548 -205 C492 -205 455 -180 455 -143 C455 -80 526 -12 557 -1 L561 -1 L564 15 C572 60 583 121 591 166 L583 166 L569 140 C530 64 479 31 403 31 L243 31 L243 335 L360 335 C428 335 464 313 479 263 L483 250 L492 251 L492 251 Z " />
<glyph glyph-name="eogonek" unicode="&#x119;" horiz-adv-x="553" d="M406 22 L406 22 C442 36 476 56 503 79 L492 91 C473 75 426 65 373 65 C242 65 164 159 173 300 L503 300 C503 423 422 505 300 505 C150 505 50 395 50 229 C50 73 164 -29 327 -1 C279 -40 232 -94 232 -140 C232 -198 288 -237 371 -237 C407 -237 442 -225 457 -207 L449 -197 C445 -202 424 -205 396 -205 C340 -205 303 -174 303 -128 C303 -61 374 10 405 21 L406 22 L406 22 Z M395 392 L395 395 C395 394 395 393 395 392 L395 392 Z M345 336 L174 321 C185 413 229 472 291 472 C353 472 394 441 394 395 C393 364 374 341 343 336 L345 336 L345 336 Z " />
<glyph glyph-name="Ecaron" unicode="&#x11a;" horiz-adv-x="672" d="M446 929 C446 929 378 853 332 808 C309 827 272 863 216 929 L204 919 C210 912 295 748 295 748 C300 738 314 716 331 716 C349 716 363 738 368 748 C413 839 458 919 458 919 L446 929 L446 929 Z M294 776 C291 775 291 777 294 784 L294 776 L294 776 Z M492 251 L492 443 L483 443 L479 432 C463 387 428 368 360 368 L243 368 L243 628 L398 628 C474 628 519 595 545 519 L554 493 L562 493 L562 660 L40 660 L40 649 L51 648 C96 646 115 622 115 571 L115 89 C115 38 96 14 51 12 L40 11 L40 0 L561 0 L564 16 C572 61 583 122 591 167 L583 167 L569 141 C530 65 479 32 403 32 L243 32 L243 336 L360 336 C428 336 464 314 479 264 L483 251 L492 251 L492 251 Z " />
<glyph glyph-name="ecaron" unicode="&#x11b;" horiz-adv-x="553" d="M415 769 C415 769 347 693 301 648 C278 667 241 703 185 769 L173 759 C179 752 264 588 264 588 C269 578 283 556 300 556 C318 556 332 578 337 588 C382 679 427 759 427 759 L415 769 L415 769 Z M503 79 L492 91 C473 75 426 65 373 65 C242 65 164 159 173 300 L503 300 C503 423 422 505 300 505 C150 505 50 395 50 229 C50 89 141 -5 277 -5 C353 -5 443 29 503 79 L503 79 Z M263 616 C260 615 260 617 263 624 L263 616 L263 616 Z M396 393 L396 396 C396 395 396 394 396 393 L396 393 Z M346 337 L175 322 C186 414 230 473 292 473 C354 473 395 442 395 396 C394 365 375 342 344 337 L346 337 L346 337 Z " />
<glyph glyph-name="Gcircumflex" unicode="&#x11c;" horiz-adv-x="852" d="M458 872 C453 882 439 904 421 904 C404 904 390 882 385 872 C385 872 300 708 294 701 L306 691 C362 757 399 793 422 812 C468 767 536 691 536 691 L548 701 C548 701 503 781 458 872 L458 872 Z M384 836 C381 843 381 845 384 844 L384 836 L384 836 Z M677 453 L677 607 L669 593 L669 593 L677 607 C617 642 514 665 421 665 C194 665 42 531 42 330 C42 129 194 -5 421 -5 C517 -5 622 18 682 53 L682 221 C682 272 701 296 746 298 L757 299 L757 310 L492 310 L492 299 L503 298 C548 296 567 272 567 221 L567 44 C522 33 471 27 422 27 C279 27 183 148 183 330 C183 512 279 633 422 633 C446 633 471 631 495 628 C564 617 628 563 655 490 C659 479 665 464 669 453 L677 453 L677 453 Z " />
<glyph glyph-name="Gbreve" unicode="&#x11e;" horiz-adv-x="852" d="M276 870 C310 790 368 736 421 736 C474 736 532 790 566 870 L547 878 C530 838 480 812 421 812 C362 812 312 838 295 878 L276 870 L276 870 Z M677 453 L677 607 L669 593 L669 593 L677 607 C617 642 514 665 421 665 C194 665 42 531 42 330 C42 129 194 -5 421 -5 C517 -5 622 18 682 53 L682 221 C682 272 701 296 746 298 L757 299 L757 310 L492 310 L492 299 L503 298 C548 296 567 272 567 221 L567 44 C522 33 471 27 422 27 C279 27 183 148 183 330 C183 512 279 633 422 633 C446 633 471 631 495 628 C564 617 628 563 655 490 C659 479 665 464 669 453 L677 453 L677 453 Z " />
<glyph glyph-name="gbreve" unicode="&#x11f;" horiz-adv-x="504" d="M96 710 C130 630 188 576 241 576 C294 576 352 630 386 710 L367 718 C350 678 300 652 241 652 C182 652 132 678 115 718 L96 710 L96 710 Z M504 500 L364 471 C332 493 290 505 241 505 C129 505 54 441 54 346 C54 280 90 229 150 204 C84 194 42 151 42 90 C42 43 76 8 131 -8 C61 -24 17 -71 17 -133 L94 -120 L17 -134 C17 -199 83 -243 183 -243 C364 -243 485 -157 485 -28 C485 45 410 94 297 94 C273 94 199 91 199 91 C151 91 119 108 119 134 C119 166 143 187 180 187 L242 187 C355 187 430 251 430 346 C430 378 422 406 407 430 L506 436 L504 500 L504 500 Z M243 213 C196 213 164 266 164 346 C164 426 196 479 243 479 C290 479 322 426 322 346 C322 266 290 213 243 213 L243 213 Z M169 -16 C181 -17 194 -18 207 -18 C207 -18 265 -15 267 -15 C349 -15 404 -43 404 -86 C404 -161 322 -211 198 -211 C137 -211 96 -175 96 -120 C96 -65 125 -25 170 -16 L169 -16 L169 -16 Z " />
<glyph glyph-name="Gdot" unicode="&#x120;" horiz-adv-x="852" d="M421 730 C463 730 491 758 491 800 C491 843 463 871 421 871 C379 871 351 843 351 800 C351 758 379 730 421 730 L421 730 Z M677 453 L677 607 L669 593 L669 593 L677 607 C617 642 514 665 421 665 C194 665 42 531 42 330 C42 129 194 -5 421 -5 C517 -5 622 18 682 53 L682 221 C682 272 701 296 746 298 L757 299 L757 310 L492 310 L492 299 L503 298 C548 296 567 272 567 221 L567 44 C522 33 471 27 422 27 C279 27 183 148 183 330 C183 512 279 633 422 633 C446 633 471 631 495 628 C564 617 628 563 655 490 C659 479 665 464 669 453 L677 453 L677 453 Z " />
<glyph glyph-name="gdot" unicode="&#x121;" horiz-adv-x="504" d="M241 570 C283 570 311 598 311 640 C311 683 283 711 241 711 C199 711 171 683 171 640 C171 598 199 570 241 570 L241 570 Z M504 500 L364 471 C332 493 290 505 241 505 C129 505 54 441 54 346 C54 280 90 229 150 204 C84 194 42 151 42 90 C42 43 76 8 131 -8 C61 -24 17 -71 17 -133 L94 -120 L17 -134 C17 -199 83 -243 183 -243 C364 -243 485 -157 485 -28 C485 45 410 94 297 94 C273 94 199 91 199 91 C151 91 119 108 119 134 C119 166 143 187 180 187 L242 187 C355 187 430 251 430 346 C430 378 422 406 407 430 L506 436 L504 500 L504 500 Z M243 213 C196 213 164 266 164 346 C164 426 196 479 243 479 C290 479 322 426 322 346 C322 266 290 213 243 213 L243 213 Z M169 -16 C181 -17 194 -18 207 -18 C207 -18 265 -15 267 -15 C349 -15 404 -43 404 -86 C404 -161 322 -211 198 -211 C137 -211 96 -175 96 -120 C96 -65 125 -25 170 -16 L169 -16 L169 -16 Z " />
<glyph glyph-name="Hcircumflex" unicode="&#x124;" horiz-adv-x="812" d="M443 872 C438 882 424 904 406 904 C389 904 375 882 370 872 C370 872 285 708 279 701 L291 691 C347 757 384 793 407 812 C453 767 521 691 521 691 L533 701 C533 701 488 781 443 872 L443 872 Z M369 836 C366 843 366 845 369 844 L369 836 L369 836 Z M772 11 L761 12 C716 14 697 38 697 89 L697 571 C697 622 716 646 761 648 L772 649 L772 660 L495 660 L495 649 L506 648 C551 646 570 622 570 571 L570 363 L243 363 L243 571 C243 622 262 646 307 648 L318 649 L318 660 L40 660 L40 649 L51 648 C96 646 115 622 115 571 L115 89 C115 38 96 14 51 12 L40 11 L40 0 L318 0 L318 11 L307 12 C262 14 243 38 243 89 L243 331 L570 331 L570 89 C570 38 551 14 506 12 L495 11 L495 0 L772 0 L772 11 L772 11 Z " />
<glyph glyph-name="Itilde" unicode="&#x128;" horiz-adv-x="358" d="M22 755 C22 789 40 811 67 811 C125 811 202 748 260 748 C317 748 355 803 355 885 L336 885 C336 849 316 825 285 825 C227 825 150 887 92 887 C39 887 3 834 3 755 L22 755 L22 755 Z M318 11 L307 12 C262 14 243 38 243 89 L243 571 C243 622 262 646 307 648 L318 649 L318 660 L40 660 L40 649 L51 648 C96 646 115 622 115 571 L115 89 C115 38 96 14 51 12 L40 11 L40 0 L318 0 L318 11 L318 11 Z " />
<glyph glyph-name="itilde" unicode="&#x129;" horiz-adv-x="355" d="M21 595 C21 629 39 651 66 651 C124 651 201 588 259 588 C316 588 354 643 354 725 L335 725 C335 689 315 665 284 665 C226 665 149 727 91 727 C38 727 2 674 2 595 L21 595 L21 595 Z M310 11 L299 12 C254 14 235 38 235 89 L235 500 L212 500 L45 449 L45 443 L56 440 C119 425 120 423 120 350 L120 89 C120 38 101 14 56 12 L45 11 L45 0 L310 0 L310 11 L310 11 Z " />
<glyph glyph-name="Imacron" unicode="&#x12a;" horiz-adv-x="358" d="M16 761 L342 761 L342 825 L16 825 L16 761 L16 761 Z M318 11 L307 12 C262 14 243 38 243 89 L243 571 C243 622 262 646 307 648 L318 649 L318 660 L40 660 L40 649 L51 648 C96 646 115 622 115 571 L115 89 C115 38 96 14 51 12 L40 11 L40 0 L318 0 L318 11 L318 11 Z " />
<glyph glyph-name="imacron" unicode="&#x12b;" horiz-adv-x="355" d="M15 601 L341 601 L341 665 L15 665 L15 601 L15 601 Z M310 11 L299 12 C254 14 235 38 235 89 L235 500 L212 500 L45 449 L45 443 L56 440 C119 425 120 423 120 350 L120 89 C120 38 101 14 56 12 L45 11 L45 0 L310 0 L310 11 L310 11 Z " />
<glyph glyph-name="Ibreve" unicode="&#x12c;" horiz-adv-x="358" d="M34 870 C68 790 126 736 179 736 C232 736 290 790 324 870 L305 878 C288 838 238 812 179 812 C120 812 70 838 53 878 L34 870 L34 870 Z M318 11 L307 12 C262 14 243 38 243 89 L243 571 C243 622 262 646 307 648 L318 649 L318 660 L40 660 L40 649 L51 648 C96 646 115 622 115 571 L115 89 C115 38 96 14 51 12 L40 11 L40 0 L318 0 L318 11 L318 11 Z " />
<glyph glyph-name="ibreve" unicode="&#x12d;" horiz-adv-x="355" d="M33 710 C67 630 125 576 178 576 C231 576 289 630 323 710 L304 718 C287 678 237 652 178 652 C119 652 69 678 52 718 L33 710 L33 710 Z M310 11 L299 12 C254 14 235 38 235 89 L235 500 L212 500 L45 449 L45 443 L56 440 C119 425 120 423 120 350 L120 89 C120 38 101 14 56 12 L45 11 L45 0 L310 0 L310 11 L310 11 Z " />
<glyph glyph-name="Idot" unicode="&#x130;" horiz-adv-x="358" d="M179 730 C221 730 249 758 249 800 C249 843 221 871 179 871 C137 871 109 843 109 800 C109 758 137 730 179 730 L179 730 Z M318 11 L307 12 C262 14 243 38 243 89 L243 571 C243 622 262 646 307 648 L318 649 L318 660 L40 660 L40 649 L51 648 C96 646 115 622 115 571 L115 89 C115 38 96 14 51 12 L40 11 L40 0 L318 0 L318 11 L318 11 Z " />
<glyph glyph-name="dotlessi" unicode="&#x131;" horiz-adv-x="355" d="M310 11 L299 12 C254 14 235 38 235 89 L235 500 L212 500 L45 449 L45 443 L56 440 C119 425 120 423 120 350 L120 89 C120 38 101 14 56 12 L45 11 L45 0 L310 0 L310 11 L310 11 Z " />
<glyph glyph-name="Jcircumflex" unicode="&#x134;" horiz-adv-x="457" d="M315 872 C310 882 296 904 278 904 C261 904 247 882 242 872 C242 872 157 708 151 701 L163 691 C219 757 256 793 279 812 C325 767 393 691 393 691 L405 701 C405 701 360 781 315 872 L315 872 Z M241 836 C238 843 238 845 241 844 L241 836 L241 836 Z M417 660 L139 660 L139 649 L150 648 C195 646 214 622 214 571 L214 200 C214 68 200 16 165 16 C138 16 115 35 108 64 C100 95 78 115 51 115 C13 115 -8 95 0 64 C11 20 64 -10 133 -10 C283 -10 342 79 342 308 L342 571 C342 622 361 646 406 648 L417 649 L417 660 L417 660 Z " />
<glyph glyph-name="Lacute" unicode="&#x139;" horiz-adv-x="672" d="M154 690 C154 690 240 774 271 814 C292 837 306 854 306 861 C306 875 261 909 241 909 C237 909 226 889 212 859 C181 819 141 699 141 699 L154 690 L154 690 Z M318 660 L40 660 L40 649 L51 648 C96 646 115 622 115 571 L115 89 C115 38 96 14 51 12 L40 11 L40 0 L559 0 L562 16 L564 16 C573 63 584 127 592 174 C592 175 591 175 590 176 C583 180 578 182 578 182 L555 131 C523 62 480 32 411 32 L243 32 L243 571 C243 622 262 646 307 648 L318 649 L318 660 L318 660 Z " />
<glyph glyph-name="Lcaron" unicode="&#x13d;" horiz-adv-x="672" d="M441 691 C417 691 400 628 392 583 L362 417 L377 412 L464 556 C493 604 513 656 513 665 C513 684 463 691 441 691 L441 691 Z M318 660 L40 660 L40 649 L51 648 C96 646 115 622 115 571 L115 89 C115 38 96 14 51 12 L40 11 L40 0 L559 0 L562 16 L564 16 C573 63 584 127 592 174 C592 175 591 175 590 176 C583 180 578 182 578 182 L555 131 C523 62 480 32 411 32 L243 32 L243 571 C243 622 262 646 307 648 L318 649 L318 660 L318 660 Z " />
<glyph glyph-name="lcaron" unicode="&#x13e;" horiz-adv-x="355" d="M360 721 C336 721 319 658 311 613 L281 447 L296 442 L383 586 C412 634 432 686 432 695 C432 714 382 721 360 721 L360 721 Z M310 11 L299 12 C254 14 235 38 235 89 L235 720 L212 720 L45 669 L45 663 L56 660 C119 645 120 643 120 570 L120 89 C120 38 101 14 56 12 L45 11 L45 0 L310 0 L310 11 L310 11 Z " />
<glyph glyph-name="Lslash" unicode="&#x141;" horiz-adv-x="672" d="M40 0 L559 0 L562 16 L564 16 C573 63 584 127 592 174 C592 175 591 175 590 176 C583 180 578 182 578 182 L555 131 C523 62 480 32 411 32 L243 32 L243 315 L398 361 L398 399 L243 353 L243 571 C243 622 262 646 307 648 L318 649 L318 660 L40 660 L40 649 L51 648 C96 646 115 622 115 571 L115 315 L63 299 L63 261 L115 277 L115 89 C115 38 96 14 51 12 L40 11 L40 0 L40 0 Z " />
<glyph glyph-name="lslash" unicode="&#x142;" horiz-adv-x="355" d="M45 0 L310 0 L310 11 L299 12 C254 14 235 38 235 89 L235 359 L335 391 L335 429 L235 397 L235 720 L212 720 L45 669 L45 663 L56 660 C119 645 120 643 120 570 L120 361 L20 329 L20 291 L120 323 L120 89 C120 38 101 14 56 12 L45 11 L45 0 L45 0 Z " />
<glyph glyph-name="Nacute" unicode="&#x143;" horiz-adv-x="749" d="M343 690 C343 690 429 774 460 814 C481 837 495 854 495 861 C495 875 450 909 430 909 C426 909 415 889 401 859 C370 819 330 699 330 699 L343 690 L343 690 Z M37 649 L48 648 C93 646 112 622 112 571 L112 89 C112 38 93 14 48 12 L37 11 L37 0 L226 0 L226 11 L215 12 C170 14 151 38 151 89 L151 550 C298 360 445 170 592 -20 L634 -20 L634 571 C634 622 653 646 698 648 L709 649 L709 660 L521 660 L521 649 L532 648 C577 646 596 622 596 571 L596 180 L227 660 L37 660 L37 649 L37 649 Z " />
<glyph glyph-name="nacute" unicode="&#x144;" horiz-adv-x="661" d="M257 530 C257 530 342 614 373 654 C395 678 409 695 409 701 C409 715 363 749 343 749 C339 749 329 729 315 699 C284 659 244 539 244 539 L257 530 L257 530 Z M356 0 L621 0 L621 11 L610 12 C565 14 546 38 546 89 L546 338 C546 438 512 505 426 505 C361 505 286 476 234 431 L234 500 L211 500 L44 449 L44 443 L55 440 C118 425 119 423 119 350 L119 89 C119 38 100 14 55 12 L44 11 L44 0 L309 0 L309 11 L298 12 C253 14 234 38 234 89 L234 415 C255 423 293 428 338 428 C406 428 432 387 432 326 L432 89 C432 38 413 14 368 12 L357 11 L356 0 L356 0 Z " />
<glyph glyph-name="Ncaron" unicode="&#x147;" horiz-adv-x="749" d="M488 929 C488 929 420 853 374 808 C351 827 314 863 258 929 L246 919 C252 912 337 748 337 748 C342 738 356 716 373 716 C391 716 405 738 410 748 C455 839 500 919 500 919 L488 929 L488 929 Z M336 776 C333 775 333 777 336 784 L336 776 L336 776 Z M37 649 L48 648 C93 646 112 622 112 571 L112 89 C112 38 93 14 48 12 L37 11 L37 0 L226 0 L226 11 L215 12 C170 14 151 38 151 89 L151 550 C298 360 445 170 592 -20 L634 -20 L634 571 C634 622 653 646 698 648 L709 649 L709 660 L521 660 L521 649 L532 648 C577 646 596 622 596 571 L596 180 L227 660 L37 660 L37 649 L37 649 Z " />
<glyph glyph-name="ncaron" unicode="&#x148;" horiz-adv-x="661" d="M448 769 C448 769 379 692 333 647 C310 666 273 702 217 769 L205 759 C211 752 296 588 296 588 C301 578 315 556 333 556 C350 556 364 578 369 588 C413 678 460 759 460 759 L448 769 L448 769 Z M296 615 C293 614 293 616 296 623 L296 615 L296 615 Z M356 -1 L621 -1 L621 10 L610 11 C565 13 546 37 546 88 L546 337 C546 437 512 504 426 504 C361 504 286 475 234 430 L234 499 L211 499 L44 448 L44 442 L55 439 C118 424 119 422 119 349 L119 88 C119 37 100 13 55 11 L44 10 L44 -1 L309 -1 L309 10 L298 11 C253 13 234 37 234 88 L234 414 C255 422 293 427 338 427 C406 427 432 386 432 325 L432 88 C432 37 413 13 368 11 L357 10 L356 -1 L356 -1 Z " />
<glyph glyph-name="Omacron" unicode="&#x14c;" horiz-adv-x="785" d="M226 761 L551 761 L551 825 L226 825 L226 761 L226 761 Z M182 330 C182 494 252 633 389 633 C524 633 594 494 594 330 C594 166 524 27 389 27 C252 27 182 166 182 330 L182 330 Z M42 330 C42 149 160 -5 389 -5 C617 -5 735 149 735 330 C735 511 617 665 389 665 C160 665 42 511 42 330 L42 330 Z " />
<glyph glyph-name="omacron" unicode="&#x14d;" horiz-adv-x="632" d="M153 601 L479 601 L479 665 L153 665 L153 601 L153 601 Z M178 250 C178 387 233 479 316 479 C399 479 455 387 455 250 C455 113 399 21 316 21 C233 21 178 113 178 250 L178 250 Z M50 250 C50 97 156 -5 316 -5 C476 -5 582 97 582 250 C582 403 476 505 316 505 C156 505 50 403 50 250 L50 250 Z " />
<glyph glyph-name="Obreve" unicode="&#x14e;" horiz-adv-x="785" d="M243 870 C277 790 336 736 389 736 C442 736 500 790 534 870 L515 878 C498 838 448 812 389 812 C330 812 279 838 262 878 L243 870 L243 870 Z M182 330 C182 494 252 633 389 633 C524 633 594 494 594 330 C594 166 524 27 389 27 C252 27 182 166 182 330 L182 330 Z M42 330 C42 149 160 -5 389 -5 C617 -5 735 149 735 330 C735 511 617 665 389 665 C160 665 42 511 42 330 L42 330 Z " />
<glyph glyph-name="obreve" unicode="&#x14f;" horiz-adv-x="632" d="M171 710 C205 630 263 576 316 576 C369 576 427 630 461 710 L442 718 C425 678 375 652 316 652 C257 652 207 678 190 718 L171 710 L171 710 Z M178 250 C178 387 233 479 316 479 C399 479 455 387 455 250 C455 113 399 21 316 21 C233 21 178 113 178 250 L178 250 Z M50 250 C50 97 156 -5 316 -5 C476 -5 582 97 582 250 C582 403 476 505 316 505 C156 505 50 403 50 250 L50 250 Z " />
<glyph glyph-name="Racute" unicode="&#x154;" horiz-adv-x="741" d="M292 690 C292 690 378 774 409 814 C430 837 444 854 444 861 C444 875 399 909 379 909 C375 909 364 889 350 859 C319 819 279 699 279 699 L292 690 L292 690 Z M33 649 L44 648 C89 646 108 622 108 571 L108 89 C108 38 89 14 44 12 L33 11 L33 0 L311 0 L311 11 L300 12 C255 14 236 38 236 89 L236 312 L322 312 C351 273 405 200 474 106 C550 4 559 0 696 0 L740 0 L740 25 C691 25 690 25 649 81 C560 201 493 289 465 325 C566 351 628 411 628 490 C628 592 526 660 373 660 L33 660 L33 649 L33 649 Z M346 344 L236 344 L236 628 L373 628 C446 628 494 573 494 490 C494 402 435 344 346 344 L346 344 Z " />
<glyph glyph-name="Rcaron" unicode="&#x158;" horiz-adv-x="741" d="M483 929 C483 929 415 853 369 808 C346 827 309 863 253 929 L241 919 C247 912 332 748 332 748 C337 738 351 716 368 716 C386 716 400 738 405 748 C450 839 495 919 495 919 L483 929 L483 929 Z M33 649 L44 648 C89 646 108 622 108 571 L108 89 C108 38 89 14 44 12 L33 11 L33 0 L311 0 L311 11 L300 12 C255 14 236 38 236 89 L236 312 L322 312 C351 273 405 200 474 106 C550 4 559 0 696 0 L740 0 L740 25 C691 25 690 25 649 81 C560 201 493 289 465 325 C566 351 628 411 628 490 C628 592 526 660 373 660 L33 660 L33 649 L33 649 Z M331 776 C328 775 328 777 331 784 L331 776 L331 776 Z M346 344 L236 344 L236 628 L373 628 C446 628 494 573 494 490 C494 402 435 344 346 344 L346 344 Z " />
<glyph glyph-name="rcaron" unicode="&#x159;" horiz-adv-x="463" d="M361 769 C361 769 292 692 246 647 C223 666 186 702 130 769 L118 759 C124 752 209 588 209 588 C214 578 228 556 246 556 C263 556 277 578 282 588 C326 678 373 759 373 759 L361 769 L361 769 Z M209 615 C206 614 206 616 209 623 L209 615 L209 615 Z M44 -1 L309 -1 L309 10 L298 11 C253 13 234 37 234 88 L234 410 C245 415 261 418 280 418 C315 418 363 374 398 374 C431 374 453 396 453 429 C453 473 430 503 372 503 C320 503 267 476 234 434 L234 498 L211 498 L44 447 L44 441 L55 438 C118 423 119 421 119 348 L119 87 C119 36 100 12 55 10 L44 9 L44 -1 L44 -1 Z " />
<glyph glyph-name="Sacute" unicode="&#x15a;" horiz-adv-x="539" d="M220 690 C220 690 306 774 337 814 C358 837 372 854 372 861 C372 875 327 909 307 909 C303 909 292 889 278 859 C247 819 207 699 207 699 L220 690 L220 690 Z M450 456 L450 620 C403 647 332 665 271 665 C132 665 39 583 39 460 C39 382 109 310 215 280 C328 248 403 191 403 137 C403 71 346 27 260 27 C246 27 231 28 216 30 C151 42 91 96 63 169 C59 180 53 194 49 205 L40 205 L40 41 C87 14 175 -4 261 -4 C401 -4 495 74 495 190 C495 274 423 350 315 381 C203 413 128 465 128 512 C128 605 218 653 319 627 C359 614 396 578 413 534 C422 511 434 479 443 456 L450 456 L450 456 Z " />
<glyph glyph-name="sacute" unicode="&#x15b;" horiz-adv-x="446" d="M167 530 C167 530 253 614 284 654 C305 677 319 694 319 701 C319 715 274 749 254 749 C250 749 239 729 225 699 C194 659 154 539 154 539 L167 530 L167 530 Z M365 355 L374 355 L374 466 C333 489 281 505 243 505 C127 505 50 448 50 362 C50 308 110 247 201 209 C261 184 301 145 301 111 C301 49 252 14 184 23 C136 32 89 71 64 124 C60 132 56 142 52 150 L44 150 L44 29 C79 9 141 -5 199 -5 C317 -5 395 59 395 154 C395 208 349 263 281 291 C195 327 138 371 138 401 C138 448 180 479 242 479 C242 479 256 477 256 476 C307 461 348 412 364 356 L365 355 L365 355 Z " />
<glyph glyph-name="Scircumflex" unicode="&#x15c;" horiz-adv-x="539" d="M303 872 C298 882 284 904 266 904 C249 904 235 882 230 872 C230 872 145 708 139 701 L151 691 C207 757 244 793 267 812 C313 767 381 691 381 691 L393 701 C393 701 348 781 303 872 L303 872 Z M229 836 C226 843 226 845 229 844 L229 836 L229 836 Z M450 456 L450 620 C403 647 332 665 271 665 C132 665 39 583 39 460 C39 382 109 310 215 280 C328 248 403 191 403 137 C403 71 346 27 260 27 C246 27 231 28 216 30 C151 42 91 96 63 169 C59 180 53 194 49 205 L40 205 L40 41 C87 14 175 -4 261 -4 C401 -4 495 74 495 190 C495 274 423 350 315 381 C203 413 128 465 128 512 C128 605 218 653 319 627 C359 614 396 578 413 534 C422 511 434 479 443 456 L450 456 L450 456 Z " />
<glyph glyph-name="Scedilla" unicode="&#x15e;" horiz-adv-x="539" d="M213 -76 L200 -95 C204 -88 208 -82 212 -76 L213 -76 L213 -76 Z M449 456 L449 620 C402 647 331 665 270 665 C131 665 38 583 38 460 C38 382 108 310 214 280 C327 248 402 191 402 137 C402 71 345 27 259 27 C245 27 230 28 215 30 C150 42 90 96 62 169 C58 180 52 194 48 205 L39 205 L39 41 C84 15 166 -3 248 -5 C241 -17 221 -48 194 -90 L202 -95 C220 -86 243 -80 260 -80 C295 -80 318 -102 318 -135 C318 -166 286 -187 237 -187 C206 -187 179 -181 170 -173 L162 -185 C186 -206 225 -220 260 -220 C337 -220 389 -186 389 -135 C389 -88 348 -57 287 -57 C265 -57 236 -64 216 -74 C247 -30 271 -12 283 -5 C412 2 497 78 497 188 C497 272 425 348 317 379 C205 411 130 463 130 510 C130 603 220 651 321 625 C361 612 398 576 415 532 C424 509 436 477 445 454 L449 456 L449 456 Z " />
<glyph glyph-name="scedilla" unicode="&#x15f;" horiz-adv-x="446" d="M153 -76 L140 -95 C144 -88 148 -82 152 -76 L153 -76 L153 -76 Z M364 355 L373 355 L373 466 C332 489 280 505 242 505 C126 505 49 448 49 362 C49 308 109 247 200 209 C260 184 300 145 300 111 C300 49 251 14 183 23 C135 32 88 71 63 124 C59 132 55 142 51 150 L43 150 L43 29 C75 10 131 -3 185 -5 C178 -16 158 -47 130 -89 L138 -94 C156 -85 179 -79 196 -79 C231 -79 254 -101 254 -134 C254 -165 222 -186 173 -186 C142 -186 115 -180 106 -172 L98 -184 C122 -205 161 -219 196 -219 C273 -219 325 -185 325 -134 C325 -87 284 -56 223 -56 C201 -56 172 -63 152 -73 C183 -29 207 -11 219 -4 C325 3 394 65 394 154 C394 208 348 263 280 291 C194 327 137 371 137 401 C137 448 179 479 241 479 C241 479 255 477 255 476 C306 461 347 412 363 356 L364 355 L364 355 Z " />
<glyph glyph-name="Scaron" unicode="&#x160;" horiz-adv-x="539" d="M381 929 C381 929 313 853 267 808 C244 827 207 863 151 929 L139 919 C145 912 230 748 230 748 C235 738 249 716 266 716 C284 716 298 738 303 748 C348 839 393 919 393 919 L381 929 L381 929 Z M229 776 C226 775 226 777 229 784 L229 776 L229 776 Z M450 456 L450 620 C403 647 332 665 271 665 C132 665 39 583 39 460 C39 382 109 310 215 280 C328 248 403 191 403 137 C403 71 346 27 260 27 C246 27 231 28 216 30 C151 42 91 96 63 169 C59 180 53 194 49 205 L40 205 L40 41 C87 14 175 -4 261 -4 C401 -4 495 74 495 190 C495 274 423 350 315 381 C203 413 128 465 128 512 C128 605 218 653 319 627 C359 614 396 578 413 534 C422 511 434 479 443 456 L450 456 L450 456 Z " />
<glyph glyph-name="scaron" unicode="&#x161;" horiz-adv-x="446" d="M358 769 C358 769 290 693 244 648 C221 667 184 703 128 769 L116 759 C122 752 207 588 207 588 C212 578 226 556 243 556 C261 556 275 578 280 588 C325 679 370 759 370 759 L358 769 L358 769 Z M206 616 C203 615 203 617 206 624 L206 616 L206 616 Z M365 355 L374 355 L374 466 C333 489 281 505 243 505 C127 505 50 448 50 362 C50 308 110 247 201 209 C261 184 301 145 301 111 C301 49 252 14 184 23 C136 32 89 71 64 124 C60 132 56 142 52 150 L44 150 L44 29 C79 9 141 -5 199 -5 C317 -5 395 59 395 154 C395 208 349 263 281 291 C195 327 138 371 138 401 C138 448 180 479 242 479 C242 479 256 477 256 476 C307 461 348 412 364 356 L365 355 L365 355 Z " />
<glyph glyph-name="Tcaron" unicode="&#x164;" horiz-adv-x="645" d="M434 929 C434 929 366 853 320 808 C297 827 260 863 204 929 L192 919 C198 912 283 748 283 748 C288 738 302 716 319 716 C337 716 351 738 356 748 C401 839 446 919 446 919 L434 929 L434 929 Z M282 776 C279 775 279 777 282 784 L282 776 L282 776 Z M1 478 L27 539 C53 601 91 628 153 628 L259 628 L259 89 C259 38 240 14 195 12 L184 11 L184 0 L461 0 L461 11 L450 12 C405 14 386 38 386 89 L386 628 L486 628 C550 628 588 601 614 538 L640 477 L649 477 C644 527 638 593 634 643 L633 643 L632 659 L7 659 L6 643 L7 643 C2 593 -4 527 -8 477 L1 478 L1 478 Z " />
<glyph glyph-name="tcaron" unicode="&#x165;" horiz-adv-x="377" d="M345 500 L210 500 L210 640 L191 640 C142 546 76 477 25 468 L25 455 L95 455 L95 125 C95 24 119 -5 203 -5 C267 -5 314 19 357 55 L349 65 C335 54 312 46 260 46 C220 46 209 59 209 105 C209 210 210 455 210 455 L345 455 L345 500 L345 500 Z M470 721 C446 721 429 658 421 613 L391 447 L406 442 L493 586 C522 634 542 686 542 695 C542 714 492 721 470 721 L470 721 Z " />
<glyph glyph-name="Utilde" unicode="&#x168;" horiz-adv-x="728" d="M204 755 C204 789 222 811 249 811 C307 811 383 748 441 748 C499 748 537 803 537 885 L517 885 C517 849 497 825 466 825 C408 825 332 887 274 887 C220 887 184 834 184 755 L204 755 L204 755 Z M708 660 L495 660 L495 649 L509 648 C559 646 582 622 584 570 L583 204 C583 106 527 40 384 40 C270 40 225 103 225 197 L225 571 C225 622 244 646 289 648 L300 649 L300 660 L22 660 L22 649 L33 648 C78 646 97 622 97 571 L97 222 C97 86 172 -5 365 -5 C550 -5 622 74 622 192 L622 561 C622 619 644 646 694 648 L707 649 L708 660 L708 660 Z " />
<glyph glyph-name="utilde" unicode="&#x169;" horiz-adv-x="626" d="M146 595 C146 629 164 651 191 651 C249 651 325 588 383 588 C441 588 479 643 479 725 L459 725 C459 689 439 665 408 665 C350 665 274 727 216 727 C162 727 126 674 126 595 L146 595 L146 595 Z M326 489 L337 488 C382 486 401 462 401 411 L401 92 C385 79 360 71 323 71 C245 71 205 109 205 166 L205 500 L15 500 L15 489 L26 488 C71 486 89 461 90 410 L91 153 C91 58 139 -6 233 -6 C293 -6 350 25 402 73 L402 -1 L425 -1 L592 50 L592 56 L581 59 C518 74 517 76 517 149 L517 499 L327 499 L326 489 L326 489 Z " />
<glyph glyph-name="Umacron" unicode="&#x16a;" horiz-adv-x="728" d="M198 761 L523 761 L523 825 L198 825 L198 761 L198 761 Z M708 660 L495 660 L495 649 L509 648 C559 646 582 622 584 570 L583 204 C583 106 527 40 384 40 C270 40 225 103 225 197 L225 571 C225 622 244 646 289 648 L300 649 L300 660 L22 660 L22 649 L33 648 C78 646 97 622 97 571 L97 222 C97 86 172 -5 365 -5 C550 -5 622 74 622 192 L622 561 C622 619 644 646 694 648 L707 649 L708 660 L708 660 Z " />
<glyph glyph-name="umacron" unicode="&#x16b;" horiz-adv-x="626" d="M140 601 L465 601 L465 665 L140 665 L140 601 L140 601 Z M326 489 L337 488 C382 486 401 462 401 411 L401 92 C385 79 360 71 323 71 C245 71 205 109 205 166 L205 500 L15 500 L15 489 L26 488 C71 486 89 461 90 410 L91 153 C91 58 139 -6 233 -6 C293 -6 350 25 402 73 L402 -1 L425 -1 L592 50 L592 56 L581 59 C518 74 517 76 517 149 L517 499 L327 499 L326 489 L326 489 Z " />
<glyph glyph-name="Ubreve" unicode="&#x16c;" horiz-adv-x="728" d="M215 870 C249 790 308 736 361 736 C414 736 472 790 506 870 L487 878 C470 838 420 812 361 812 C302 812 251 838 234 878 L215 870 L215 870 Z M708 660 L495 660 L495 649 L509 648 C559 646 582 622 584 570 L583 204 C583 106 527 40 384 40 C270 40 225 103 225 197 L225 571 C225 622 244 646 289 648 L300 649 L300 660 L22 660 L22 649 L33 648 C78 646 97 622 97 571 L97 222 C97 86 172 -5 365 -5 C550 -5 622 74 622 192 L622 561 C622 619 644 646 694 648 L707 649 L708 660 L708 660 Z " />
<glyph glyph-name="ubreve" unicode="&#x16d;" horiz-adv-x="626" d="M157 710 C191 630 250 576 303 576 C356 576 414 630 448 710 L429 718 C412 678 362 652 303 652 C244 652 193 678 176 718 L157 710 L157 710 Z M326 489 L337 488 C382 486 401 462 401 411 L401 92 C385 79 360 71 323 71 C245 71 205 109 205 166 L205 500 L15 500 L15 489 L26 488 C71 486 89 461 90 410 L91 153 C91 58 139 -6 233 -6 C293 -6 350 25 402 73 L402 -1 L425 -1 L592 50 L592 56 L581 59 C518 74 517 76 517 149 L517 499 L327 499 L326 489 L326 489 Z " />
<glyph glyph-name="Uring" unicode="&#x16e;" horiz-adv-x="728" d="M297 788 C297 828 323 854 361 854 C399 854 424 828 424 788 C424 752 395 721 361 721 C326 721 297 752 297 788 L297 788 Z M265 788 C265 738 309 695 361 695 C412 695 456 738 456 788 C456 843 418 880 361 880 C303 880 265 843 265 788 L265 788 Z M708 660 L495 660 L495 649 L509 648 C559 646 582 622 584 570 L583 204 C583 106 527 40 384 40 C270 40 225 103 225 197 L225 571 C225 622 244 646 289 648 L300 649 L300 660 L22 660 L22 649 L33 648 C78 646 97 622 97 571 L97 222 C97 86 172 -5 365 -5 C550 -5 622 74 622 192 L622 561 C622 619 644 646 694 648 L707 649 L708 660 L708 660 Z " />
<glyph glyph-name="uring" unicode="&#x16f;" horiz-adv-x="626" d="M239 628 C239 668 265 694 303 694 C341 694 366 668 366 628 C366 592 337 561 303 561 C268 561 239 592 239 628 L239 628 Z M207 628 C207 578 251 535 303 535 C354 535 398 578 398 628 C398 683 360 720 303 720 C245 720 207 683 207 628 L207 628 Z M326 489 L337 488 C382 486 401 462 401 411 L401 92 C385 79 360 71 323 71 C245 71 205 109 205 166 L205 500 L15 500 L15 489 L26 488 C71 486 89 461 90 410 L91 153 C91 58 139 -6 233 -6 C293 -6 350 25 402 73 L402 -1 L425 -1 L592 50 L592 56 L581 59 C518 74 517 76 517 149 L517 499 L327 499 L326 489 L326 489 Z " />
<glyph glyph-name="Wcircumflex" unicode="&#x174;" horiz-adv-x="1064" d="M607 872 C602 882 588 904 570 904 C553 904 539 882 534 872 C534 872 449 708 443 701 L455 691 C511 757 548 793 571 812 C617 767 685 691 685 691 L697 701 C697 701 652 781 607 872 L607 872 Z M533 836 C530 843 530 845 533 844 L533 836 L533 836 Z M1060 660 L846 660 L846 649 L872 648 C922 646 938 625 926 578 L738 -15 L770 -15 L961 571 C978 622 1005 646 1050 648 L1061 649 L1060 660 L1060 660 Z M738 -15 L798 175 L587 670 L555 670 L325 -15 L357 -15 L520 469 L738 -15 L738 -15 Z M286 660 L-1 660 L-1 649 L9 648 C43 646 66 625 86 582 L325 -16 L384 160 L230 570 C212 620 224 645 274 647 L287 648 L286 660 L286 660 Z " />
<glyph glyph-name="Ycircumflex" unicode="&#x176;" horiz-adv-x="697" d="M290 660 L-1 660 L-1 649 L7 648 C39 646 66 626 95 583 L280 288 L281 80 C279 36 260 15 218 13 L207 12 L207 1 L484 1 L484 12 L473 13 C428 15 409 39 409 90 L409 326 L409 326 L581 572 C617 623 650 647 690 649 L700 650 L700 661 L495 661 L495 650 L510 649 C570 647 575 616 531 552 L395 353 L258 572 C226 623 232 647 280 649 L292 650 L290 660 L290 660 Z M384 873 C379 883 365 905 347 905 C330 905 316 883 311 873 C311 873 226 709 220 702 L232 692 C288 758 325 794 348 813 C394 768 462 692 462 692 L474 702 C474 702 429 782 384 873 L384 873 Z M310 837 C307 844 307 846 310 845 L310 837 L310 837 Z " />
<glyph glyph-name="Ydieresis" unicode="&#x178;" horiz-adv-x="697" d="M448 730 C490 730 518 758 518 800 C518 843 490 871 448 871 C406 871 378 843 378 800 C378 758 406 730 448 730 L448 730 Z M242 730 C284 730 312 758 312 800 C312 843 284 871 242 871 C200 871 172 843 172 800 C172 758 200 730 242 730 L242 730 Z M290 660 L-1 660 L-1 649 L7 648 C39 646 66 626 95 583 L280 288 L281 80 C279 36 260 15 218 13 L207 12 L207 1 L484 1 L484 12 L473 13 C428 15 409 39 409 90 L409 326 L409 326 L581 572 C617 623 650 647 690 649 L700 650 L700 661 L495 661 L495 650 L510 649 C570 647 575 616 531 552 L395 353 L258 572 C226 623 232 647 280 649 L292 650 L290 660 L290 660 Z " />
<glyph glyph-name="Zacute" unicode="&#x179;" horiz-adv-x="618" d="M331 690 C331 690 416 774 447 814 C469 838 483 855 483 861 C483 875 437 909 417 909 C413 909 403 889 389 859 C358 819 318 699 318 699 L331 690 L331 690 Z M522 16 L524 16 C533 64 544 127 552 175 C552 176 551 176 550 177 C543 181 538 183 538 183 L515 132 C483 63 440 33 371 33 L194 33 L555 660 L80 660 L76 644 L77 644 C66 603 52 549 41 508 L50 508 L71 539 C114 601 159 628 221 628 L391 628 L32 0 L519 0 L522 16 L522 16 Z " />
<glyph glyph-name="zacute" unicode="&#x17a;" horiz-adv-x="509" d="M202 530 C202 530 288 614 319 654 C340 677 354 694 354 701 C354 715 309 749 289 749 C285 749 274 729 260 699 C229 659 189 539 189 539 L202 530 L202 530 Z M212 473 L311 473 L37 -1 L429 -1 L431 12 L433 12 C441 58 452 120 460 167 C460 168 459 168 458 169 C451 173 446 175 446 175 L423 124 C391 55 348 25 279 25 L188 25 L459 499 L70 499 L66 485 L67 485 C58 454 47 413 39 382 L48 382 L59 396 C103 449 150 471 213 472 L212 473 L212 473 Z " />
<glyph glyph-name="Zdot" unicode="&#x17b;" horiz-adv-x="618" d="M331 730 C373 730 401 758 401 800 C401 843 373 871 331 871 C288 871 260 843 260 800 C260 758 288 730 331 730 L331 730 Z M522 16 L524 16 C533 64 544 127 552 175 C552 176 551 176 550 177 C543 181 538 183 538 183 L515 132 C483 63 440 33 371 33 L194 33 L555 660 L80 660 L76 644 L77 644 C66 603 52 549 41 508 L50 508 L71 539 C114 601 159 628 221 628 L391 628 L32 0 L519 0 L522 16 L522 16 Z " />
<glyph glyph-name="zdot" unicode="&#x17c;" horiz-adv-x="509" d="M278 570 C320 570 348 598 348 640 C348 683 320 711 278 711 C236 711 208 683 208 640 C208 598 236 570 278 570 L278 570 Z M212 473 L311 473 L37 -1 L429 -1 L431 12 L433 12 C441 58 452 120 460 167 C460 168 459 168 458 169 C451 173 446 175 446 175 L423 124 C391 55 348 25 279 25 L188 25 L459 499 L70 499 L66 485 L67 485 C58 454 47 413 39 382 L48 382 L59 396 C103 449 150 471 213 472 L212 473 L212 473 Z " />
<glyph glyph-name="Zcaron" unicode="&#x17d;" horiz-adv-x="618" d="M446 929 C446 929 377 852 331 807 C308 826 271 862 215 929 L203 919 C209 912 294 748 294 748 C299 738 313 716 331 716 C348 716 362 738 367 748 C411 838 458 919 458 919 L446 929 L446 929 Z M294 775 C291 774 291 776 294 783 L294 775 L294 775 Z M522 15 L524 15 C533 63 544 126 552 174 C552 175 551 175 550 176 C543 180 538 182 538 182 L515 131 C483 62 440 32 371 32 L194 32 L555 659 L80 659 L76 643 L77 643 C66 602 52 548 41 507 L50 507 L71 538 C114 600 159 627 221 627 L391 627 L32 -1 L519 -1 L522 15 L522 15 Z " />
<glyph glyph-name="zcaron" unicode="&#x17e;" horiz-adv-x="509" d="M393 769 C393 769 325 693 279 648 C256 667 219 703 163 769 L151 759 C157 752 242 588 242 588 C247 578 261 556 278 556 C296 556 310 578 315 588 C360 679 405 759 405 759 L393 769 L393 769 Z M212 473 L311 473 L37 -1 L429 -1 L431 12 L433 12 C441 58 452 120 460 167 C460 168 459 168 458 169 C451 173 446 175 446 175 L423 124 C391 55 348 25 279 25 L188 25 L459 499 L70 499 L66 485 L67 485 C58 454 47 413 39 382 L48 382 L59 396 C103 449 150 471 213 472 L212 473 L212 473 Z M242 614 C239 613 239 615 242 622 L242 614 L242 614 Z " />
<glyph glyph-name="oogonek" unicode="&#x1eb;" horiz-adv-x="716" d="M737 -8 L726 0 C714 -16 660 -27 591 -27 C481 -27 413 -18 377 -4 C568 5 666 131 666 278 C666 430 561 559 356 559 C151 559 45 430 45 278 C45 133 141 8 327 -4 C392 -63 475 -102 579 -102 C634 -102 697 -64 737 -8 L737 -8 Z M172 277 C172 414 235 530 356 530 C477 530 540 414 540 277 C540 140 477 24 356 24 C235 24 172 140 172 277 L172 277 Z " />
<glyph glyph-name="Adotabove" unicode="&#x226;" horiz-adv-x="734" d="M344 730 C386 730 414 758 414 800 C414 843 386 871 344 871 C302 871 274 843 274 800 C274 758 302 730 344 730 L344 730 Z M425 0 L729 0 L729 11 C685 11 661 24 635 75 L360 675 L328 675 L96 77 C76 34 49 14 7 12 L-5 11 L-5 0 L219 0 L219 11 L203 12 C142 14 126 43 148 104 L196 232 L427 232 L491 89 C514 37 503 14 451 12 L427 11 L425 0 L425 0 Z M414 264 L209 264 L302 514 L414 264 L414 264 Z " />
<glyph glyph-name="G_sc" unicode="&#x262;" horiz-adv-x="774" d="M599 349 L599 500 L592 487 L592 487 L599 500 C539 535 450 558 378 558 C178 558 45 446 45 277 C45 108 178 -5 378 -5 C452 -5 543 19 604 54 L604 171 C604 222 623 246 668 248 L679 249 L679 260 L426 260 L426 249 L437 248 C482 246 501 222 501 171 L501 43 C460 31 416 24 377 24 C253 24 171 125 171 277 C171 429 253 530 377 530 C391 530 405 529 420 527 C487 515 547 459 575 385 C579 374 585 359 589 348 L599 349 L599 349 Z " />
<glyph glyph-name="I_sc" unicode="&#x26a;" horiz-adv-x="351" d="M311 11 L300 12 C255 14 236 38 236 89 L236 464 C236 515 255 539 300 541 L311 542 L311 553 L46 553 L46 542 L57 541 C102 539 121 515 121 464 L121 89 C121 38 102 14 57 12 L46 11 L46 0 L311 0 L311 11 L311 11 Z " />
<glyph glyph-name="N_sc" unicode="&#x274;" horiz-adv-x="677" d="M38 542 L49 541 C94 539 113 515 113 464 L113 89 C113 38 94 14 49 12 L38 11 L38 0 L223 0 L223 11 L212 12 C167 14 148 38 148 89 L148 455 C275 297 402 139 529 -19 L563 -19 L563 465 C563 516 582 540 627 542 L638 543 L638 554 L454 554 L454 543 L465 542 C510 540 529 516 529 465 L529 164 L217 554 L39 554 L38 542 L38 542 Z " />
<glyph glyph-name="R_sc" unicode="&#x280;" horiz-adv-x="658" d="M36 542 L47 541 C92 539 111 515 111 464 L111 89 C111 38 92 14 47 12 L36 11 L36 0 L301 0 L301 11 L290 12 C245 14 226 38 226 89 L226 261 L275 261 C301 230 346 175 403 106 C487 4 496 0 618 0 L658 0 L658 23 C611 23 609 23 559 84 C483 175 426 244 401 274 C486 296 538 346 538 412 C538 497 447 553 310 553 L34 553 L36 542 L36 542 Z M293 290 L224 290 L224 524 L310 525 C375 525 418 480 418 412 C418 339 368 290 293 290 L293 290 Z " />
<glyph glyph-name="Y_sc" unicode="&#x28f;" horiz-adv-x="617" d="M279 553 L3 553 L3 542 C44 537 67 523 101 473 L248 242 L248 89 C248 38 229 14 184 12 L173 11 L173 0 L438 0 L438 11 L427 12 C382 14 363 38 363 89 L363 277 L504 473 C538 518 569 539 608 541 L618 542 L618 553 L417 553 L417 542 L432 541 C491 539 495 508 451 444 L345 293 L242 464 C212 514 217 539 266 541 L278 542 L279 553 L279 553 Z " />
<glyph glyph-name="B_sc" unicode="&#x299;" horiz-adv-x="610" d="M36 542 L47 541 C92 539 111 515 111 464 L111 89 C111 38 92 14 47 12 L36 11 L36 0 L334 0 C488 0 590 62 590 155 C590 230 515 284 398 300 C483 319 535 363 535 421 C535 501 446 554 312 554 L36 554 L36 542 L36 542 Z M226 307 L226 525 C226 525 286 526 312 526 C377 526 420 484 420 421 C420 353 370 307 295 307 L226 307 L226 307 Z M226 282 L291 282 C398 282 470 232 470 156 C470 80 411 30 323 30 L226 30 L226 282 L226 282 Z " />
<glyph glyph-name="H_sc" unicode="&#x29c;" horiz-adv-x="745" d="M705 11 L694 12 C649 14 630 38 630 89 L630 464 C630 515 649 539 694 541 L705 542 L705 553 L440 553 L440 542 L451 541 C496 539 515 515 515 464 L515 307 L233 307 L233 464 C233 515 252 539 297 541 L308 542 L308 553 L43 553 L43 542 L54 541 C99 539 118 515 118 464 L118 89 C118 38 99 14 54 12 L43 11 L43 0 L308 0 L308 11 L297 12 C252 14 233 38 233 89 L233 278 L515 278 L515 89 C515 38 496 14 451 12 L440 11 L440 0 L705 0 L705 11 L705 11 Z " />
<glyph glyph-name="L_sc" unicode="&#x29f;" horiz-adv-x="611" d="M308 553 L43 553 L43 542 L54 541 C99 539 118 515 118 464 L118 89 C118 38 99 14 54 12 L43 11 L43 0 L498 0 L501 14 L502 14 C511 61 522 124 530 171 C530 172 529 172 528 173 C521 177 516 179 516 179 L493 128 C461 59 418 29 349 29 L233 29 L233 464 C233 515 252 539 297 541 L308 542 L308 553 L308 553 Z " />
<glyph glyph-name="circumflex" unicode="&#x2c6;" horiz-adv-x="371" d="M223 712 C218 722 204 744 186 744 C168 744 154 722 149 712 C149 712 63 546 59 541 L70 531 C126 598 163 634 186 653 C232 608 301 531 301 531 L313 541 C313 541 268 621 223 712 L223 712 Z M149 676 C146 683 146 685 149 684 L149 676 L149 676 Z " />
<glyph glyph-name="caron" unicode="&#x2c7;" horiz-adv-x="371" d="M301 769 C301 769 232 692 186 647 C163 666 126 702 70 769 L59 759 C63 754 149 588 149 588 C154 578 168 556 186 556 C204 556 218 578 223 588 C268 679 313 759 313 759 L301 769 L301 769 Z M149 615 C146 614 146 616 149 623 L149 615 L149 615 Z " />
<glyph glyph-name="firsttonechinese" unicode="&#x2c9;" horiz-adv-x="371" d="M23 601 L349 601 L349 665 L23 665 L23 601 L23 601 Z " />
<glyph glyph-name="breve" unicode="&#x2d8;" horiz-adv-x="371" d="M41 710 C75 630 133 576 186 576 C239 576 298 630 332 710 L313 718 C296 678 245 652 186 652 C127 652 76 678 59 718 L41 710 L41 710 Z " />
<glyph glyph-name="dotaccent" unicode="&#x2d9;" horiz-adv-x="371" d="M186 570 C228 570 256 598 256 640 C256 683 228 711 186 711 C144 711 116 683 116 640 C116 598 144 570 186 570 L186 570 Z " />
<glyph glyph-name="ring" unicode="&#x2da;" horiz-adv-x="371" d="M122 628 C122 668 148 694 186 694 C224 694 249 668 249 628 C249 592 220 561 186 561 C151 561 122 592 122 628 L122 628 Z M90 628 C90 578 134 535 186 535 C237 535 281 578 281 628 C281 683 243 720 186 720 C128 720 90 683 90 628 L90 628 Z " />
<glyph glyph-name="A_sc" unicode="&#x1d00;" horiz-adv-x="652" d="M356 0 L647 0 L647 11 C600 11 576 26 548 84 L320 566 L292 566 L103 89 C83 38 54 14 9 12 L-3 11 L-3 0 L215 0 L215 11 L199 12 C137 14 122 43 144 104 L178 194 L371 194 L423 82 C443 35 430 14 380 12 L356 11 L356 0 L356 0 Z M358 222 L189 223 L265 423 L358 222 L358 222 Z " />
<glyph glyph-name="C_sc" unicode="&#x1d04;" horiz-adv-x="679" d="M619 54 L611 67 L611 67 L619 54 L619 54 Z M609 204 C605 193 599 178 595 167 C563 82 482 25 391 23 C257 21 170 122 170 276 C170 428 256 529 386 529 C400 529 414 528 429 526 C500 518 566 462 595 385 C599 374 605 359 609 348 L618 348 L618 499 L611 486 L611 486 L618 499 C558 534 465 557 387 557 C181 557 44 445 44 276 C44 107 181 -6 387 -6 C464 -6 557 18 618 53 L618 203 L609 204 L609 204 Z " />
<glyph glyph-name="D_sc" unicode="&#x1d05;" horiz-adv-x="705" d="M36 542 L47 541 C92 539 111 515 111 464 L111 89 C111 38 92 14 47 12 L36 11 L36 0 L338 0 C528 0 655 111 655 277 C655 443 517 553 310 553 L36 553 L36 542 L36 542 Z M226 29 L226 524 C251 524 285 525 310 525 C448 525 540 426 540 277 C540 128 459 29 338 29 L226 29 L226 29 Z " />
<glyph glyph-name="E_sc" unicode="&#x1d07;" horiz-adv-x="611" d="M431 196 L431 384 L422 384 L418 373 C402 328 367 309 299 309 L233 309 L233 524 C269 524 311 524 353 524 C419 519 459 485 483 415 L492 389 L500 389 L500 552 L43 552 L43 541 L54 540 C99 538 118 514 118 463 L118 88 C118 37 99 13 54 11 L43 10 L43 -1 L500 -1 L503 14 L502 14 C510 59 521 118 529 163 L521 163 L507 137 C468 61 417 28 341 28 L233 28 L233 280 L299 280 C367 280 403 258 418 208 L422 195 L431 196 L431 196 Z " />
<glyph glyph-name="J_sc" unicode="&#x1d0a;" horiz-adv-x="402" d="M362 553 L97 553 L97 542 L108 541 C153 539 172 515 172 464 L172 168 C172 56 163 13 139 13 C119 13 103 31 97 57 C91 85 71 104 46 104 C13 104 -6 86 0 58 C29 58 97 57 97 57 L0 58 C9 17 53 -10 111 -10 C238 -10 287 67 287 265 L287 464 C287 515 306 539 351 541 L362 542 L362 553 L362 553 Z " />
<glyph glyph-name="K_sc" unicode="&#x1d0b;" horiz-adv-x="633" d="M568 553 L392 553 L392 542 L401 541 C434 539 432 518 392 474 L304 381 C304 382 304 382 304 382 L226 298 L226 464 C226 515 245 539 290 541 L301 542 L301 553 L36 553 L36 542 L47 541 C92 539 111 515 111 464 L111 89 C111 38 92 14 47 12 L36 11 L36 0 L301 0 L301 11 L290 12 C245 14 226 38 226 89 L226 298 C226 298 273 229 344 126 C409 32 476 -5 583 -5 L623 -5 L623 18 C570 18 519 69 422 210 C376 276 340 328 320 357 L429 474 C473 518 512 539 556 541 L568 542 L568 553 L568 553 Z " />
<glyph glyph-name="M_sc" unicode="&#x1d0d;" horiz-adv-x="841" d="M567 0 L831 0 L831 11 L820 12 C777 14 757 36 753 82 L732 465 C729 516 747 541 790 543 L801 544 L801 555 L676 555 L676 554 L624 554 L439 125 C367 268 294 411 222 554 L58 554 L58 543 L69 542 C112 540 130 517 129 467 L112 90 C110 39 89 15 45 13 L33 12 L33 1 L253 1 L253 12 L233 13 C171 15 146 44 148 105 L162 419 C236 278 310 137 384 -4 L412 -4 L627 471 L639 90 C641 39 622 15 578 13 L567 12 L567 0 L567 0 Z " />
<glyph glyph-name="O_sc" unicode="&#x1d0f;" horiz-adv-x="716" d="M172 277 C172 414 235 530 356 530 C477 530 540 414 540 277 C540 140 477 24 356 24 C235 24 172 140 172 277 L172 277 Z M45 277 C45 125 151 -5 356 -5 C561 -5 666 125 666 277 C666 429 561 558 356 558 C151 558 45 429 45 277 L45 277 Z " />
<glyph glyph-name="P_sc" unicode="&#x1d18;" horiz-adv-x="559" d="M301 11 L290 12 C245 14 226 38 226 89 L226 246 L295 246 C441 246 539 308 539 400 C539 492 448 553 312 553 L36 553 L36 542 L47 541 C92 539 111 515 111 464 L111 89 C111 38 92 14 47 12 L36 11 L36 0 L301 0 L301 11 L301 11 Z M226 275 L226 524 C252 524 286 525 312 525 C376 525 419 475 419 400 C419 325 369 275 295 275 L226 275 L226 275 Z " />
<glyph glyph-name="T_sc" unicode="&#x1d1b;" horiz-adv-x="578" d="M6 375 L32 436 C58 498 96 525 158 525 L232 525 L232 89 C232 38 213 14 168 12 L157 11 L157 0 L422 0 L422 11 L411 12 C366 14 347 38 347 89 L347 525 L417 525 C480 525 518 498 544 436 L570 375 L579 375 C575 424 569 490 565 539 L564 553 L11 553 L10 539 L11 539 C7 490 1 424 -3 375 L6 375 L6 375 Z " />
<glyph glyph-name="U_sc" unicode="&#x1d1c;" horiz-adv-x="649" d="M629 553 L420 553 L420 542 L434 541 C484 539 507 515 510 464 L509 165 C509 87 463 35 344 35 C252 35 216 84 216 157 L216 464 C216 515 235 539 280 541 L291 542 L291 553 L26 553 L26 542 L37 541 C82 539 101 515 101 464 L101 179 C101 69 164 -5 327 -5 C483 -5 544 59 544 154 L544 454 C544 512 566 539 616 541 L629 542 L629 553 L629 553 Z " />
<glyph glyph-name="V_sc" unicode="&#x1d20;" horiz-adv-x="642" d="M277 553 L-5 553 L-5 542 L5 541 C42 539 68 515 93 464 L325 -15 L354 -15 L538 464 C558 515 586 539 631 541 L643 542 L643 553 L418 553 L418 542 L435 541 C503 539 519 505 493 434 L376 122 L213 473 C195 518 209 539 258 541 L277 542 L277 553 L277 553 Z " />
<glyph glyph-name="W_sc" unicode="&#x1d21;" horiz-adv-x="913" d="M909 553 L699 553 L699 542 L725 541 C776 539 791 517 776 467 L624 -15 L653 -15 L810 470 C827 517 854 539 897 541 L908 542 L909 553 L909 553 Z M270 553 L-3 553 L-3 542 L7 541 C43 539 67 517 87 470 L283 -15 L312 -15 L448 394 L625 -15 L675 144 L504 563 L475 563 L333 135 L210 475 C197 518 212 539 258 541 L271 542 L270 553 L270 553 Z " />
<glyph glyph-name="Z_sc" unicode="&#x1d22;" horiz-adv-x="551" d="M460 15 L461 15 C470 62 481 125 489 172 C489 173 488 173 487 174 C480 178 475 180 475 180 L452 129 C420 60 377 30 308 30 L183 30 L488 553 L88 553 L84 539 L85 539 C74 499 60 445 49 405 L58 405 L79 436 C123 498 168 525 230 525 L340 525 L36 0 L457 0 L460 15 L460 15 Z " />
<glyph glyph-name="Wgrave" unicode="&#x1e80;" horiz-adv-x="1064" d="M486 861 C486 853 500 836 522 814 C554 773 642 690 642 690 L655 699 C655 699 613 818 581 859 C567 889 556 909 551 909 C532 909 486 875 486 861 L486 861 Z M1060 660 L846 660 L846 649 L872 648 C922 646 938 625 926 578 L738 -15 L770 -15 L961 571 C978 622 1005 646 1050 648 L1061 649 L1060 660 L1060 660 Z M738 -15 L798 175 L587 670 L555 670 L325 -15 L357 -15 L520 469 L738 -15 L738 -15 Z M286 660 L-1 660 L-1 649 L9 648 C43 646 66 625 86 582 L325 -16 L384 160 L230 570 C212 620 224 645 274 647 L287 648 L286 660 L286 660 Z " />
<glyph glyph-name="Wacute" unicode="&#x1e82;" horiz-adv-x="1064" d="M509 690 C509 690 595 774 626 814 C647 837 661 854 661 861 C661 875 616 909 596 909 C592 909 581 889 567 859 C536 819 496 699 496 699 L509 690 L509 690 Z M1060 660 L846 660 L846 649 L872 648 C922 646 938 625 926 578 L738 -15 L770 -15 L961 571 C978 622 1005 646 1050 648 L1061 649 L1060 660 L1060 660 Z M738 -15 L798 175 L587 670 L555 670 L325 -15 L357 -15 L520 469 L738 -15 L738 -15 Z M286 660 L-1 660 L-1 649 L9 648 C43 646 66 625 86 582 L325 -16 L384 160 L230 570 C212 620 224 645 274 647 L287 648 L286 660 L286 660 Z " />
<glyph glyph-name="Wdieresis" unicode="&#x1e84;" horiz-adv-x="1064" d="M673 730 C715 730 743 758 743 800 C743 843 715 871 673 871 C631 871 603 843 603 800 C603 758 631 730 673 730 L673 730 Z M467 730 C509 730 537 758 537 800 C537 843 509 871 467 871 C425 871 397 843 397 800 C397 758 425 730 467 730 L467 730 Z M1060 660 L846 660 L846 649 L872 648 C922 646 938 625 926 578 L738 -15 L770 -15 L961 571 C978 622 1005 646 1050 648 L1061 649 L1060 660 L1060 660 Z M738 -15 L798 175 L587 670 L555 670 L325 -15 L357 -15 L520 469 L738 -15 L738 -15 Z M286 660 L-1 660 L-1 649 L9 648 C43 646 66 625 86 582 L325 -16 L384 160 L230 570 C212 620 224 645 274 647 L287 648 L286 660 L286 660 Z " />
<glyph glyph-name="Etilde" unicode="&#x1ebc;" horiz-adv-x="672" d="M174 755 C174 789 192 811 219 811 C277 811 354 748 412 748 C469 748 507 803 507 885 L488 885 C488 849 468 825 437 825 C379 825 302 887 244 887 C191 887 155 834 155 755 L174 755 L174 755 Z M492 251 L492 443 L483 443 L479 432 C463 387 428 368 360 368 L243 368 L243 628 L398 628 C474 628 519 595 545 519 L554 493 L562 493 L562 660 L40 660 L40 649 L51 648 C96 646 115 622 115 571 L115 89 C115 38 96 14 51 12 L40 11 L40 0 L561 0 L564 16 C572 61 583 122 591 167 L583 167 L569 141 C530 65 479 32 403 32 L243 32 L243 336 L360 336 C428 336 464 314 479 264 L483 251 L492 251 L492 251 Z " />
<glyph glyph-name="Ygrave" unicode="&#x1ef2;" horiz-adv-x="697" d="M290 660 L-1 660 L-1 649 L7 648 C39 646 66 626 95 583 L280 288 L281 80 C279 36 260 15 218 13 L207 12 L207 1 L484 1 L484 12 L473 13 C428 15 409 39 409 90 L409 326 L409 326 L581 572 C617 623 650 647 690 649 L700 650 L700 661 L495 661 L495 650 L510 649 C570 647 575 616 531 552 L395 353 L258 572 C226 623 232 647 280 649 L292 650 L290 660 L290 660 Z M263 862 C263 854 277 837 299 815 C331 774 419 691 419 691 L432 700 C432 700 390 819 358 860 C344 890 333 910 328 910 C309 910 263 876 263 862 L263 862 Z " />
<glyph glyph-name="quoteleft" unicode="&#x2018;" horiz-adv-x="283" d="M139 342 C186 342 218 374 218 421 C218 477 170 515 111 497 C104 570 143 634 194 653 L188 670 C102 637 44 551 44 454 C44 399 78 342 138 342 L139 342 L139 342 Z " />
<glyph glyph-name="quoteright" unicode="&#x2019;" horiz-adv-x="283" d="M139 665 C92 665 60 633 60 586 C60 530 108 492 167 510 C174 437 135 373 84 354 L90 337 C176 370 234 456 234 553 C234 608 200 665 140 665 L139 665 L139 665 Z " />
<glyph glyph-name="quotedblleft" unicode="&#x201c;" horiz-adv-x="506" d="M362 342 C409 342 441 374 441 421 C441 477 393 515 334 497 C327 570 366 634 417 653 L411 670 C325 637 267 551 267 454 C267 399 301 342 361 342 L362 342 L362 342 Z M138 342 C185 342 217 374 217 421 C217 477 169 515 110 497 C103 570 142 634 193 653 L187 670 C101 637 43 551 43 454 C43 399 77 342 137 342 L138 342 L138 342 Z " />
<glyph glyph-name="quotedblright" unicode="&#x201d;" horiz-adv-x="506" d="M362 665 C315 665 283 633 283 586 C283 530 331 492 390 510 C397 437 358 373 307 354 L313 337 C399 370 457 456 457 553 C457 608 423 665 363 665 L362 665 L362 665 Z M140 665 C93 665 61 633 61 586 C61 530 109 492 168 510 C175 437 136 373 85 354 L91 337 C177 370 235 456 235 553 C235 608 201 665 141 665 L140 665 L140 665 Z " />
<glyph glyph-name="ellipsis" unicode="&#x2026;" horiz-adv-x="645" d="M538 0 C586 0 618 32 618 80 C618 128 586 160 538 160 C490 160 458 128 458 80 C458 32 490 0 538 0 L538 0 Z M323 0 C371 0 403 32 403 80 C403 128 371 160 323 160 C275 160 243 128 243 80 C243 32 275 0 323 0 L323 0 Z M108 0 C156 0 188 32 188 80 C188 128 156 160 108 160 C60 160 28 128 28 80 C28 32 60 0 108 0 L108 0 Z " />
<glyph glyph-name="guilsinglleft" unicode="&#x2039;" horiz-adv-x="325" d="M137 252 L276 454 L264 466 L20 258 L20 245 L267 37 L280 50 L137 252 L137 252 Z " />
<glyph glyph-name="guilsinglright" unicode="&#x203a;" horiz-adv-x="325" d="M58 37 L305 245 L305 258 L61 466 L49 454 L188 252 L45 50 L58 37 L58 37 Z " />
<glyph glyph-name="Euro" unicode="&#x20ac;" horiz-adv-x="815" d="M746 207 C742 196 736 181 732 170 C703 93 626 38 536 29 C520 28 504 27 489 27 C372 27 285 102 253 223 L531 223 L542 305 L241 305 C240 321 240 338 241 354 L542 354 L554 436 L253 436 C285 557 372 632 489 632 C515 632 541 630 567 627 C638 618 704 563 732 489 C736 478 742 463 746 452 L755 452 L755 606 L747 592 L747 592 L755 606 C695 641 588 664 489 664 C300 664 162 576 116 436 L63 436 L51 354 L101 354 C100 338 100 321 101 305 L51 305 L39 223 L116 223 C162 83 300 -5 489 -5 C588 -5 695 18 755 53 L746 68 L746 68 L754 53 L754 207 L746 207 L746 207 Z " />
<glyph glyph-name="F_sc" unicode="&#xa730;" horiz-adv-x="526" d="M43 542 L54 541 C99 539 118 515 118 464 L118 89 C118 38 99 14 54 12 L43 11 L43 0 L318 0 L318 11 L305 12 C255 14 233 38 233 89 L233 277 L289 277 C357 277 393 255 408 205 L412 192 L421 192 L421 380 L412 380 L408 369 C392 324 357 305 289 305 L233 305 L233 524 C277 524 329 524 381 524 C448 520 489 487 513 416 L522 390 L530 390 L530 553 L43 553 L43 542 L43 542 Z " />
<glyph glyph-name="S_sc" unicode="&#xa731;" horiz-adv-x="470" d="M383 352 L383 512 C335 540 277 558 238 558 C120 558 41 489 41 385 C41 320 99 259 185 234 C280 206 344 157 344 112 C344 59 296 24 224 24 C159 24 95 80 63 164 C59 175 53 190 49 201 L40 201 L40 41 L50 59 L50 59 L40 41 C88 13 161 -5 224 -5 C345 -5 425 61 425 160 C425 229 363 293 271 320 C181 346 121 391 121 431 C121 490 166 530 233 530 C236 530 239 530 243 529 C285 522 325 483 344 432 L374 352 L383 352 L383 352 Z " />
<glyph glyph-name="X_sc" unicode="&#xf078;" horiz-adv-x="642" d="M346 0 L625 0 L625 11 C584 16 560 29 525 76 L357 323 L458 465 C494 516 530 540 577 542 L588 543 L588 554 L371 554 L371 543 L397 542 C446 540 455 519 427 473 L341 345 L260 465 C227 515 232 540 284 542 L300 543 L300 554 L21 554 L21 543 C62 538 86 525 121 478 L270 259 L151 89 C115 38 79 14 33 12 L22 11 L22 0 L236 0 L236 11 L221 12 C162 14 155 42 197 104 L286 237 L386 89 C419 39 414 14 362 12 L346 11 L346 0 L346 0 Z " />
</font>
</svg>
