<?xml version="1.0" encoding="UTF-8"?>
<svg xmlns="http://www.w3.org/2000/svg" xmlns:xlink="http://www.w3.org/1999/xlink" version="1.2" >
<font id="Wensley Light">
<font-face  font-family="Wensley" units-per-em="1024" ascent="936" descent="-280" font-style="normal" font-weight="300" font-stretch="normal" cap-height="927" x-height="468" underline-position="-125" underline-thickness="50" />
<missing-glyph  horiz-adv-x="100" d="" />
<glyph glyph-name="NULL" d="" />
<glyph glyph-name="CR" unicode="&#xd;" horiz-adv-x="256" d="" />
<glyph glyph-name="space" unicode="&#x20;" horiz-adv-x="256" d="" />
<glyph glyph-name="exclam" unicode="&#x21;" horiz-adv-x="184" d="M96 -5 C118 -5 132 9 132 31 C132 53 118 67 96 67 C74 67 60 53 60 31 C60 9 74 -5 96 -5 L96 -5 Z M124 620 C125 647 113 665 93 665 C73 665 60 647 62 620 C62 477 93 142 93 142 L99 142 C99 142 124 477 124 620 L124 620 Z " />
<glyph glyph-name="quotedbl" unicode="&#x22;" horiz-adv-x="238" d="M134 660 L162 471 L170 471 L198 660 L134 660 L134 660 Z M40 660 L67 471 L76 471 L104 660 L40 660 L40 660 Z " />
<glyph glyph-name="numbersign" unicode="&#x23;" horiz-adv-x="567" d="M413 681 L384 479 L222 479 L251 681 L232 681 L203 479 L64 479 L58 441 L198 441 L166 219 L25 219 L19 181 L161 181 L135 0 L154 0 L180 181 L342 181 L316 0 L336 0 L362 181 L497 181 L502 219 L367 219 L399 441 L542 441 L547 479 L404 479 L433 681 L413 681 L413 681 Z M217 441 L379 441 L347 219 L185 219 L217 441 L217 441 Z " />
<glyph glyph-name="dollar" unicode="&#x24;" horiz-adv-x="530" d="M43 188 L43 46 C80 24 138 8 201 0 L201 -75 L217 -75 L217 -2 C238 -4 260 -5 281 -5 L281 -75 L297 -75 L297 -5 C410 -1 485 67 485 167 C485 245 410 316 297 348 L297 645 C298 645 312 643 312 643 C355 634 395 598 412 552 C421 528 433 495 442 471 L451 471 L451 613 C410 637 352 654 297 661 L297 734 L281 734 L281 663 C259 665 237 665 217 662 L217 734 L201 734 L201 659 C109 641 51 573 51 479 C51 415 110 355 201 321 L201 17 C142 35 90 85 66 150 C62 161 56 176 52 187 L43 188 L43 188 Z M217 13 L217 315 C238 308 261 303 281 296 L281 8 C277 8 233 9 233 10 C228 11 223 12 218 13 L217 13 L217 13 Z M218 374 L218 647 C239 650 260 650 282 648 L282 353 C259 359 238 366 218 374 L218 374 Z M202 381 C133 414 91 458 91 502 C91 575 134 628 202 645 L202 381 L202 381 Z M298 291 C389 257 447 202 447 146 C447 67 388 13 298 9 L298 291 L298 291 Z " />
<glyph glyph-name="ampersand" unicode="&#x26;" horiz-adv-x="717" d="M640 300 L479 300 L479 289 L490 288 C535 286 554 262 554 211 L554 181 C554 145 540 113 514 87 C448 146 332 283 277 363 C390 386 465 457 465 544 C465 617 406 665 317 665 C227 665 167 601 167 504 C167 462 189 411 228 352 C120 308 50 233 50 156 C50 59 136 -5 264 -5 C360 -5 439 16 492 52 C579 -12 644 -12 717 1 L717 9 C663 -1 611 3 524 79 C551 107 566 142 566 181 L566 211 C566 262 585 286 630 288 L641 289 L640 300 L640 300 Z M207 527 C207 603 250 654 314 654 C382 654 428 609 428 542 C428 457 367 389 274 370 C232 432 207 485 207 527 L207 527 Z M481 61 C435 33 370 17 293 17 C176 17 98 80 98 175 C98 243 151 307 234 344 C265 298 305 247 351 192 C400 133 443 91 481 61 L481 61 Z " />
<glyph glyph-name="quotesingle" unicode="&#x27;" horiz-adv-x="144" d="M40 660 L67 471 L76 471 L104 660 L40 660 L40 660 Z " />
<glyph glyph-name="parenleft" unicode="&#x28;" horiz-adv-x="211" d="M195 690 C114 593 60 472 60 270 C60 68 114 -53 195 -150 L201 -145 C140 -72 99 41 99 270 C99 499 140 612 201 685 L195 690 L195 690 Z " />
<glyph glyph-name="parenright" unicode="&#x29;" horiz-adv-x="211" d="M10 -150 C91 -53 145 68 145 270 C145 472 91 593 10 690 L4 685 C65 612 106 499 106 270 C106 41 65 -72 4 -145 L10 -150 L10 -150 Z " />
<glyph glyph-name="asterisk" unicode="&#x2a;" horiz-adv-x="268" d="M245 466 C265 453 281 481 261 492 L262 494 C235 510 171 535 155 541 C171 547 235 572 262 588 C281 600 266 627 245 613 C217 594 160 550 151 543 L151 543 C151 580 165 662 165 662 C167 687 133 687 135 662 C135 662 148 581 149 544 C116 563 53 615 53 615 C32 629 17 598 38 587 L38 588 C42 596 53 614 53 614 L38 588 C39 588 116 559 149 540 L149 540 C116 522 38 493 38 493 L53 467 C48 475 38 493 38 493 C16 482 31 452 52 466 L52 467 L53 467 C53 467 115 518 147 537 C144 521 133 452 133 420 C131 395 165 395 163 420 C163 453 151 525 149 538 C158 530 215 484 244 467 L244 467 L245 466 L245 466 Z " />
<glyph glyph-name="plus" unicode="&#x2b;" horiz-adv-x="555" d="M263 450 L263 261 L75 261 L75 239 L263 239 L263 50 L287 50 L287 239 L475 239 L475 261 L287 261 L287 450 L263 450 L263 450 Z " />
<glyph glyph-name="comma" unicode="&#x2c;" horiz-adv-x="188" d="M123 57 L123 57 C117 64 108 68 97 68 C75 68 61 54 61 32 C61 10 75 -4 97 -4 C100 -4 104 -1 108 4 C117 -36 100 -76 75 -89 L75 -97 C114 -78 140 -36 140 9 C140 29 134 48 125 58 L123 57 L123 57 Z " />
<glyph glyph-name="hyphen" unicode="&#x2d;" horiz-adv-x="313" d="M20 216 L293 216 L293 254 L20 254 L20 216 L20 216 Z " />
<glyph glyph-name="period" unicode="&#x2e;" horiz-adv-x="221" d="M125 -5 C147 -5 161 9 161 31 C161 53 147 67 125 67 C103 67 89 53 89 31 C89 9 103 -5 125 -5 L125 -5 Z " />
<glyph glyph-name="slash" unicode="&#x2f;" horiz-adv-x="332" d="M0 -145 L22 -145 L332 710 L310 710 L0 -145 L0 -145 Z " />
<glyph glyph-name="zero" unicode="0" horiz-adv-x="624" d="M106 250 C106 396 189 494 313 494 C437 494 519 396 519 250 C519 104 437 6 313 6 C189 6 106 104 106 250 L106 250 Z M50 250 C50 97 155 -5 313 -5 C470 -5 574 97 574 250 C574 403 470 505 313 505 C155 505 50 403 50 250 L50 250 Z " />
<glyph glyph-name="one" unicode="1" horiz-adv-x="310" d="M255 11 L244 12 C199 14 180 38 180 89 L180 411 C180 462 199 486 244 488 L255 489 L255 500 L55 500 L55 489 L66 488 C111 486 130 462 130 411 L130 89 C130 38 111 14 66 12 L55 11 L55 0 L255 0 L255 11 L255 11 Z " />
<glyph glyph-name="two" unicode="2" horiz-adv-x="507" d="M475 50 C477 75 479 103 481 125 L470 125 L468 114 C462 69 436 50 385 50 L107 50 C315 175 449 247 449 349 C449 443 381 505 279 505 C190 505 107 446 71 358 L78 354 C106 422 176 468 254 468 C338 468 394 414 394 332 C394 209 246 148 25 11 L25 0 L470 0 L473 25 L474 25 C474 27 476 50 476 50 L475 50 L475 50 Z " />
<glyph glyph-name="three" unicode="3" horiz-adv-x="483" d="M204 191 C310 191 380 130 380 38 C380 -99 238 -196 26 -206 L26 -215 C270 -204 433 -101 433 41 C433 142 348 210 221 210 C219 210 217 210 214 210 C321 257 388 320 388 379 C388 455 327 505 236 505 C160 505 70 453 11 376 L16 372 C60 430 138 469 211 469 C287 469 337 426 337 362 C337 301 268 237 162 197 C152 194 142 190 131 186 L131 178 C152 184 180 190 204 190 L204 191 L204 191 Z " />
<glyph glyph-name="four" unicode="4" horiz-adv-x="529" d="M19 9 L19 0 L345 0 L345 -150 L395 -150 L395 0 L519 0 L519 22 L395 22 L395 505 L387 505 C367 494 19 9 19 9 L19 9 Z M48 22 C99 93 262 320 345 430 C344 427 344 425 344 423 L344 22 L48 22 L48 22 Z " />
<glyph glyph-name="five" unicode="5" horiz-adv-x="466" d="M434 575 L423 575 L418 564 C401 519 371 500 320 500 L91 500 C91 416 68 221 68 221 L81 221 C81 221 81 223 82 227 C82 223 82 220 82 220 L143 220 C277 220 367 153 367 53 C367 -77 233 -167 32 -173 L32 -183 C263 -176 417 -75 417 70 C417 189 317 269 168 269 L88 269 C93 316 101 388 105 446 L394 446 C409 493 421 532 435 574 L434 575 L434 575 Z " />
<glyph glyph-name="six" unicode="6" horiz-adv-x="596" d="M532 715 C255 705 71 539 71 299 C71 117 165 -5 306 -5 C457 -5 553 83 546 216 C546 343 461 427 334 427 C190 427 110 353 134 243 L146 243 C124 346 196 414 326 414 C426 414 493 334 493 213 C499 91 427 9 312 9 C201 9 127 106 127 252 C127 271 130 297 130 316 C130 542 291 699 533 707 L532 715 L532 715 Z " />
<glyph glyph-name="seven" unicode="7" horiz-adv-x="464" d="M30 374 L32 385 C38 430 64 449 115 449 L427 449 L143 -140 L198 -140 C283 72 367 285 454 496 L450 501 L30 501 L28 476 C28 475 28 474 28 473 L26 451 C24 426 21 398 19 376 L30 374 L30 374 Z " />
<glyph glyph-name="eight" unicode="8" horiz-adv-x="565" d="M332 349 C424 367 483 432 483 517 L484 517 C484 606 405 665 287 665 C169 665 91 597 91 495 C91 412 154 343 252 316 C138 305 64 247 64 165 C64 64 154 -3 290 -3 C425 -3 515 69 515 176 C515 251 444 318 333 351 L332 349 L332 349 Z M326 353 C314 356 301 359 288 362 C195 380 133 442 133 517 C133 600 194 656 285 656 C380 656 443 598 443 511 C443 429 397 368 326 352 L326 353 L326 353 Z M112 172 C112 248 170 302 261 313 C267 312 273 311 279 310 C394 287 470 227 470 158 C470 67 400 7 294 7 C185 7 113 73 113 172 L112 172 L112 172 Z " />
<glyph glyph-name="nine" unicode="9" horiz-adv-x="596" d="M64 -215 C341 -205 525 -39 525 201 C525 383 431 505 290 505 C139 505 43 417 50 284 C50 157 135 73 262 73 C406 73 486 147 462 257 L450 257 C472 154 400 86 270 86 C170 86 103 166 103 287 C97 409 169 491 284 491 C395 491 469 394 469 248 C469 229 466 203 466 184 C466 -42 305 -199 63 -207 L64 -215 L64 -215 Z " />
<glyph glyph-name="colon" unicode="&#x3a;" horiz-adv-x="221" d="M125 364 C147 364 161 378 161 400 C161 422 147 436 125 436 C103 436 89 422 89 400 C89 378 103 364 125 364 L125 364 Z M125 -5 C147 -5 161 9 161 31 C161 53 147 67 125 67 C103 67 89 53 89 31 C89 9 103 -5 125 -5 L125 -5 Z " />
<glyph glyph-name="semicolon" unicode="&#x3b;" horiz-adv-x="188" d="M96 364 C118 364 132 378 132 400 C132 422 118 436 96 436 C74 436 60 422 60 400 C60 378 74 364 96 364 L96 364 Z M123 57 L123 57 C117 64 108 68 97 68 C75 68 61 54 61 32 C61 10 75 -4 97 -4 C100 -4 104 -1 108 4 C117 -36 100 -76 75 -89 L75 -97 C114 -78 140 -36 140 9 C140 29 134 48 125 58 L123 57 L123 57 Z " />
<glyph glyph-name="less" unicode="&#x3c;" horiz-adv-x="561" d="M486 500 L46 290 C44 290 42 287 40 287 L40 263 L46 260 L486 50 L486 75 L63 275 L486 475 L486 500 L486 500 Z " />
<glyph glyph-name="equal" unicode="&#x3d;" horiz-adv-x="553" d="M78 211 L78 189 L483 189 L483 211 L78 211 L78 211 Z M78 311 L78 289 L483 289 L483 311 L78 311 L78 311 Z " />
<glyph glyph-name="greater" unicode="&#x3e;" horiz-adv-x="555" d="M515 265 L515 285 C512 285 508 290 505 290 L75 500 L75 475 L488 275 L75 75 L75 50 C222 122 369 192 515 265 L515 265 Z " />
<glyph glyph-name="question" unicode="&#x3f;" horiz-adv-x="392" d="M148 -5 C170 -5 184 9 184 31 C184 53 170 67 148 67 C126 67 112 53 112 31 C112 9 126 -5 148 -5 L148 -5 Z M160 329 L195 329 C331 329 357 403 357 444 C357 577 267 665 133 665 C78 665 41 638 41 598 C41 590 52 585 69 585 C93 585 124 626 148 626 C267 626 346 556 346 450 C346 420 319 368 178 368 L143 368 C137 368 133 365 133 360 L144 147 L151 147 L160 329 L160 329 Z " />
<glyph glyph-name="at" unicode="&#x40;" horiz-adv-x="1177" d="M1082 0 C1015 -143 821 -239 597 -239 C295 -239 94 -40 94 259 C94 558 292 757 589 757 C885 757 1083 591 1083 343 C1083 140 1004 4 886 4 C764 4 703 82 732 200 L802 480 L754 480 L730 386 C718 449 666 490 593 490 C421 490 306 373 306 197 C306 87 379 13 488 13 C569 13 639 60 676 135 C681 44 755 -13 877 -13 C1024 -13 1122 129 1122 343 C1122 599 909 770 589 770 C269 770 55 566 55 259 C55 -48 272 -252 597 -252 C828 -252 1028 -151 1099 0 L1082 0 L1082 0 Z M723 356 L684 200 C660 105 593 41 515 41 C423 41 362 107 362 207 C362 368 454 476 593 476 C671 476 723 428 723 356 L723 356 Z " />
<glyph glyph-name="A" unicode="A" horiz-adv-x="657" d="M425 0 L652 0 L652 11 C608 11 585 24 563 74 L329 674 L315 674 L104 88 C86 37 58 13 12 11 L1 10 L1 -1 L201 -1 L201 10 L185 11 C123 13 107 42 128 103 L175 235 L442 236 L498 88 C517 37 504 13 452 11 L426 10 L425 0 L425 0 Z M438 249 L181 250 L305 601 L438 249 L438 249 Z " />
<glyph glyph-name="B" unicode="B" horiz-adv-x="620" d="M340 357 C331 357 322 357 313 357 L226 355 L182 355 L182 645 L346 645 C433 645 491 591 491 510 C491 425 432 366 340 356 L340 357 L340 357 Z M51 648 L62 647 C107 645 126 621 126 570 L126 88 C126 37 107 13 62 11 L51 10 L51 -1 L373 -1 C509 -1 600 71 600 179 C600 271 515 336 382 353 C483 371 547 429 547 510 C547 599 467 659 346 659 L51 659 L51 648 L51 648 Z M182 346 L297 346 C444 346 542 279 542 179 C542 79 472 13 367 13 L182 13 L182 346 L182 346 Z " />
<glyph glyph-name="C" unicode="C" horiz-adv-x="744" d="M684 57 L680 64 L680 64 L684 57 L684 57 Z M674 195 C670 184 664 168 660 157 C632 80 557 24 470 12 C450 10 430 9 410 9 C237 9 121 137 121 330 C121 523 237 651 410 651 C417 651 494 648 494 645 C566 636 632 579 660 503 C664 492 670 476 674 465 L683 465 L683 603 L680 597 C680 599 682 601 683 603 C619 640 510 665 411 665 C201 665 61 531 61 330 C61 129 201 -5 411 -5 C510 -5 619 20 683 57 L683 195 L674 195 L674 195 Z " />
<glyph glyph-name="D" unicode="D" horiz-adv-x="717" d="M51 649 L62 648 C107 646 126 622 126 571 L126 89 C126 38 107 14 62 12 L51 11 L51 0 L364 0 C546 0 667 132 667 330 C667 528 528 660 319 660 L51 660 L51 649 L51 649 Z M182 14 L182 646 L319 646 C494 646 611 520 611 330 C611 140 512 14 364 14 L182 14 L182 14 Z " />
<glyph glyph-name="E" unicode="E" horiz-adv-x="600" d="M514 149 L506 149 L492 123 C452 47 401 14 325 14 L171 14 L171 345 L288 345 C356 345 392 323 407 273 L411 260 L420 260 L420 434 L411 434 L407 423 C391 378 356 359 288 359 L171 359 L171 646 L318 646 C394 646 439 613 465 537 L474 511 L482 511 L482 660 L40 660 L40 649 L51 648 C96 646 115 622 115 571 L115 89 C115 38 96 14 51 12 L40 11 L40 0 L487 0 C494 46 506 103 514 149 L514 149 Z " />
<glyph glyph-name="F" unicode="F" horiz-adv-x="515" d="M40 649 L51 648 C96 646 115 622 115 571 L115 89 C115 38 96 14 51 12 L40 11 L40 0 L256 0 L256 11 L243 12 C193 14 171 38 171 89 L171 340 L278 340 C346 340 382 318 397 268 L401 255 L410 255 L410 429 L401 429 L397 418 C381 373 346 354 278 354 L171 354 L171 646 L348 646 C424 646 469 613 495 537 L504 511 L512 511 L512 660 L40 660 L40 649 L40 649 Z " />
<glyph glyph-name="G" unicode="G" horiz-adv-x="839" d="M664 465 L664 603 L661 597 C661 599 663 601 664 603 C600 640 494 665 401 665 C198 665 62 531 62 330 C62 129 198 -5 401 -5 C497 -5 605 20 669 57 L669 221 C669 272 688 296 733 298 L744 299 L744 310 L544 310 L544 299 L555 298 C600 296 619 272 619 221 L619 49 C558 24 476 9 401 9 C234 9 123 137 123 330 C123 523 234 651 401 651 C406 651 474 648 474 646 C546 637 613 580 641 503 C645 492 651 476 655 465 L664 465 L664 465 Z " />
<glyph glyph-name="H" unicode="H" horiz-adv-x="794" d="M754 11 L743 12 C698 14 679 38 679 89 L679 571 C679 622 698 646 743 648 L754 649 L754 660 L549 660 L549 649 L560 648 C605 646 624 622 624 571 L624 354 L171 354 L171 571 C171 622 190 646 235 648 L246 649 L246 660 L40 660 L40 649 L51 648 C96 646 115 622 115 571 L115 89 C115 38 96 14 51 12 L40 11 L40 0 L246 0 L246 11 L235 12 C190 14 171 38 171 89 L171 340 L624 340 L624 89 C624 38 605 14 560 12 L549 11 L549 0 L754 0 L754 11 L754 11 Z " />
<glyph glyph-name="I" unicode="I" horiz-adv-x="286" d="M246 11 L235 12 C190 14 171 38 171 89 L171 571 C171 622 190 646 235 648 L246 649 L246 660 L40 660 L40 649 L51 648 C96 646 115 622 115 571 L115 89 C115 38 96 14 51 12 L40 11 L40 0 L246 0 L246 11 L246 11 Z " />
<glyph glyph-name="J" unicode="J" horiz-adv-x="390" d="M350 660 L145 660 L145 649 L156 648 C201 646 220 622 220 571 L220 200 C220 57 192 1 120 1 C84 1 54 21 47 50 C44 63 34 72 22 72 C6 72 -3 63 0 50 C9 14 51 -10 106 -10 C228 -10 276 62 276 247 C275 248 275 454 275 575 C276 624 295 647 339 649 L350 650 L350 660 L350 660 Z " />
<glyph glyph-name="K" unicode="K" horiz-adv-x="671" d="M257 660 L51 660 L51 649 L62 648 C107 646 126 622 126 571 L126 89 C126 38 107 14 62 12 L51 11 L51 0 L257 0 L257 11 L246 12 C201 14 182 38 182 89 L182 355 L191 344 L192 345 C216 322 280 259 366 174 C497 45 573 -5 639 -5 L661 -5 L661 6 C624 6 560 60 408 210 C322 295 258 358 234 381 L467 581 C521 625 564 646 609 648 L621 649 L621 660 L463 660 L463 649 L472 648 C505 646 494 622 434 571 C350 499 266 427 182 355 L182 571 C182 622 201 646 246 648 L257 649 L257 660 L257 660 Z " />
<glyph glyph-name="L" unicode="L" horiz-adv-x="600" d="M246 660 L40 660 L40 649 L51 648 C96 646 115 622 115 571 L115 89 C115 38 96 14 51 12 L40 11 L40 0 L488 0 L489 7 L488 7 C496 52 506 111 514 156 C515 157 502 164 502 164 L479 113 C448 44 405 14 336 14 L171 14 L171 571 C171 622 190 646 235 648 L246 649 L246 660 L246 660 Z " />
<glyph glyph-name="M" unicode="M" horiz-adv-x="852" d="M812 660 L687 660 L443 61 L442 63 L181 660 L63 660 L63 649 L74 648 C115 646 134 626 135 583 L116 89 C113 39 94 14 50 12 L38 11 L38 0 L240 0 L240 11 L220 12 C158 14 132 42 134 104 L152 590 C240 392 328 194 416 -4 L430 -4 L689 619 L709 80 C708 36 689 15 648 13 L637 12 L637 1 L843 1 L843 12 L831 13 C787 15 766 39 764 90 L742 575 C741 624 758 647 801 649 L813 650 L812 660 L812 660 Z " />
<glyph glyph-name="N" unicode="N" horiz-adv-x="728" d="M43 649 L54 648 C99 646 118 622 118 571 L118 89 C118 38 99 14 54 12 L43 11 L43 0 L210 0 L210 11 L199 12 C154 14 135 38 135 89 L135 610 C288 403 442 197 594 -11 L613 -11 L613 571 C613 622 632 646 677 648 L688 649 L688 660 L521 660 L521 649 L532 648 C577 646 596 622 596 571 L596 79 L168 660 L43 660 L43 649 L43 649 Z " />
<glyph glyph-name="O" unicode="O" horiz-adv-x="785" d="M123 330 C123 503 217 651 399 651 C581 651 674 503 674 330 C674 157 581 9 399 9 C217 9 123 157 123 330 L123 330 Z M62 330 C62 149 177 -5 399 -5 C621 -5 735 149 735 330 C735 511 621 665 399 665 C177 665 62 511 62 330 L62 330 Z " />
<glyph glyph-name="P" unicode="P" horiz-adv-x="595" d="M257 11 L246 12 C201 14 182 38 182 89 L182 298 L324 298 C475 298 575 370 575 478 C575 587 489 660 360 660 L51 660 L51 649 L62 648 C107 646 126 622 126 571 L126 89 C126 38 107 14 62 12 L51 11 L51 0 L257 0 L257 11 L257 11 Z M182 312 L182 646 L360 646 C454 646 517 579 517 478 C517 378 440 311 324 311 C324 311 225 312 182 312 L182 312 Z " />
<glyph glyph-name="Q" unicode="Q" horiz-adv-x="785" d="M836 -20 L831 -16 C811 -40 747 -56 672 -56 C527 -56 444 -36 405 -5 C623 -2 735 151 735 330 C735 511 621 665 399 665 C177 665 62 511 62 330 C62 153 172 2 385 -4 C442 -56 533 -91 667 -91 C732 -91 800 -62 836 -19 L836 -20 L836 -20 Z M123 331 C123 504 217 652 399 652 C581 652 674 504 674 331 C674 158 581 10 399 10 C217 10 123 158 123 331 L123 331 Z " />
<glyph glyph-name="R" unicode="R" horiz-adv-x="659" d="M51 649 L62 648 C107 646 126 622 126 571 L126 89 C126 38 107 14 62 12 L51 11 L51 0 L257 0 L257 11 L246 12 C201 14 182 38 182 89 L182 317 L298 317 C324 288 392 210 484 106 C573 4 580 0 638 0 L659 0 L659 11 C632 11 634 11 560 95 C460 209 387 292 363 320 C477 334 550 398 550 490 C550 592 469 660 347 660 L51 660 L51 649 L51 649 Z M314 330 L182 331 L182 646 L347 646 C434 646 492 584 492 490 C492 394 421 330 314 330 L314 330 Z " />
<glyph glyph-name="S" unicode="S" horiz-adv-x="530" d="M451 472 L451 614 C398 645 318 665 252 665 C131 665 51 591 51 481 C51 407 129 338 245 308 C366 277 446 212 446 146 C446 64 382 9 285 9 C281 9 233 10 233 12 C161 19 94 75 66 151 C62 162 56 177 52 188 L43 188 L43 46 C96 15 193 -5 285 -5 C405 -5 485 64 485 168 C485 248 406 321 288 352 C169 383 90 443 90 503 C90 592 154 651 249 651 C252 651 313 647 312 644 C355 635 395 599 412 553 C421 529 433 496 442 472 L451 472 L451 472 Z " />
<glyph glyph-name="T" unicode="T" horiz-adv-x="645" d="M21 496 L47 557 C73 619 111 646 173 646 L295 646 L295 89 C295 38 276 14 231 12 L220 11 L220 0 L425 0 L425 11 L414 12 C369 14 350 38 350 89 L350 646 L469 646 C532 646 570 619 596 557 L622 496 L631 496 C627 545 623 611 616 659 L26 659 L25 652 L26 652 C22 605 16 542 12 495 L21 496 L21 496 Z " />
<glyph glyph-name="U" unicode="U" horiz-adv-x="713" d="M693 660 L501 660 L501 649 L515 648 C568 646 591 619 591 561 L591 185 C591 82 531 14 375 14 C229 14 172 88 172 199 L172 571 C172 622 191 646 236 648 L247 649 L247 660 L41 660 L41 649 L52 648 C97 646 116 622 116 571 L116 209 C116 81 186 -5 367 -5 C541 -5 608 69 608 179 L608 561 C608 619 630 646 680 648 L693 649 L693 660 L693 660 Z " />
<glyph glyph-name="V" unicode="V" horiz-adv-x="657" d="M228 660 L11 660 L11 649 L21 648 C54 646 78 626 98 585 L344 -15 L358 -15 L557 571 C574 622 602 646 647 648 L658 649 L658 660 L450 660 L450 649 L467 648 C535 646 554 613 530 541 L370 62 L164 571 C143 623 156 646 208 648 L228 649 L228 660 L228 660 Z " />
<glyph glyph-name="W" unicode="W" horiz-adv-x="976" d="M973 660 L779 660 L779 649 L805 648 C857 646 873 623 857 571 L680 -15 L694 -15 L874 571 C890 622 916 647 961 649 L973 650 L973 660 L973 660 Z M206 661 L-1 661 L-1 650 L8 649 C44 647 66 622 85 572 L286 -14 L300 -14 L503 671 L489 671 L310 68 L143 579 C130 625 146 647 194 649 L207 650 L206 661 L206 661 Z M681 -14 L707 73 L504 671 L477 578 L681 -14 L681 -14 Z " />
<glyph glyph-name="X" unicode="X" horiz-adv-x="662" d="M434 0 L645 0 L645 11 L636 12 C602 14 572 38 537 89 L359 352 L507 571 C542 622 577 646 623 648 L635 649 L635 660 L434 660 L434 649 L460 648 C508 646 518 626 492 581 L350 364 L205 578 C176 623 186 644 234 646 L250 647 L250 658 L38 658 L38 647 L47 646 C81 644 111 619 146 568 L315 319 L164 82 C132 34 99 11 54 9 L42 8 L42 -3 L241 -3 L241 8 L226 9 C166 11 159 40 197 101 L326 305 L482 75 C509 31 499 10 451 8 L435 7 L434 0 L434 0 Z " />
<glyph glyph-name="Y" unicode="Y" horiz-adv-x="627" d="M225 660 L19 660 L19 649 L28 648 C60 646 86 624 113 578 L291 260 L291 89 C291 38 272 14 227 12 L216 11 L216 0 L422 0 L422 11 L411 12 C366 14 347 38 347 89 L347 282 L347 282 L525 582 C553 626 582 647 619 649 L630 650 L630 661 L444 661 L444 650 L459 649 C519 647 527 617 489 552 L338 294 L183 572 C155 622 163 647 212 649 L224 650 L225 660 L225 660 Z " />
<glyph glyph-name="Z" unicode="Z" horiz-adv-x="617" d="M83 526 L92 526 L113 557 C157 619 202 646 264 646 L482 646 L52 0 L541 0 L542 7 L541 7 C549 52 559 111 567 156 C568 157 555 164 555 164 L532 113 C501 44 458 14 389 14 L124 14 L554 660 L119 660 C108 620 94 567 83 526 L83 526 Z " />
<glyph glyph-name="bracketleft" unicode="&#x5b;" horiz-adv-x="231" d="M116 649 L221 649 L221 660 L77 660 L77 -120 L221 -120 L221 -109 L116 -109 L116 649 L116 649 Z " />
<glyph glyph-name="backslash" unicode="&#x5c;" horiz-adv-x="224" d="M207 -145 L224 -145 L-43 710 L-60 710 L207 -145 L207 -145 Z " />
<glyph glyph-name="bracketright" unicode="&#x5d;" horiz-adv-x="219" d="M110 649 L110 -109 L5 -109 L5 -120 L149 -120 L149 660 L5 660 L5 649 L110 649 L110 649 Z " />
<glyph glyph-name="asciicircum" unicode="&#x5e;" horiz-adv-x="371" d="M202 731 C200 735 193 745 186 745 C179 745 172 735 170 731 C170 731 76 554 63 538 L68 533 C112 586 160 655 185 691 C222 638 304 534 304 534 L309 539 C309 539 248 638 202 732 L202 731 L202 731 Z " />
<glyph glyph-name="underscore" unicode="&#x5f;" horiz-adv-x="512" d="M5 -50 L5 -78 L507 -78 L507 -50 L5 -50 L5 -50 Z " />
<glyph glyph-name="grave" unicode="&#x60;" horiz-adv-x="371" d="M103 715 C103 710 120 689 146 660 C178 620 259 531 259 531 L265 535 C265 535 204 639 172 680 C151 713 136 735 132 735 C123 735 103 721 103 715 L103 715 Z " />
<glyph glyph-name="a" unicode="a" horiz-adv-x="509" d="M487 37 C473 23 458 14 435 14 C405 14 396 38 396 73 L396 359 C396 447 343 505 264 505 C157 505 78 465 66 406 L116 406 C126 457 181 491 253 491 C307 491 343 443 343 371 L343 252 C309 249 250 243 214 234 C107 207 36 155 36 102 C36 38 86 -5 161 -5 C226 -5 295 23 343 67 C343 21 356 -10 401 -10 C441 -10 468 6 492 30 L487 37 L487 37 Z M343 240 L343 77 C304 47 246 28 186 28 C125 28 85 63 85 116 C85 158 137 199 214 218 C256 229 311 237 343 241 L343 240 L343 240 Z " />
<glyph glyph-name="b" unicode="b" horiz-adv-x="626" d="M318 -5 C470 -5 571 96 571 248 C571 402 479 505 342 505 C284 505 209 486 155 457 L155 720 L145 720 L30 687 L30 680 L41 677 C104 662 105 660 105 588 L105 0 L111 0 C116 14 130 24 146 24 C198 24 254 -5 318 -5 L318 -5 Z M318 9 C220 9 155 59 155 133 L155 449 C193 469 253 483 304 483 C432 483 518 380 518 225 C518 95 438 9 318 9 L318 9 Z " />
<glyph glyph-name="c" unicode="c" horiz-adv-x="501" d="M449 41 L445 47 C429 34 368 25 291 25 C178 25 103 117 103 254 C103 396 185 491 308 491 C361 491 399 456 404 404 C405 389 415 379 429 379 C442 379 451 388 451 401 C446 463 391 505 314 505 C156 505 50 397 50 235 C50 91 130 -5 250 -5 C337 -5 416 13 449 41 L449 41 Z " />
<glyph glyph-name="d" unicode="d" horiz-adv-x="621" d="M386 680 L397 677 C460 662 461 660 461 588 L461 434 C427 475 362 505 288 505 C148 505 55 393 55 225 C55 87 140 -5 268 -5 C344 -5 420 19 462 55 L462 0 L472 0 L587 33 L587 40 L576 43 C513 58 512 60 512 132 L512 720 L502 720 L387 687 L386 680 L386 680 Z M462 63 C436 41 371 26 297 26 C184 26 108 113 108 244 C108 392 179 491 286 491 C366 491 435 455 462 410 L462 63 L462 63 Z " />
<glyph glyph-name="e" unicode="e" horiz-adv-x="507" d="M411 363 L411 364 L410 324 L457 324 C457 433 386 505 279 505 C142 505 50 397 50 235 C50 91 131 -5 253 -5 C341 -5 422 13 455 41 L451 47 C435 34 372 25 294 25 C179 25 103 117 103 254 C103 279 105 302 109 324 L410 324 L410 342 L411 363 C410 351 403 343 392 341 L112 333 C133 430 194 491 277 491 C358 491 412 441 412 366 C412 365 412 364 412 363 L411 363 L411 363 Z " />
<glyph glyph-name="f" unicode="f" horiz-adv-x="424" d="M264 11 L253 12 C208 14 189 38 189 89 L189 481 L341 481 L341 500 L189 500 L189 533 C189 638 272 709 308 709 C344 709 369 689 372 660 C374 633 419 630 419 660 C416 696 377 720 322 720 C214 720 142 650 142 544 C140 544 139 500 139 500 L45 500 L45 481 L139 481 L139 89 C139 38 120 14 75 12 L64 11 L64 0 L264 0 L264 11 L264 11 Z " />
<glyph glyph-name="g" unicode="g" horiz-adv-x="492" d="M492 500 L352 488 C325 499 294 505 259 505 C145 505 69 443 69 350 C69 277 116 223 192 203 C108 202 52 166 52 112 C52 65 95 31 163 22 C80 -1 27 -52 27 -110 C27 -187 90 -238 184 -238 C357 -238 472 -162 472 -49 C472 22 398 70 287 70 C269 70 200 67 200 67 C131 67 85 93 85 132 C85 170 130 195 197 195 L259 195 C372 195 448 257 448 350 C448 401 425 443 386 470 L492 472 L492 500 L492 500 Z M259 206 C173 206 116 264 116 350 C116 436 173 494 259 494 C344 494 401 436 401 350 C401 264 344 206 259 206 L259 206 Z M181 21 C200 20 246 24 273 24 C371 24 436 -15 436 -73 C436 -164 337 -224 189 -224 C112 -224 60 -176 60 -104 C60 -47 108 3 181 21 L181 21 Z " />
<glyph glyph-name="h" unicode="h" horiz-adv-x="646" d="M406 0 L606 0 L606 11 L595 12 C550 14 531 38 531 89 L531 336 C531 437 493 505 395 505 C340 505 250 477 169 435 L169 720 L159 720 L44 687 L44 680 L55 677 C118 662 119 660 119 588 L119 89 C119 38 100 14 55 12 L44 11 L44 0 L244 0 L244 11 L233 12 C188 14 169 38 169 89 L169 430 C219 454 293 471 356 471 C445 471 480 415 480 331 L480 89 C480 38 461 14 416 12 L405 11 L406 0 L406 0 Z " />
<glyph glyph-name="i" unicode="i" horiz-adv-x="290" d="M176 603 C176 647 109 648 109 603 C109 559 176 560 176 603 L176 603 Z M245 11 L234 12 C189 14 170 38 170 89 L170 500 L160 500 L45 467 L45 460 L56 457 C119 442 120 440 120 368 L120 89 C120 38 101 14 56 12 L45 11 L45 0 L245 0 L245 11 L245 11 Z " />
<glyph glyph-name="j" unicode="j" horiz-adv-x="295" d="M181 603 C181 647 114 648 114 603 C114 559 181 560 181 603 L181 603 Z M50 460 L61 457 C124 442 125 440 125 368 L125 8 C125 -123 94 -167 2 -225 L7 -232 C133 -153 175 -103 175 22 L175 500 L165 500 L50 467 L50 460 L50 460 Z " />
<glyph glyph-name="k" unicode="k" horiz-adv-x="568" d="M54 680 L65 677 C128 662 129 660 129 588 L129 89 C129 38 110 14 65 12 L54 11 L54 0 L254 0 L254 11 L243 12 C198 14 179 38 179 89 L179 275 L184 268 L185 269 L376 89 C431 38 439 14 405 12 L396 11 L396 0 L597 0 L597 11 L585 12 C540 14 500 35 452 79 L225 300 L378 417 C441 464 489 486 535 488 L547 489 L547 500 L389 500 L389 489 L397 488 C430 486 416 462 351 411 L179 275 L179 720 L169 720 L54 687 L54 680 L54 680 Z " />
<glyph glyph-name="l" unicode="l" horiz-adv-x="290" d="M245 11 L234 12 C189 14 170 38 170 89 L170 720 L160 720 L45 687 L45 680 L56 677 C119 662 120 660 120 588 L120 89 C120 38 101 14 56 12 L45 11 L45 0 L245 0 L245 11 L245 11 Z " />
<glyph glyph-name="m" unicode="m" horiz-adv-x="1027" d="M787 0 L987 0 L987 11 L976 12 C931 14 912 38 912 89 L912 336 C912 437 850 505 768 505 C717 505 624 470 525 418 C502 472 456 505 401 505 C337 505 250 477 170 435 L170 500 L160 500 L45 467 L45 460 L56 457 C119 442 120 440 120 368 L120 89 C120 38 101 14 56 12 L45 11 L45 0 L245 0 L245 11 L234 12 C189 14 170 38 170 89 L170 430 C223 457 293 475 362 475 C435 475 490 417 490 331 L490 89 C490 38 471 14 426 12 L415 11 L415 0 L615 0 L615 11 L604 12 C559 14 540 38 540 89 L540 336 C540 363 536 388 528 410 C598 447 673 471 728 471 C804 471 861 415 861 331 L861 89 C861 38 842 14 797 12 L786 11 L787 0 L787 0 Z " />
<glyph glyph-name="n" unicode="n" horiz-adv-x="646" d="M406 0 L606 0 L606 11 L595 12 C550 14 531 38 531 89 L531 336 C531 437 493 505 395 505 C340 505 250 477 169 435 L169 500 L159 500 L44 467 L44 460 L55 457 C118 442 119 440 119 368 L119 89 C119 38 100 14 55 12 L44 11 L44 0 L244 0 L244 11 L233 12 C188 14 169 38 169 89 L169 430 C219 454 293 471 356 471 C445 471 480 415 480 331 L480 89 C480 38 461 14 416 12 L405 11 L406 0 L406 0 Z " />
<glyph glyph-name="o" unicode="o" horiz-adv-x="614" d="M106 250 C106 396 186 494 307 494 C428 494 509 396 509 250 C509 104 428 6 307 6 C186 6 106 104 106 250 L106 250 Z M50 250 C50 97 153 -5 307 -5 C461 -5 564 97 564 250 C564 403 461 505 307 505 C153 505 50 403 50 250 L50 250 Z " />
<glyph glyph-name="p" unicode="p" horiz-adv-x="659" d="M245 -219 L234 -218 C189 -216 170 -192 170 -141 L170 52 C207 16 267 -5 340 -5 C498 -5 604 100 604 258 C604 406 516 505 384 505 C302 505 218 471 171 420 L171 500 L161 500 L46 467 L46 460 L57 457 C120 442 121 440 121 368 L121 -141 C121 -192 102 -216 57 -218 L46 -219 L46 -230 L246 -230 L245 -219 L245 -219 Z M171 135 L171 411 C207 447 275 471 346 471 C471 471 555 370 555 219 C555 93 469 9 341 9 C246 9 178 59 171 135 L171 135 Z " />
<glyph glyph-name="q" unicode="q" horiz-adv-x="640" d="M330 504 C322 505 313 505 304 505 C313 505 322 505 330 504 L330 504 Z M595 -219 L584 -218 C539 -216 520 -192 520 -141 L520 500 L514 500 C509 486 495 476 478 476 C426 476 368 505 304 505 C161 505 65 393 65 225 C65 87 148 -5 272 -5 C349 -5 427 20 471 58 L471 -141 C471 -192 452 -216 407 -218 L396 -219 L396 -230 L596 -230 L595 -219 L595 -219 Z M471 68 C444 43 376 26 301 26 C192 26 119 113 119 244 C119 392 194 491 306 491 C406 491 472 441 472 367 L471 68 L471 68 Z " />
<glyph glyph-name="r" unicode="r" horiz-adv-x="440" d="M45 460 L56 457 C119 442 120 440 120 368 L120 89 C120 38 101 14 56 12 L45 11 L45 0 L245 0 L245 11 L234 12 C189 14 170 38 170 89 L170 415 C199 447 247 468 294 468 C328 468 372 446 406 446 C420 446 430 456 430 470 C430 491 403 505 334 505 C278 505 213 472 170 421 L170 500 L160 500 L45 467 L45 460 L45 460 Z " />
<glyph glyph-name="s" unicode="s" horiz-adv-x="448" d="M366 370 L375 370 L375 461 L371 453 C371 455 374 458 375 461 C329 487 269 505 225 505 C129 505 65 454 65 378 C65 324 129 266 226 232 C304 205 356 159 356 118 C356 51 308 6 237 6 C225 6 213 7 200 8 C145 14 92 54 68 109 C65 117 59 127 56 135 L48 135 L48 34 C89 11 163 -5 234 -5 C332 -5 398 51 398 136 C398 186 343 239 261 268 C167 301 104 352 104 395 C104 454 152 494 225 494 C225 494 259 491 258 489 C311 477 349 427 365 370 L366 370 L366 370 Z " />
<glyph glyph-name="t" unicode="t" horiz-adv-x="376" d="M345 500 L161 500 L161 640 L153 640 L115 496 L135 572 C123 526 79 492 25 487 L25 481 L111 481 L111 111 C111 21 133 -5 211 -5 C279 -5 321 15 356 44 L353 48 C331 29 298 17 235 17 C177 17 161 36 161 102 L161 481 L345 481 L345 500 L345 500 Z " />
<glyph glyph-name="u" unicode="u" horiz-adv-x="611" d="M15 489 L26 488 C71 486 90 462 90 411 L90 156 C90 59 146 -5 254 -5 C345 -5 409 20 451 58 L451 0 L461 0 L576 33 L576 40 L565 43 C502 58 501 60 501 132 L501 500 L376 500 L376 489 L387 488 C432 486 451 462 451 411 L451 66 C425 43 376 28 293 28 C192 28 140 81 140 161 L140 500 L15 500 L15 489 L15 489 Z " />
<glyph glyph-name="v" unicode="v" horiz-adv-x="501" d="M559 500 L396 500 L396 489 L406 488 C444 486 455 465 440 421 L298 51 L162 411 C144 461 152 486 193 488 L203 489 L203 500 L0 500 L0 489 L12 488 C57 486 85 461 106 411 L274 -10 L282 -10 L454 419 C475 465 502 487 546 489 L558 490 L559 500 L559 500 Z " />
<glyph glyph-name="w" unicode="w" horiz-adv-x="779" d="M219 500 L16 500 L16 489 L26 488 C62 486 87 461 108 411 L276 -10 L284 -10 L423 320 L554 -10 L562 -10 L734 419 C755 465 782 487 826 489 L838 490 L838 501 L645 501 L645 490 L670 489 C719 487 734 466 719 420 L578 52 L442 412 C424 462 436 487 488 489 L503 490 L503 501 L300 501 L300 490 L309 489 C342 487 366 462 387 412 C397 386 409 359 418 334 L302 51 L165 412 C145 463 157 487 207 489 L220 490 L219 500 L219 500 Z " />
<glyph glyph-name="x" unicode="x" horiz-adv-x="580" d="M229 500 L27 500 L27 489 L36 488 C71 486 102 466 137 424 L271 253 L152 88 C115 38 77 14 25 12 L11 11 L11 0 L225 0 L225 11 L190 12 C139 14 131 36 166 86 L278 244 L399 89 C438 39 441 14 403 12 L394 11 L394 0 L571 0 L571 11 C534 16 511 29 472 75 L309 284 L418 425 C453 466 488 486 530 488 L542 489 L542 500 L358 500 L358 489 L373 488 C425 486 428 461 392 411 L303 291 L210 411 C171 461 171 486 218 488 L230 489 L229 500 L229 500 Z " />
<glyph glyph-name="y" unicode="y" horiz-adv-x="501" d="M559 500 L396 500 L396 489 L406 488 C444 486 455 465 440 421 L298 51 L162 411 C144 461 152 486 193 488 L203 489 L203 500 L0 500 L0 489 L12 488 C57 486 85 461 106 411 L270 -2 C265 -13 254 -37 244 -66 C206 -160 177 -196 140 -196 C140 -196 92 -172 71 -172 C55 -172 45 -180 45 -193 C45 -215 71 -229 109 -229 C170 -229 211 -185 257 -71 C269 -35 282 -9 282 -9 L454 420 C475 466 502 488 546 490 L558 491 L559 500 L559 500 Z " />
<glyph glyph-name="z" unicode="z" horiz-adv-x="509" d="M43 398 L52 398 L63 412 C107 465 154 487 217 488 L394 489 L57 0 L449 0 L450 6 L448 6 C456 50 467 109 475 153 C476 154 463 161 463 161 L440 110 C409 41 366 11 297 11 L124 11 L460 500 L72 500 C62 470 53 429 44 398 L43 398 L43 398 Z " />
<glyph glyph-name="braceleft" unicode="&#x7b;" horiz-adv-x="259" d="M244 -120 L244 -112 L215 -112 C150 -112 106 -61 106 15 L106 175 C106 228 78 264 36 270 C78 276 106 313 106 366 L106 525 C106 601 150 652 215 652 L244 652 L244 660 L204 660 C122 660 67 606 67 525 L67 338 C67 296 43 274 5 274 L5 266 C43 266 67 245 67 203 L67 15 C67 -66 122 -120 204 -120 L244 -120 L244 -120 Z " />
<glyph glyph-name="bar" unicode="&#x7c;" horiz-adv-x="159" d="M60 770 L60 -234 L99 -234 L99 770 L60 770 L60 770 Z " />
<glyph glyph-name="braceright" unicode="&#x7d;" horiz-adv-x="259" d="M5 660 L5 652 L34 652 C99 652 143 601 143 525 L143 365 C143 312 171 276 213 270 C171 264 143 227 143 174 L143 15 C143 -61 99 -112 34 -112 L5 -112 L5 -120 L45 -120 C127 -120 182 -66 182 15 L182 202 C182 244 206 266 244 266 L244 274 C206 274 182 295 182 337 L182 525 C182 606 127 660 45 660 L5 660 L5 660 Z " />
<glyph glyph-name="asciitilde" unicode="&#x7e;" horiz-adv-x="371" d="M26 310 C26 350 47 377 78 377 C139 377 219 314 280 314 C324 314 354 352 354 408 L346 408 C346 371 324 347 291 347 C230 347 150 410 89 410 C46 410 18 370 18 310 L26 310 L26 310 Z " />
<glyph glyph-name="nbspace" unicode="&#xa0;" horiz-adv-x="247" d="" />
<glyph glyph-name="exclamdown" unicode="&#xa1;" horiz-adv-x="184" d="M88 505 C66 505 52 491 52 469 C52 447 66 433 88 433 C110 433 124 447 124 469 C124 491 110 505 88 505 L88 505 Z M60 -120 C59 -147 71 -165 91 -165 C111 -165 124 -147 122 -120 C122 167 91 358 91 358 L85 358 C85 358 60 167 60 -120 L60 -120 Z " />
<glyph glyph-name="cent" unicode="&#xa2;" horiz-adv-x="501" d="M291 575 L291 504 C146 494 50 389 50 235 C50 91 130 -5 250 -5 C264 -5 278 -5 291 -4 L291 -75 L307 -75 L307 -2 C370 4 423 20 449 42 L445 48 C430 36 376 27 307 26 L307 492 C361 492 399 458 404 405 C405 390 415 380 429 380 C442 380 451 389 451 402 C446 466 388 507 307 505 L307 575 L291 575 L291 575 Z M291 25 C178 25 103 117 103 254 C103 389 178 482 291 490 L291 25 L291 25 Z " />
<glyph glyph-name="guillemotleft" unicode="&#xab;" horiz-adv-x="501" d="M204 247 C203 249 203 250 204 250 L204 247 C204 247 208 247 214 246 C261 215 450 36 450 36 L456 41 C456 41 301 199 256 249 C284 281 359 365 453 459 L448 464 C287 303 203 253 203 253 L204 247 L204 247 Z M72 249 C100 281 175 365 269 459 L264 464 C103 303 19 253 19 253 L19 250 L19 247 C18 249 18 250 19 250 L19 247 C19 247 23 247 29 246 C76 215 265 36 265 36 L271 41 C271 41 116 199 71 249 L72 249 L72 249 Z " />
<glyph glyph-name="acute" unicode="&#xb4;" horiz-adv-x="371" d="M108 531 C108 531 187 620 218 660 C243 690 260 712 260 715 C260 721 240 735 231 735 C229 735 214 713 193 680 C162 640 103 535 103 535 L108 531 L108 531 Z " />
<glyph glyph-name="guillemotright" unicode="&#xbb;" horiz-adv-x="501" d="M51 36 C51 36 240 215 287 246 C293 247 297 247 297 247 L297 250 C298 250 298 249 297 247 L297 253 C297 253 213 303 52 464 L47 459 C141 365 216 281 244 249 C199 199 44 41 44 41 L51 36 L51 36 Z M234 36 C234 36 423 215 470 246 C476 247 480 247 480 247 L480 250 C481 250 481 249 480 247 L480 253 C480 253 396 303 235 464 L230 459 C324 365 399 281 427 249 C382 199 227 41 227 41 L234 36 L234 36 Z " />
<glyph glyph-name="onequarter" unicode="&#xbc;" horiz-adv-x="792" d="M242 626 L242 626 L244 626 L242 626 L242 626 Z M281 670 L222 670 L222 664 L220 664 L220 668 L162 668 L162 663 C178 663 188 660 194 651 L194 459 C194 431 184 420 158 420 L158 415 L194 415 L194 414 L236 414 L236 416 L277 416 L277 422 L272 423 C250 424 241 436 241 462 L239 460 L236 460 L236 626 L242 626 C242 650 252 662 275 663 L281 664 L281 670 L281 670 Z M131 -15 L684 655 L662 673 L109 3 L131 -15 L131 -15 Z M468 58 L468 58 L468 58 Z M458 65 L458 58 L465 58 L465 57 L606 57 L606 4 L649 4 L649 57 L711 57 L711 76 L649 76 L649 309 L643 309 L642 310 C628 302 457 66 457 66 L458 65 L458 65 Z M481 76 C508 112 567 193 608 246 C607 243 607 241 607 239 L607 76 L481 76 L481 76 Z " />
<glyph glyph-name="onehalf" unicode="&#xbd;" horiz-adv-x="792" d="M654 52 L544 52 C631 105 685 140 685 184 C685 230 650 261 598 261 C552 261 509 232 492 188 L498 185 C509 212 541 230 579 230 C616 230 641 206 641 171 C641 108 573 82 472 19 L472 10 L468 7 C470 8 472 9 474 10 L695 10 L698 45 C700 61 702 79 704 93 L699 93 C694 68 686 56 657 56 C657 55 656 54 656 53 L654 52 L654 52 Z M244 627 L244 627 L246 627 L244 627 L244 627 Z M283 671 L224 671 L224 665 L222 665 L222 669 L164 669 L164 664 C180 664 190 661 196 652 L196 460 C196 432 186 421 160 421 L160 416 L196 416 L196 415 L238 415 L238 417 L279 417 L279 423 L274 424 C252 425 243 437 243 463 L241 461 L238 461 L238 627 L244 627 C244 651 254 663 277 664 L283 665 L283 671 L283 671 Z M133 -14 L686 656 L664 674 L111 4 L133 -14 L133 -14 Z M477 10 C483 14 489 18 495 22 C489 16 483 11 477 10 L477 10 Z " />
<glyph glyph-name="threequarters" unicode="&#xbe;" horiz-adv-x="792" d="M109 340 C234 346 317 393 317 457 C317 498 283 527 229 533 C274 556 301 584 301 609 C301 646 270 671 223 671 C182 671 135 646 106 608 L111 604 C128 626 165 641 203 641 C238 641 261 623 261 596 C261 574 242 551 211 534 L211 534 C199 527 185 521 169 516 L169 513 C168 513 167 513 166 513 L166 506 C217 521 277 503 277 457 C277 397 212 354 114 350 L115 343 L109 340 L109 340 Z M134 -13 L687 657 L665 675 L112 5 L134 -13 L134 -13 Z M468 58 L468 58 L468 58 Z M458 65 L458 58 L465 58 L465 57 L606 57 L606 4 L649 4 L649 57 L711 57 L711 76 L649 76 L649 309 L643 309 L642 310 C628 302 457 66 457 66 L458 65 L458 65 Z M481 76 C508 112 567 193 608 246 C607 243 607 241 607 239 L607 76 L481 76 L481 76 Z " />
<glyph glyph-name="questiondown" unicode="&#xbf;" horiz-adv-x="392" d="M244 505 C222 505 208 491 208 469 C208 447 222 433 244 433 C266 433 280 447 280 469 C280 491 266 505 244 505 L244 505 Z M232 171 L197 171 C61 171 35 97 35 56 C35 -77 125 -165 259 -165 C314 -165 351 -138 351 -98 C351 -90 340 -85 323 -85 C299 -85 268 -126 244 -126 C125 -126 46 -56 46 50 C46 80 73 132 214 132 L249 132 C255 132 259 135 259 140 L248 353 L241 353 L232 171 L232 171 Z " />
<glyph glyph-name="Agrave" unicode="&#xc0;" horiz-adv-x="657" d="M425 0 L652 0 L652 11 C608 11 585 24 563 74 L329 674 L315 674 L104 88 C86 37 58 13 12 11 L1 10 L1 -1 L201 -1 L201 10 L185 11 C123 13 107 42 128 103 L175 235 L442 236 L498 88 C517 37 504 13 452 11 L426 10 L425 0 L425 0 Z M241 874 C241 869 258 848 284 819 C316 779 397 690 397 690 L402 694 C402 694 341 798 309 839 C288 872 273 894 269 894 C261 894 241 880 241 874 L241 874 Z M438 249 L181 250 L305 601 L438 249 L438 249 Z " />
<glyph glyph-name="Aacute" unicode="&#xc1;" horiz-adv-x="657" d="M259 691 C259 691 338 780 369 820 C394 850 411 872 411 875 C411 881 391 895 382 895 C380 895 365 873 344 840 C313 800 254 695 254 695 L259 691 L259 691 Z M425 0 L652 0 L652 11 C608 11 585 24 563 74 L329 674 L315 674 L104 88 C86 37 58 13 12 11 L1 10 L1 -1 L201 -1 L201 10 L185 11 C123 13 107 42 128 103 L175 235 L442 236 L498 88 C517 37 504 13 452 11 L426 10 L425 0 L425 0 Z M438 249 L181 250 L305 601 L438 249 L438 249 Z " />
<glyph glyph-name="Acircumflex" unicode="&#xc2;" horiz-adv-x="657" d="M425 0 L652 0 L652 11 C608 11 585 24 563 74 L329 674 L315 674 L104 88 C86 37 58 13 12 11 L1 10 L1 -1 L201 -1 L201 10 L185 11 C123 13 107 42 128 103 L175 235 L442 236 L498 88 C517 37 504 13 452 11 L426 10 L425 0 L425 0 Z M339 890 C337 894 330 904 323 904 C316 904 309 894 307 890 C307 890 213 713 200 697 L205 692 C249 745 297 814 322 850 C359 797 441 693 441 693 L446 698 C446 698 385 797 339 891 L339 890 L339 890 Z M438 250 L181 251 L305 602 L438 250 L438 250 Z " />
<glyph glyph-name="Atilde" unicode="&#xc3;" horiz-adv-x="657" d="M162 755 C162 795 183 822 214 822 C275 822 355 759 416 759 C460 759 490 797 490 853 L482 853 C482 816 460 792 427 792 C366 792 286 855 225 855 C182 855 154 815 154 755 L162 755 L162 755 Z M425 0 L652 0 L652 11 C608 11 585 24 563 74 L329 674 L315 674 L104 88 C86 37 58 13 12 11 L1 10 L1 -1 L201 -1 L201 10 L185 11 C123 13 107 42 128 103 L175 235 L442 236 L498 88 C517 37 504 13 452 11 L426 10 L425 0 L425 0 Z M438 249 L181 250 L305 601 L438 249 L438 249 Z " />
<glyph glyph-name="Adieresis" unicode="&#xc4;" horiz-adv-x="657" d="M442 761 C442 801 381 800 381 761 C381 721 442 720 442 761 L442 761 Z M263 761 C263 800 202 801 202 761 C202 720 263 721 263 761 L263 761 Z M425 0 L652 0 L652 11 C608 11 585 24 563 74 L329 674 L315 674 L104 88 C86 37 58 13 12 11 L1 10 L1 -1 L201 -1 L201 10 L185 11 C123 13 107 42 128 103 L175 235 L442 236 L498 88 C517 37 504 13 452 11 L426 10 L425 0 L425 0 Z M438 249 L181 250 L305 601 L438 249 L438 249 Z " />
<glyph glyph-name="Aring" unicode="&#xc5;" horiz-adv-x="657" d="M242 788 C242 837 274 869 322 869 C370 869 402 837 402 788 C402 744 365 706 322 706 C279 706 242 744 242 788 L242 788 Z M228 788 C228 738 271 695 322 695 C373 695 416 738 416 788 C416 843 378 880 322 880 C266 880 228 843 228 788 L228 788 Z M425 0 L652 0 L652 11 C608 11 585 24 563 74 L329 674 L315 674 L104 88 C86 37 58 13 12 11 L1 10 L1 -1 L201 -1 L201 10 L185 11 C123 13 107 42 128 103 L175 235 L442 236 L498 88 C517 37 504 13 452 11 L426 10 L425 0 L425 0 Z M438 249 L181 250 L305 601 L438 249 L438 249 Z " />
<glyph glyph-name="Ccedilla" unicode="&#xc7;" horiz-adv-x="744" d="M370 -87 L366 -95 C367 -92 368 -89 369 -87 L370 -87 L370 -87 Z M674 195 C670 184 664 168 660 157 C632 80 557 24 470 12 C450 10 430 9 410 9 C237 9 121 137 121 330 C121 523 237 651 410 651 C417 651 494 648 494 645 C566 636 632 579 660 503 C664 492 670 476 674 465 L683 465 L683 603 L680 597 C680 599 682 601 683 603 C619 640 510 665 411 665 C201 665 61 531 61 330 C61 131 199 -2 406 -4 L362 -92 L365 -94 C386 -85 415 -79 438 -79 C482 -79 511 -101 511 -134 C511 -176 478 -204 428 -204 C384 -204 347 -198 334 -190 L331 -195 C353 -209 396 -219 438 -219 C500 -219 542 -185 542 -134 C542 -95 505 -69 450 -69 C423 -69 391 -75 370 -84 C397 -32 416 -10 422 -4 C518 -2 621 23 683 59 L679 66 L679 66 L682 59 L682 197 L674 195 L674 195 Z " />
<glyph glyph-name="Egrave" unicode="&#xc8;" horiz-adv-x="600" d="M197 875 C197 870 214 849 240 820 C272 780 353 691 353 691 L358 695 C358 695 297 799 265 840 C244 873 229 895 225 895 C217 895 197 881 197 875 L197 875 Z M514 149 L506 149 L492 123 C452 47 401 14 325 14 L171 14 L171 345 L288 345 C356 345 392 323 407 273 L411 260 L420 260 L420 434 L411 434 L407 423 C391 378 356 359 288 359 L171 359 L171 646 L318 646 C394 646 439 613 465 537 L474 511 L482 511 L482 660 L40 660 L40 649 L51 648 C96 646 115 622 115 571 L115 89 C115 38 96 14 51 12 L40 11 L40 0 L487 0 C494 46 506 103 514 149 L514 149 Z " />
<glyph glyph-name="Eacute" unicode="&#xc9;" horiz-adv-x="600" d="M263 691 C263 691 342 780 373 820 C398 850 415 872 415 875 C415 881 395 895 386 895 C384 895 369 873 348 840 C317 800 258 695 258 695 L263 691 L263 691 Z M514 149 L506 149 L492 123 C452 47 401 14 325 14 L171 14 L171 345 L288 345 C356 345 392 323 407 273 L411 260 L420 260 L420 434 L411 434 L407 423 C391 378 356 359 288 359 L171 359 L171 646 L318 646 C394 646 439 613 465 537 L474 511 L482 511 L482 660 L40 660 L40 649 L51 648 C96 646 115 622 115 571 L115 89 C115 38 96 14 51 12 L40 11 L40 0 L487 0 C494 46 506 103 514 149 L514 149 Z " />
<glyph glyph-name="Ecircumflex" unicode="&#xca;" horiz-adv-x="600" d="M311 891 C309 895 302 905 295 905 C288 905 281 895 279 891 C279 891 185 714 172 698 L177 693 C221 746 269 815 294 851 C331 798 413 694 413 694 L418 699 C418 699 357 798 311 892 L311 891 L311 891 Z M514 150 L506 150 L492 124 C452 48 401 15 325 15 L171 15 L171 346 L288 346 C356 346 392 324 407 274 L411 261 L420 261 L420 435 L411 435 L407 424 C391 379 356 360 288 360 L171 360 L171 647 L318 647 C394 647 439 614 465 538 L474 512 L482 512 L482 661 L40 661 L40 650 L51 649 C96 647 115 623 115 572 L115 90 C115 39 96 15 51 13 L40 12 L40 1 L487 1 C494 47 506 104 514 150 L514 150 Z " />
<glyph glyph-name="Edieresis" unicode="&#xcb;" horiz-adv-x="600" d="M415 761 C415 801 354 800 354 761 C354 721 415 720 415 761 L415 761 Z M236 761 C236 800 175 801 175 761 C175 720 236 721 236 761 L236 761 Z M514 149 L506 149 L492 123 C452 47 401 14 325 14 L171 14 L171 345 L288 345 C356 345 392 323 407 273 L411 260 L420 260 L420 434 L411 434 L407 423 C391 378 356 359 288 359 L171 359 L171 646 L318 646 C394 646 439 613 465 537 L474 511 L482 511 L482 660 L40 660 L40 649 L51 648 C96 646 115 622 115 571 L115 89 C115 38 96 14 51 12 L40 11 L40 0 L487 0 C494 46 506 103 514 149 L514 149 Z " />
<glyph glyph-name="Igrave" unicode="&#xcc;" horiz-adv-x="286" d="M61 875 C61 870 78 849 104 820 C136 780 217 691 217 691 L222 695 C222 695 161 799 129 840 C108 873 93 895 89 895 C81 895 61 881 61 875 L61 875 Z M246 11 L235 12 C190 14 171 38 171 89 L171 571 C171 622 190 646 235 648 L246 649 L246 660 L40 660 L40 649 L51 648 C96 646 115 622 115 571 L115 89 C115 38 96 14 51 12 L40 11 L40 0 L246 0 L246 11 L246 11 Z " />
<glyph glyph-name="Iacute" unicode="&#xcd;" horiz-adv-x="286" d="M80 691 C80 691 159 780 190 820 C215 850 232 872 232 875 C232 881 212 895 203 895 C201 895 186 873 165 840 C134 800 75 695 75 695 L80 691 L80 691 Z M246 11 L235 12 C190 14 171 38 171 89 L171 571 C171 622 190 646 235 648 L246 649 L246 660 L40 660 L40 649 L51 648 C96 646 115 622 115 571 L115 89 C115 38 96 14 51 12 L40 11 L40 0 L246 0 L246 11 L246 11 Z " />
<glyph glyph-name="Icircumflex" unicode="&#xce;" horiz-adv-x="286" d="M159 891 C157 895 150 905 143 905 C136 905 129 895 127 891 C127 891 33 714 20 698 L25 693 C69 746 117 815 142 851 C179 798 261 694 261 694 L266 699 C266 699 205 798 159 892 L159 891 L159 891 Z M246 12 L235 13 C190 15 171 39 171 90 L171 572 C171 623 190 647 235 649 L246 650 L246 661 L40 661 L40 650 L51 649 C96 647 115 623 115 572 L115 90 C115 39 96 15 51 13 L40 12 L40 1 L246 1 L246 12 L246 12 Z " />
<glyph glyph-name="Idieresis" unicode="&#xcf;" horiz-adv-x="286" d="M263 761 C263 801 202 800 202 761 C202 721 263 720 263 761 L263 761 Z M84 761 C84 800 23 801 23 761 C23 720 84 721 84 761 L84 761 Z M246 11 L235 12 C190 14 171 38 171 89 L171 571 C171 622 190 646 235 648 L246 649 L246 660 L40 660 L40 649 L51 648 C96 646 115 622 115 571 L115 89 C115 38 96 14 51 12 L40 11 L40 0 L246 0 L246 11 L246 11 Z " />
<glyph glyph-name="Ntilde" unicode="&#xd1;" horiz-adv-x="728" d="M206 755 C206 795 226 822 257 822 C318 822 399 759 460 759 C504 759 534 797 534 853 L525 853 C525 816 503 792 471 792 C410 792 329 855 268 855 C225 855 197 815 197 755 L206 755 L206 755 Z M43 649 L54 648 C99 646 118 622 118 571 L118 89 C118 38 99 14 54 12 L43 11 L43 0 L210 0 L210 11 L199 12 C154 14 135 38 135 89 L135 610 C288 403 442 197 594 -11 L613 -11 L613 571 C613 622 632 646 677 648 L688 649 L688 660 L521 660 L521 649 L532 648 C577 646 596 622 596 571 L596 79 L168 660 L43 660 L43 649 L43 649 Z " />
<glyph glyph-name="Ograve" unicode="&#xd2;" horiz-adv-x="785" d="M123 330 C123 503 217 651 399 651 C581 651 674 503 674 330 C674 157 581 9 399 9 C217 9 123 157 123 330 L123 330 Z M62 330 C62 149 177 -5 399 -5 C621 -5 735 149 735 330 C735 511 621 665 399 665 C177 665 62 511 62 330 L62 330 Z M316 875 C316 870 333 849 359 820 C391 780 472 691 472 691 L478 695 C478 695 417 799 385 840 C364 873 349 895 345 895 C336 895 316 881 316 875 L316 875 Z " />
<glyph glyph-name="Oacute" unicode="&#xd3;" horiz-adv-x="785" d="M374 691 C374 691 453 780 484 820 C509 849 525 871 525 875 C525 881 505 895 497 895 C494 895 479 873 458 840 C427 800 368 695 368 695 L374 691 L374 691 Z M123 330 C123 503 217 651 399 651 C581 651 674 503 674 330 C674 157 581 9 399 9 C217 9 123 157 123 330 L123 330 Z M62 330 C62 149 177 -5 399 -5 C621 -5 735 149 735 330 C735 511 621 665 399 665 C177 665 62 511 62 330 L62 330 Z " />
<glyph glyph-name="Ocircumflex" unicode="&#xd4;" horiz-adv-x="785" d="M123 330 C123 503 217 651 399 651 C581 651 674 503 674 330 C674 157 581 9 399 9 C217 9 123 157 123 330 L123 330 Z M62 330 C62 149 177 -5 399 -5 C621 -5 735 149 735 330 C735 511 621 665 399 665 C177 665 62 511 62 330 L62 330 Z M414 891 C412 895 405 905 399 905 C392 905 385 895 383 891 C383 891 290 716 275 698 L280 693 C325 746 374 815 399 851 C435 798 518 693 518 693 L523 698 C523 698 460 799 415 891 L414 891 L414 891 Z " />
<glyph glyph-name="Otilde" unicode="&#xd5;" horiz-adv-x="785" d="M239 755 C239 795 259 822 290 822 C351 822 432 759 493 759 C537 759 567 797 567 853 L558 853 C558 816 536 792 504 792 C443 792 362 855 301 855 C258 855 230 815 230 755 L239 755 L239 755 Z M123 330 C123 503 217 651 399 651 C581 651 674 503 674 330 C674 157 581 9 399 9 C217 9 123 157 123 330 L123 330 Z M62 330 C62 149 177 -5 399 -5 C621 -5 735 149 735 330 C735 511 621 665 399 665 C177 665 62 511 62 330 L62 330 Z " />
<glyph glyph-name="Odieresis" unicode="&#xd6;" horiz-adv-x="785" d="M519 761 C519 800 458 801 458 761 C458 720 519 721 519 761 L519 761 Z M339 761 C339 801 278 800 278 761 C278 721 339 720 339 761 L339 761 Z M123 330 C123 503 217 651 399 651 C581 651 674 503 674 330 C674 157 581 9 399 9 C217 9 123 157 123 330 L123 330 Z M62 330 C62 149 177 -5 399 -5 C621 -5 735 149 735 330 C735 511 621 665 399 665 C177 665 62 511 62 330 L62 330 Z " />
<glyph glyph-name="Oslash" unicode="&#xd8;" horiz-adv-x="785" d="M71 -14 L164 78 C220 26 299 -6 400 -6 C622 -6 736 148 736 329 C736 419 708 502 653 563 L745 655 L727 673 L635 581 C579 632 501 664 400 664 C178 664 63 510 63 329 C63 239 91 156 146 95 L53 3 L71 -14 L71 -14 Z M606 553 L177 126 C141 182 123 253 123 329 C123 502 217 650 399 650 C491 650 560 613 606 554 L606 553 L606 553 Z M621 533 C657 477 675 406 675 330 C675 157 582 9 400 9 C308 9 239 47 193 106 L621 533 L621 533 Z " />
<glyph glyph-name="Ugrave" unicode="&#xd9;" horiz-adv-x="713" d="M280 875 C280 870 297 849 323 820 C355 780 436 691 436 691 L441 695 C441 695 380 799 348 840 C327 873 312 895 308 895 C300 895 280 881 280 875 L280 875 Z M693 660 L501 660 L501 649 L515 648 C568 646 591 619 591 561 L591 185 C591 82 531 14 375 14 C229 14 172 88 172 199 L172 571 C172 622 191 646 236 648 L247 649 L247 660 L41 660 L41 649 L52 648 C97 646 116 622 116 571 L116 209 C116 81 186 -5 367 -5 C541 -5 608 69 608 179 L608 561 C608 619 630 646 680 648 L693 649 L693 660 L693 660 Z " />
<glyph glyph-name="Uacute" unicode="&#xda;" horiz-adv-x="713" d="M360 691 C360 691 439 780 470 820 C495 850 512 872 512 875 C512 881 492 895 483 895 C481 895 466 873 445 840 C414 800 355 695 355 695 L360 691 L360 691 Z M693 660 L501 660 L501 649 L515 648 C568 646 591 619 591 561 L591 185 C591 82 531 14 375 14 C229 14 172 88 172 199 L172 571 C172 622 191 646 236 648 L247 649 L247 660 L41 660 L41 649 L52 648 C97 646 116 622 116 571 L116 209 C116 81 186 -5 367 -5 C541 -5 608 69 608 179 L608 561 C608 619 630 646 680 648 L693 649 L693 660 L693 660 Z " />
<glyph glyph-name="Ucircumflex" unicode="&#xdb;" horiz-adv-x="713" d="M378 891 C376 895 369 905 362 905 C355 905 348 895 346 891 C346 891 252 714 239 698 L244 693 C288 746 336 815 361 851 C398 798 480 694 480 694 L485 699 C485 699 424 798 378 892 L378 891 L378 891 Z M693 661 L501 661 L501 650 L515 649 C568 647 591 620 591 562 L591 186 C591 83 531 15 375 15 C229 15 172 89 172 200 L172 572 C172 623 191 647 236 649 L247 650 L247 661 L41 661 L41 650 L52 649 C97 647 116 623 116 572 L116 210 C116 82 186 -4 367 -4 C541 -4 608 70 608 180 L608 562 C608 620 630 647 680 649 L693 650 L693 661 L693 661 Z " />
<glyph glyph-name="Udieresis" unicode="&#xdc;" horiz-adv-x="713" d="M482 761 C482 801 421 800 421 761 C421 721 482 720 482 761 L482 761 Z M303 761 C303 800 242 801 242 761 C242 720 303 721 303 761 L303 761 Z M693 660 L501 660 L501 649 L515 648 C568 646 591 619 591 561 L591 185 C591 82 531 14 375 14 C229 14 172 88 172 199 L172 571 C172 622 191 646 236 648 L247 649 L247 660 L41 660 L41 649 L52 648 C97 646 116 622 116 571 L116 209 C116 81 186 -5 367 -5 C541 -5 608 69 608 179 L608 561 C608 619 630 646 680 648 L693 649 L693 660 L693 660 Z " />
<glyph glyph-name="Yacute" unicode="&#xdd;" horiz-adv-x="627" d="M318 691 C318 691 397 780 428 820 C453 850 470 872 470 875 C470 881 450 895 441 895 C439 895 424 873 403 840 C372 800 313 695 313 695 L318 691 L318 691 Z M225 660 L19 660 L19 649 L28 648 C60 646 86 624 113 578 L291 260 L291 89 C291 38 272 14 227 12 L216 11 L216 0 L422 0 L422 11 L411 12 C366 14 347 38 347 89 L347 282 L347 282 L525 582 C553 626 582 647 619 649 L630 650 L630 661 L444 661 L444 650 L459 649 C519 647 527 617 489 552 L338 294 L183 572 C155 622 163 647 212 649 L224 650 L225 660 L225 660 Z " />
<glyph glyph-name="agrave" unicode="&#xe0;" horiz-adv-x="509" d="M487 37 C473 23 458 14 435 14 C405 14 396 38 396 73 L396 359 C396 447 343 505 264 505 C157 505 78 465 66 406 L116 406 C126 457 181 491 253 491 C307 491 343 443 343 371 L343 252 C309 249 250 243 214 234 C107 207 36 155 36 102 C36 38 86 -5 161 -5 C226 -5 295 23 343 67 C343 21 356 -10 401 -10 C441 -10 468 6 492 30 L487 37 L487 37 Z M149 715 C149 710 166 689 192 660 C224 620 305 531 305 531 L310 535 C310 535 249 639 217 680 C196 713 181 735 177 735 C169 735 149 721 149 715 L149 715 Z M343 240 L343 77 C304 47 246 28 186 28 C125 28 85 63 85 116 C85 158 137 199 214 218 C256 229 311 237 343 241 L343 240 L343 240 Z " />
<glyph glyph-name="aacute" unicode="&#xe1;" horiz-adv-x="509" d="M199 531 C199 531 278 620 309 660 C334 690 351 712 351 715 C351 721 331 735 322 735 C320 735 305 713 284 680 C253 640 194 535 194 535 L199 531 L199 531 Z M487 37 C473 23 458 14 435 14 C405 14 396 38 396 73 L396 359 C396 447 343 505 264 505 C157 505 78 465 66 406 L116 406 C126 457 181 491 253 491 C307 491 343 443 343 371 L343 252 C309 249 250 243 214 234 C107 207 36 155 36 102 C36 38 86 -5 161 -5 C226 -5 295 23 343 67 C343 21 356 -10 401 -10 C441 -10 468 6 492 30 L487 37 L487 37 Z M343 240 L343 77 C304 47 246 28 186 28 C125 28 85 63 85 116 C85 158 137 199 214 218 C256 229 311 237 343 241 L343 240 L343 240 Z " />
<glyph glyph-name="acircumflex" unicode="&#xe2;" horiz-adv-x="509" d="M487 37 C473 23 458 14 435 14 C405 14 396 38 396 73 L396 359 C396 447 343 505 264 505 C157 505 78 465 66 406 L116 406 C126 457 181 491 253 491 C307 491 343 443 343 371 L343 252 C309 249 250 243 214 234 C107 207 36 155 36 102 C36 38 86 -5 161 -5 C226 -5 295 23 343 67 C343 21 356 -10 401 -10 C441 -10 468 6 492 30 L487 37 L487 37 Z M247 731 C245 735 238 745 231 745 C224 745 217 735 215 731 C215 731 121 554 108 538 L113 533 C157 586 205 655 230 691 C267 638 349 534 349 534 L354 539 C354 539 293 638 247 732 L247 731 L247 731 Z M343 241 L343 78 C304 48 246 29 186 29 C125 29 85 64 85 117 C85 159 137 200 214 219 C256 230 311 238 343 242 L343 241 L343 241 Z " />
<glyph glyph-name="atilde" unicode="&#xe3;" horiz-adv-x="509" d="M71 595 C71 635 92 662 123 662 C184 662 264 599 325 599 C369 599 399 637 399 693 L391 693 C391 656 369 632 336 632 C275 632 195 695 134 695 C91 695 63 655 63 595 L71 595 L71 595 Z M487 37 C473 23 458 14 435 14 C405 14 396 38 396 73 L396 359 C396 447 343 505 264 505 C157 505 78 465 66 406 L116 406 C126 457 181 491 253 491 C307 491 343 443 343 371 L343 252 C309 249 250 243 214 234 C107 207 36 155 36 102 C36 38 86 -5 161 -5 C226 -5 295 23 343 67 C343 21 356 -10 401 -10 C441 -10 468 6 492 30 L487 37 L487 37 Z M343 240 L343 77 C304 47 246 28 186 28 C125 28 85 63 85 116 C85 158 137 199 214 218 C256 229 311 237 343 241 L343 240 L343 240 Z " />
<glyph glyph-name="adieresis" unicode="&#xe4;" horiz-adv-x="509" d="M351 601 C351 641 290 640 290 601 C290 561 351 560 351 601 L351 601 Z M172 601 C172 640 111 641 111 601 C111 560 172 561 172 601 L172 601 Z M487 37 C473 23 458 14 435 14 C405 14 396 38 396 73 L396 359 C396 447 343 505 264 505 C157 505 78 465 66 406 L116 406 C126 457 181 491 253 491 C307 491 343 443 343 371 L343 252 C309 249 250 243 214 234 C107 207 36 155 36 102 C36 38 86 -5 161 -5 C226 -5 295 23 343 67 C343 21 356 -10 401 -10 C441 -10 468 6 492 30 L487 37 L487 37 Z M343 240 L343 77 C304 47 246 28 186 28 C125 28 85 63 85 116 C85 158 137 199 214 218 C256 229 311 237 343 241 L343 240 L343 240 Z " />
<glyph glyph-name="aring" unicode="&#xe5;" horiz-adv-x="509" d="M151 628 C151 677 183 709 231 709 C279 709 311 677 311 628 C311 584 274 546 231 546 C188 546 151 584 151 628 L151 628 Z M137 628 C137 578 180 535 231 535 C282 535 325 578 325 628 C325 683 287 720 231 720 C175 720 137 683 137 628 L137 628 Z M487 37 C473 23 458 14 435 14 C405 14 396 38 396 73 L396 359 C396 447 343 505 264 505 C157 505 78 465 66 406 L116 406 C126 457 181 491 253 491 C307 491 343 443 343 371 L343 252 C309 249 250 243 214 234 C107 207 36 155 36 102 C36 38 86 -5 161 -5 C226 -5 295 23 343 67 C343 21 356 -10 401 -10 C441 -10 468 6 492 30 L487 37 L487 37 Z M343 240 L343 77 C304 47 246 28 186 28 C125 28 85 63 85 116 C85 158 137 199 214 218 C256 229 311 237 343 241 L343 240 L343 240 Z " />
<glyph glyph-name="ccedilla" unicode="&#xe7;" horiz-adv-x="501" d="M208 -87 L204 -95 C205 -92 206 -89 207 -87 L208 -87 L208 -87 Z M208 -85 C235 -33 254 -11 260 -5 C343 -4 417 14 449 41 L445 47 C429 34 368 25 291 25 C178 25 103 117 103 254 C103 396 185 491 308 491 C361 491 399 456 404 404 C405 389 415 379 429 379 C442 379 451 388 451 401 C446 463 391 505 314 505 C156 505 50 397 50 235 C50 93 128 -2 245 -5 L201 -93 L204 -95 C225 -86 254 -80 277 -80 C321 -80 350 -102 350 -135 C350 -177 317 -205 267 -205 C223 -205 186 -199 173 -191 L170 -196 C192 -210 235 -220 277 -220 C339 -220 381 -186 381 -135 C381 -96 344 -70 289 -70 C262 -70 230 -76 209 -85 L208 -85 L208 -85 Z " />
<glyph glyph-name="egrave" unicode="&#xe8;" horiz-adv-x="507" d="M411 363 L411 364 L410 324 L457 324 C457 433 386 505 279 505 C142 505 50 397 50 235 C50 91 131 -5 253 -5 C341 -5 422 13 455 41 L451 47 C435 34 372 25 294 25 C179 25 103 117 103 254 C103 279 105 302 109 324 L410 324 L410 342 L411 363 C410 351 403 343 392 341 L112 333 C133 430 194 491 277 491 C358 491 412 441 412 366 C412 365 412 364 412 363 L411 363 L411 363 Z M198 715 C198 710 215 689 241 660 C273 620 354 531 354 531 L359 535 C359 535 298 639 266 680 C245 713 230 735 226 735 C218 735 198 721 198 715 L198 715 Z " />
<glyph glyph-name="eacute" unicode="&#xe9;" horiz-adv-x="507" d="M247 531 C247 531 326 620 357 660 C382 690 399 712 399 715 C399 721 379 735 370 735 C368 735 353 713 332 680 C301 640 242 535 242 535 L247 531 L247 531 Z M411 363 L411 364 L410 324 L457 324 C457 433 386 505 279 505 C142 505 50 397 50 235 C50 91 131 -5 253 -5 C341 -5 422 13 455 41 L451 47 C435 34 372 25 294 25 C179 25 103 117 103 254 C103 279 105 302 109 324 L410 324 L410 342 L411 363 C410 351 403 343 392 341 L112 333 C133 430 194 491 277 491 C358 491 412 441 412 366 C412 365 412 364 412 363 L411 363 L411 363 Z " />
<glyph glyph-name="ecircumflex" unicode="&#xea;" horiz-adv-x="507" d="M411 363 L411 364 L410 324 L457 324 C457 433 386 505 279 505 C142 505 50 397 50 235 C50 91 131 -5 253 -5 C341 -5 422 13 455 41 L451 47 C435 34 372 25 294 25 C179 25 103 117 103 254 C103 279 105 302 109 324 L410 324 L410 342 L411 363 C410 351 403 343 392 341 L112 333 C133 430 194 491 277 491 C358 491 412 441 412 366 C412 365 412 364 412 363 L411 363 L411 363 Z M296 731 C294 735 287 745 280 745 C273 745 266 735 264 731 C264 731 170 554 157 538 L162 533 C206 586 254 655 279 691 C316 638 398 534 398 534 L403 539 C403 539 342 638 296 732 L296 731 L296 731 Z " />
<glyph glyph-name="edieresis" unicode="&#xeb;" horiz-adv-x="507" d="M399 601 C399 641 338 640 338 601 C338 561 399 560 399 601 L399 601 Z M220 601 C220 640 159 641 159 601 C159 560 220 561 220 601 L220 601 Z M411 363 L411 364 L410 324 L457 324 C457 433 386 505 279 505 C142 505 50 397 50 235 C50 91 131 -5 253 -5 C341 -5 422 13 455 41 L451 47 C435 34 372 25 294 25 C179 25 103 117 103 254 C103 279 105 302 109 324 L410 324 L410 342 L411 363 C410 351 403 343 392 341 L112 333 C133 430 194 491 277 491 C358 491 412 441 412 366 C412 365 412 364 412 363 L411 363 L411 363 Z " />
<glyph glyph-name="igrave" unicode="&#xec;" horiz-adv-x="290" d="M63 715 C63 710 80 689 106 660 C138 620 219 531 219 531 L224 535 C224 535 163 639 131 680 C110 713 95 735 91 735 C83 735 63 721 63 715 L63 715 Z M245 11 L234 12 C189 14 170 38 170 89 L170 500 L160 500 L45 467 L45 460 L56 457 C119 442 120 440 120 368 L120 89 C120 38 101 14 56 12 L45 11 L45 0 L245 0 L245 11 L245 11 Z " />
<glyph glyph-name="iacute" unicode="&#xed;" horiz-adv-x="290" d="M67 531 C67 531 146 620 177 660 C202 690 219 712 219 715 C219 721 199 735 190 735 C188 735 173 713 152 680 C121 640 62 535 62 535 L67 531 L67 531 Z M245 11 L234 12 C189 14 170 38 170 89 L170 500 L160 500 L45 467 L45 460 L56 457 C119 442 120 440 120 368 L120 89 C120 38 101 14 56 12 L45 11 L45 0 L245 0 L245 11 L245 11 Z " />
<glyph glyph-name="icircumflex" unicode="&#xee;" horiz-adv-x="290" d="M161 731 C159 735 152 745 145 745 C138 745 131 735 129 731 C129 731 35 554 22 538 L27 533 C71 586 119 655 144 691 C181 638 263 534 263 534 L268 539 C268 539 207 638 161 732 L161 731 L161 731 Z M245 12 L234 13 C189 15 170 39 170 90 L170 501 L160 501 L45 468 L45 461 L56 458 C119 443 120 441 120 369 L120 90 C120 39 101 15 56 13 L45 12 L45 1 L245 1 L245 12 L245 12 Z " />
<glyph glyph-name="idieresis" unicode="&#xef;" horiz-adv-x="290" d="M265 601 C265 641 204 640 204 601 C204 561 265 560 265 601 L265 601 Z M86 601 C86 640 25 641 25 601 C25 560 86 561 86 601 L86 601 Z M245 11 L234 12 C189 14 170 38 170 89 L170 500 L160 500 L45 467 L45 460 L56 457 C119 442 120 440 120 368 L120 89 C120 38 101 14 56 12 L45 11 L45 0 L245 0 L245 11 L245 11 Z " />
<glyph glyph-name="ntilde" unicode="&#xf1;" horiz-adv-x="646" d="M166 595 C166 635 186 662 217 662 C278 662 359 599 420 599 C464 599 494 637 494 693 L485 693 C485 656 463 632 431 632 C370 632 289 695 228 695 C185 695 157 655 157 595 L166 595 L166 595 Z M406 0 L606 0 L606 11 L595 12 C550 14 531 38 531 89 L531 336 C531 437 493 505 395 505 C340 505 250 477 169 435 L169 500 L159 500 L44 467 L44 460 L55 457 C118 442 119 440 119 368 L119 89 C119 38 100 14 55 12 L44 11 L44 0 L244 0 L244 11 L233 12 C188 14 169 38 169 89 L169 430 C219 454 293 471 356 471 C445 471 480 415 480 331 L480 89 C480 38 461 14 416 12 L405 11 L406 0 L406 0 Z " />
<glyph glyph-name="ograve" unicode="&#xf2;" horiz-adv-x="614" d="M106 250 C106 396 186 494 307 494 C428 494 509 396 509 250 C509 104 428 6 307 6 C186 6 106 104 106 250 L106 250 Z M50 250 C50 97 153 -5 307 -5 C461 -5 564 97 564 250 C564 403 461 505 307 505 C153 505 50 403 50 250 L50 250 Z M225 715 C225 710 242 689 268 660 C300 620 381 531 381 531 L386 535 C386 535 325 639 293 680 C272 713 257 735 253 735 C245 735 225 721 225 715 L225 715 Z " />
<glyph glyph-name="oacute" unicode="&#xf3;" horiz-adv-x="614" d="M275 531 C275 531 354 620 385 660 C410 690 427 712 427 715 C427 721 407 735 398 735 C396 735 381 713 360 680 C329 640 270 535 270 535 L275 531 L275 531 Z M106 250 C106 396 186 494 307 494 C428 494 509 396 509 250 C509 104 428 6 307 6 C186 6 106 104 106 250 L106 250 Z M50 250 C50 97 153 -5 307 -5 C461 -5 564 97 564 250 C564 403 461 505 307 505 C153 505 50 403 50 250 L50 250 Z " />
<glyph glyph-name="ocircumflex" unicode="&#xf4;" horiz-adv-x="614" d="M106 250 C106 396 186 494 307 494 C428 494 509 396 509 250 C509 104 428 6 307 6 C186 6 106 104 106 250 L106 250 Z M50 250 C50 97 153 -5 307 -5 C461 -5 564 97 564 250 C564 403 461 505 307 505 C153 505 50 403 50 250 L50 250 Z M323 731 C321 735 314 745 307 745 C300 745 293 735 291 731 C291 731 197 554 184 538 L189 533 C233 586 281 655 306 691 C343 638 425 534 425 534 L430 539 C430 539 369 638 323 732 L323 731 L323 731 Z " />
<glyph glyph-name="otilde" unicode="&#xf5;" horiz-adv-x="614" d="M147 595 C147 635 168 662 199 662 C260 662 340 599 401 599 C445 599 475 637 475 693 L467 693 C467 656 445 632 412 632 C351 632 271 695 210 695 C167 695 139 655 139 595 L147 595 L147 595 Z M106 250 C106 396 186 494 307 494 C428 494 509 396 509 250 C509 104 428 6 307 6 C186 6 106 104 106 250 L106 250 Z M50 250 C50 97 153 -5 307 -5 C461 -5 564 97 564 250 C564 403 461 505 307 505 C153 505 50 403 50 250 L50 250 Z " />
<glyph glyph-name="odieresis" unicode="&#xf6;" horiz-adv-x="614" d="M427 601 C427 641 366 640 366 601 C366 561 427 560 427 601 L427 601 Z M248 601 C248 640 187 641 187 601 C187 560 248 561 248 601 L248 601 Z M106 250 C106 396 186 494 307 494 C428 494 509 396 509 250 C509 104 428 6 307 6 C186 6 106 104 106 250 L106 250 Z M50 250 C50 97 153 -5 307 -5 C461 -5 564 97 564 250 C564 403 461 505 307 505 C153 505 50 403 50 250 L50 250 Z " />
<glyph glyph-name="oslash" unicode="&#xf8;" horiz-adv-x="614" d="M56 -11 L127 59 C172 18 234 -5 308 -5 C462 -5 565 97 565 250 C565 323 542 384 501 428 L572 498 L560 510 L489 440 C444 481 382 504 308 504 C154 504 51 402 51 249 C51 176 74 115 115 71 L44 1 L56 -11 L56 -11 Z M462 416 L143 100 C119 140 106 191 106 250 C106 396 186 494 307 494 C373 494 427 465 463 415 L462 416 L462 416 Z M473 401 C497 361 510 309 510 250 C510 104 429 6 308 6 C242 6 188 35 153 85 L473 401 L473 401 Z " />
<glyph glyph-name="ugrave" unicode="&#xf9;" horiz-adv-x="611" d="M213 715 C213 710 230 689 256 660 C288 620 369 531 369 531 L375 535 C375 535 314 639 282 680 C261 713 246 735 242 735 C233 735 213 721 213 715 L213 715 Z M15 489 L26 488 C71 486 90 462 90 411 L90 156 C90 59 146 -5 254 -5 C345 -5 409 20 451 58 L451 0 L461 0 L576 33 L576 40 L565 43 C502 58 501 60 501 132 L501 500 L376 500 L376 489 L387 488 C432 486 451 462 451 411 L451 66 C425 43 376 28 293 28 C192 28 140 81 140 161 L140 500 L15 500 L15 489 L15 489 Z " />
<glyph glyph-name="uacute" unicode="&#xfa;" horiz-adv-x="611" d="M264 531 C264 531 343 620 374 660 C399 689 415 711 415 715 C415 721 395 735 387 735 C384 735 369 713 348 680 C317 640 258 535 258 535 L264 531 L264 531 Z M15 489 L26 488 C71 486 90 462 90 411 L90 156 C90 59 146 -5 254 -5 C345 -5 409 20 451 58 L451 0 L461 0 L576 33 L576 40 L565 43 C502 58 501 60 501 132 L501 500 L376 500 L376 489 L387 488 C432 486 451 462 451 411 L451 66 C425 43 376 28 293 28 C192 28 140 81 140 161 L140 500 L15 500 L15 489 L15 489 Z " />
<glyph glyph-name="ucircumflex" unicode="&#xfb;" horiz-adv-x="611" d="M311 731 C309 735 302 745 296 745 C289 745 282 735 280 731 C280 731 187 556 172 538 L177 533 C222 586 271 655 296 691 C332 638 415 533 415 533 L420 538 C420 538 357 639 312 731 L311 731 L311 731 Z M16 489 L27 488 C72 486 91 462 91 411 L91 156 C91 59 147 -5 255 -5 C346 -5 410 20 452 58 L452 0 L462 0 L577 33 L577 40 L566 43 C503 58 502 60 502 132 L502 500 L377 500 L377 489 L388 488 C433 486 452 462 452 411 L452 66 C426 43 377 28 294 28 C193 28 141 81 141 161 L141 500 L16 500 L16 489 L16 489 Z " />
<glyph glyph-name="udieresis" unicode="&#xfc;" horiz-adv-x="611" d="M416 601 C416 640 355 641 355 601 C355 560 416 561 416 601 L416 601 Z M236 601 C236 641 175 640 175 601 C175 561 236 560 236 601 L236 601 Z M15 489 L26 488 C71 486 90 462 90 411 L90 156 C90 59 146 -5 254 -5 C345 -5 409 20 451 58 L451 0 L461 0 L576 33 L576 40 L565 43 C502 58 501 60 501 132 L501 500 L376 500 L376 489 L387 488 C432 486 451 462 451 411 L451 66 C425 43 376 28 293 28 C192 28 140 81 140 161 L140 500 L15 500 L15 489 L15 489 Z " />
<glyph glyph-name="ydieresis" unicode="&#xff;" horiz-adv-x="501" d="M400 601 C400 641 339 640 339 601 C339 561 400 560 400 601 L400 601 Z M221 601 C221 640 160 641 160 601 C160 560 221 561 221 601 L221 601 Z M559 500 L396 500 L396 489 L406 488 C444 486 455 465 440 421 L298 51 L162 411 C144 461 152 486 193 488 L203 489 L203 500 L0 500 L0 489 L12 488 C57 486 85 461 106 411 L270 -2 C265 -13 254 -37 244 -66 C206 -160 177 -196 140 -196 C140 -196 92 -172 71 -172 C55 -172 45 -180 45 -193 C45 -215 71 -229 109 -229 C170 -229 211 -185 257 -71 C269 -35 282 -9 282 -9 L454 420 C475 466 502 488 546 490 L558 491 L559 500 L559 500 Z " />
<glyph glyph-name="Amacron" unicode="&#x100;" horiz-adv-x="657" d="M159 770 L485 770 L485 798 L159 798 L159 770 L159 770 Z M425 0 L652 0 L652 11 C608 11 585 24 563 74 L329 674 L315 674 L104 88 C86 37 58 13 12 11 L1 10 L1 -1 L201 -1 L201 10 L185 11 C123 13 107 42 128 103 L175 235 L442 236 L498 88 C517 37 504 13 452 11 L426 10 L425 0 L425 0 Z M438 249 L181 250 L305 601 L438 249 L438 249 Z " />
<glyph glyph-name="amacron" unicode="&#x101;" horiz-adv-x="509" d="M68 610 L394 610 L394 638 L68 638 L68 610 L68 610 Z M487 37 C473 23 458 14 435 14 C405 14 396 38 396 73 L396 359 C396 447 343 505 264 505 C157 505 78 465 66 406 L116 406 C126 457 181 491 253 491 C307 491 343 443 343 371 L343 252 C309 249 250 243 214 234 C107 207 36 155 36 102 C36 38 86 -5 161 -5 C226 -5 295 23 343 67 C343 21 356 -10 401 -10 C441 -10 468 6 492 30 L487 37 L487 37 Z M343 240 L343 77 C304 47 246 28 186 28 C125 28 85 63 85 116 C85 158 137 199 214 218 C256 229 311 237 343 241 L343 240 L343 240 Z " />
<glyph glyph-name="Abreve" unicode="&#x102;" horiz-adv-x="657" d="M194 872 C205 810 256 768 322 768 C388 768 439 809 450 871 L441 873 C433 830 386 801 322 801 C258 801 211 830 203 873 L194 872 L194 872 Z M425 0 L652 0 L652 11 C608 11 585 24 563 74 L329 674 L315 674 L104 88 C86 37 58 13 12 11 L1 10 L1 -1 L201 -1 L201 10 L185 11 C123 13 107 42 128 103 L175 235 L442 236 L498 88 C517 37 504 13 452 11 L426 10 L425 0 L425 0 Z M438 249 L181 250 L305 601 L438 249 L438 249 Z " />
<glyph glyph-name="abreve" unicode="&#x103;" horiz-adv-x="509" d="M103 682 C114 620 165 578 231 578 C297 578 348 619 359 681 L350 683 C342 640 295 611 231 611 C167 611 120 640 112 683 L103 682 L103 682 Z M487 37 C473 23 458 14 435 14 C405 14 396 38 396 73 L396 359 C396 447 343 505 264 505 C157 505 78 465 66 406 L116 406 C126 457 181 491 253 491 C307 491 343 443 343 371 L343 252 C309 249 250 243 214 234 C107 207 36 155 36 102 C36 38 86 -5 161 -5 C226 -5 295 23 343 67 C343 21 356 -10 401 -10 C441 -10 468 6 492 30 L487 37 L487 37 Z M343 240 L343 77 C304 47 246 28 186 28 C125 28 85 63 85 116 C85 158 137 199 214 218 C256 229 311 237 343 241 L343 240 L343 240 Z " />
<glyph glyph-name="Aogonek" unicode="&#x104;" horiz-adv-x="657" d="M425 0 L509 0 C461 -29 388 -97 388 -156 C388 -202 429 -233 491 -233 C523 -233 555 -220 572 -200 L568 -195 C556 -209 530 -219 502 -219 C452 -219 419 -192 419 -151 C419 -85 497 -12 531 0 L652 0 L652 11 C608 11 585 24 563 74 L329 674 L315 674 L104 88 C86 37 58 13 12 11 L1 10 L1 -1 L201 -1 L201 10 L185 11 C123 13 107 42 128 103 L175 235 L442 236 L498 88 C517 37 504 13 452 11 L426 10 L425 0 L425 0 Z M438 249 L181 250 L305 601 L438 249 L438 249 Z " />
<glyph glyph-name="aogonek" unicode="&#x105;" horiz-adv-x="509" d="M449 15 C409 8 396 32 396 73 L396 359 C396 447 343 505 264 505 C157 505 78 465 66 406 L116 406 C126 457 181 491 253 491 C307 491 343 443 343 371 L343 252 C309 249 250 243 214 234 C107 207 36 155 36 102 C36 38 86 -5 161 -5 C226 -5 295 23 343 67 C343 12 364 -18 421 -9 C384 -44 349 -92 349 -136 C349 -194 390 -233 452 -233 C484 -233 516 -220 533 -200 L529 -195 C517 -209 491 -219 463 -219 C413 -219 380 -183 380 -130 C380 -82 414 -32 447 -1 C464 6 478 17 491 30 L491 41 C480 37 465 28 449 16 L449 15 L449 15 Z M343 241 L343 78 C304 48 246 29 186 29 C125 29 85 64 85 117 C85 159 137 200 214 219 C256 230 311 238 343 242 L343 241 L343 241 Z " />
<glyph glyph-name="Cacute" unicode="&#x106;" horiz-adv-x="744" d="M364 691 C364 691 443 780 474 820 C499 850 516 872 516 875 C516 881 496 895 487 895 C485 895 470 873 449 840 C418 800 359 695 359 695 L364 691 L364 691 Z M684 57 L680 64 L680 64 L684 57 L684 57 Z M674 195 C670 184 664 168 660 157 C632 80 557 24 470 12 C450 10 430 9 410 9 C237 9 121 137 121 330 C121 523 237 651 410 651 C417 651 494 648 494 645 C566 636 632 579 660 503 C664 492 670 476 674 465 L683 465 L683 603 L680 597 C680 599 682 601 683 603 C619 640 510 665 411 665 C201 665 61 531 61 330 C61 129 201 -5 411 -5 C510 -5 619 20 683 57 L683 195 L674 195 L674 195 Z " />
<glyph glyph-name="cacute" unicode="&#x107;" horiz-adv-x="501" d="M236 531 C236 531 315 620 346 660 C371 690 388 712 388 715 C388 721 368 735 359 735 C357 735 342 713 321 680 C290 640 231 535 231 535 L236 531 L236 531 Z M449 41 L445 47 C429 34 368 25 291 25 C178 25 103 117 103 254 C103 396 185 491 308 491 C361 491 399 456 404 404 C405 389 415 379 429 379 C442 379 451 388 451 401 C446 463 391 505 314 505 C156 505 50 397 50 235 C50 91 130 -5 250 -5 C337 -5 416 13 449 41 L449 41 Z " />
<glyph glyph-name="Ccircumflex" unicode="&#x108;" horiz-adv-x="744" d="M428 891 C426 895 419 905 412 905 C405 905 398 895 396 891 C396 891 302 714 289 698 L294 693 C338 746 386 815 411 851 C448 798 530 694 530 694 L535 699 C535 699 474 798 428 892 L428 891 L428 891 Z M684 58 L680 65 L680 65 L684 58 L684 58 Z M674 196 C670 185 664 169 660 158 C632 81 557 25 470 13 C450 11 430 10 410 10 C237 10 121 138 121 331 C121 524 237 652 410 652 C417 652 494 649 494 646 C566 637 632 580 660 504 C664 493 670 477 674 466 L683 466 L683 604 L680 598 C680 600 682 602 683 604 C619 641 510 666 411 666 C201 666 61 532 61 331 C61 130 201 -4 411 -4 C510 -4 619 21 683 58 L683 196 L674 196 L674 196 Z " />
<glyph glyph-name="Cdot" unicode="&#x10a;" horiz-adv-x="744" d="M443 761 C443 800 381 800 381 761 C381 720 443 720 443 761 L443 761 Z M684 57 L680 64 L680 64 L684 57 L684 57 Z M674 195 C670 184 664 168 660 157 C632 80 557 24 470 12 C450 10 430 9 410 9 C237 9 121 137 121 330 C121 523 237 651 410 651 C417 651 494 648 494 645 C566 636 632 579 660 503 C664 492 670 476 674 465 L683 465 L683 603 L680 597 C680 599 682 601 683 603 C619 640 510 665 411 665 C201 665 61 531 61 330 C61 129 201 -5 411 -5 C510 -5 619 20 683 57 L683 195 L674 195 L674 195 Z " />
<glyph glyph-name="cdot" unicode="&#x10b;" horiz-adv-x="501" d="M345 601 C345 640 283 640 283 601 C283 560 345 560 345 601 L345 601 Z M449 41 L445 47 C429 34 368 25 291 25 C178 25 103 117 103 254 C103 396 185 491 308 491 C361 491 399 456 404 404 C405 389 415 379 429 379 C442 379 451 388 451 401 C446 463 391 505 314 505 C156 505 50 397 50 235 C50 91 130 -5 250 -5 C337 -5 416 13 449 41 L449 41 Z " />
<glyph glyph-name="Ccaron" unicode="&#x10c;" horiz-adv-x="744" d="M530 927 C530 927 448 823 411 770 C386 806 338 875 294 928 L289 923 C302 907 396 730 396 730 C398 726 405 716 412 716 C419 716 426 726 428 730 C474 824 535 923 535 923 L530 927 L530 927 Z M684 58 L680 65 L680 65 L684 58 L684 58 Z M674 196 C670 185 664 169 660 158 C632 81 557 25 470 13 C450 11 430 10 410 10 C237 10 121 138 121 331 C121 524 237 652 410 652 C417 652 494 649 494 646 C566 637 632 580 660 504 C664 493 670 477 674 466 L683 466 L683 604 L680 598 C680 600 682 602 683 604 C619 641 510 666 411 666 C201 666 61 532 61 331 C61 130 201 -4 411 -4 C510 -4 619 21 683 58 L683 196 L674 196 L674 196 Z " />
<glyph glyph-name="ccaron" unicode="&#x10d;" horiz-adv-x="501" d="M432 767 C432 767 350 663 313 610 C288 646 240 715 196 768 L191 763 C204 747 298 570 298 570 C300 566 307 556 314 556 C321 556 328 566 330 570 C376 664 437 763 437 763 L432 767 L432 767 Z M449 42 L445 48 C429 35 368 26 291 26 C178 26 103 118 103 255 C103 397 185 492 308 492 C361 492 399 457 404 405 C405 390 415 380 429 380 C442 380 451 389 451 402 C446 464 391 506 314 506 C156 506 50 398 50 236 C50 92 130 -4 250 -4 C337 -4 416 14 449 42 L449 42 Z " />
<glyph glyph-name="Dcaron" unicode="&#x10e;" horiz-adv-x="717" d="M487 927 C487 927 404 822 368 769 C343 805 294 874 249 927 L244 922 C259 904 352 729 352 729 C354 725 361 715 368 715 C374 715 381 725 383 729 C428 821 491 922 491 922 L487 927 L487 927 Z M50 649 L61 648 C106 646 125 622 125 571 L125 89 C125 38 106 14 61 12 L50 11 L50 0 L363 0 C545 0 666 132 666 330 C666 528 527 660 318 660 L50 660 L50 649 L50 649 Z M181 14 L181 646 L318 646 C493 646 610 520 610 330 C610 140 511 14 363 14 L181 14 L181 14 Z " />
<glyph glyph-name="dcaron" unicode="&#x10f;" horiz-adv-x="621" d="M635 753 C624 753 607 691 597 646 L559 484 L566 481 L629 634 C651 686 666 735 666 741 C666 750 644 753 635 753 L635 753 Z M386 680 L397 677 C460 662 461 660 461 588 L461 434 C427 475 362 505 288 505 C148 505 55 393 55 225 C55 87 140 -5 268 -5 C344 -5 420 19 462 55 L462 0 L472 0 L587 33 L587 40 L576 43 C513 58 512 60 512 132 L512 720 L502 720 L387 687 L386 680 L386 680 Z M462 63 C436 41 371 26 297 26 C184 26 108 113 108 244 C108 392 179 491 286 491 C366 491 435 455 462 410 L462 63 L462 63 Z " />
<glyph glyph-name="Emacron" unicode="&#x112;" horiz-adv-x="600" d="M132 770 L458 770 L458 798 L132 798 L132 770 L132 770 Z M514 149 L506 149 L492 123 C452 47 401 14 325 14 L171 14 L171 345 L288 345 C356 345 392 323 407 273 L411 260 L420 260 L420 434 L411 434 L407 423 C391 378 356 359 288 359 L171 359 L171 646 L318 646 C394 646 439 613 465 537 L474 511 L482 511 L482 660 L40 660 L40 649 L51 648 C96 646 115 622 115 571 L115 89 C115 38 96 14 51 12 L40 11 L40 0 L487 0 C494 46 506 103 514 149 L514 149 Z " />
<glyph glyph-name="emacron" unicode="&#x113;" horiz-adv-x="507" d="M116 610 L442 610 L442 638 L116 638 L116 610 L116 610 Z M411 363 L411 364 L410 324 L457 324 C457 433 386 505 279 505 C142 505 50 397 50 235 C50 91 131 -5 253 -5 C341 -5 422 13 455 41 L451 47 C435 34 372 25 294 25 C179 25 103 117 103 254 C103 279 105 302 109 324 L410 324 L410 342 L411 363 C410 351 403 343 392 341 L112 333 C133 430 194 491 277 491 C358 491 412 441 412 366 C412 365 412 364 412 363 L411 363 L411 363 Z " />
<glyph glyph-name="Ebreve" unicode="&#x114;" horiz-adv-x="600" d="M167 872 C178 810 229 768 295 768 C361 768 412 809 423 871 L414 873 C406 830 359 801 295 801 C231 801 184 830 176 873 L167 872 L167 872 Z M514 149 L506 149 L492 123 C452 47 401 14 325 14 L171 14 L171 345 L288 345 C356 345 392 323 407 273 L411 260 L420 260 L420 434 L411 434 L407 423 C391 378 356 359 288 359 L171 359 L171 646 L318 646 C394 646 439 613 465 537 L474 511 L482 511 L482 660 L40 660 L40 649 L51 648 C96 646 115 622 115 571 L115 89 C115 38 96 14 51 12 L40 11 L40 0 L487 0 C494 46 506 103 514 149 L514 149 Z " />
<glyph glyph-name="ebreve" unicode="&#x115;" horiz-adv-x="507" d="M151 712 C162 650 213 608 279 608 C345 608 396 649 407 711 L398 713 C390 670 343 641 279 641 C215 641 168 670 160 713 L151 712 L151 712 Z M411 363 L411 364 L410 324 L457 324 C457 433 386 505 279 505 C142 505 50 397 50 235 C50 91 131 -5 253 -5 C341 -5 422 13 455 41 L451 47 C435 34 372 25 294 25 C179 25 103 117 103 254 C103 279 105 302 109 324 L410 324 L410 342 L411 363 C410 351 403 343 392 341 L112 333 C133 430 194 491 277 491 C358 491 412 441 412 366 C412 365 412 364 412 363 L411 363 L411 363 Z " />
<glyph glyph-name="Edot" unicode="&#x116;" horiz-adv-x="600" d="M326 761 C326 800 264 800 264 761 C264 720 326 720 326 761 L326 761 Z M514 149 L506 149 L492 123 C452 47 401 14 325 14 L171 14 L171 345 L288 345 C356 345 392 323 407 273 L411 260 L420 260 L420 434 L411 434 L407 423 C391 378 356 359 288 359 L171 359 L171 646 L318 646 C394 646 439 613 465 537 L474 511 L482 511 L482 660 L40 660 L40 649 L51 648 C96 646 115 622 115 571 L115 89 C115 38 96 14 51 12 L40 11 L40 0 L487 0 C494 46 506 103 514 149 L514 149 Z " />
<glyph glyph-name="edot" unicode="&#x117;" horiz-adv-x="507" d="M310 601 C310 640 248 640 248 601 C248 560 310 560 310 601 L310 601 Z M411 363 L411 364 L410 324 L457 324 C457 433 386 505 279 505 C142 505 50 397 50 235 C50 91 131 -5 253 -5 C341 -5 422 13 455 41 L451 47 C435 34 372 25 294 25 C179 25 103 117 103 254 C103 279 105 302 109 324 L410 324 L410 342 L411 363 C410 351 403 343 392 341 L112 333 C133 430 194 491 277 491 C358 491 412 441 412 366 C412 365 412 364 412 363 L411 363 L411 363 Z " />
<glyph glyph-name="Eogonek" unicode="&#x118;" horiz-adv-x="600" d="M514 149 L506 149 L492 123 C452 47 401 14 325 14 L171 14 L171 345 L288 345 C356 345 392 323 407 273 L411 260 L420 260 L420 434 L411 434 L407 423 C391 378 356 359 288 359 L171 359 L171 646 L318 646 C394 646 439 613 465 537 L474 511 L482 511 L482 660 L40 660 L40 649 L51 648 C96 646 115 622 115 571 L115 89 C115 38 96 14 51 12 L40 11 L40 0 L463 0 C415 -29 342 -97 342 -156 C342 -202 383 -233 445 -233 C477 -233 509 -220 526 -200 L522 -195 C510 -209 484 -219 456 -219 C406 -219 373 -192 373 -151 C373 -85 451 -12 485 0 L487 0 C494 46 506 103 514 149 L514 149 Z " />
<glyph glyph-name="eogonek" unicode="&#x119;" horiz-adv-x="507" d="M411 364 L410 342 C410 349 410 357 410 364 L411 364 L411 364 Z M390 341 L110 333 C131 430 192 491 275 491 C356 491 410 441 410 366 C410 353 403 344 391 342 L390 341 L390 341 Z M109 325 L457 325 C457 434 386 506 279 506 C142 506 50 398 50 236 C50 92 131 -4 253 -4 C267 -4 281 -4 294 -3 C246 -33 177 -99 177 -156 C177 -202 218 -232 280 -232 C312 -232 344 -219 361 -199 L357 -194 C345 -208 319 -218 291 -218 C241 -218 208 -191 208 -150 C208 -85 284 -14 319 0 C380 6 431 21 456 42 L452 48 C436 35 373 26 295 26 C180 26 104 118 104 255 C104 280 106 303 110 325 L109 325 L109 325 Z " />
<glyph glyph-name="Ecaron" unicode="&#x11a;" horiz-adv-x="600" d="M413 927 C413 927 331 823 294 770 C269 806 221 875 177 928 L172 923 C185 907 279 730 279 730 C281 726 288 716 295 716 C302 716 309 726 311 730 C357 824 418 923 418 923 L413 927 L413 927 Z M514 150 L506 150 L492 124 C452 48 401 15 325 15 L171 15 L171 346 L288 346 C356 346 392 324 407 274 L411 261 L420 261 L420 435 L411 435 L407 424 C391 379 356 360 288 360 L171 360 L171 647 L318 647 C394 647 439 614 465 538 L474 512 L482 512 L482 661 L40 661 L40 650 L51 649 C96 647 115 623 115 572 L115 90 C115 39 96 15 51 13 L40 12 L40 1 L487 1 C494 47 506 104 514 150 L514 150 Z " />
<glyph glyph-name="ecaron" unicode="&#x11b;" horiz-adv-x="507" d="M397 767 C397 767 315 663 278 610 C253 646 205 715 161 768 L156 763 C169 747 263 570 263 570 C265 566 272 556 279 556 C286 556 293 566 295 570 C341 664 402 763 402 763 L397 767 L397 767 Z M411 364 L411 365 L410 325 L457 325 C457 434 386 506 279 506 C142 506 50 398 50 236 C50 92 131 -4 253 -4 C341 -4 422 14 455 42 L451 48 C435 35 372 26 294 26 C179 26 103 118 103 255 C103 280 105 303 109 325 L410 325 L410 343 L411 364 C410 352 403 344 392 342 L112 334 C133 431 194 492 277 492 C358 492 412 442 412 367 C412 366 412 365 412 364 L411 364 L411 364 Z " />
<glyph glyph-name="Gcircumflex" unicode="&#x11c;" horiz-adv-x="839" d="M417 891 C415 895 408 905 401 905 C394 905 387 895 385 891 C385 891 291 714 278 698 L283 693 C327 746 375 815 400 851 C437 798 519 694 519 694 L524 699 C524 699 463 798 417 892 L417 891 L417 891 Z M664 466 L664 604 L661 598 C661 600 663 602 664 604 C600 641 494 666 401 666 C198 666 62 532 62 331 C62 130 198 -4 401 -4 C497 -4 605 21 669 58 L669 222 C669 273 688 297 733 299 L744 300 L744 311 L544 311 L544 300 L555 299 C600 297 619 273 619 222 L619 50 C558 25 476 10 401 10 C234 10 123 138 123 331 C123 524 234 652 401 652 C406 652 474 649 474 647 C546 638 613 581 641 504 C645 493 651 477 655 466 L664 466 L664 466 Z " />
<glyph glyph-name="Gbreve" unicode="&#x11e;" horiz-adv-x="839" d="M273 872 C284 810 335 768 401 768 C467 768 518 809 529 871 L520 873 C512 830 465 801 401 801 C337 801 290 830 282 873 L273 872 L273 872 Z M664 465 L664 603 L661 597 C661 599 663 601 664 603 C600 640 494 665 401 665 C198 665 62 531 62 330 C62 129 198 -5 401 -5 C497 -5 605 20 669 57 L669 221 C669 272 688 296 733 298 L744 299 L744 310 L544 310 L544 299 L555 298 C600 296 619 272 619 221 L619 49 C558 24 476 9 401 9 C234 9 123 137 123 330 C123 523 234 651 401 651 C406 651 474 648 474 646 C546 637 613 580 641 503 C645 492 651 476 655 465 L664 465 L664 465 Z " />
<glyph glyph-name="gbreve" unicode="&#x11f;" horiz-adv-x="492" d="M131 712 C142 650 193 608 259 608 C325 608 376 649 387 711 L378 713 C370 670 323 641 259 641 C195 641 148 670 140 713 L131 712 L131 712 Z M492 500 L352 488 C325 499 294 505 259 505 C145 505 69 443 69 350 C69 277 116 223 192 203 C108 202 52 166 52 112 C52 65 95 31 163 22 C80 -1 27 -52 27 -110 C27 -187 90 -238 184 -238 C357 -238 472 -162 472 -49 C472 22 398 70 287 70 C269 70 200 67 200 67 C131 67 85 93 85 132 C85 170 130 195 197 195 L259 195 C372 195 448 257 448 350 C448 401 425 443 386 470 L492 472 L492 500 L492 500 Z M259 206 C173 206 116 264 116 350 C116 436 173 494 259 494 C344 494 401 436 401 350 C401 264 344 206 259 206 L259 206 Z M181 21 C200 20 246 24 273 24 C371 24 436 -15 436 -73 C436 -164 337 -224 189 -224 C112 -224 60 -176 60 -104 C60 -47 108 3 181 21 L181 21 Z " />
<glyph glyph-name="Gdot" unicode="&#x120;" horiz-adv-x="839" d="M432 761 C432 800 370 800 370 761 C370 720 432 720 432 761 L432 761 Z M664 465 L664 603 L661 597 C661 599 663 601 664 603 C600 640 494 665 401 665 C198 665 62 531 62 330 C62 129 198 -5 401 -5 C497 -5 605 20 669 57 L669 221 C669 272 688 296 733 298 L744 299 L744 310 L544 310 L544 299 L555 298 C600 296 619 272 619 221 L619 49 C558 24 476 9 401 9 C234 9 123 137 123 330 C123 523 234 651 401 651 C406 651 474 648 474 646 C546 637 613 580 641 503 C645 492 651 476 655 465 L664 465 L664 465 Z " />
<glyph glyph-name="gdot" unicode="&#x121;" horiz-adv-x="492" d="M290 601 C290 640 228 640 228 601 C228 560 290 560 290 601 L290 601 Z M492 500 L352 488 C325 499 294 505 259 505 C145 505 69 443 69 350 C69 277 116 223 192 203 C108 202 52 166 52 112 C52 65 95 31 163 22 C80 -1 27 -52 27 -110 C27 -187 90 -238 184 -238 C357 -238 472 -162 472 -49 C472 22 398 70 287 70 C269 70 200 67 200 67 C131 67 85 93 85 132 C85 170 130 195 197 195 L259 195 C372 195 448 257 448 350 C448 401 425 443 386 470 L492 472 L492 500 L492 500 Z M259 206 C173 206 116 264 116 350 C116 436 173 494 259 494 C344 494 401 436 401 350 C401 264 344 206 259 206 L259 206 Z M181 21 C200 20 246 24 273 24 C371 24 436 -15 436 -73 C436 -164 337 -224 189 -224 C112 -224 60 -176 60 -104 C60 -47 108 3 181 21 L181 21 Z " />
<glyph glyph-name="Hcircumflex" unicode="&#x124;" horiz-adv-x="794" d="M413 891 C411 895 404 905 397 905 C390 905 383 895 381 891 C381 891 287 714 274 698 L279 693 C323 746 371 815 396 851 C433 798 515 694 515 694 L520 699 C520 699 459 798 413 892 L413 891 L413 891 Z M754 12 L743 13 C698 15 679 39 679 90 L679 572 C679 623 698 647 743 649 L754 650 L754 661 L549 661 L549 650 L560 649 C605 647 624 623 624 572 L624 355 L171 355 L171 572 C171 623 190 647 235 649 L246 650 L246 661 L40 661 L40 650 L51 649 C96 647 115 623 115 572 L115 90 C115 39 96 15 51 13 L40 12 L40 1 L246 1 L246 12 L235 13 C190 15 171 39 171 90 L171 341 L624 341 L624 90 C624 39 605 15 560 13 L549 12 L549 1 L754 1 L754 12 L754 12 Z " />
<glyph glyph-name="Itilde" unicode="&#x128;" horiz-adv-x="286" d="M-17 755 C-17 795 4 822 35 822 C96 822 176 759 237 759 C281 759 311 797 311 853 L303 853 C303 816 281 792 248 792 C187 792 107 855 46 855 C3 855 -25 815 -25 755 L-17 755 L-17 755 Z M246 11 L235 12 C190 14 171 38 171 89 L171 571 C171 622 190 646 235 648 L246 649 L246 660 L40 660 L40 649 L51 648 C96 646 115 622 115 571 L115 89 C115 38 96 14 51 12 L40 11 L40 0 L246 0 L246 11 L246 11 Z " />
<glyph glyph-name="itilde" unicode="&#x129;" horiz-adv-x="290" d="M-15 595 C-15 635 6 662 37 662 C98 662 178 599 239 599 C283 599 313 637 313 693 L305 693 C305 656 283 632 250 632 C189 632 109 695 48 695 C5 695 -23 655 -23 595 L-15 595 L-15 595 Z M245 11 L234 12 C189 14 170 38 170 89 L170 500 L160 500 L45 467 L45 460 L56 457 C119 442 120 440 120 368 L120 89 C120 38 101 14 56 12 L45 11 L45 0 L245 0 L245 11 L245 11 Z " />
<glyph glyph-name="Imacron" unicode="&#x12a;" horiz-adv-x="286" d="M-20 770 L306 770 L306 798 L-20 798 L-20 770 L-20 770 Z M246 11 L235 12 C190 14 171 38 171 89 L171 571 C171 622 190 646 235 648 L246 649 L246 660 L40 660 L40 649 L51 648 C96 646 115 622 115 571 L115 89 C115 38 96 14 51 12 L40 11 L40 0 L246 0 L246 11 L246 11 Z " />
<glyph glyph-name="imacron" unicode="&#x12b;" horiz-adv-x="290" d="M-18 610 L308 610 L308 638 L-18 638 L-18 610 L-18 610 Z M245 11 L234 12 C189 14 170 38 170 89 L170 500 L160 500 L45 467 L45 460 L56 457 C119 442 120 440 120 368 L120 89 C120 38 101 14 56 12 L45 11 L45 0 L245 0 L245 11 L245 11 Z " />
<glyph glyph-name="Ibreve" unicode="&#x12c;" horiz-adv-x="286" d="M15 872 C26 810 77 768 143 768 C209 768 260 809 271 871 L262 873 C254 830 207 801 143 801 C79 801 32 830 24 873 L15 872 L15 872 Z M246 11 L235 12 C190 14 171 38 171 89 L171 571 C171 622 190 646 235 648 L246 649 L246 660 L40 660 L40 649 L51 648 C96 646 115 622 115 571 L115 89 C115 38 96 14 51 12 L40 11 L40 0 L246 0 L246 11 L246 11 Z " />
<glyph glyph-name="ibreve" unicode="&#x12d;" horiz-adv-x="290" d="M17 712 C28 650 79 608 145 608 C211 608 262 649 273 711 L264 713 C256 670 209 641 145 641 C81 641 34 670 26 713 L17 712 L17 712 Z M245 11 L234 12 C189 14 170 38 170 89 L170 500 L160 500 L45 467 L45 460 L56 457 C119 442 120 440 120 368 L120 89 C120 38 101 14 56 12 L45 11 L45 0 L245 0 L245 11 L245 11 Z " />
<glyph glyph-name="Idot" unicode="&#x130;" horiz-adv-x="286" d="M174 761 C174 800 112 800 112 761 C112 720 174 720 174 761 L174 761 Z M246 11 L235 12 C190 14 171 38 171 89 L171 571 C171 622 190 646 235 648 L246 649 L246 660 L40 660 L40 649 L51 648 C96 646 115 622 115 571 L115 89 C115 38 96 14 51 12 L40 11 L40 0 L246 0 L246 11 L246 11 Z " />
<glyph glyph-name="dotlessi" unicode="&#x131;" horiz-adv-x="290" d="M245 11 L234 12 C189 14 170 38 170 89 L170 500 L160 500 L45 467 L45 460 L56 457 C119 442 120 440 120 368 L120 89 C120 38 101 14 56 12 L45 11 L45 0 L245 0 L245 11 L245 11 Z " />
<glyph glyph-name="Jcircumflex" unicode="&#x134;" horiz-adv-x="390" d="M263 891 C261 895 254 905 248 905 C241 905 234 895 232 891 C232 891 139 716 124 698 L129 693 C174 746 223 815 248 851 C284 798 367 693 367 693 L372 698 C372 698 309 799 264 891 L263 891 L263 891 Z M351 660 L146 660 L146 649 L157 648 C202 646 221 622 221 571 L221 200 C221 57 193 1 121 1 C85 1 55 21 48 50 C45 63 35 72 23 72 C7 72 -2 63 1 50 C10 14 52 -10 107 -10 C229 -10 277 62 277 247 C276 248 276 454 276 575 C277 624 296 647 340 649 L351 650 L351 660 L351 660 Z " />
<glyph glyph-name="Lacute" unicode="&#x139;" horiz-adv-x="600" d="M119 691 C119 691 198 780 229 820 C254 850 271 872 271 875 C271 881 251 895 242 895 C240 895 225 873 204 840 C173 800 114 695 114 695 L119 691 L119 691 Z M246 660 L40 660 L40 649 L51 648 C96 646 115 622 115 571 L115 89 C115 38 96 14 51 12 L40 11 L40 0 L488 0 L489 7 L488 7 C496 52 506 111 514 156 C515 157 502 164 502 164 L479 113 C448 44 405 14 336 14 L171 14 L171 571 C171 622 190 646 235 648 L246 649 L246 660 L246 660 Z " />
<glyph glyph-name="Lcaron" unicode="&#x13d;" horiz-adv-x="600" d="M371 693 C360 693 343 631 333 586 L295 424 L302 421 L365 574 C387 626 402 675 402 681 C402 690 380 693 371 693 L371 693 Z M246 660 L40 660 L40 649 L51 648 C96 646 115 622 115 571 L115 89 C115 38 96 14 51 12 L40 11 L40 0 L488 0 L489 7 L488 7 C496 52 506 111 514 156 C515 157 502 164 502 164 L479 113 C448 44 405 14 336 14 L171 14 L171 571 C171 622 190 646 235 648 L246 649 L246 660 L246 660 Z " />
<glyph glyph-name="lcaron" unicode="&#x13e;" horiz-adv-x="290" d="M294 723 C283 723 266 661 256 616 L218 454 L225 451 L288 604 C310 656 325 705 325 711 C325 720 303 723 294 723 L294 723 Z M245 11 L234 12 C189 14 170 38 170 89 L170 720 L160 720 L45 687 L45 680 L56 677 C119 662 120 660 120 588 L120 89 C120 38 101 14 56 12 L45 11 L45 0 L245 0 L245 11 L245 11 Z " />
<glyph glyph-name="Lslash" unicode="&#x141;" horiz-adv-x="600" d="M40 0 L488 0 L489 7 L488 7 C496 52 506 111 514 156 C515 157 502 164 502 164 L479 113 C448 44 405 14 336 14 L171 14 L171 312 L329 372 L329 388 L171 328 L171 571 C171 622 190 646 235 648 L246 649 L246 660 L40 660 L40 649 L51 648 C96 646 115 622 115 571 L115 307 L66 288 L66 272 L115 291 L115 89 C115 38 96 14 51 12 L40 11 L40 0 L40 0 Z " />
<glyph glyph-name="lslash" unicode="&#x142;" horiz-adv-x="290" d="M45 0 L245 0 L245 11 L234 12 C189 14 170 38 170 89 L170 362 L270 402 L270 418 L170 378 L170 720 L160 720 L45 687 L45 680 L56 677 C119 662 120 660 120 588 L120 358 L20 318 L20 302 L120 342 L120 89 C120 38 101 14 56 12 L45 11 L45 0 L45 0 Z " />
<glyph glyph-name="Nacute" unicode="&#x143;" horiz-adv-x="728" d="M334 691 C334 691 413 780 444 820 C469 849 485 871 485 875 C485 881 465 895 457 895 C454 895 439 873 418 840 C387 800 328 695 328 695 L334 691 L334 691 Z M43 649 L54 648 C99 646 118 622 118 571 L118 89 C118 38 99 14 54 12 L43 11 L43 0 L210 0 L210 11 L199 12 C154 14 135 38 135 89 L135 610 C288 403 442 197 594 -11 L613 -11 L613 571 C613 622 632 646 677 648 L688 649 L688 660 L521 660 L521 649 L532 648 C577 646 596 622 596 571 L596 79 L168 660 L43 660 L43 649 L43 649 Z " />
<glyph glyph-name="nacute" unicode="&#x144;" horiz-adv-x="646" d="M249 531 C249 531 328 620 359 660 C384 689 400 711 400 715 C400 721 380 735 372 735 C369 735 354 713 333 680 C302 640 243 535 243 535 L249 531 L249 531 Z M406 0 L606 0 L606 11 L595 12 C550 14 531 38 531 89 L531 336 C531 437 493 505 395 505 C340 505 250 477 169 435 L169 500 L159 500 L44 467 L44 460 L55 457 C118 442 119 440 119 368 L119 89 C119 38 100 14 55 12 L44 11 L44 0 L244 0 L244 11 L233 12 C188 14 169 38 169 89 L169 430 C219 454 293 471 356 471 C445 471 480 415 480 331 L480 89 C480 38 461 14 416 12 L405 11 L406 0 L406 0 Z " />
<glyph glyph-name="Ncaron" unicode="&#x147;" horiz-adv-x="728" d="M484 927 C484 927 401 822 365 769 C340 805 291 874 246 927 L241 922 C256 904 349 729 349 729 C351 725 358 715 365 715 C371 715 378 725 380 729 C425 821 488 922 488 922 L484 927 L484 927 Z M42 649 L53 648 C98 646 117 622 117 571 L117 89 C117 38 98 14 53 12 L42 11 L42 0 L209 0 L209 11 L198 12 C153 14 134 38 134 89 L134 610 C287 403 441 197 593 -11 L612 -11 L612 571 C612 622 631 646 676 648 L687 649 L687 660 L520 660 L520 649 L531 648 C576 646 595 622 595 571 L595 79 L167 660 L42 660 L42 649 L42 649 Z " />
<glyph glyph-name="ncaron" unicode="&#x148;" horiz-adv-x="646" d="M444 767 C444 767 361 662 325 609 C300 645 251 714 206 767 L201 762 C216 744 309 569 309 569 C311 565 318 555 325 555 C331 555 338 565 340 569 C385 661 448 762 448 762 L444 767 L444 767 Z M405 0 L605 0 L605 11 L594 12 C549 14 530 38 530 89 L530 336 C530 437 492 505 394 505 C339 505 249 477 168 435 L168 500 L158 500 L43 467 L43 460 L54 457 C117 442 118 440 118 368 L118 89 C118 38 99 14 54 12 L43 11 L43 0 L243 0 L243 11 L232 12 C187 14 168 38 168 89 L168 430 C218 454 292 471 355 471 C444 471 479 415 479 331 L479 89 C479 38 460 14 415 12 L404 11 L405 0 L405 0 Z " />
<glyph glyph-name="Omacron" unicode="&#x14c;" horiz-adv-x="785" d="M236 770 L561 770 L561 798 L236 798 L236 770 L236 770 Z M123 330 C123 503 217 651 399 651 C581 651 674 503 674 330 C674 157 581 9 399 9 C217 9 123 157 123 330 L123 330 Z M62 330 C62 149 177 -5 399 -5 C621 -5 735 149 735 330 C735 511 621 665 399 665 C177 665 62 511 62 330 L62 330 Z " />
<glyph glyph-name="omacron" unicode="&#x14d;" horiz-adv-x="614" d="M144 610 L470 610 L470 638 L144 638 L144 610 L144 610 Z M106 250 C106 396 186 494 307 494 C428 494 509 396 509 250 C509 104 428 6 307 6 C186 6 106 104 106 250 L106 250 Z M50 250 C50 97 153 -5 307 -5 C461 -5 564 97 564 250 C564 403 461 505 307 505 C153 505 50 403 50 250 L50 250 Z " />
<glyph glyph-name="Obreve" unicode="&#x14e;" horiz-adv-x="785" d="M270 872 C281 810 333 768 399 768 C465 768 516 809 527 871 L518 873 C510 830 463 801 399 801 C335 801 287 830 279 873 L270 872 L270 872 Z M123 330 C123 503 217 651 399 651 C581 651 674 503 674 330 C674 157 581 9 399 9 C217 9 123 157 123 330 L123 330 Z M62 330 C62 149 177 -5 399 -5 C621 -5 735 149 735 330 C735 511 621 665 399 665 C177 665 62 511 62 330 L62 330 Z " />
<glyph glyph-name="obreve" unicode="&#x14f;" horiz-adv-x="614" d="M179 712 C190 650 241 608 307 608 C373 608 424 649 435 711 L426 713 C418 670 371 641 307 641 C243 641 196 670 188 713 L179 712 L179 712 Z M106 250 C106 396 186 494 307 494 C428 494 509 396 509 250 C509 104 428 6 307 6 C186 6 106 104 106 250 L106 250 Z M50 250 C50 97 153 -5 307 -5 C461 -5 564 97 564 250 C564 403 461 505 307 505 C153 505 50 403 50 250 L50 250 Z " />
<glyph glyph-name="Racute" unicode="&#x154;" horiz-adv-x="659" d="M260 691 C260 691 339 780 370 820 C395 850 412 872 412 875 C412 881 392 895 383 895 C381 895 366 873 345 840 C314 800 255 695 255 695 L260 691 L260 691 Z M51 649 L62 648 C107 646 126 622 126 571 L126 89 C126 38 107 14 62 12 L51 11 L51 0 L257 0 L257 11 L246 12 C201 14 182 38 182 89 L182 317 L298 317 C324 288 392 210 484 106 C573 4 580 0 638 0 L659 0 L659 11 C632 11 634 11 560 95 C460 209 387 292 363 320 C477 334 550 398 550 490 C550 592 469 660 347 660 L51 660 L51 649 L51 649 Z M314 330 L182 331 L182 646 L347 646 C434 646 492 584 492 490 C492 394 421 330 314 330 L314 330 Z " />
<glyph glyph-name="Rcaron" unicode="&#x158;" horiz-adv-x="659" d="M456 927 C456 927 374 823 337 770 C312 806 264 875 220 928 L215 923 C228 907 322 730 322 730 C324 726 331 716 338 716 C345 716 352 726 354 730 C400 824 461 923 461 923 L456 927 L456 927 Z M51 650 L62 649 C107 647 126 623 126 572 L126 90 C126 39 107 15 62 13 L51 12 L51 1 L257 1 L257 12 L246 13 C201 15 182 39 182 90 L182 318 L298 318 C324 289 392 211 484 107 C573 5 580 1 638 1 L659 1 L659 12 C632 12 634 12 560 96 C460 210 387 293 363 321 C477 335 550 399 550 491 C550 593 469 661 347 661 L51 661 L51 650 L51 650 Z M314 331 L182 332 L182 647 L347 647 C434 647 492 585 492 491 C492 395 421 331 314 331 L314 331 Z " />
<glyph glyph-name="rcaron" unicode="&#x159;" horiz-adv-x="440" d="M345 767 C345 767 263 663 226 610 C201 646 153 715 109 768 L104 763 C117 747 211 570 211 570 C213 566 220 556 227 556 C234 556 241 566 243 570 C289 664 350 763 350 763 L345 767 L345 767 Z M45 461 L56 458 C119 443 120 441 120 369 L120 90 C120 39 101 15 56 13 L45 12 L45 1 L245 1 L245 12 L234 13 C189 15 170 39 170 90 L170 416 C199 448 247 469 294 469 C328 469 372 447 406 447 C420 447 430 457 430 471 C430 492 403 506 334 506 C278 506 213 473 170 422 L170 501 L160 501 L45 468 L45 461 L45 461 Z " />
<glyph glyph-name="Sacute" unicode="&#x15a;" horiz-adv-x="530" d="M201 691 C201 691 280 780 311 820 C336 850 353 872 353 875 C353 881 333 895 324 895 C322 895 307 873 286 840 C255 800 196 695 196 695 L201 691 L201 691 Z M451 472 L451 614 C398 645 318 665 252 665 C131 665 51 591 51 481 C51 407 129 338 245 308 C366 277 446 212 446 146 C446 64 382 9 285 9 C281 9 233 10 233 12 C161 19 94 75 66 151 C62 162 56 177 52 188 L43 188 L43 46 C96 15 193 -5 285 -5 C405 -5 485 64 485 168 C485 248 406 321 288 352 C169 383 90 443 90 503 C90 592 154 651 249 651 C252 651 313 647 312 644 C355 635 395 599 412 553 C421 529 433 496 442 472 L451 472 L451 472 Z " />
<glyph glyph-name="sacute" unicode="&#x15b;" horiz-adv-x="448" d="M147 531 C147 531 226 620 257 660 C282 690 299 712 299 715 C299 721 279 735 270 735 C268 735 253 713 232 680 C201 640 142 535 142 535 L147 531 L147 531 Z M366 370 L375 370 L375 461 L371 453 C371 455 374 458 375 461 C329 487 269 505 225 505 C129 505 65 454 65 378 C65 324 129 266 226 232 C304 205 356 159 356 118 C356 51 308 6 237 6 C225 6 213 7 200 8 C145 14 92 54 68 109 C65 117 59 127 56 135 L48 135 L48 34 C89 11 163 -5 234 -5 C332 -5 398 51 398 136 C398 186 343 239 261 268 C167 301 104 352 104 395 C104 454 152 494 225 494 C225 494 259 491 258 489 C311 477 349 427 365 370 L366 370 L366 370 Z " />
<glyph glyph-name="Scircumflex" unicode="&#x15c;" horiz-adv-x="530" d="M265 891 C263 895 256 905 249 905 C242 905 235 895 233 891 C233 891 139 714 126 698 L131 693 C175 746 223 815 248 851 C285 798 367 694 367 694 L372 699 C372 699 311 798 265 892 L265 891 L265 891 Z M451 473 L451 615 C398 646 318 666 252 666 C131 666 51 592 51 482 C51 408 129 339 245 309 C366 278 446 213 446 147 C446 65 382 10 285 10 C281 10 233 11 233 13 C161 20 94 76 66 152 C62 163 56 178 52 189 L43 189 L43 47 C96 16 193 -4 285 -4 C405 -4 485 65 485 169 C485 249 406 322 288 353 C169 384 90 444 90 504 C90 593 154 652 249 652 C252 652 313 648 312 645 C355 636 395 600 412 554 C421 530 433 497 442 473 L451 473 L451 473 Z " />
<glyph glyph-name="Scedilla" unicode="&#x15e;" horiz-adv-x="530" d="M243 -87 L239 -95 C240 -92 241 -89 242 -87 L243 -87 L243 -87 Z M450 472 L450 614 C397 645 317 665 251 665 C130 665 50 591 50 481 C50 407 128 338 244 308 C365 277 445 212 445 146 C445 64 381 9 284 9 C280 9 232 10 232 12 C160 19 93 75 65 151 C61 162 55 177 51 188 L42 188 L42 46 C94 16 188 -4 278 -5 L234 -93 L237 -95 C258 -86 287 -80 310 -80 C354 -80 383 -102 383 -135 C383 -177 350 -205 300 -205 C256 -205 219 -199 206 -191 L203 -196 C225 -210 268 -220 310 -220 C372 -220 414 -186 414 -135 C414 -96 377 -70 322 -70 C295 -70 263 -76 242 -85 C269 -33 288 -11 294 -5 C408 -1 483 67 483 168 C483 248 404 321 286 352 C167 383 88 443 88 503 C88 592 152 651 247 651 C250 651 311 647 310 644 C353 635 393 599 410 553 C419 529 431 496 440 472 L450 472 L450 472 Z " />
<glyph glyph-name="scedilla" unicode="&#x15f;" horiz-adv-x="448" d="M192 -87 L188 -95 C189 -92 190 -89 191 -87 L192 -87 L192 -87 Z M365 370 L374 370 L374 461 L370 453 C370 455 373 458 374 461 C328 487 268 505 224 505 C128 505 64 454 64 378 C64 324 128 266 225 232 C303 205 355 159 355 118 C355 51 307 6 236 6 C224 6 212 7 199 8 C144 14 91 54 67 109 C64 117 58 127 55 135 L47 135 L47 34 C87 12 159 -4 228 -5 L184 -93 L187 -95 C208 -86 237 -80 260 -80 C304 -80 333 -102 333 -135 C333 -177 300 -205 250 -205 C206 -205 169 -199 156 -191 L153 -196 C175 -210 218 -220 260 -220 C322 -220 364 -186 364 -135 C364 -96 327 -70 272 -70 C245 -70 213 -76 192 -85 C219 -33 239 -11 245 -5 C337 -1 398 54 398 136 C398 186 343 239 261 268 C167 301 104 352 104 395 C104 454 152 494 225 494 C225 494 259 491 258 489 C311 477 349 427 365 370 L365 370 Z " />
<glyph glyph-name="Scaron" unicode="&#x160;" horiz-adv-x="530" d="M367 927 C367 927 285 823 248 770 C223 806 175 875 131 928 L126 923 C139 907 233 730 233 730 C235 726 242 716 249 716 C256 716 263 726 265 730 C311 824 372 923 372 923 L367 927 L367 927 Z M451 473 L451 615 C398 646 318 666 252 666 C131 666 51 592 51 482 C51 408 129 339 245 309 C366 278 446 213 446 147 C446 65 382 10 285 10 C281 10 233 11 233 13 C161 20 94 76 66 152 C62 163 56 178 52 189 L43 189 L43 47 C96 16 193 -4 285 -4 C405 -4 485 65 485 169 C485 249 406 322 288 353 C169 384 90 444 90 504 C90 593 154 652 249 652 C252 652 313 648 312 645 C355 636 395 600 412 554 C421 530 433 497 442 473 L451 473 L451 473 Z " />
<glyph glyph-name="scaron" unicode="&#x161;" horiz-adv-x="448" d="M343 767 C343 767 261 663 224 610 C199 646 151 715 107 768 L102 763 C115 747 209 570 209 570 C211 566 218 556 225 556 C232 556 239 566 241 570 C287 664 348 763 348 763 L343 767 L343 767 Z M366 371 L375 371 L375 462 L371 454 C371 456 374 459 375 462 C329 488 269 506 225 506 C129 506 65 455 65 379 C65 325 129 267 226 233 C304 206 356 160 356 119 C356 52 308 7 237 7 C225 7 213 8 200 9 C145 15 92 55 68 110 C65 118 59 128 56 136 L48 136 L48 35 C89 12 163 -4 234 -4 C332 -4 398 52 398 137 C398 187 343 240 261 269 C167 302 104 353 104 396 C104 455 152 495 225 495 C225 495 259 492 258 490 C311 478 349 428 365 371 L366 371 L366 371 Z " />
<glyph glyph-name="Tcaron" unicode="&#x164;" horiz-adv-x="645" d="M439 927 C439 927 357 823 320 770 C295 806 247 875 203 928 L198 923 C211 907 305 730 305 730 C307 726 314 716 321 716 C328 716 335 726 337 730 C383 824 444 923 444 923 L439 927 L439 927 Z M21 497 L47 558 C73 620 111 647 173 647 L295 647 L295 90 C295 39 276 15 231 13 L220 12 L220 1 L425 1 L425 12 L414 13 C369 15 350 39 350 90 L350 647 L469 647 C532 647 570 620 596 558 L622 497 L631 497 C627 546 623 612 616 660 L26 660 L25 653 L26 653 C22 606 16 543 12 496 L21 497 L21 497 Z " />
<glyph glyph-name="tcaron" unicode="&#x165;" horiz-adv-x="376" d="M345 500 L161 500 L161 640 L153 640 L115 496 L135 572 C123 526 79 492 25 487 L25 481 L111 481 L111 111 C111 21 133 -5 211 -5 C279 -5 321 15 356 44 L353 48 C331 29 298 17 235 17 C177 17 161 36 161 102 L161 481 L345 481 L345 500 L345 500 Z M469 723 C458 723 441 661 431 616 L393 454 L400 451 L463 604 C485 656 500 705 500 711 C500 720 478 723 469 723 L469 723 Z " />
<glyph glyph-name="Utilde" unicode="&#x168;" horiz-adv-x="713" d="M202 755 C202 795 223 822 254 822 C315 822 395 759 456 759 C500 759 530 797 530 853 L522 853 C522 816 500 792 467 792 C406 792 326 855 265 855 C222 855 194 815 194 755 L202 755 L202 755 Z M693 660 L501 660 L501 649 L515 648 C568 646 591 619 591 561 L591 185 C591 82 531 14 375 14 C229 14 172 88 172 199 L172 571 C172 622 191 646 236 648 L247 649 L247 660 L41 660 L41 649 L52 648 C97 646 116 622 116 571 L116 209 C116 81 186 -5 367 -5 C541 -5 608 69 608 179 L608 561 C608 619 630 646 680 648 L693 649 L693 660 L693 660 Z " />
<glyph glyph-name="utilde" unicode="&#x169;" horiz-adv-x="611" d="M136 595 C136 635 156 662 187 662 C248 662 329 599 390 599 C434 599 464 637 464 693 L455 693 C455 656 433 632 401 632 C340 632 259 695 198 695 C155 695 127 655 127 595 L136 595 L136 595 Z M15 489 L26 488 C71 486 90 462 90 411 L90 156 C90 59 146 -5 254 -5 C345 -5 409 20 451 58 L451 0 L461 0 L576 33 L576 40 L565 43 C502 58 501 60 501 132 L501 500 L376 500 L376 489 L387 488 C432 486 451 462 451 411 L451 66 C425 43 376 28 293 28 C192 28 140 81 140 161 L140 500 L15 500 L15 489 L15 489 Z " />
<glyph glyph-name="Umacron" unicode="&#x16a;" horiz-adv-x="713" d="M199 770 L525 770 L525 798 L199 798 L199 770 L199 770 Z M693 660 L501 660 L501 649 L515 648 C568 646 591 619 591 561 L591 185 C591 82 531 14 375 14 C229 14 172 88 172 199 L172 571 C172 622 191 646 236 648 L247 649 L247 660 L41 660 L41 649 L52 648 C97 646 116 622 116 571 L116 209 C116 81 186 -5 367 -5 C541 -5 608 69 608 179 L608 561 C608 619 630 646 680 648 L693 649 L693 660 L693 660 Z " />
<glyph glyph-name="umacron" unicode="&#x16b;" horiz-adv-x="611" d="M133 610 L458 610 L458 638 L133 638 L133 610 L133 610 Z M15 489 L26 488 C71 486 90 462 90 411 L90 156 C90 59 146 -5 254 -5 C345 -5 409 20 451 58 L451 0 L461 0 L576 33 L576 40 L565 43 C502 58 501 60 501 132 L501 500 L376 500 L376 489 L387 488 C432 486 451 462 451 411 L451 66 C425 43 376 28 293 28 C192 28 140 81 140 161 L140 500 L15 500 L15 489 L15 489 Z " />
<glyph glyph-name="Ubreve" unicode="&#x16c;" horiz-adv-x="713" d="M234 872 C245 810 296 768 362 768 C428 768 479 809 490 871 L481 873 C473 830 426 801 362 801 C298 801 251 830 243 873 L234 872 L234 872 Z M693 660 L501 660 L501 649 L515 648 C568 646 591 619 591 561 L591 185 C591 82 531 14 375 14 C229 14 172 88 172 199 L172 571 C172 622 191 646 236 648 L247 649 L247 660 L41 660 L41 649 L52 648 C97 646 116 622 116 571 L116 209 C116 81 186 -5 367 -5 C541 -5 608 69 608 179 L608 561 C608 619 630 646 680 648 L693 649 L693 660 L693 660 Z " />
<glyph glyph-name="ubreve" unicode="&#x16d;" horiz-adv-x="611" d="M167 712 C178 650 230 608 296 608 C362 608 413 649 424 711 L415 713 C407 670 360 641 296 641 C232 641 184 670 176 713 L167 712 L167 712 Z M15 489 L26 488 C71 486 90 462 90 411 L90 156 C90 59 146 -5 254 -5 C345 -5 409 20 451 58 L451 0 L461 0 L576 33 L576 40 L565 43 C502 58 501 60 501 132 L501 500 L376 500 L376 489 L387 488 C432 486 451 462 451 411 L451 66 C425 43 376 28 293 28 C192 28 140 81 140 161 L140 500 L15 500 L15 489 L15 489 Z " />
<glyph glyph-name="Uring" unicode="&#x16e;" horiz-adv-x="713" d="M282 788 C282 837 314 869 362 869 C410 869 442 837 442 788 C442 744 405 706 362 706 C319 706 282 744 282 788 L282 788 Z M268 788 C268 738 311 695 362 695 C413 695 456 738 456 788 C456 843 418 880 362 880 C306 880 268 843 268 788 L268 788 Z M693 660 L501 660 L501 649 L515 648 C568 646 591 619 591 561 L591 185 C591 82 531 14 375 14 C229 14 172 88 172 199 L172 571 C172 622 191 646 236 648 L247 649 L247 660 L41 660 L41 649 L52 648 C97 646 116 622 116 571 L116 209 C116 81 186 -5 367 -5 C541 -5 608 69 608 179 L608 561 C608 619 630 646 680 648 L693 649 L693 660 L693 660 Z " />
<glyph glyph-name="uring" unicode="&#x16f;" horiz-adv-x="611" d="M215 628 C215 677 247 709 296 709 C344 709 376 677 376 628 C376 584 339 546 296 546 C252 546 215 584 215 628 L215 628 Z M201 628 C201 578 245 535 296 535 C347 535 390 578 390 628 C390 683 352 720 296 720 C239 720 201 683 201 628 L201 628 Z M15 489 L26 488 C71 486 90 462 90 411 L90 156 C90 59 146 -5 254 -5 C345 -5 409 20 451 58 L451 0 L461 0 L576 33 L576 40 L565 43 C502 58 501 60 501 132 L501 500 L376 500 L376 489 L387 488 C432 486 451 462 451 411 L451 66 C425 43 376 28 293 28 C192 28 140 81 140 161 L140 500 L15 500 L15 489 L15 489 Z " />
<glyph glyph-name="Wcircumflex" unicode="&#x174;" horiz-adv-x="976" d="M973 660 L779 660 L779 649 L805 648 C857 646 873 623 857 571 L680 -15 L694 -15 L874 571 C890 622 916 647 961 649 L973 650 L973 660 L973 660 Z M206 661 L-1 661 L-1 650 L8 649 C44 647 66 622 85 572 L286 -14 L300 -14 L503 671 L489 671 L310 68 L143 579 C130 625 146 647 194 649 L207 650 L206 661 L206 661 Z M513 892 C511 896 504 906 497 906 C490 906 483 896 481 892 C481 892 387 715 374 699 L379 694 C423 747 471 816 496 852 C533 799 615 695 615 695 L620 700 C620 700 559 799 513 893 L513 892 L513 892 Z M681 -13 L707 74 L504 672 L477 579 L681 -13 L681 -13 Z " />
<glyph glyph-name="Ycircumflex" unicode="&#x176;" horiz-adv-x="627" d="M225 660 L19 660 L19 649 L28 648 C60 646 86 624 113 578 L291 260 L291 89 C291 38 272 14 227 12 L216 11 L216 0 L422 0 L422 11 L411 12 C366 14 347 38 347 89 L347 282 L347 282 L525 582 C553 626 582 647 619 649 L630 650 L630 661 L444 661 L444 650 L459 649 C519 647 527 617 489 552 L338 294 L183 572 C155 622 163 647 212 649 L224 650 L225 660 L225 660 Z M335 892 C333 896 326 906 319 906 C312 906 305 896 303 892 C303 892 209 715 196 699 L201 694 C245 747 293 816 318 852 C355 799 437 695 437 695 L442 700 C442 700 381 799 335 893 L335 892 L335 892 Z " />
<glyph glyph-name="Ydieresis" unicode="&#x178;" horiz-adv-x="627" d="M440 761 C440 801 379 800 379 761 C379 721 440 720 440 761 L440 761 Z M261 761 C261 800 200 801 200 761 C200 720 261 721 261 761 L261 761 Z M225 660 L19 660 L19 649 L28 648 C60 646 86 624 113 578 L291 260 L291 89 C291 38 272 14 227 12 L216 11 L216 0 L422 0 L422 11 L411 12 C366 14 347 38 347 89 L347 282 L347 282 L525 582 C553 626 582 647 619 649 L630 650 L630 661 L444 661 L444 650 L459 649 C519 647 527 617 489 552 L338 294 L183 572 C155 622 163 647 212 649 L224 650 L225 660 L225 660 Z " />
<glyph glyph-name="Zacute" unicode="&#x179;" horiz-adv-x="617" d="M342 691 C342 691 421 780 452 820 C477 850 494 872 494 875 C494 881 474 895 465 895 C463 895 448 873 427 840 C396 800 337 695 337 695 L342 691 L342 691 Z M83 526 L92 526 L113 557 C157 619 202 646 264 646 L482 646 L52 0 L541 0 L542 7 L541 7 C549 52 559 111 567 156 C568 157 555 164 555 164 L532 113 C501 44 458 14 389 14 L124 14 L554 660 L119 660 C108 620 94 567 83 526 L83 526 Z " />
<glyph glyph-name="zacute" unicode="&#x17a;" horiz-adv-x="509" d="M197 531 C197 531 276 620 307 660 C332 689 348 711 348 715 C348 721 328 735 320 735 C317 735 302 713 281 680 C250 640 191 535 191 535 L197 531 L197 531 Z M43 398 L52 398 L63 412 C107 465 154 487 217 488 L394 489 L57 0 L449 0 L450 6 L448 6 C456 50 467 109 475 153 C476 154 463 161 463 161 L440 110 C409 41 366 11 297 11 L124 11 L460 500 L72 500 C62 470 53 429 44 398 L43 398 L43 398 Z " />
<glyph glyph-name="Zdot" unicode="&#x17b;" horiz-adv-x="617" d="M375 761 C375 800 313 800 313 761 C313 720 375 720 375 761 L375 761 Z M83 526 L92 526 L113 557 C157 619 202 646 264 646 L482 646 L52 0 L541 0 L542 7 L541 7 C549 52 559 111 567 156 C568 157 555 164 555 164 L532 113 C501 44 458 14 389 14 L124 14 L554 660 L119 660 C108 620 94 567 83 526 L83 526 Z " />
<glyph glyph-name="zdot" unicode="&#x17c;" horiz-adv-x="509" d="M304 601 C304 641 243 640 243 601 C243 561 304 560 304 601 L304 601 Z M43 398 L52 398 L63 412 C107 465 154 487 217 488 L394 489 L57 0 L449 0 L450 6 L448 6 C456 50 467 109 475 153 C476 154 463 161 463 161 L440 110 C409 41 366 11 297 11 L124 11 L460 500 L72 500 C62 470 53 429 44 398 L43 398 L43 398 Z " />
<glyph glyph-name="Zcaron" unicode="&#x17d;" horiz-adv-x="617" d="M462 927 C462 927 380 823 343 770 C318 806 270 875 226 928 L221 923 C234 907 328 730 328 730 C330 726 337 716 344 716 C351 716 358 726 360 730 C406 824 467 923 467 923 L462 927 L462 927 Z M83 527 L92 527 L113 558 C157 620 202 647 264 647 L482 647 L52 1 L541 1 L542 8 L541 8 C549 53 559 112 567 157 C568 158 555 165 555 165 L532 114 C501 45 458 15 389 15 L124 15 L554 661 L119 661 C108 621 94 568 83 527 L83 527 Z " />
<glyph glyph-name="zcaron" unicode="&#x17e;" horiz-adv-x="509" d="M392 767 C392 767 309 662 273 609 C248 645 199 714 154 767 L149 762 C164 744 257 569 257 569 C259 565 266 555 273 555 C279 555 286 565 288 569 C333 661 396 762 396 762 L392 767 L392 767 Z M42 398 L51 398 L62 412 C106 465 153 487 216 488 L393 489 L56 0 L448 0 L449 6 L447 6 C455 50 466 109 474 153 C475 154 462 161 462 161 L439 110 C408 41 365 11 296 11 L123 11 L459 500 L71 500 C61 470 52 429 43 398 L42 398 L42 398 Z " />
<glyph glyph-name="oogonek" unicode="&#x1eb;" horiz-adv-x="717" d="M737 -20 L732 -16 C710 -42 657 -59 598 -59 C481 -59 410 -38 371 -5 C566 -3 667 126 667 277 C667 429 564 558 365 558 C166 558 63 429 63 277 C63 128 162 0 353 -5 C409 -57 487 -91 593 -91 C644 -91 701 -63 737 -20 L737 -20 Z M118 277 C118 422 202 546 365 546 C528 546 612 422 612 277 C612 132 528 8 365 8 C202 8 118 132 118 277 L118 277 Z " />
<glyph glyph-name="Adotabove" unicode="&#x226;" horiz-adv-x="657" d="M353 761 C353 800 291 800 291 761 C291 720 353 720 353 761 L353 761 Z M425 0 L652 0 L652 11 C608 11 585 24 563 74 L329 674 L315 674 L104 88 C86 37 58 13 12 11 L1 10 L1 -1 L201 -1 L201 10 L185 11 C123 13 107 42 128 103 L175 235 L442 236 L498 88 C517 37 504 13 452 11 L426 10 L425 0 L425 0 Z M438 249 L181 250 L305 601 L438 249 L438 249 Z " />
<glyph glyph-name="G_sc" unicode="&#x262;" horiz-adv-x="773" d="M597 360 L597 496 C533 533 439 558 364 558 C183 558 63 446 63 277 C63 108 183 -5 364 -5 C443 -5 539 20 603 57 L603 171 C603 222 622 246 667 248 L678 249 L678 260 L483 260 L483 249 L494 248 C539 246 558 222 558 171 L558 49 C499 24 426 8 364 8 C216 8 118 116 118 277 C118 457 236 566 415 543 C483 531 546 475 574 399 C578 388 584 372 588 361 L597 360 L597 360 Z " />
<glyph glyph-name="I_sc" unicode="&#x26a;" horiz-adv-x="283" d="M243 11 L232 12 C187 14 168 38 168 89 L168 464 C168 515 187 539 232 541 L243 542 L243 553 L43 553 L43 542 L54 541 C99 539 118 515 118 464 L118 89 C118 38 99 14 54 12 L43 11 L43 0 L243 0 L243 11 L243 11 Z " />
<glyph glyph-name="N_sc" unicode="&#x274;" horiz-adv-x="658" d="M43 542 L54 541 C99 539 118 515 118 464 L118 89 C118 38 99 14 54 12 L43 11 L43 0 L208 0 L208 11 L197 12 C152 14 133 38 133 89 L133 510 C265 336 396 162 528 -11 L543 -11 L543 463 C543 514 562 538 607 540 L618 541 L618 552 L453 552 L453 541 L464 540 C509 538 528 514 528 463 L528 71 L163 552 L43 552 L43 542 L43 542 Z M133 532 L133 532 L133 532 Z " />
<glyph glyph-name="R_sc" unicode="&#x280;" horiz-adv-x="600" d="M53 542 L64 541 C109 539 128 515 128 464 L128 89 C128 38 109 14 64 12 L53 11 L53 0 L253 0 L253 11 L242 12 C197 14 178 38 178 89 L178 265 L254 265 C279 240 339 182 419 105 C524 3 531 -1 580 -1 L600 -1 L600 9 C574 9 575 9 487 95 C400 179 336 243 312 267 C413 279 478 334 478 411 C478 496 402 552 288 552 L53 552 L53 542 L53 542 Z M266 277 L178 277 L178 540 L288 540 C371 540 426 488 426 411 C426 331 362 277 266 277 L266 277 Z " />
<glyph glyph-name="Y_sc" unicode="&#x28f;" horiz-adv-x="554" d="M220 553 L21 553 L21 542 C61 538 84 525 114 476 L260 220 L260 89 C260 38 241 14 196 12 L185 11 L185 0 L385 0 L385 11 L374 12 C329 14 310 38 310 89 L310 239 L453 478 C481 520 510 540 546 542 L556 543 L556 554 L373 554 L373 543 L388 542 C448 540 457 510 418 445 C418 445 307 257 297 240 L299 244 L178 465 C151 516 159 541 207 543 L219 544 L220 553 L220 553 Z " />
<glyph glyph-name="B_sc" unicode="&#x299;" horiz-adv-x="548" d="M294 301 C287 301 280 301 272 301 L224 299 L178 300 L178 541 L288 541 C370 541 425 495 425 427 C425 358 373 310 294 301 L294 301 Z M53 542 L64 541 C109 539 128 515 128 464 L128 89 C128 38 109 14 64 12 L53 11 L53 0 L310 0 C441 0 528 61 528 152 C528 229 452 284 332 298 C419 314 474 362 474 428 C474 504 399 554 287 554 L52 554 L53 542 L53 542 Z M177 292 L256 292 C387 292 475 236 475 153 C475 70 407 14 304 14 L177 14 L177 292 L177 292 Z " />
<glyph glyph-name="H_sc" unicode="&#x29c;" horiz-adv-x="726" d="M686 11 L675 12 C630 14 611 38 611 89 L611 464 C611 515 630 539 675 541 L686 542 L686 553 L486 553 L486 542 L497 541 C542 539 561 515 561 464 L561 299 L166 299 L166 464 C166 515 185 539 230 541 L241 542 L241 553 L41 553 L41 542 L52 541 C97 539 116 515 116 464 L116 89 C116 38 97 14 52 12 L41 11 L41 0 L241 0 L241 11 L230 12 C185 14 166 38 166 89 L166 287 L561 287 L561 89 C561 38 542 14 497 12 L486 11 L486 0 L686 0 L686 11 L686 11 Z " />
<glyph glyph-name="L_sc" unicode="&#x29f;" horiz-adv-x="544" d="M445 163 L422 112 C391 43 348 13 279 13 L166 13 L166 464 C166 515 185 539 230 541 L241 542 L241 553 L41 553 L41 542 L52 541 C97 539 116 515 116 464 L116 89 C116 38 97 14 52 12 L41 11 L41 0 L431 0 L432 6 L432 6 C440 51 450 110 458 155 C458 159 445 163 445 163 L445 163 Z " />
<glyph glyph-name="circumflex" unicode="&#x2c6;" horiz-adv-x="371" d="M202 731 C200 735 193 745 186 745 C179 745 172 735 170 731 C170 731 76 554 63 538 L68 533 C112 586 160 655 185 691 C222 638 304 534 304 534 L309 539 C309 539 248 638 202 732 L202 731 L202 731 Z " />
<glyph glyph-name="caron" unicode="&#x2c7;" horiz-adv-x="371" d="M304 767 C304 767 222 663 185 610 C160 646 112 715 68 768 L63 763 C76 747 170 570 170 570 C172 566 179 556 186 556 C193 556 200 566 202 570 C248 664 309 763 309 763 L304 767 L304 767 Z " />
<glyph glyph-name="firsttonechinese" unicode="&#x2c9;" horiz-adv-x="371" d="M23 610 L349 610 L349 638 L23 638 L23 610 L23 610 Z " />
<glyph glyph-name="breve" unicode="&#x2d8;" horiz-adv-x="371" d="M58 712 C69 650 120 608 186 608 C252 608 303 649 314 711 L306 713 C298 670 250 641 186 641 C122 641 74 670 66 713 L58 712 L58 712 Z " />
<glyph glyph-name="dotaccent" unicode="&#x2d9;" horiz-adv-x="371" d="M216 601 C216 641 155 640 155 601 C155 561 216 560 216 601 L216 601 Z " />
<glyph glyph-name="ring" unicode="&#x2da;" horiz-adv-x="371" d="M106 628 C106 677 138 709 186 709 C234 709 266 677 266 628 C266 584 229 546 186 546 C143 546 106 584 106 628 L106 628 Z M92 628 C92 578 135 535 186 535 C237 535 280 578 280 628 C280 683 242 720 186 720 C130 720 92 683 92 628 L92 628 Z " />
<glyph glyph-name="A_sc" unicode="&#x1d00;" horiz-adv-x="583" d="M357 0 L578 0 L578 11 C534 11 512 24 489 74 L293 566 L281 566 L102 77 C83 34 56 14 14 12 L3 11 L3 0 L200 0 L200 11 L184 12 C126 14 108 39 125 94 L162 198 L388 198 L430 89 L429 89 C449 37 435 14 384 12 L358 11 L357 0 L357 0 Z M382 211 L165 211 L269 501 L382 211 L382 211 Z " />
<glyph glyph-name="C_sc" unicode="&#x1d04;" horiz-adv-x="677" d="M608 194 C604 183 598 167 594 156 C564 73 485 15 396 8 C228 -1 118 108 118 276 C118 456 241 563 425 542 C498 534 565 476 594 397 C598 386 604 370 608 359 L617 359 L617 495 C553 532 456 557 375 557 C188 557 63 445 63 276 C63 107 188 -6 375 -6 C456 -6 553 19 617 56 L617 193 L608 194 L608 194 Z " />
<glyph glyph-name="D_sc" unicode="&#x1d05;" horiz-adv-x="645" d="M53 542 L64 541 C109 539 128 515 128 464 L128 89 C128 38 109 14 64 12 L53 11 L53 0 L308 0 C480 0 595 111 595 277 C595 443 467 553 276 553 L53 553 L53 542 L53 542 Z M178 13 L178 541 L276 541 C437 541 545 435 545 277 C545 119 450 13 308 13 L178 13 L178 13 Z " />
<glyph glyph-name="E_sc" unicode="&#x1d07;" horiz-adv-x="544" d="M364 204 L364 376 L355 376 L351 365 C335 320 300 301 232 301 L166 301 L166 541 L261 541 C337 541 382 508 408 432 L417 406 L425 406 L425 553 L41 553 L41 542 L52 541 C97 539 116 515 116 464 L116 89 C116 38 97 14 52 12 L41 11 L41 0 L431 0 L432 6 L432 6 C439 49 449 105 457 148 L449 148 L435 122 C396 46 345 13 269 13 L166 13 L166 289 L232 289 C300 289 336 267 351 217 L355 204 L364 204 L364 204 Z " />
<glyph glyph-name="J_sc" unicode="&#x1d0a;" horiz-adv-x="323" d="M283 553 L83 553 L83 542 L94 541 C139 539 158 515 158 464 L158 168 C158 47 140 0 92 0 C69 0 49 20 42 50 C39 62 30 70 20 70 C5 70 -3 62 0 50 C9 14 41 -10 79 -10 C172 -10 208 52 208 210 L208 464 C208 515 227 539 272 541 L283 542 L283 553 L283 553 Z " />
<glyph glyph-name="K_sc" unicode="&#x1d0b;" horiz-adv-x="598" d="M253 553 L53 553 L53 542 L64 541 C109 539 128 515 128 464 L128 89 C128 38 109 14 64 12 L53 11 L53 0 L253 0 L253 11 L242 12 C197 14 178 38 178 89 L178 298 L186 287 L188 288 L299 177 C430 46 505 -5 568 -5 L588 -5 L588 5 C550 5 488 59 337 210 L225 322 L387 464 C445 515 491 539 539 541 L551 542 L551 553 L397 553 L397 542 L406 541 C439 539 428 515 369 464 C305 409 241 354 177 299 L177 465 C177 516 196 540 241 542 L252 543 L253 553 L253 553 Z " />
<glyph glyph-name="M_sc" unicode="&#x1d0d;" horiz-adv-x="777" d="M568 0 L767 0 L767 11 L756 12 C713 14 693 36 689 82 L668 465 C665 516 683 541 726 543 L737 544 L737 555 L641 555 L641 554 L618 554 L406 53 L404 58 L177 554 L63 554 L63 543 L74 542 C117 540 135 517 134 467 L117 90 C115 39 94 15 50 13 L38 12 L38 1 L238 1 L238 12 L218 13 C156 15 131 44 133 105 L151 494 C228 328 305 161 383 -5 L395 -5 L621 515 L640 86 C641 36 623 13 580 11 L569 10 L568 0 L568 0 Z " />
<glyph glyph-name="O_sc" unicode="&#x1d0f;" horiz-adv-x="717" d="M118 277 C118 422 202 546 365 546 C528 546 612 422 612 277 C612 132 528 8 365 8 C202 8 118 132 118 277 L118 277 Z M63 277 C63 125 166 -5 365 -5 C564 -5 667 125 667 277 C667 429 564 558 365 558 C166 558 63 429 63 277 L63 277 Z " />
<glyph glyph-name="P_sc" unicode="&#x1d18;" horiz-adv-x="525" d="M253 11 L242 12 C197 14 178 38 178 89 L178 250 L276 250 C413 250 505 310 505 400 C505 492 423 553 300 553 L53 553 L53 542 L64 541 C109 539 128 515 128 464 L128 89 C128 38 109 14 64 12 L53 11 L53 0 L253 0 L253 11 L253 11 Z M178 263 L178 541 L300 541 C392 541 453 485 453 400 C453 318 382 263 276 263 L178 263 L178 263 Z " />
<glyph glyph-name="T_sc" unicode="&#x1d1b;" horiz-adv-x="578" d="M24 391 L50 452 C77 514 115 541 177 541 L264 541 L264 89 C264 38 245 14 200 12 L189 11 L189 0 L389 0 L389 11 L378 12 C333 14 314 38 314 89 L314 541 L403 541 C465 541 503 514 529 452 L555 391 L564 391 C560 438 555 500 551 547 L552 547 L551 553 L29 553 L28 547 C24 500 19 438 15 391 L24 391 L24 391 Z " />
<glyph glyph-name="U_sc" unicode="&#x1d1c;" horiz-adv-x="647" d="M627 553 L437 553 L437 542 L451 541 C504 539 527 512 527 454 L527 152 C527 68 475 12 342 12 C217 12 168 72 168 163 L168 464 C168 515 187 539 232 541 L243 542 L243 553 L43 553 L43 542 L54 541 C99 539 118 515 118 464 L118 173 C118 66 178 -5 334 -5 C484 -5 542 56 542 147 L542 454 C542 512 564 539 614 541 L627 542 L627 553 L627 553 Z " />
<glyph glyph-name="V_sc" unicode="&#x1d20;" horiz-adv-x="584" d="M223 553 L13 553 L13 542 L22 541 C57 539 81 518 102 473 L309 -15 L321 -15 L484 464 C501 515 529 540 574 542 L585 543 L585 554 L379 554 L379 543 L396 542 C464 540 482 507 459 435 L330 48 L155 475 C140 519 155 539 203 541 L223 542 L223 553 L223 553 Z " />
<glyph glyph-name="W_sc" unicode="&#x1d21;" horiz-adv-x="834" d="M831 553 L639 553 L639 542 L665 541 C717 539 731 515 717 464 L574 -15 L587 -15 L733 467 C749 516 775 539 819 541 L831 542 L831 553 L831 553 Z M574 -15 L595 57 L429 563 L416 563 L250 -15 L262 -15 L407 486 L574 -15 L574 -15 Z M200 553 L-1 553 L-1 542 L8 541 C42 539 64 519 81 477 L250 -15 L269 53 L135 473 C124 518 139 539 187 541 L200 542 L200 553 L200 553 Z " />
<glyph glyph-name="Z_sc" unicode="&#x1d22;" horiz-adv-x="550" d="M489 163 L466 112 C435 43 392 13 323 13 L119 13 L487 553 L122 553 L120 547 L121 547 C111 509 98 459 88 421 L97 421 L118 452 C161 514 206 541 268 541 L422 541 L54 0 L475 0 L476 6 L476 6 C484 51 494 110 502 155 C502 159 489 163 489 163 L489 163 Z " />
<glyph glyph-name="Wgrave" unicode="&#x1e80;" horiz-adv-x="976" d="M973 660 L779 660 L779 649 L805 648 C857 646 873 623 857 571 L680 -15 L694 -15 L874 571 C890 622 916 647 961 649 L973 650 L973 660 L973 660 Z M206 661 L-1 661 L-1 650 L8 649 C44 647 66 622 85 572 L286 -14 L300 -14 L503 671 L489 671 L310 68 L143 579 C130 625 146 647 194 649 L207 650 L206 661 L206 661 Z M415 876 C415 871 432 850 458 821 C490 781 571 692 571 692 L576 696 C576 696 515 800 483 841 C462 874 447 896 443 896 C435 896 415 882 415 876 L415 876 Z M681 -14 L707 73 L504 671 L477 578 L681 -14 L681 -14 Z " />
<glyph glyph-name="Wacute" unicode="&#x1e82;" horiz-adv-x="976" d="M433 691 C433 691 512 780 543 820 C568 850 585 872 585 875 C585 881 565 895 556 895 C554 895 539 873 518 840 C487 800 428 695 428 695 L433 691 L433 691 Z M973 660 L779 660 L779 649 L805 648 C857 646 873 623 857 571 L680 -15 L694 -15 L874 571 C890 622 916 647 961 649 L973 650 L973 660 L973 660 Z M206 661 L-1 661 L-1 650 L8 649 C44 647 66 622 85 572 L286 -14 L300 -14 L503 671 L489 671 L310 68 L143 579 C130 625 146 647 194 649 L207 650 L206 661 L206 661 Z M681 -14 L707 73 L504 671 L477 578 L681 -14 L681 -14 Z " />
<glyph glyph-name="Wdieresis" unicode="&#x1e84;" horiz-adv-x="976" d="M616 761 C616 801 555 800 555 761 C555 721 616 720 616 761 L616 761 Z M437 761 C437 800 376 801 376 761 C376 720 437 721 437 761 L437 761 Z M973 660 L779 660 L779 649 L805 648 C857 646 873 623 857 571 L680 -15 L694 -15 L874 571 C890 622 916 647 961 649 L973 650 L973 660 L973 660 Z M206 661 L-1 661 L-1 650 L8 649 C44 647 66 622 85 572 L286 -14 L300 -14 L503 671 L489 671 L310 68 L143 579 C130 625 146 647 194 649 L207 650 L206 661 L206 661 Z M681 -14 L707 73 L504 671 L477 578 L681 -14 L681 -14 Z " />
<glyph glyph-name="Etilde" unicode="&#x1ebc;" horiz-adv-x="600" d="M135 755 C135 795 156 822 187 822 C248 822 328 759 389 759 C433 759 463 797 463 853 L455 853 C455 816 433 792 400 792 C339 792 259 855 198 855 C155 855 127 815 127 755 L135 755 L135 755 Z M514 149 L506 149 L492 123 C452 47 401 14 325 14 L171 14 L171 345 L288 345 C356 345 392 323 407 273 L411 260 L420 260 L420 434 L411 434 L407 423 C391 378 356 359 288 359 L171 359 L171 646 L318 646 C394 646 439 613 465 537 L474 511 L482 511 L482 660 L40 660 L40 649 L51 648 C96 646 115 622 115 571 L115 89 C115 38 96 14 51 12 L40 11 L40 0 L487 0 C494 46 506 103 514 149 L514 149 Z " />
<glyph glyph-name="Ygrave" unicode="&#x1ef2;" horiz-adv-x="627" d="M225 660 L19 660 L19 649 L28 648 C60 646 86 624 113 578 L291 260 L291 89 C291 38 272 14 227 12 L216 11 L216 0 L422 0 L422 11 L411 12 C366 14 347 38 347 89 L347 282 L347 282 L525 582 C553 626 582 647 619 649 L630 650 L630 661 L444 661 L444 650 L459 649 C519 647 527 617 489 552 L338 294 L183 572 C155 622 163 647 212 649 L224 650 L225 660 L225 660 Z M237 876 C237 871 254 850 280 821 C312 781 393 692 393 692 L398 696 C398 696 337 800 305 841 C284 874 269 896 265 896 C257 896 237 882 237 876 L237 876 Z " />
<glyph glyph-name="quoteleft" unicode="&#x2018;" horiz-adv-x="188" d="M69 512 L69 512 C75 505 84 501 95 501 C117 501 131 515 131 537 C131 562 110 579 83 571 C78 610 96 646 121 658 L117 666 C79 647 53 605 53 560 C53 540 59 521 68 511 L69 512 L69 512 Z " />
<glyph glyph-name="quoteright" unicode="&#x2019;" horiz-adv-x="188" d="M123 655 L123 655 C117 662 108 666 97 666 C75 666 61 652 61 630 C61 605 82 588 109 596 C114 557 96 521 71 509 L75 501 C113 520 139 562 139 607 C139 627 133 646 124 656 L123 655 L123 655 Z " />
<glyph glyph-name="quotedblleft" unicode="&#x201c;" horiz-adv-x="294" d="M175 512 L175 512 C181 505 190 501 201 501 C223 501 237 515 237 537 C237 562 216 579 189 571 C184 610 202 646 227 658 L223 666 C185 647 159 605 159 560 C159 540 165 521 174 511 L175 512 L175 512 Z M68 511 L68 511 C74 504 83 500 94 500 C116 500 130 514 130 536 C130 561 109 578 82 570 C77 609 95 645 120 657 L116 665 C78 646 52 604 52 559 C52 539 58 520 67 510 L68 511 L68 511 Z " />
<glyph glyph-name="quotedblright" unicode="&#x201d;" horiz-adv-x="294" d="M229 655 L229 655 C223 662 214 666 203 666 C181 666 167 652 167 630 C167 605 188 588 215 596 C220 557 202 521 177 509 L181 501 C219 520 245 562 245 607 C245 627 239 646 230 656 L229 655 L229 655 Z M124 656 L124 656 C118 663 109 667 98 667 C76 667 62 653 62 631 C62 606 83 589 110 597 C115 558 97 522 72 510 L76 502 C114 521 140 563 140 608 C140 628 134 647 125 657 L124 656 L124 656 Z " />
<glyph glyph-name="ellipsis" unicode="&#x2026;" horiz-adv-x="450" d="M375 0 C397 0 411 14 411 36 C411 58 397 72 375 72 C353 72 339 58 339 36 C339 14 353 0 375 0 L375 0 Z M225 0 C247 0 261 14 261 36 C261 58 247 72 225 72 C203 72 189 58 189 36 C189 14 203 0 225 0 L225 0 Z M75 0 C97 0 111 14 111 36 C111 58 97 72 75 72 C53 72 39 58 39 36 C39 14 53 0 75 0 L75 0 Z " />
<glyph glyph-name="guilsinglleft" unicode="&#x2039;" horiz-adv-x="318" d="M74 251 L271 459 L266 464 L20 254 L20 248 L267 37 L273 42 L74 251 L74 251 Z " />
<glyph glyph-name="guilsinglright" unicode="&#x203a;" horiz-adv-x="318" d="M51 37 L298 248 L298 254 L52 464 L47 459 L244 251 L45 42 L51 37 L51 37 Z " />
<glyph glyph-name="Euro" unicode="&#x20ac;" horiz-adv-x="782" d="M713 195 C709 184 703 168 699 157 C671 80 596 24 509 12 C489 10 469 9 449 9 C295 9 186 110 164 269 L498 269 L503 305 L161 305 C160 321 160 338 161 354 L503 354 L508 390 L164 390 C186 549 295 650 449 650 C456 650 533 647 533 644 C605 635 671 578 699 502 C703 491 709 475 713 464 L722 464 L722 602 L719 596 C719 598 721 600 722 602 C658 639 549 664 450 664 C262 664 130 557 104 390 L54 390 L49 354 L100 354 C99 338 99 321 100 305 L49 305 L44 269 L104 269 C130 102 262 -5 450 -5 C549 -5 658 20 722 57 L718 64 L718 64 L721 57 L721 195 L713 195 L713 195 Z " />
<glyph glyph-name="F_sc" unicode="&#xa730;" horiz-adv-x="459" d="M41 542 L52 541 C97 539 116 515 116 464 L116 89 C116 38 97 14 52 12 L41 11 L41 0 L251 0 L251 11 L238 12 C188 14 166 38 166 89 L166 285 L222 285 C290 285 326 263 341 213 L345 200 L354 200 L354 372 L345 372 L341 361 C325 316 290 297 222 297 L166 297 L166 541 L291 541 C367 541 412 508 438 432 L447 406 L455 406 L455 553 L41 553 L41 542 L41 542 Z " />
<glyph glyph-name="S_sc" unicode="&#xa731;" horiz-adv-x="462" d="M383 367 L383 507 L379 500 C380 502 382 504 383 506 C330 537 265 557 220 557 C119 557 52 495 52 402 C52 340 116 282 211 257 C313 230 381 175 381 120 C381 43 315 0 223 7 C155 15 93 69 65 146 C61 157 55 173 51 184 L42 184 L42 44 C95 13 177 -7 246 -7 C348 -7 416 51 416 139 C416 204 348 266 247 293 C150 319 86 370 86 421 C86 505 157 561 250 541 C289 530 325 495 342 450 C351 425 364 392 373 367 L383 367 L383 367 Z " />
<glyph glyph-name="X_sc" unicode="&#xf078;" horiz-adv-x="591" d="M246 553 L42 553 L42 542 L50 541 C85 539 115 515 150 464 C195 399 240 334 284 269 L163 78 C132 34 100 13 57 11 L45 10 L45 -1 L239 -1 L239 10 L224 11 C164 13 155 41 194 103 L291 258 L413 81 C443 35 434 13 385 11 L369 10 L369 -1 L573 -1 L573 10 L565 11 C530 13 500 37 465 88 L317 303 L433 465 C470 515 506 538 551 540 L563 541 L563 552 L369 552 L369 541 L394 540 C447 538 451 514 416 463 L310 312 L202 469 C172 515 181 537 230 539 L246 540 L246 553 L246 553 Z " />
</font>
</svg>
