<?xml version="1.0" encoding="UTF-8"?>
<svg xmlns="http://www.w3.org/2000/svg" xmlns:xlink="http://www.w3.org/1999/xlink" version="1.2" >
<font id="Zimra Black">
<font-face  font-family="Zimra" units-per-em="1024" ascent="936" descent="-280" font-style="normal" font-weight="900" font-stretch="normal" cap-height="660" x-height="500" underline-position="0" underline-thickness="0" />
<missing-glyph  horiz-adv-x="472" d="M0 700 C0 700 432 700 432 700 C432 700 432 0 432 0 C432 0 0 0 0 0 C0 0 0 700 0 700 L0 700 Z M50 50 C50 50 382 50 382 50 C382 50 382 650 382 650 C382 650 50 650 50 650 C50 650 50 50 50 50 L50 50 Z " />
<glyph glyph-name="NULL" d="" />
<glyph glyph-name="CR" unicode="&#xd;" horiz-adv-x="256" d="" />
<glyph glyph-name="space" unicode="&#x20;" horiz-adv-x="250" d="" />
<glyph glyph-name="exclam" unicode="&#x21;" horiz-adv-x="310" d="M168 -5 C211 -5 248 32 248 75 C248 118 211 155 168 155 C125 155 88 118 88 75 C88 32 125 -5 168 -5 L168 -5 Z M250 560 C262 617 220 665 158 665 C93 665 51 617 67 560 C67 560 158 230 158 230 C158 230 178 230 178 230 C178 230 250 560 250 560 L250 560 Z " />
<glyph glyph-name="quotedbl" unicode="&#x22;" horiz-adv-x="416" d="M223 660 C223 660 289 400 289 400 C289 400 309 400 309 400 C309 400 376 660 376 660 C376 660 223 660 223 660 L223 660 Z M39 660 C39 660 106 400 106 400 C106 400 126 400 126 400 C126 400 193 660 193 660 C193 660 39 660 39 660 L39 660 Z " />
<glyph glyph-name="numbersign" unicode="&#x23;" horiz-adv-x="579" d="M405 642 C405 642 385 518 385 518 C385 518 263 518 263 518 C263 518 283 642 283 642 C283 642 225 642 225 642 C225 642 205 518 205 518 C205 518 75 518 75 518 C75 518 59 402 59 402 C59 402 187 402 187 402 C187 402 164 258 164 258 C164 258 30 258 30 258 C30 258 14 142 14 142 C14 142 146 142 146 142 C146 142 123 0 123 0 C123 0 181 0 181 0 C181 0 204 142 204 142 C204 142 326 142 326 142 C326 142 303 0 303 0 C303 0 361 0 361 0 C361 0 384 142 384 142 C384 142 493 142 493 142 C493 142 509 258 509 258 C509 258 402 258 402 258 C402 258 425 402 425 402 C425 402 543 402 543 402 C543 402 560 518 560 518 C560 518 443 518 443 518 C443 518 463 642 463 642 C463 642 405 642 405 642 L405 642 Z M245 402 C245 402 367 402 367 402 C367 402 344 258 344 258 C344 258 222 258 222 258 C222 258 245 402 245 402 L245 402 Z " />
<glyph glyph-name="dollar" unicode="&#x24;" horiz-adv-x="517" d="M283 735 C283 735 283 664 283 664 C278 665 274 665 270 665 C261 665 252 664 243 664 C243 664 243 735 243 735 C243 735 203 735 203 735 C203 735 203 656 203 656 C106 629 33 545 33 450 C33 379 104 295 186 267 C192 265 197 263 203 261 C203 261 203 39 203 39 C144 52 81 105 58 164 C55 172 50 185 47 193 C47 193 37 193 37 193 C37 193 37 46 37 46 C37 46 53 69 53 69 C53 69 53 69 53 69 C53 69 37 46 37 46 C69 23 140 1 203 -4 C203 -4 203 -75 203 -75 C203 -75 243 -75 243 -75 C243 -75 243 -5 243 -5 C257 -4 270 -2 283 0 C283 0 283 -75 283 -75 C283 -75 323 -75 323 -75 C323 -75 323 11 323 11 C409 43 472 116 472 199 C472 271 405 356 323 389 C323 389 323 602 323 602 C355 580 385 545 398 510 C402 500 408 483 412 473 C412 473 423 473 423 473 C423 473 423 624 423 624 C423 624 410 599 410 599 C410 599 410 599 410 599 C410 599 423 624 423 624 C397 638 358 651 323 659 C323 659 323 735 323 735 C323 735 283 735 283 735 L283 735 Z M283 621 C283 621 283 404 283 404 C269 410 256 416 243 423 C243 423 243 623 243 623 C250 624 256 625 263 625 C268 625 274 624 281 622 C281 622 281 622 281 622 C282 622 282 622 283 621 L283 621 Z M203 447 C168 471 145 496 145 515 C145 554 169 589 203 609 C203 609 203 447 203 447 L203 447 Z M243 243 C257 236 271 228 283 220 C283 220 283 44 283 44 C271 40 257 37 243 35 C243 35 243 243 243 243 L243 243 Z M323 189 C344 169 357 149 357 132 C357 107 344 84 323 67 C323 67 323 189 323 189 L323 189 Z " />
<glyph glyph-name="ampersand" unicode="&#x26;" horiz-adv-x="743" d="M639 380 C639 380 452 380 452 380 C452 380 452 367 452 367 C452 367 464 367 464 367 C497 367 525 343 525 270 C525 270 525 240 525 240 C525 220 521 200 514 181 C491 206 465 235 438 268 C402 311 368 356 339 399 C416 433 472 494 472 551 C472 613 397 665 310 665 C222 665 148 586 148 493 C148 462 167 415 197 362 C113 314 49 229 49 156 C49 69 142 -5 252 -5 C329 -5 401 20 456 59 C557 -9 654 -16 743 0 C743 0 743 25 743 25 C706 18 647 42 538 156 C551 182 558 211 558 240 C558 240 558 270 558 270 C558 343 590 367 627 367 C627 367 639 367 639 367 C639 367 639 380 639 380 L639 380 Z M315 437 C284 489 264 533 264 560 C264 599 281 633 300 633 C330 633 356 592 356 543 C356 504 340 465 315 437 C315 437 315 437 315 437 L315 437 Z M423 83 C396 70 366 62 334 62 C258 62 192 132 192 213 C192 252 204 291 223 321 C253 274 290 224 329 177 C361 139 392 108 423 83 C423 83 423 83 423 83 L423 83 Z " />
<glyph glyph-name="quotesingle" unicode="&#x27;" horiz-adv-x="232" d="M39 660 C39 660 106 400 106 400 C106 400 126 400 126 400 C126 400 193 660 193 660 C193 660 39 660 39 660 L39 660 Z " />
<glyph glyph-name="parenleft" unicode="&#x28;" horiz-adv-x="318" d="M296 690 C168 616 59 469 59 270 C59 71 168 -76 296 -150 C296 -150 308 -128 308 -128 C237 -87 176 44 176 270 C176 496 237 627 308 668 C308 668 296 690 296 690 L296 690 Z " />
<glyph glyph-name="parenright" unicode="&#x29;" horiz-adv-x="318" d="M10 -150 C138 -76 247 71 247 270 C247 469 138 616 10 690 C10 690 -2 668 -2 668 C69 627 130 496 130 270 C130 44 69 -87 -2 -128 C-2 -128 10 -150 10 -150 L10 -150 Z " />
<glyph glyph-name="asterisk" unicode="&#x2a;" horiz-adv-x="300" d="M127 540 C127 540 23 520 23 520 C4 516 0 490 16 462 C31 435 56 425 69 440 C69 440 140 522 140 522 C140 522 104 420 104 420 C98 401 119 385 150 385 C181 385 202 401 196 420 C196 420 160 522 160 522 C160 522 231 440 231 440 C244 425 269 435 284 462 C300 490 296 516 277 520 C277 520 173 540 173 540 C173 540 277 560 277 560 C296 564 300 590 284 617 C269 645 244 655 231 640 C231 640 160 558 160 558 C160 558 196 660 196 660 C202 679 181 695 150 695 C119 695 98 679 104 660 C104 660 140 558 140 558 C140 558 69 640 69 640 C56 655 31 645 16 617 C0 590 4 564 23 560 C23 560 127 540 127 540 L127 540 Z " />
<glyph glyph-name="plus" unicode="&#x2b;" horiz-adv-x="555" d="M238 450 C238 450 238 283 238 283 C238 283 75 283 75 283 C75 283 75 217 75 217 C75 217 238 217 238 217 C238 217 238 50 238 50 C238 50 312 50 312 50 C312 50 312 217 312 217 C312 217 475 217 475 217 C475 217 475 283 475 283 C475 283 312 283 312 283 C312 283 312 450 312 450 C312 450 238 450 238 450 L238 450 Z " />
<glyph glyph-name="comma" unicode="&#x2c;" horiz-adv-x="282" d="M196 130 C196 130 196 130 196 130 C181 145 161 154 139 154 C97 154 60 117 60 74 C60 32 97 -5 139 -5 C148 -5 157 -3 166 0 C167 -5 167 -10 167 -14 C167 -74 128 -140 83 -157 C83 -157 89 -174 89 -174 C167 -145 233 -46 233 41 C233 69 216 109 196 130 C196 130 196 130 196 130 L196 130 Z " />
<glyph glyph-name="hyphen" unicode="&#x2d;" horiz-adv-x="280" d="M20 170 C20 170 260 170 260 170 C260 170 260 287 260 287 C260 287 20 287 20 287 C20 287 20 170 20 170 L20 170 Z " />
<glyph glyph-name="period" unicode="&#x2e;" horiz-adv-x="265" d="M125 -5 C168 -5 205 32 205 75 C205 118 168 155 125 155 C82 155 45 118 45 75 C45 32 82 -5 125 -5 L125 -5 Z " />
<glyph glyph-name="slash" unicode="&#x2f;" horiz-adv-x="376" d="M0 -145 C0 -145 67 -145 67 -145 C67 -145 377 710 377 710 C377 710 310 710 310 710 C310 710 0 -145 0 -145 L0 -145 Z " />
<glyph glyph-name="zero" unicode="0" horiz-adv-x="626" d="M313 28 C261 28 217 130 217 250 C217 370 261 472 313 472 C366 472 410 370 410 250 C410 130 366 28 313 28 L313 28 Z M50 250 C50 112 171 -5 313 -5 C456 -5 577 112 577 250 C577 388 456 505 313 505 C171 505 50 388 50 250 L50 250 Z " />
<glyph glyph-name="one" unicode="1" horiz-adv-x="381" d="M326 500 C326 500 266 500 266 500 C266 500 191 500 191 500 C191 500 116 500 116 500 C116 500 55 500 55 500 C55 500 55 487 55 487 C55 487 64 487 64 487 C92 487 116 449 116 404 C116 404 116 96 116 96 C116 51 92 13 64 13 C64 13 55 13 55 13 C55 13 55 0 55 0 C55 0 116 0 116 0 C116 0 191 0 191 0 C191 0 266 0 266 0 C266 0 326 0 326 0 C326 0 326 13 326 13 C326 13 317 13 317 13 C290 13 267 48 266 91 C266 91 266 96 266 96 C266 96 266 404 266 404 C266 404 266 409 266 409 C267 452 290 487 317 487 C317 487 326 487 326 487 C326 487 326 500 326 500 L326 500 Z " />
<glyph glyph-name="two" unicode="2" horiz-adv-x="490" d="M451 211 C451 211 450 202 450 202 C448 174 407 150 362 150 C362 150 256 150 256 150 C373 230 452 297 452 358 C452 437 373 505 279 505 C200 505 103 432 68 347 C68 347 87 336 87 336 C99 367 154 394 205 394 C248 394 284 354 284 307 C284 182 165 124 25 33 C25 33 25 0 25 0 C25 0 445 0 445 0 C445 0 452 75 452 75 C452 75 452 75 452 75 C455 112 460 174 463 211 C463 211 451 211 451 211 L451 211 Z " />
<glyph glyph-name="three" unicode="3" horiz-adv-x="478" d="M23 -215 C242 -204 429 -85 429 42 C429 112 364 174 275 199 C355 251 408 312 408 362 C408 439 334 505 248 505 C174 505 63 434 8 352 C8 352 25 339 25 339 C46 370 113 396 172 396 C218 396 258 358 258 314 C258 279 239 241 208 210 C202 210 197 210 191 210 C198 210 203 209 207 208 C185 186 159 167 130 154 C121 150 111 147 101 143 C101 143 101 118 101 118 C104 119 106 120 109 121 C126 126 147 130 157 130 C219 130 271 86 271 34 C271 -80 156 -183 21 -190 C21 -190 23 -215 23 -215 L23 -215 Z " />
<glyph glyph-name="four" unicode="4" horiz-adv-x="490" d="M81 67 C81 67 222 257 222 257 C222 257 221 256 221 256 C221 256 221 67 221 67 C221 67 81 67 81 67 L81 67 Z M221 0 C221 0 221 -150 221 -150 C221 -150 371 -150 371 -150 C371 -150 371 0 371 0 C371 0 481 0 481 0 C481 0 481 67 481 67 C481 67 371 67 371 67 C371 67 371 460 371 460 C371 460 371 505 371 505 C371 505 346 505 346 505 C346 505 -5 26 -5 26 C-5 26 -5 0 -5 0 C-5 0 30 0 30 0 C30 0 32 0 32 0 C32 0 221 0 221 0 L221 0 Z " />
<glyph glyph-name="five" unicode="5" horiz-adv-x="465" d="M399 500 C399 500 399 500 399 500 C406 522 413 544 419 561 C419 561 406 561 406 561 C406 561 403 552 403 552 C394 524 348 500 303 500 C303 500 126 500 126 500 C126 500 81 500 81 500 C81 500 61 147 61 147 C61 147 100 147 100 147 C189 145 265 99 265 44 C265 -58 157 -149 30 -154 C30 -154 31 -182 31 -182 C239 -175 416 -49 416 93 C416 202 303 295 170 295 C170 295 111 295 111 295 C111 295 100 147 100 147 C100 147 114 342 114 342 C114 342 348 342 348 342 C348 342 399 500 399 500 L399 500 Z " />
<glyph glyph-name="six" unicode="6" horiz-adv-x="567" d="M478 715 C243 707 42 512 42 290 C42 131 146 -5 268 -5 C409 -5 524 97 518 217 C518 334 425 434 316 434 C269 434 238 413 219 378 C234 545 348 685 479 690 C479 690 478 715 478 715 L478 715 Z M216 144 C217 279 224 393 291 393 C328 393 360 308 360 209 C365 116 330 37 284 37 C247 37 216 86 216 144 L216 144 Z " />
<glyph glyph-name="seven" unicode="7" horiz-adv-x="446" d="M24 286 C24 286 25 295 25 295 C27 323 68 347 113 347 C113 347 374 347 374 347 C374 347 103 -140 103 -140 C103 -140 270 -140 270 -140 C325 69 380 278 436 486 C436 486 425 500 425 500 C425 500 30 500 30 500 C30 500 23 423 23 423 C23 423 23 423 23 423 C20 386 14 323 11 286 C11 286 24 286 24 286 L24 286 Z " />
<glyph glyph-name="eight" unicode="8" horiz-adv-x="539" d="M315 394 C305 399 295 403 285 407 C237 425 195 488 195 544 C195 592 223 633 255 633 C296 633 331 570 331 497 C331 459 325 422 315 394 C315 394 315 394 315 394 L315 394 Z M362 368 C417 404 456 463 456 521 C456 599 367 665 263 665 C159 665 70 582 70 485 C70 425 104 359 152 313 C87 285 41 226 41 159 C41 70 144 -5 265 -5 C387 -5 490 81 490 183 C490 244 436 317 362 368 C362 368 362 368 362 368 L362 368 Z M197 278 C209 271 220 265 232 261 C295 238 349 179 349 132 C349 75 314 27 273 27 C224 27 182 99 182 184 C182 220 188 253 197 278 C197 278 197 278 197 278 L197 278 Z " />
<glyph glyph-name="nine" unicode="9" horiz-adv-x="567" d="M90 -215 C325 -207 526 -12 526 210 C526 369 422 505 300 505 C159 505 43 403 50 283 C50 166 143 66 252 66 C299 66 330 87 349 122 C334 -45 220 -185 89 -190 C89 -190 90 -215 90 -215 L90 -215 Z M351 356 C351 221 343 107 276 107 C239 107 208 192 208 291 C203 384 238 463 283 463 C320 463 352 414 351 356 L351 356 Z " />
<glyph glyph-name="colon" unicode="&#x3a;" horiz-adv-x="265" d="M125 385 C168 385 205 422 205 465 C205 508 168 545 125 545 C82 545 45 508 45 465 C45 422 82 385 125 385 L125 385 Z M125 -5 C168 -5 205 32 205 75 C205 118 168 155 125 155 C82 155 45 118 45 75 C45 32 82 -5 125 -5 L125 -5 Z " />
<glyph glyph-name="semicolon" unicode="&#x3b;" horiz-adv-x="282" d="M139 411 C182 411 219 447 219 490 C219 533 182 569 139 569 C97 569 60 533 60 490 C60 447 97 411 139 411 L139 411 Z M196 130 C196 130 196 130 196 130 C181 145 161 154 139 154 C97 154 60 117 60 74 C60 32 97 -5 139 -5 C148 -5 157 -3 166 0 C167 -5 167 -10 167 -14 C167 -74 128 -140 83 -157 C83 -157 89 -174 89 -174 C167 -145 233 -46 233 41 C233 69 216 109 196 130 C196 130 196 130 196 130 L196 130 Z " />
<glyph glyph-name="less" unicode="&#x3c;" horiz-adv-x="540" d="M465 500 C465 500 50 319 50 319 C50 319 40 315 40 315 C40 315 40 235 40 235 C40 235 50 231 50 231 C50 231 465 50 465 50 C465 50 465 125 465 125 C465 125 105 275 105 275 C105 275 465 425 465 425 C465 425 465 500 465 500 L465 500 Z " />
<glyph glyph-name="equal" unicode="&#x3d;" horiz-adv-x="543" d="M93 233 C93 233 93 167 93 167 C93 167 473 167 473 167 C473 167 473 233 473 233 C473 233 93 233 93 233 L93 233 Z M93 333 C93 333 93 267 93 267 C93 267 473 267 473 267 C473 267 473 333 473 333 C473 333 93 333 93 333 L93 333 Z " />
<glyph glyph-name="greater" unicode="&#x3e;" horiz-adv-x="530" d="M420 275 C420 275 75 125 75 125 C75 125 75 50 75 50 C75 50 473 231 473 231 C473 231 490 239 490 239 C490 239 490 311 490 311 C490 311 473 319 473 319 C473 319 75 500 75 500 C75 500 75 425 75 425 C75 425 420 275 420 275 L420 275 Z " />
<glyph glyph-name="question" unicode="&#x3f;" horiz-adv-x="374" d="M137 -5 C180 -5 217 32 217 75 C217 118 180 155 137 155 C94 155 57 118 57 75 C57 32 94 -5 137 -5 L137 -5 Z M105 383 C96 383 91 372 94 360 C94 360 127 235 127 235 C127 235 147 235 147 235 C147 235 156 268 156 268 C156 268 191 268 191 268 C304 268 340 358 340 400 C340 543 236 665 114 665 C114 665 114 665 114 664 C114 664 114 665 114 665 C70 665 32 623 32 575 C32 540 62 510 97 510 C120 510 138 548 161 548 C239 548 305 488 305 417 C305 406 265 383 140 383 C140 383 105 383 105 383 L105 383 Z " />
<glyph glyph-name="at" unicode="&#x40;" horiz-adv-x="1198" d="M1036 0 C978 -125 791 -232 629 -232 C383 -232 173 -6 173 259 C173 524 369 750 600 750 C830 750 1027 563 1027 343 C1027 165 951 13 862 13 C817 13 801 99 826 200 C826 200 896 480 896 480 C896 480 754 480 754 480 C754 480 739 420 739 420 C714 461 662 490 605 490 C425 490 273 349 273 183 C273 83 359 -1 459 -1 C545 -1 632 40 680 96 C695 17 754 -39 835 -39 C1001 -39 1143 137 1143 343 C1143 585 893 791 600 791 C306 791 56 546 56 259 C56 -28 320 -273 629 -273 C807 -273 1018 -147 1086 0 C1086 0 1036 0 1036 0 L1036 0 Z M723 356 C723 356 684 200 684 200 C668 136 601 82 537 82 C483 82 437 142 437 211 C437 339 512 448 601 448 C667 448 722 406 723 356 L723 356 Z " />
<glyph glyph-name="A" unicode="A" horiz-adv-x="772" d="M736 13 C736 13 728 13 728 13 C702 13 663 51 642 96 C642 96 642 96 642 96 C642 96 369 675 369 675 C369 675 329 675 329 675 C329 675 104 87 104 87 C86 46 50 13 25 13 C25 13 16 13 16 13 C16 13 16 0 16 0 C16 0 71 0 71 0 C71 0 98 0 98 0 C98 0 125 0 125 0 C125 0 214 0 214 0 C214 0 214 13 214 13 C214 13 201 13 201 13 C163 13 147 55 163 106 C163 106 206 223 206 223 C206 223 408 223 408 223 C408 223 467 96 467 96 C467 96 466 96 466 96 C487 51 475 13 439 13 C439 13 428 13 428 13 C428 13 428 0 428 0 C428 0 511 0 511 0 C511 0 599 0 599 0 C599 0 687 0 687 0 C687 0 736 0 736 0 C736 0 736 13 736 13 L736 13 Z M389 263 C389 263 220 264 220 264 C220 264 295 469 295 469 C295 469 389 263 389 263 L389 263 Z " />
<glyph glyph-name="B" unicode="B" horiz-adv-x="689" d="M4 647 C4 647 13 647 13 647 C40 647 64 609 64 564 C64 564 64 96 64 96 C64 51 40 13 13 13 C13 13 4 13 4 13 C4 13 4 0 4 0 C4 0 64 0 64 0 C64 0 145 0 145 0 C145 0 226 0 226 0 C226 0 363 0 363 0 C529 0 670 83 670 181 C670 260 568 328 434 348 C538 373 613 429 613 493 C613 583 487 660 338 660 C338 660 226 660 226 660 C226 660 145 660 145 660 C145 660 64 660 64 660 C64 660 4 660 4 660 C4 660 4 647 4 647 L4 647 Z M226 359 C226 359 226 618 226 618 C226 618 338 618 338 618 C399 618 451 561 451 493 C451 421 389 359 316 359 C316 359 226 359 226 359 L226 359 Z M226 320 C226 320 308 320 308 320 C412 320 500 256 500 181 C500 106 429 42 346 42 C346 42 226 42 226 42 C226 42 226 320 226 320 L226 320 Z " />
<glyph glyph-name="C" unicode="C" horiz-adv-x="760" d="M701 473 C701 473 701 611 701 611 C647 640 530 665 446 665 C222 665 32 511 32 330 C32 149 222 -5 446 -5 C537 -5 655 25 702 59 C702 59 702 194 702 194 C702 194 691 194 691 194 C688 186 683 172 680 165 C656 101 562 42 474 36 C474 36 474 36 474 36 C464 35 455 35 446 35 C319 35 211 171 211 330 C211 489 319 625 446 625 C466 625 488 623 510 621 C510 621 510 620 510 620 C580 612 658 558 679 502 C682 495 687 481 690 473 C690 473 701 473 701 473 L701 473 Z " />
<glyph glyph-name="D" unicode="D" horiz-adv-x="803" d="M25 647 C25 647 34 647 34 647 C61 647 85 609 85 564 C85 564 85 96 85 96 C85 51 61 13 34 13 C34 13 25 13 25 13 C25 13 25 0 25 0 C25 0 85 0 85 0 C85 0 166 0 166 0 C166 0 247 0 247 0 C247 0 385 0 385 0 C584 0 754 152 754 330 C754 508 568 660 350 660 C350 660 247 660 247 660 C247 660 166 660 166 660 C166 660 85 660 85 660 C85 660 25 660 25 660 C25 660 25 647 25 647 L25 647 Z M247 42 C247 42 247 618 247 618 C247 618 350 618 350 618 C481 618 592 486 592 330 C592 174 497 42 385 42 C385 42 247 42 247 42 L247 42 Z " />
<glyph glyph-name="E" unicode="E" horiz-adv-x="649" d="M484 253 C484 253 484 322 484 322 C484 322 484 342 484 342 C484 342 484 363 484 363 C484 363 484 423 484 423 C484 423 473 423 473 423 C473 423 471 414 471 414 C462 387 409 364 352 363 C352 363 345 363 345 363 C345 363 254 363 254 363 C254 363 254 620 254 620 C254 620 394 620 394 620 C458 620 527 577 544 527 C544 527 550 510 550 510 C550 510 559 510 559 510 C559 510 559 640 559 640 C559 640 559 660 559 660 C559 660 539 660 539 660 C539 660 463 660 463 660 C463 660 254 660 254 660 C254 660 173 660 173 660 C173 660 92 660 92 660 C92 660 31 660 31 660 C31 660 31 647 31 647 C31 647 40 647 40 647 C68 647 92 609 92 564 C92 564 92 96 92 96 C92 51 68 13 40 13 C40 13 31 13 31 13 C31 13 31 0 31 0 C31 0 92 0 92 0 C92 0 173 0 173 0 C173 0 254 0 254 0 C254 0 459 0 459 0 C459 0 549 0 549 0 C549 0 555 0 555 0 C556 5 558 15 558 20 C565 55 575 115 581 150 C581 150 572 150 572 150 C572 150 564 133 564 133 C538 83 462 41 397 40 C397 40 254 40 254 40 C254 40 254 322 254 322 C254 322 345 322 345 322 C404 322 462 295 471 264 C471 264 473 253 473 253 C473 253 484 253 484 253 L484 253 Z " />
<glyph glyph-name="F" unicode="F" horiz-adv-x="588" d="M484 248 C484 248 484 317 484 317 C484 317 484 337 484 337 C484 337 484 358 484 358 C484 358 484 418 484 418 C484 418 473 418 473 418 C473 418 471 409 471 409 C462 381 404 358 345 358 C345 358 264 358 264 358 C264 358 264 620 264 620 C264 620 434 620 434 620 C498 620 567 577 584 527 C584 527 590 510 590 510 C590 510 599 510 599 510 C599 510 599 640 599 640 C599 640 599 660 599 660 C599 660 579 660 579 660 C579 660 503 660 503 660 C503 660 264 660 264 660 C264 660 183 660 183 660 C183 660 102 660 102 660 C102 660 41 660 41 660 C41 660 41 647 41 647 C41 647 50 647 50 647 C78 647 102 609 102 564 C102 564 102 96 102 96 C102 51 78 13 50 13 C50 13 41 13 41 13 C41 13 41 0 41 0 C41 0 102 0 102 0 C102 0 183 0 183 0 C183 0 264 0 264 0 C264 0 334 0 334 0 C334 0 334 13 334 13 C334 13 324 13 324 13 C291 13 264 51 264 96 C264 96 264 317 264 317 C264 317 345 317 345 317 C404 317 462 290 471 259 C471 259 473 248 473 248 C473 248 484 248 484 248 L484 248 Z " />
<glyph glyph-name="G" unicode="G" horiz-adv-x="761" d="M747 310 C747 310 687 310 687 310 C687 310 614 310 614 310 C614 310 541 310 541 310 C541 310 480 310 480 310 C480 310 480 297 480 297 C480 297 489 297 489 297 C517 297 541 259 541 214 C541 214 541 46 541 46 C505 39 468 35 436 35 C314 35 211 171 211 330 C211 489 314 625 436 625 C452 625 470 624 489 622 C489 622 489 621 489 621 C560 613 638 558 659 502 C662 495 667 481 670 473 C670 473 681 473 681 473 C681 473 681 611 681 611 C627 640 514 665 436 665 C218 665 32 511 32 330 C32 149 218 -5 436 -5 C518 -5 634 21 687 51 C687 51 687 214 687 214 C687 214 687 219 687 219 C688 262 711 297 738 297 C738 297 747 297 747 297 C747 297 747 310 747 310 L747 310 Z " />
<glyph glyph-name="H" unicode="H" horiz-adv-x="766" d="M709 660 C709 660 648 660 648 660 C648 660 567 660 567 660 C567 660 486 660 486 660 C486 660 426 660 426 660 C426 660 426 647 426 647 C426 647 435 647 435 647 C462 647 486 609 486 564 C486 564 486 332 486 332 C486 332 245 332 245 332 C245 332 245 564 245 564 C245 609 268 647 296 647 C296 647 305 647 305 647 C305 647 305 660 305 660 C305 660 245 660 245 660 C245 660 164 660 164 660 C164 660 83 660 83 660 C83 660 22 660 22 660 C22 660 22 647 22 647 C22 647 31 647 31 647 C59 647 83 609 83 564 C83 564 83 96 83 96 C83 51 59 13 31 13 C31 13 22 13 22 13 C22 13 22 0 22 0 C22 0 83 0 83 0 C83 0 164 0 164 0 C164 0 245 0 245 0 C245 0 305 0 305 0 C305 0 305 13 305 13 C305 13 296 13 296 13 C268 13 245 51 245 96 C245 96 245 292 245 292 C245 292 486 292 486 292 C486 292 486 96 486 96 C486 51 462 13 435 13 C435 13 426 13 426 13 C426 13 426 0 426 0 C426 0 486 0 486 0 C486 0 567 0 567 0 C567 0 648 0 648 0 C648 0 709 0 709 0 C709 0 709 13 709 13 C709 13 700 13 700 13 C672 13 648 51 648 96 C648 96 648 564 648 564 C648 609 672 647 700 647 C700 647 709 647 709 647 C709 647 709 660 709 660 L709 660 Z " />
<glyph glyph-name="I" unicode="I" horiz-adv-x="354" d="M315 660 C315 660 254 660 254 660 C254 660 173 660 173 660 C173 660 92 660 92 660 C92 660 31 660 31 660 C31 660 31 647 31 647 C31 647 40 647 40 647 C68 647 92 609 92 564 C92 564 92 96 92 96 C92 51 68 13 40 13 C40 13 31 13 31 13 C31 13 31 0 31 0 C31 0 92 0 92 0 C92 0 173 0 173 0 C173 0 254 0 254 0 C254 0 315 0 315 0 C315 0 315 13 315 13 C315 13 305 13 305 13 C278 13 254 51 254 96 C254 96 254 564 254 564 C254 609 278 647 305 647 C305 647 315 647 315 647 C315 647 315 660 315 660 L315 660 Z " />
<glyph glyph-name="J" unicode="J" horiz-adv-x="478" d="M448 660 C448 660 388 660 388 660 C388 660 307 660 307 660 C307 660 226 660 226 660 C226 660 165 660 165 660 C165 660 165 647 165 647 C165 647 174 647 174 647 C202 647 226 609 226 564 C226 564 226 200 226 200 C226 86 214 24 193 24 C168 24 145 51 141 83 C137 119 103 150 66 150 C27 150 -4 119 0 83 C5 33 74 -10 151 -10 C305 -10 388 112 388 336 C388 336 388 564 388 564 C388 609 411 647 439 647 C439 647 448 647 448 647 C448 647 448 660 448 660 L448 660 Z " />
<glyph glyph-name="K" unicode="K" horiz-adv-x="692" d="M428 647 C428 647 436 647 436 647 C457 647 446 614 412 574 C412 574 218 355 218 355 C218 355 218 564 218 564 C218 609 242 647 270 647 C270 647 279 647 279 647 C279 647 279 660 279 660 C279 660 218 660 218 660 C218 660 137 660 137 660 C137 660 56 660 56 660 C56 660 -4 660 -4 660 C-4 660 -4 647 -4 647 C-4 647 5 647 5 647 C32 647 56 609 56 564 C56 564 56 96 56 96 C56 51 32 13 5 13 C5 13 -4 13 -4 13 C-4 13 -4 0 -4 0 C-4 0 56 0 56 0 C56 0 137 0 137 0 C137 0 218 0 218 0 C218 0 279 0 279 0 C279 0 279 13 279 13 C279 13 270 13 270 13 C242 13 218 51 218 96 C218 96 218 355 218 355 C218 355 378 86 378 86 C413 27 501 -5 627 -5 C627 -5 683 -5 683 -5 C683 -5 683 28 683 28 C683 28 678 28 678 28 C625 28 559 92 489 210 C489 210 351 442 351 442 C351 442 461 564 461 564 C461 564 461 564 461 564 C501 609 560 647 588 647 C588 647 597 647 597 647 C597 647 597 660 597 660 C597 660 547 660 547 660 C547 660 518 660 518 660 C518 660 489 660 489 660 C489 660 428 660 428 660 C428 660 428 647 428 647 L428 647 Z " />
<glyph glyph-name="L" unicode="L" horiz-adv-x="639" d="M557 162 C557 162 549 144 549 144 C526 88 456 41 397 40 C397 40 244 40 244 40 C244 40 244 564 244 564 C244 609 267 647 295 647 C295 647 304 647 304 647 C304 647 304 660 304 660 C304 660 244 660 244 660 C244 660 163 660 163 660 C163 660 82 660 82 660 C82 660 21 660 21 660 C21 660 21 647 21 647 C21 647 30 647 30 647 C58 647 82 609 82 564 C82 564 82 96 82 96 C82 51 58 13 30 13 C30 13 21 13 21 13 C21 13 21 0 21 0 C21 0 82 0 82 0 C82 0 163 0 163 0 C163 0 244 0 244 0 C244 0 449 0 449 0 C449 0 539 0 539 0 C539 0 545 0 545 0 C546 5 548 15 548 20 C555 57 566 119 572 156 C566 158 557 162 557 162 L557 162 Z " />
<glyph glyph-name="M" unicode="M" horiz-adv-x="898" d="M890 13 C890 13 881 13 881 13 C856 13 832 44 826 83 C826 83 804 574 804 574 C805 614 825 647 851 647 C851 647 860 647 860 647 C859 647 859 650 860 654 C859 657 859 660 860 660 C860 660 800 660 800 660 C800 660 727 660 727 660 C727 660 712 660 712 660 C712 660 654 660 654 660 C654 660 466 184 466 184 C466 184 464 188 464 188 C464 188 235 660 235 660 C235 660 163 660 163 660 C163 660 139 660 139 660 C139 660 115 660 115 660 C115 660 54 660 54 660 C54 660 54 647 54 647 C54 647 63 647 63 647 C91 647 113 609 111 564 C111 564 111 564 111 564 C111 564 94 96 94 96 C94 96 93 96 93 96 C91 51 66 13 38 13 C38 13 29 13 29 13 C29 13 29 0 29 0 C29 0 90 0 90 0 C90 0 114 0 114 0 C114 0 138 0 138 0 C138 0 227 0 227 0 C227 0 227 13 227 13 C227 13 214 13 214 13 C174 13 143 55 142 106 C142 106 155 462 155 462 C155 462 353 70 353 70 C353 70 391 -5 391 -5 C391 -5 431 -5 431 -5 C431 -5 657 529 657 529 C657 529 666 95 666 95 C666 50 644 13 616 13 C616 13 607 13 607 13 C607 13 607 0 607 0 C607 0 668 0 668 0 C668 0 749 0 749 0 C749 0 830 0 830 0 C830 0 890 0 890 0 C890 0 890 13 890 13 L890 13 Z " />
<glyph glyph-name="N" unicode="N" horiz-adv-x="682" d="M665 660 C665 660 604 660 604 660 C604 660 580 660 580 660 C580 660 556 660 556 660 C556 660 495 660 495 660 C495 660 495 647 495 647 C495 647 504 647 504 647 C532 647 556 609 556 564 C556 564 556 236 556 236 C556 236 239 660 239 660 C239 660 144 660 144 660 C144 660 120 660 120 660 C120 660 95 660 95 660 C95 660 35 660 35 660 C35 660 35 647 35 647 C35 647 44 647 44 647 C72 647 95 609 95 564 C95 564 95 96 95 96 C95 51 72 13 44 13 C44 13 35 13 35 13 C35 13 35 0 35 0 C35 0 95 0 95 0 C95 0 120 0 120 0 C120 0 144 0 144 0 C144 0 205 0 205 0 C205 0 205 13 205 13 C205 13 196 13 196 13 C168 13 144 51 144 96 C144 96 144 517 144 517 C144 517 482 70 482 70 C482 70 550 -20 550 -20 C550 -20 604 -20 604 -20 C604 -20 604 129 604 129 C604 129 604 564 604 564 C604 609 628 647 656 647 C656 647 665 647 665 647 C665 647 665 660 665 660 L665 660 Z " />
<glyph glyph-name="O" unicode="O" horiz-adv-x="759" d="M371 35 C276 35 211 187 211 330 C211 473 276 625 371 625 C466 625 531 473 531 330 C531 187 466 35 371 35 L371 35 Z M32 330 C32 167 169 -5 371 -5 C572 -5 709 167 709 330 C709 493 572 665 371 665 C169 665 32 493 32 330 L32 330 Z " />
<glyph glyph-name="P" unicode="P" horiz-adv-x="582" d="M-5 647 C-5 647 4 647 4 647 C31 647 55 609 55 564 C55 564 55 96 55 96 C55 51 31 13 4 13 C4 13 -5 13 -5 13 C-5 13 -5 0 -5 0 C-5 0 55 0 55 0 C55 0 136 0 136 0 C136 0 217 0 217 0 C217 0 278 0 278 0 C278 0 278 13 278 13 C278 13 269 13 269 13 C241 13 217 51 217 96 C217 96 217 282 217 282 C217 282 287 282 287 282 C436 282 563 370 563 473 C563 574 444 660 305 660 C305 660 217 660 217 660 C217 660 136 660 136 660 C136 660 55 660 55 660 C55 660 -5 660 -5 660 C-5 660 -5 647 -5 647 L-5 647 Z M217 324 C217 324 217 618 217 618 C217 618 305 618 305 618 C352 618 393 552 393 473 C393 393 344 324 287 324 C287 324 217 324 217 324 L217 324 Z " />
<glyph glyph-name="Q" unicode="Q" horiz-adv-x="759" d="M805 5 C805 5 786 12 786 12 C776 -15 704 -38 630 -38 C525 -38 444 -24 398 -4 C584 11 709 174 709 330 C709 493 572 665 371 665 C169 665 32 493 32 330 C32 179 150 20 328 -2 C414 -82 527 -146 612 -146 C687 -146 775 -76 805 5 L805 5 Z M371 35 C276 35 211 187 211 330 C211 473 276 625 371 625 C466 625 531 473 531 330 C531 187 466 35 371 35 L371 35 Z " />
<glyph glyph-name="R" unicode="R" horiz-adv-x="785" d="M25 647 C25 647 34 647 34 647 C61 647 85 609 85 564 C85 564 85 96 85 96 C85 51 61 13 34 13 C34 13 25 13 25 13 C25 13 25 0 25 0 C25 0 85 0 85 0 C85 0 166 0 166 0 C166 0 247 0 247 0 C247 0 308 0 308 0 C308 0 308 13 308 13 C308 13 299 13 299 13 C271 13 247 51 247 96 C247 96 247 301 247 301 C247 301 306 301 306 301 C306 301 446 106 446 106 C511 14 547 0 711 0 C711 0 766 0 766 0 C766 0 766 33 766 33 C766 33 761 33 761 33 C712 33 700 39 673 74 C673 74 487 326 487 326 C578 359 641 419 641 485 C641 580 511 660 359 660 C359 660 247 660 247 660 C247 660 166 660 166 660 C166 660 85 660 85 660 C85 660 25 660 25 660 C25 660 25 647 25 647 L25 647 Z M336 342 C336 342 276 342 276 342 C276 342 247 342 247 342 C247 342 247 618 247 618 C247 618 359 618 359 618 C419 618 471 557 471 485 C471 408 409 342 336 342 L336 342 Z " />
<glyph glyph-name="S" unicode="S" horiz-adv-x="498" d="M18 193 C18 193 18 46 18 46 C18 46 34 69 34 69 C34 69 34 69 34 69 C34 69 18 46 18 46 C55 19 144 -5 212 -5 C342 -5 453 89 453 199 C453 274 380 364 293 393 C203 424 126 480 126 515 C126 574 180 625 244 625 C249 625 255 624 262 622 C262 622 262 622 262 622 C307 611 361 560 379 510 C383 500 389 483 393 473 C393 473 404 473 404 473 C404 473 404 624 404 624 C404 624 391 599 391 599 C391 599 391 599 391 599 C391 599 404 624 404 624 C364 646 293 665 251 665 C123 665 14 566 14 450 C14 379 85 295 167 267 C260 236 338 174 338 132 C338 80 280 35 212 35 C210 35 207 35 205 35 C205 35 205 36 205 36 C141 39 65 98 39 164 C36 172 31 185 28 193 C28 193 18 193 18 193 L18 193 Z " />
<glyph glyph-name="T" unicode="T" horiz-adv-x="620" d="M634 498 C631 536 625 602 622 640 C621 645 621 655 620 660 C620 660 580 660 580 660 C580 660 524 660 524 660 C524 660 96 660 96 660 C96 660 40 660 40 660 C40 660 0 660 0 660 C-1 655 -1 645 -2 640 C-5 602 -11 536 -14 498 C-14 498 -4 498 -4 498 C-4 498 5 521 5 521 C27 574 92 620 145 620 C145 620 229 620 229 620 C229 620 229 96 229 96 C229 51 205 13 177 13 C177 13 168 13 168 13 C168 13 168 0 168 0 C168 0 229 0 229 0 C229 0 310 0 310 0 C310 0 391 0 391 0 C391 0 452 0 452 0 C452 0 452 13 452 13 C452 13 443 13 443 13 C415 13 391 51 391 96 C391 96 391 620 391 620 C391 620 475 620 475 620 C528 620 593 574 615 521 C615 521 624 498 624 498 C624 498 634 498 634 498 L634 498 Z " />
<glyph glyph-name="U" unicode="U" horiz-adv-x="729" d="M680 660 C680 660 612 660 612 660 C612 660 587 660 587 660 C587 660 562 660 562 660 C562 660 489 660 489 660 C489 660 489 647 489 647 C489 647 500 647 500 647 C531 647 559 608 562 562 C562 562 561 211 561 211 C561 125 495 52 373 52 C285 52 237 117 237 193 C237 193 237 564 237 564 C237 609 261 647 289 647 C289 647 298 647 298 647 C298 647 298 660 298 660 C298 660 237 660 237 660 C237 660 156 660 156 660 C156 660 75 660 75 660 C75 660 15 660 15 660 C15 660 15 647 15 647 C15 647 24 647 24 647 C51 647 75 609 75 564 C75 564 75 225 75 225 C75 101 171 -5 349 -5 C519 -5 612 87 612 195 C612 195 612 554 612 554 C612 554 612 559 612 559 C613 607 639 647 670 647 C670 647 680 647 680 647 C680 647 680 660 680 660 L680 660 Z " />
<glyph glyph-name="V" unicode="V" horiz-adv-x="753" d="M722 660 C722 660 667 660 667 660 C667 660 642 660 642 660 C642 660 617 660 617 660 C617 660 520 660 520 660 C519 660 519 657 520 654 C519 650 519 647 520 647 C520 647 533 647 533 647 C576 647 593 595 570 534 C570 534 571 534 571 534 C571 534 446 196 446 196 C446 196 271 564 271 564 C271 564 271 564 271 564 C249 609 260 647 295 647 C295 647 306 647 306 647 C306 647 306 660 306 660 C306 660 225 660 225 660 C225 660 136 660 136 660 C136 660 47 660 47 660 C47 660 4 660 4 660 C5 660 5 657 4 654 C5 650 5 647 4 647 C4 647 12 647 12 647 C33 647 66 614 89 573 C89 573 368 -15 368 -15 C368 -15 410 -15 410 -15 C410 -15 635 575 635 575 C653 615 688 647 713 647 C713 647 722 647 722 647 C722 647 722 660 722 660 L722 660 Z " />
<glyph glyph-name="W" unicode="W" horiz-adv-x="1082" d="M1049 660 C1049 660 992 660 992 660 C992 660 967 660 967 660 C967 660 942 660 942 660 C942 660 857 660 857 660 C857 660 857 647 857 647 C857 647 869 647 869 647 C906 647 926 609 912 564 C912 564 913 564 913 564 C913 564 810 229 810 229 C810 229 611 670 611 670 C611 670 570 670 570 670 C570 670 416 211 416 211 C416 211 280 564 280 564 C280 564 280 564 280 564 C263 609 275 647 306 647 C306 647 316 647 316 647 C316 647 316 660 316 660 C316 660 243 660 243 660 C243 660 154 660 154 660 C154 660 65 660 65 660 C65 660 22 660 22 660 C22 660 22 647 22 647 C22 647 29 647 29 647 C51 647 86 609 104 564 C104 564 104 564 104 564 C104 564 340 -15 340 -15 C340 -15 381 -15 381 -15 C381 -15 611 670 611 670 C611 670 525 412 525 412 C525 412 735 -15 735 -15 C735 -15 777 -15 777 -15 C777 -15 964 573 964 573 C981 614 1014 647 1039 647 C1039 647 1049 647 1049 647 C1049 647 1049 660 1049 660 L1049 660 Z " />
<glyph glyph-name="X" unicode="X" horiz-adv-x="747" d="M693 660 C693 660 641 660 641 660 C641 660 610 660 610 660 C610 660 578 660 578 660 C578 660 489 660 489 660 C490 660 490 657 489 654 C490 650 490 647 489 647 C489 647 501 647 501 647 C538 647 542 609 510 564 C510 564 511 564 511 564 C511 564 403 410 403 410 C403 410 299 564 299 564 C299 564 299 564 299 564 C268 609 271 647 304 647 C304 647 315 647 315 647 C315 647 315 660 315 660 C315 660 234 660 234 660 C234 660 141 660 141 660 C141 660 49 660 49 660 C49 660 13 660 13 660 C13 660 13 647 13 647 C13 647 20 647 20 647 C39 647 78 613 109 572 C109 572 289 305 289 305 C289 305 126 85 126 85 C92 45 46 13 20 13 C20 13 11 13 11 13 C11 13 11 0 11 0 C11 0 62 0 62 0 C62 0 92 0 92 0 C92 0 122 0 122 0 C122 0 211 0 211 0 C211 0 211 13 211 13 C211 13 199 13 199 13 C162 13 163 58 201 111 C201 111 200 111 200 111 C200 111 312 270 312 270 C312 270 437 84 437 84 C459 45 455 13 425 13 C425 13 414 13 414 13 C414 13 414 0 414 0 C414 0 494 0 494 0 C494 0 587 0 587 0 C587 0 679 0 679 0 C679 0 715 0 715 0 C715 0 715 13 715 13 C715 13 708 13 708 13 C689 13 650 47 619 88 C619 88 426 375 426 375 C426 375 569 564 569 564 C569 564 569 564 569 564 C603 609 656 647 683 647 C683 647 693 647 693 647 C693 647 693 660 693 660 L693 660 Z " />
<glyph glyph-name="Y" unicode="Y" horiz-adv-x="697" d="M486 13 C486 13 477 13 477 13 C449 13 426 51 426 96 C426 96 426 346 426 346 C426 346 426 346 426 346 C426 346 593 578 593 578 C625 617 666 647 687 647 C687 647 695 647 695 647 C695 647 695 660 695 660 C695 660 652 660 652 660 C652 660 627 660 627 660 C627 660 602 660 602 660 C602 660 513 660 513 660 C512 660 512 657 513 654 C512 650 512 647 513 647 C513 647 525 647 525 647 C562 647 560 600 520 544 C520 544 521 544 521 544 C521 544 409 384 409 384 C409 384 293 564 293 564 C293 564 294 564 294 564 C265 609 266 647 295 647 C295 647 305 647 305 647 C305 647 305 660 305 660 C305 660 232 660 232 660 C232 660 135 660 135 660 C135 660 38 660 38 660 C38 660 1 660 1 660 C1 660 1 647 1 647 C1 647 8 647 8 647 C28 647 70 609 98 564 C98 564 98 564 98 564 C98 564 264 299 264 299 C264 299 264 96 264 96 C264 51 240 13 212 13 C212 13 203 13 203 13 C203 13 203 0 203 0 C203 0 264 0 264 0 C264 0 345 0 345 0 C345 0 426 0 426 0 C426 0 486 0 486 0 C486 0 486 13 486 13 L486 13 Z " />
<glyph glyph-name="Z" unicode="Z" horiz-adv-x="588" d="M493 21 C500 58 511 121 517 157 C517 157 516 158 514 158 C507 161 502 163 502 163 C502 163 494 145 494 145 C471 90 400 42 342 42 C342 42 225 42 225 42 C225 42 530 660 530 660 C530 660 438 660 438 660 C438 660 345 660 345 660 C345 660 159 660 159 660 C159 660 103 660 103 660 C103 660 62 660 62 660 C61 655 58 645 57 640 C48 608 34 554 26 523 C26 523 36 523 36 523 C36 523 46 537 46 537 C76 582 148 620 201 620 C201 620 325 620 325 620 C325 620 23 0 23 0 C23 0 113 0 113 0 C113 0 204 0 204 0 C204 0 393 0 393 0 C393 0 484 0 484 0 C484 0 489 0 489 0 C491 6 492 16 493 21 L493 21 Z " />
<glyph glyph-name="bracketleft" unicode="&#x5b;" horiz-adv-x="289" d="M175 627 C175 627 280 627 280 627 C280 627 280 660 280 660 C280 660 175 660 175 660 C175 660 58 660 58 660 C58 660 58 -120 58 -120 C58 -120 175 -120 175 -120 C175 -120 280 -120 280 -120 C280 -120 280 -87 280 -87 C280 -87 175 -87 175 -87 C175 -87 175 627 175 627 L175 627 Z " />
<glyph glyph-name="backslash" unicode="&#x5c;" horiz-adv-x="294" d="M242 -145 C242 -145 294 -145 294 -145 C294 -145 -8 710 -8 710 C-8 710 -60 710 -60 710 C-60 710 242 -145 242 -145 L242 -145 Z " />
<glyph glyph-name="bracketright" unicode="&#x5d;" horiz-adv-x="295" d="M109 627 C109 627 109 -87 109 -87 C109 -87 4 -87 4 -87 C4 -87 4 -120 4 -120 C4 -120 109 -120 109 -120 C109 -120 226 -120 226 -120 C226 -120 226 660 226 660 C226 660 109 660 109 660 C109 660 4 660 4 660 C4 660 4 627 4 627 C4 627 109 627 109 627 L109 627 Z " />
<glyph glyph-name="underscore" unicode="&#x5f;" horiz-adv-x="455" d="M5 -50 C5 -50 5 -133 5 -133 C5 -133 450 -133 450 -133 C450 -133 450 -50 450 -50 C450 -50 5 -50 5 -50 L5 -50 Z " />
<glyph glyph-name="a" unicode="a" horiz-adv-x="527" d="M506 84 C499 72 484 62 464 62 C436 62 424 95 424 134 C424 134 424 348 424 348 C424 433 353 505 270 505 C162 505 57 448 41 382 C41 382 191 382 191 382 C201 426 222 464 237 464 C252 464 265 426 265 382 C265 382 265 266 265 266 C265 266 225 262 225 262 C124 251 37 180 37 107 C37 47 91 -5 155 -5 C202 -5 248 10 284 35 C299 7 325 -10 362 -10 C445 -10 500 24 523 64 C523 64 506 84 506 84 L506 84 Z M265 224 C265 224 265 117 265 117 C265 111 265 104 266 98 C254 96 242 95 230 95 C206 95 185 120 185 150 C185 180 204 210 225 215 C225 215 265 224 265 224 L265 224 Z " />
<glyph glyph-name="b" unicode="b" horiz-adv-x="572" d="M215 423 C220 431 233 438 243 438 C310 438 367 332 367 208 C367 115 329 37 283 37 C246 37 215 112 215 200 C215 200 215 423 215 423 L215 423 Z M215 448 C215 448 215 599 215 599 C215 599 215 681 215 681 C215 681 215 720 215 720 C215 720 185 720 185 720 C185 720 4 664 4 664 C5 664 5 663 4 663 C5 659 5 656 4 656 C50 647 65 628 65 558 C65 558 65 0 65 0 C65 0 82 0 82 0 C95 19 123 36 142 36 C184 36 228 -5 283 -5 C419 -5 534 111 534 246 C534 386 453 505 359 505 C300 505 234 479 215 448 L215 448 Z " />
<glyph glyph-name="c" unicode="c" horiz-adv-x="546" d="M497 119 C497 119 482 134 482 134 C456 108 418 86 399 86 C297 86 209 177 209 283 C209 380 248 463 294 463 C324 463 352 436 355 405 C359 365 393 331 430 331 C466 331 497 362 497 397 C491 456 406 505 311 505 C170 505 50 377 50 226 C50 101 153 -5 274 -5 C326 -5 429 52 497 119 L497 119 Z " />
<glyph glyph-name="d" unicode="d" horiz-adv-x="603" d="M554 64 C511 73 495 90 494 149 C494 149 494 162 494 162 C494 162 494 599 494 599 C494 599 494 681 494 681 C494 681 494 720 494 720 C494 720 464 720 464 720 C464 720 283 664 283 664 C283 664 283 656 283 656 C329 646 344 628 344 558 C344 558 344 479 344 479 C323 495 300 505 280 505 C149 505 38 372 38 216 C38 97 122 -5 221 -5 C249 -5 302 29 344 72 C344 72 344 39 344 39 C344 39 344 0 344 0 C344 0 374 0 374 0 C374 0 554 56 554 56 C554 56 554 64 554 64 L554 64 Z M344 121 C344 121 344 100 344 100 C333 92 317 87 303 87 C245 87 195 172 195 273 C195 376 231 464 272 464 C296 464 324 445 344 422 C344 422 344 121 344 121 L344 121 Z " />
<glyph glyph-name="e" unicode="e" horiz-adv-x="552" d="M503 119 C503 119 488 134 488 134 C462 108 422 86 402 86 C302 86 216 170 209 271 C209 271 361 271 361 271 C361 271 502 271 502 271 C502 397 407 505 296 505 C163 505 50 377 50 226 C50 101 154 -5 277 -5 C331 -5 435 52 503 119 L503 119 Z M209 299 C213 389 247 463 288 463 C328 463 362 432 362 397 C362 361 333 325 298 315 C298 315 209 299 209 299 L209 299 Z " />
<glyph glyph-name="f" unicode="f" horiz-adv-x="513" d="M165 0 C165 0 240 0 240 0 C240 0 301 0 301 0 C300 0 300 3 301 6 C300 10 300 13 301 13 C301 13 292 13 292 13 C264 13 240 51 240 96 C240 96 240 442 240 442 C240 442 375 442 375 442 C375 442 375 500 375 500 C375 500 240 500 240 500 C240 500 240 533 240 533 C240 616 283 686 333 686 C355 686 378 657 381 623 C384 587 419 556 456 556 C492 556 522 587 522 623 C518 675 450 720 374 720 C236 720 109 649 98 566 C98 566 90 500 90 500 C90 500 31 500 31 500 C31 500 31 442 31 442 C31 442 90 442 90 442 C90 442 90 96 90 96 C90 51 66 13 39 13 C39 13 29 13 29 13 C30 13 30 10 29 6 C30 3 30 0 29 0 C29 0 90 0 90 0 C90 0 165 0 165 0 L165 0 Z " />
<glyph glyph-name="g" unicode="g" horiz-adv-x="484" d="M485 500 C485 500 343 455 343 455 C311 486 267 505 219 505 C126 505 46 431 46 344 C46 285 82 232 135 203 C78 190 35 137 35 77 C35 33 67 -5 114 -25 C55 -40 10 -89 10 -146 C10 -200 84 -245 172 -245 C330 -245 465 -140 465 -17 C465 50 381 107 283 107 C283 107 189 103 189 103 C160 102 136 117 136 136 C136 161 149 182 164 182 C164 182 219 182 219 182 C313 182 393 256 393 344 C393 364 389 384 381 402 C381 402 485 417 485 417 C485 417 485 500 485 500 L485 500 Z M187 344 C187 413 202 472 219 472 C236 472 251 413 251 344 C251 275 236 216 219 216 C202 216 187 275 187 344 L187 344 Z M157 -36 C170 -38 183 -39 196 -38 C196 -38 242 -36 242 -36 C304 -36 357 -62 357 -93 C357 -153 280 -204 189 -204 C146 -204 110 -169 110 -129 C110 -83 131 -44 157 -36 C157 -36 157 -36 157 -36 L157 -36 Z " />
<glyph glyph-name="h" unicode="h" horiz-adv-x="615" d="M576 13 C576 13 567 13 567 13 C539 13 515 51 515 96 C515 96 515 339 515 339 C515 429 479 505 413 505 C364 505 297 466 255 416 C255 416 255 599 255 599 C255 599 255 681 255 681 C255 681 255 720 255 720 C255 720 225 720 225 720 C225 720 44 664 44 664 C44 664 44 656 44 656 C90 646 105 628 105 558 C105 558 105 96 105 96 C105 51 81 13 53 13 C53 13 44 13 44 13 C44 13 44 0 44 0 C44 0 105 0 105 0 C105 0 180 0 180 0 C180 0 255 0 255 0 C255 0 305 0 305 0 C305 0 315 0 315 0 C315 0 365 0 365 0 C365 0 440 0 440 0 C440 0 515 0 515 0 C515 0 576 0 576 0 C576 0 576 13 576 13 L576 13 Z M314 13 C314 13 306 13 306 13 C278 13 255 51 255 96 C255 96 255 392 255 392 C267 399 283 404 297 404 C341 404 365 367 365 323 C365 323 365 96 365 96 C365 51 341 13 314 13 C314 13 314 13 314 13 L314 13 Z " />
<glyph glyph-name="i" unicode="i" horiz-adv-x="361" d="M45 436 C91 426 106 408 106 338 C106 338 106 96 106 96 C106 51 82 13 54 13 C54 13 45 13 45 13 C45 13 45 0 45 0 C45 0 106 0 106 0 C106 0 181 0 181 0 C181 0 256 0 256 0 C256 0 316 0 316 0 C316 0 316 13 316 13 C316 13 307 13 307 13 C280 13 257 48 256 91 C256 91 256 96 256 96 C256 96 256 379 256 379 C256 379 256 461 256 461 C256 461 256 500 256 500 C256 500 226 500 226 500 C226 500 45 444 45 444 C45 444 45 436 45 436 L45 436 Z M172 570 C215 570 252 607 252 650 C252 693 215 730 172 730 C129 730 92 693 92 650 C92 607 129 570 172 570 L172 570 Z " />
<glyph glyph-name="j" unicode="j" horiz-adv-x="361" d="M45 436 C87 427 104 411 106 352 C106 352 105 -5 105 -5 C105 -137 69 -194 -6 -222 C-6 -222 8 -242 8 -242 C176 -179 257 -104 257 35 C257 35 256 461 256 461 C256 461 256 500 256 500 C256 500 226 500 226 500 C226 500 45 444 45 444 C45 444 45 436 45 436 L45 436 Z M172 570 C215 570 252 607 252 650 C252 693 215 730 172 730 C129 730 92 693 92 650 C92 607 129 570 172 570 L172 570 Z " />
<glyph glyph-name="k" unicode="k" horiz-adv-x="620" d="M652 13 C652 13 643 13 643 13 C615 13 566 51 536 96 C536 96 535 96 535 96 C535 96 364 355 364 355 C364 355 433 418 433 418 C480 456 536 487 561 487 C561 487 570 487 570 487 C570 487 570 500 570 500 C570 500 523 500 523 500 C523 500 490 500 490 500 C490 500 456 500 456 500 C456 500 396 500 396 500 C396 500 396 487 396 487 C396 487 403 487 403 487 C425 487 407 449 363 404 C363 404 363 404 363 404 C363 404 239 275 239 275 C239 275 239 599 239 599 C239 599 239 681 239 681 C239 681 239 720 239 720 C239 720 209 720 209 720 C209 720 28 664 28 664 C29 664 29 663 28 663 C29 659 29 656 28 656 C74 647 89 628 89 558 C89 558 89 96 89 96 C89 51 65 13 38 13 C38 13 28 13 28 13 C29 13 29 10 28 6 C29 3 29 0 28 0 C28 0 89 0 89 0 C89 0 164 0 164 0 C164 0 239 0 239 0 C239 0 300 0 300 0 C299 0 299 3 300 6 C299 10 299 13 300 13 C300 13 291 13 291 13 C263 13 239 51 239 96 C239 96 239 275 239 275 C239 275 352 96 352 96 C352 96 352 96 352 96 C381 51 384 13 360 13 C360 13 352 13 352 13 C352 13 352 0 352 0 C352 0 413 0 413 0 C413 0 506 0 506 0 C506 0 599 0 599 0 C599 0 652 0 652 0 C652 0 652 13 652 13 L652 13 Z " />
<glyph glyph-name="l" unicode="l" horiz-adv-x="361" d="M45 656 C91 646 106 628 106 558 C106 558 106 96 106 96 C106 51 82 13 54 13 C54 13 45 13 45 13 C45 13 45 0 45 0 C45 0 106 0 106 0 C106 0 181 0 181 0 C181 0 256 0 256 0 C256 0 316 0 316 0 C316 0 316 13 316 13 C316 13 307 13 307 13 C280 13 257 48 256 91 C256 91 256 96 256 96 C256 96 256 599 256 599 C256 599 256 681 256 681 C256 681 256 720 256 720 C256 720 226 720 226 720 C226 720 45 664 45 664 C45 664 45 656 45 656 L45 656 Z " />
<glyph glyph-name="m" unicode="m" horiz-adv-x="896" d="M856 13 C856 13 847 13 847 13 C820 13 797 48 796 91 C796 91 796 96 796 96 C796 96 796 339 796 339 C796 429 742 505 686 505 C622 505 552 466 512 416 C493 469 456 505 419 505 C362 505 297 466 255 416 C255 416 255 500 255 500 C255 500 225 500 225 500 C225 500 44 444 44 444 C44 444 44 436 44 436 C90 426 105 407 105 338 C105 338 105 96 105 96 C105 51 81 13 53 13 C53 13 44 13 44 13 C44 13 44 0 44 0 C44 0 105 0 105 0 C105 0 180 0 180 0 C180 0 255 0 255 0 C255 0 315 0 315 0 C315 0 375 0 375 0 C375 0 450 0 450 0 C450 0 525 0 525 0 C525 0 585 0 585 0 C585 0 586 0 586 0 C586 0 646 0 646 0 C646 0 721 0 721 0 C721 0 796 0 796 0 C796 0 856 0 856 0 C856 0 856 13 856 13 L856 13 Z M585 13 C585 13 577 13 577 13 C549 13 525 51 525 96 C525 96 525 339 525 339 C525 357 523 374 519 390 C532 398 551 404 570 404 C609 404 646 367 646 323 C646 323 646 96 646 96 C646 51 622 13 594 13 C594 13 586 13 586 13 C586 13 585 13 585 13 L585 13 Z M315 13 C315 13 306 13 306 13 C278 13 255 51 255 96 C255 96 255 365 255 365 C255 365 204 365 204 365 C204 365 255 379 255 379 C255 379 255 395 255 395 C269 406 286 414 302 414 C340 414 375 372 375 323 C375 323 375 96 375 96 C375 51 351 13 324 13 C324 13 315 13 315 13 L315 13 Z " />
<glyph glyph-name="n" unicode="n" horiz-adv-x="615" d="M576 13 C576 13 567 13 567 13 C539 13 515 51 515 96 C515 96 515 339 515 339 C515 429 479 505 413 505 C364 505 297 466 255 416 C255 416 255 500 255 500 C255 500 225 500 225 500 C225 500 44 444 44 444 C44 444 44 436 44 436 C90 426 105 407 105 338 C105 338 105 96 105 96 C105 51 81 13 53 13 C53 13 44 13 44 13 C44 13 44 0 44 0 C44 0 105 0 105 0 C105 0 180 0 180 0 C180 0 255 0 255 0 C255 0 305 0 305 0 C305 0 315 0 315 0 C315 0 365 0 365 0 C365 0 440 0 440 0 C440 0 515 0 515 0 C515 0 576 0 576 0 C576 0 576 13 576 13 L576 13 Z M314 13 C314 13 306 13 306 13 C278 13 255 51 255 96 C255 96 255 365 255 365 C255 365 204 365 204 365 C204 365 255 379 255 379 C255 379 255 392 255 392 C267 399 283 404 297 404 C341 404 365 367 365 323 C365 323 365 96 365 96 C365 51 341 13 314 13 C314 13 314 13 314 13 L314 13 Z " />
<glyph glyph-name="o" unicode="o" horiz-adv-x="616" d="M308 28 C259 28 217 130 217 250 C217 370 259 472 308 472 C358 472 400 370 400 250 C400 130 358 28 308 28 L308 28 Z M50 250 C50 112 169 -5 308 -5 C448 -5 567 112 567 250 C567 388 448 505 308 505 C169 505 50 388 50 250 L50 250 Z " />
<glyph glyph-name="p" unicode="p" horiz-adv-x="647" d="M44 436 C90 426 105 407 105 338 C105 338 105 -134 105 -134 C105 -179 81 -217 53 -217 C53 -217 44 -217 44 -217 C44 -217 44 -230 44 -230 C44 -230 105 -230 105 -230 C105 -230 180 -230 180 -230 C180 -230 255 -230 255 -230 C255 -230 315 -230 315 -230 C316 -230 316 -227 315 -224 C316 -220 316 -217 315 -217 C315 -217 306 -217 306 -217 C278 -217 255 -179 255 -134 C255 -134 255 8 255 8 C276 0 299 -5 323 -5 C468 -5 592 122 592 270 C592 397 511 505 415 505 C345 505 275 468 248 420 C248 420 234 500 234 500 C234 500 204 500 204 500 C204 500 44 444 44 444 C44 444 44 436 44 436 L44 436 Z M238 374 C238 374 238 371 238 371 C238 372 239 373 239 375 C239 375 255 379 255 379 C255 379 253 390 253 390 C265 399 283 404 300 404 C368 404 426 302 426 181 C426 103 379 37 323 37 C286 37 255 84 255 140 C255 140 255 365 255 365 C255 365 204 365 204 365 C204 365 238 374 238 374 L238 374 Z " />
<glyph glyph-name="q" unicode="q" horiz-adv-x="598" d="M554 -217 C554 -217 545 -217 545 -217 C517 -217 494 -179 493 -134 C493 -134 493 500 493 500 C493 500 477 500 477 500 C464 481 421 464 383 464 C350 464 319 505 274 505 C147 505 39 372 39 216 C39 97 115 -5 204 -5 C238 -5 297 32 343 80 C343 80 343 -134 343 -134 C343 -179 319 -217 292 -217 C292 -217 283 -217 283 -217 C283 -217 283 -230 283 -230 C283 -230 343 -230 343 -230 C343 -230 418 -230 418 -230 C418 -230 493 -230 493 -230 C493 -230 554 -230 554 -230 C554 -230 554 -217 554 -217 L554 -217 Z M343 111 C329 97 305 87 286 87 C237 87 195 172 195 273 C195 376 231 463 274 463 C311 463 343 389 343 301 C343 301 343 111 343 111 L343 111 Z " />
<glyph glyph-name="r" unicode="r" horiz-adv-x="468" d="M44 436 C90 426 105 407 105 338 C105 338 105 96 105 96 C105 51 81 13 53 13 C53 13 44 13 44 13 C44 13 44 0 44 0 C44 0 105 0 105 0 C105 0 180 0 180 0 C180 0 255 0 255 0 C255 0 315 0 315 0 C316 0 316 3 315 6 C316 10 316 13 315 13 C315 13 306 13 306 13 C278 13 255 51 255 96 C255 96 255 365 255 365 C255 365 204 365 204 365 C204 365 238 374 238 374 C238 374 238 374 238 374 C238 374 238 374 238 374 C238 374 255 379 255 379 C255 379 253 391 253 391 C257 393 260 394 264 394 C304 394 347 339 387 339 C426 339 459 372 459 411 C459 462 432 505 383 505 C334 505 277 466 249 416 C249 416 234 500 234 500 C234 500 204 500 204 500 C204 500 44 444 44 444 C44 444 44 436 44 436 L44 436 Z " />
<glyph glyph-name="s" unicode="s" horiz-adv-x="418" d="M42 145 C42 145 42 34 42 34 C70 13 127 -5 166 -5 C275 -5 368 72 368 163 C368 213 326 277 278 303 C212 338 156 385 156 405 C156 441 193 472 239 472 C239 472 239 472 239 472 C250 490 268 486 287 463 C275 465 265 463 262 458 C262 458 240 471 240 471 C243 468 272 451 309 430 C317 416 324 399 331 379 C333 375 336 367 337 363 C337 363 347 363 347 363 C347 363 347 470 347 470 C347 470 335 447 335 447 C335 447 335 447 335 447 C335 447 347 470 347 470 C313 489 263 505 240 505 C132 505 40 435 40 354 C40 307 101 235 172 197 C211 176 244 135 244 107 C244 65 212 29 175 29 C168 29 158 32 146 36 C114 51 79 86 61 126 C58 131 54 140 51 145 C51 145 42 145 42 145 L42 145 Z M239 472 C239 472 240 472 240 472 C240 472 240 472 240 471 C240 471 239 472 239 472 L239 472 Z " />
<glyph glyph-name="t" unicode="t" horiz-adv-x="397" d="M365 500 C365 500 230 500 230 500 C230 500 230 640 230 640 C230 640 205 640 205 640 C148 550 66 467 25 458 C25 458 25 442 25 442 C25 442 80 442 80 442 C80 442 80 142 80 142 C80 39 117 -5 205 -5 C247 -5 317 38 377 89 C377 89 366 102 366 102 C341 80 307 62 280 62 C244 62 229 78 229 116 C229 116 230 442 230 442 C230 442 365 442 365 442 C365 442 365 500 365 500 L365 500 Z " />
<glyph glyph-name="u" unicode="u" horiz-adv-x="580" d="M546 64 C500 74 486 92 485 162 C485 162 485 500 485 500 C485 500 410 500 410 500 C410 500 335 500 335 500 C335 500 275 500 275 500 C275 500 275 487 275 487 C275 487 284 487 284 487 C311 487 335 449 335 404 C335 404 335 121 335 121 C335 121 335 113 335 113 C325 102 316 94 313 94 C260 94 224 128 224 169 C224 169 225 500 225 500 C225 500 150 500 150 500 C150 500 75 500 75 500 C75 500 14 500 14 500 C14 500 14 487 14 487 C14 487 23 487 23 487 C51 487 75 449 75 404 C75 404 75 153 75 153 C75 68 124 -5 195 -5 C233 -5 288 35 335 88 C335 88 335 39 335 39 C335 39 335 0 335 0 C335 0 365 0 365 0 C365 0 546 56 546 56 C546 56 546 64 546 64 L546 64 Z " />
<glyph glyph-name="v" unicode="v" horiz-adv-x="644" d="M597 500 C597 500 542 500 542 500 C542 500 517 500 517 500 C517 500 492 500 492 500 C492 500 431 500 431 500 C431 500 431 487 431 487 C431 487 440 487 440 487 C465 487 471 449 452 404 C452 404 452 404 452 404 C452 404 359 181 359 181 C359 181 248 404 248 404 C248 404 248 404 248 404 C226 449 228 487 253 487 C253 487 261 487 261 487 C261 487 261 500 261 500 C261 500 200 500 200 500 C200 500 115 500 115 500 C115 500 29 500 29 500 C29 500 -26 500 -26 500 C-26 500 -26 487 -26 487 C-26 487 -17 487 -17 487 C12 487 54 449 76 404 C76 404 76 404 76 404 C76 404 280 -10 280 -10 C280 -10 305 -10 305 -10 C305 -10 502 414 502 414 C524 454 562 487 588 487 C588 487 597 487 597 487 C597 487 597 500 597 500 L597 500 Z " />
<glyph glyph-name="w" unicode="w" horiz-adv-x="1014" d="M962 500 C962 500 920 500 920 500 C920 500 870 500 870 500 C870 500 785 500 785 500 C785 500 785 487 785 487 C785 487 798 487 798 487 C834 487 853 460 818 376 C818 376 818 376 818 376 C818 376 737 181 737 181 C737 181 625 405 625 405 C598 467 613 487 642 487 C642 487 655 487 655 487 C655 487 655 500 655 500 C655 500 578 500 578 500 C578 500 406 500 406 500 C406 500 368 500 368 500 C368 500 368 487 368 487 C368 487 379 487 379 487 C395 487 418 468 448 414 C448 414 456 399 456 399 C456 399 366 178 366 178 C366 178 262 393 262 393 C262 393 262 393 262 393 C227 464 240 487 269 487 C269 487 281 487 281 487 C281 487 281 500 281 500 C281 500 210 500 210 500 C210 500 39 500 39 500 C39 500 -4 500 -4 500 C-4 500 -4 487 -4 487 C-4 487 8 487 8 487 C28 487 57 463 93 390 C93 390 93 390 93 390 C93 390 290 -10 290 -10 C290 -10 315 -10 315 -10 C315 -10 473 363 473 363 C473 363 658 -10 658 -10 C658 -10 683 -10 683 -10 C683 -10 883 420 883 420 C909 470 932 487 951 487 C951 487 962 487 962 487 C962 487 962 500 962 500 L962 500 Z " />
<glyph glyph-name="x" unicode="x" horiz-adv-x="558" d="M512 500 C512 500 462 500 462 500 C462 500 437 500 437 500 C437 500 412 500 412 500 C412 500 331 500 331 500 C332 500 332 497 331 494 C332 490 332 487 331 487 C331 487 342 487 342 487 C374 487 373 452 342 409 C342 409 298 352 298 352 C298 352 265 411 265 411 C245 453 251 487 279 487 C279 487 289 487 289 487 C289 487 289 500 289 500 C289 500 216 500 216 500 C216 500 124 500 124 500 C124 500 33 500 33 500 C33 500 -9 500 -9 500 C-9 500 -9 487 -9 487 C-9 487 -1 487 -1 487 C21 487 60 450 85 405 C85 405 189 218 189 218 C189 218 100 92 100 92 C68 49 16 13 -14 13 C-14 13 -25 13 -25 13 C-25 13 -25 0 -25 0 C-25 0 35 0 35 0 C35 0 60 0 60 0 C60 0 85 0 85 0 C85 0 182 0 182 0 C182 0 182 13 182 13 C182 13 169 13 169 13 C129 13 120 51 150 96 C150 96 150 96 150 96 C150 96 208 183 208 183 C208 183 256 96 256 96 C256 96 256 96 256 96 C281 51 281 13 257 13 C257 13 249 13 249 13 C249 13 249 0 249 0 C249 0 309 0 309 0 C309 0 401 0 401 0 C401 0 493 0 493 0 C493 0 526 0 526 0 C526 0 526 13 526 13 C526 13 520 13 520 13 C502 13 465 51 440 96 C440 96 440 96 440 96 C440 96 313 325 313 325 C313 325 380 404 380 404 C380 404 380 404 380 404 C419 449 475 487 503 487 C503 487 512 487 512 487 C512 487 512 500 512 500 L512 500 Z " />
<glyph glyph-name="y" unicode="y" horiz-adv-x="654" d="M628 500 C628 500 573 500 573 500 C573 500 548 500 548 500 C548 500 523 500 523 500 C523 500 462 500 462 500 C462 500 462 487 462 487 C462 487 471 487 471 487 C496 487 502 449 483 404 C483 404 483 404 483 404 C483 404 390 181 390 181 C390 181 279 404 279 404 C279 404 279 404 279 404 C257 449 259 487 284 487 C284 487 292 487 292 487 C292 487 292 500 292 500 C292 500 231 500 231 500 C231 500 146 500 146 500 C146 500 60 500 60 500 C60 500 5 500 5 500 C5 500 5 487 5 487 C5 487 14 487 14 487 C43 487 85 449 107 404 C107 404 107 404 107 404 C107 404 301 10 301 10 C301 10 268 -58 268 -58 C246 -105 216 -131 184 -131 C155 -131 113 -105 84 -105 C44 -105 9 -134 9 -169 C9 -202 47 -230 92 -230 C184 -230 260 -174 308 -72 C308 -72 336 -10 336 -10 C336 -10 533 414 533 414 C555 454 593 487 619 487 C619 487 628 487 628 487 C628 487 628 500 628 500 L628 500 Z " />
<glyph glyph-name="z" unicode="z" horiz-adv-x="483" d="M408 155 C408 155 401 137 401 137 C377 81 307 34 248 34 C248 34 248 33 248 33 C248 33 219 33 219 33 C219 33 433 500 433 500 C433 500 347 500 347 500 C347 500 260 500 260 500 C260 500 166 500 166 500 C166 500 110 500 110 500 C110 500 70 500 70 500 C69 495 67 487 65 483 C59 458 48 416 41 392 C41 392 51 392 51 392 C51 392 60 403 60 403 C87 437 156 465 210 465 C210 465 210 465 210 465 C210 465 244 466 244 466 C244 466 27 0 27 0 C27 0 115 0 115 0 C115 0 204 0 204 0 C204 0 301 0 301 0 C301 0 390 0 390 0 C390 0 397 0 397 0 C398 4 399 12 400 17 C406 52 417 113 423 149 C417 151 408 155 408 155 C408 155 408 155 408 155 L408 155 Z " />
<glyph glyph-name="braceleft" unicode="&#x7b;" horiz-adv-x="261" d="M246 -120 C246 -120 246 -95 246 -95 C246 -95 240 -95 240 -95 C205 -95 176 -41 177 22 C177 22 177 120 177 120 C176 191 131 254 72 270 C131 286 176 349 177 421 C177 421 177 518 177 518 C176 581 205 635 240 635 C240 635 246 635 246 635 C246 635 246 660 246 660 C246 660 206 660 206 660 C127 660 60 595 60 518 C60 518 60 338 60 338 C60 308 37 282 10 283 C10 283 5 283 5 283 C5 283 5 258 5 258 C5 258 10 258 10 258 C37 257 60 232 60 203 C60 203 60 22 60 22 C60 -55 127 -120 206 -120 C206 -120 246 -120 246 -120 L246 -120 Z " />
<glyph glyph-name="bar" unicode="&#x7c;" horiz-adv-x="236" d="M60 770 C60 770 60 -234 60 -234 C60 -234 177 -234 177 -234 C177 -234 177 770 177 770 C177 770 60 770 60 770 L60 770 Z " />
<glyph glyph-name="braceright" unicode="&#x7d;" horiz-adv-x="261" d="M5 660 C5 660 5 635 5 635 C5 635 12 635 12 635 C46 635 75 581 75 518 C75 518 74 420 74 420 C75 349 120 286 179 270 C120 254 75 191 74 119 C74 119 74 22 74 22 C75 -41 46 -95 12 -95 C12 -95 5 -95 5 -95 C5 -95 5 -120 5 -120 C5 -120 45 -120 45 -120 C124 -120 191 -55 191 22 C191 22 191 202 191 202 C191 232 214 258 241 258 C241 258 246 258 246 258 C246 258 246 283 246 283 C246 283 241 283 241 283 C214 283 191 308 191 337 C191 337 191 518 191 518 C191 595 124 660 45 660 C45 660 5 660 5 660 L5 660 Z " />
<glyph glyph-name="[namenotfound]" unicode="&#xa0;" horiz-adv-x="220" d="" />
<glyph glyph-name="exclamdown" unicode="&#xa1;" horiz-adv-x="310" d="M142 505 C99 505 62 468 62 425 C62 382 99 345 142 345 C185 345 222 382 222 425 C222 468 185 505 142 505 L142 505 Z M60 -60 C48 -117 90 -165 152 -165 C217 -165 259 -117 243 -60 C243 -60 152 270 152 270 C152 270 132 270 132 270 C132 270 60 -60 60 -60 L60 -60 Z " />
<glyph glyph-name="cent" unicode="&#xa2;" horiz-adv-x="546" d="M276 575 C276 575 276 502 276 502 C151 483 50 364 50 226 C50 101 153 -5 274 -5 C275 -5 275 -5 276 -5 C276 -5 276 -75 276 -75 C276 -75 316 -75 316 -75 C316 -75 316 3 316 3 C371 21 444 67 497 119 C497 119 482 134 482 134 C456 108 418 86 399 86 C370 86 341 94 316 107 C316 107 316 458 316 458 C337 449 353 428 355 405 C359 365 393 331 430 331 C466 331 497 362 497 397 C491 455 409 503 316 505 C316 505 316 575 316 575 C316 575 276 575 276 575 L276 575 Z M276 135 C235 171 209 225 209 283 C209 367 238 441 276 459 C276 459 276 135 276 135 L276 135 Z " />
<glyph glyph-name="guillemotleft" unicode="&#xab;" horiz-adv-x="462" d="M326 251 C326 251 414 451 414 451 C414 451 397 467 397 467 C397 467 184 258 184 258 C184 258 184 242 184 242 C184 242 401 33 401 33 C401 33 418 49 418 49 C418 49 326 251 326 251 L326 251 Z M163 251 C163 251 250 451 250 451 C250 451 234 467 234 467 C234 467 20 258 20 258 C20 258 20 242 20 242 C20 242 238 33 238 33 C238 33 254 49 254 49 C254 49 163 251 163 251 L163 251 Z " />
<glyph glyph-name="guillemotright" unicode="&#xbb;" horiz-adv-x="462" d="M137 251 C137 251 49 451 49 451 C49 451 66 467 66 467 C66 467 279 258 279 258 C279 258 279 242 279 242 C279 242 61 33 61 33 C61 33 45 49 45 49 C45 49 137 251 137 251 L137 251 Z M300 251 C300 251 213 451 213 451 C213 451 229 467 229 467 C229 467 443 258 443 258 C443 258 443 242 443 242 C443 242 225 33 225 33 C225 33 209 49 209 49 C209 49 300 251 300 251 L300 251 Z " />
<glyph glyph-name="questiondown" unicode="&#xbf;" horiz-adv-x="374" d="M237 505 C194 505 157 468 157 425 C157 382 194 345 237 345 C281 345 317 382 317 425 C317 468 281 505 237 505 L237 505 Z M269 117 C279 117 284 128 281 140 C281 140 247 265 247 265 C247 265 227 265 227 265 C227 265 218 232 218 232 C218 232 183 232 183 232 C71 232 35 142 35 100 C35 -43 139 -165 261 -165 C261 -165 260 -165 261 -164 C261 -164 261 -165 261 -165 C305 -165 343 -123 343 -75 C343 -40 313 -10 278 -10 C255 -10 237 -48 213 -48 C136 -48 70 12 69 83 C70 94 110 117 234 117 C234 117 269 117 269 117 L269 117 Z " />
<glyph glyph-name="Agrave" unicode="&#xc0;" horiz-adv-x="722" d="M716 13 C716 13 708 13 708 13 C682 13 643 51 622 96 C622 96 622 96 622 96 C622 96 349 675 349 675 C349 675 309 675 309 675 C309 675 84 87 84 87 C66 46 30 13 5 13 C5 13 -4 13 -4 13 C-4 13 -4 0 -4 0 C-4 0 51 0 51 0 C51 0 78 0 78 0 C78 0 105 0 105 0 C105 0 194 0 194 0 C194 0 194 13 194 13 C194 13 181 13 181 13 C143 13 127 55 143 106 C143 106 186 223 186 223 C186 223 388 223 388 223 C388 223 447 96 447 96 C447 96 446 96 446 96 C467 51 455 13 419 13 C419 13 408 13 408 13 C408 13 408 0 408 0 C408 0 491 0 491 0 C491 0 579 0 579 0 C579 0 667 0 667 0 C667 0 716 0 716 0 C716 0 716 13 716 13 L716 13 Z M354 870 C344 895 334 916 329 916 C306 916 243 871 243 854 C243 847 259 828 277 810 C277 810 400 689 400 689 C400 689 417 702 417 702 C417 702 354 870 354 870 L354 870 Z M369 263 C369 263 200 264 200 264 C200 264 275 469 275 469 C275 469 369 263 369 263 L369 263 Z " />
<glyph glyph-name="Aacute" unicode="&#xc1;" horiz-adv-x="722" d="M269 689 C269 689 389 810 389 810 C407 828 422 847 422 854 C422 871 359 916 336 916 C332 916 322 895 313 870 C313 870 252 702 252 702 C252 702 269 689 269 689 L269 689 Z M716 13 C716 13 708 13 708 13 C682 13 643 51 622 96 C622 96 622 96 622 96 C622 96 349 675 349 675 C349 675 309 675 309 675 C309 675 84 87 84 87 C66 46 30 13 5 13 C5 13 -4 13 -4 13 C-4 13 -4 0 -4 0 C-4 0 51 0 51 0 C51 0 78 0 78 0 C78 0 105 0 105 0 C105 0 194 0 194 0 C194 0 194 13 194 13 C194 13 181 13 181 13 C143 13 127 55 143 106 C143 106 186 223 186 223 C186 223 388 223 388 223 C388 223 447 96 447 96 C447 96 446 96 446 96 C467 51 455 13 419 13 C419 13 408 13 408 13 C408 13 408 0 408 0 C408 0 491 0 491 0 C491 0 579 0 579 0 C579 0 667 0 667 0 C667 0 716 0 716 0 C716 0 716 13 716 13 L716 13 Z M369 263 C369 263 200 264 200 264 C200 264 275 469 275 469 C275 469 369 263 369 263 L369 263 Z " />
<glyph glyph-name="Acircumflex" unicode="&#xc2;" horiz-adv-x="722" d="M716 13 C716 13 708 13 708 13 C682 13 643 51 622 96 C622 96 622 96 622 96 C622 96 349 675 349 675 C349 675 309 675 309 675 C309 675 84 87 84 87 C66 46 30 13 5 13 C5 13 -4 13 -4 13 C-4 13 -4 0 -4 0 C-4 0 51 0 51 0 C51 0 78 0 78 0 C78 0 105 0 105 0 C105 0 194 0 194 0 C194 0 194 13 194 13 C194 13 181 13 181 13 C143 13 127 55 143 106 C143 106 186 223 186 223 C186 223 388 223 388 223 C388 223 447 96 447 96 C447 96 446 96 446 96 C467 51 455 13 419 13 C419 13 408 13 408 13 C408 13 408 0 408 0 C408 0 491 0 491 0 C491 0 579 0 579 0 C579 0 667 0 667 0 C667 0 716 0 716 0 C716 0 716 13 716 13 L716 13 Z M329 777 C329 777 438 690 438 690 C438 690 453 703 453 703 C453 703 377 862 377 862 C371 873 351 904 329 904 C306 904 287 874 281 863 C281 863 205 703 205 703 C205 703 220 690 220 690 C220 690 329 777 329 777 L329 777 Z M369 263 C369 263 200 264 200 264 C200 264 275 469 275 469 C275 469 369 263 369 263 L369 263 Z " />
<glyph glyph-name="Atilde" unicode="&#xc3;" horiz-adv-x="722" d="M191 755 C191 782 207 805 227 805 C278 805 340 743 390 743 C445 743 492 816 492 902 C492 902 467 902 467 902 C467 870 447 842 423 842 C372 842 310 905 259 905 C209 905 166 836 166 755 C166 755 191 755 191 755 L191 755 Z M716 13 C716 13 708 13 708 13 C682 13 643 51 622 96 C622 96 622 96 622 96 C622 96 349 675 349 675 C349 675 309 675 309 675 C309 675 84 87 84 87 C66 46 30 13 5 13 C5 13 -4 13 -4 13 C-4 13 -4 0 -4 0 C-4 0 51 0 51 0 C51 0 78 0 78 0 C78 0 105 0 105 0 C105 0 194 0 194 0 C194 0 194 13 194 13 C194 13 181 13 181 13 C143 13 127 55 143 106 C143 106 186 223 186 223 C186 223 388 223 388 223 C388 223 447 96 447 96 C447 96 446 96 446 96 C467 51 455 13 419 13 C419 13 408 13 408 13 C408 13 408 0 408 0 C408 0 491 0 491 0 C491 0 579 0 579 0 C579 0 667 0 667 0 C667 0 716 0 716 0 C716 0 716 13 716 13 L716 13 Z M369 263 C369 263 200 264 200 264 C200 264 275 469 275 469 C275 469 369 263 369 263 L369 263 Z " />
<glyph glyph-name="Adieresis" unicode="&#xc4;" horiz-adv-x="722" d="M435 730 C478 730 515 767 515 810 C515 853 478 890 435 890 C392 890 355 853 355 810 C355 767 392 730 435 730 L435 730 Z M222 730 C265 730 302 767 302 810 C302 853 265 890 222 890 C179 890 142 853 142 810 C142 767 179 730 222 730 L222 730 Z M716 13 C716 13 708 13 708 13 C682 13 643 51 622 96 C622 96 622 96 622 96 C622 96 349 675 349 675 C349 675 309 675 309 675 C309 675 84 87 84 87 C66 46 30 13 5 13 C5 13 -4 13 -4 13 C-4 13 -4 0 -4 0 C-4 0 51 0 51 0 C51 0 78 0 78 0 C78 0 105 0 105 0 C105 0 194 0 194 0 C194 0 194 13 194 13 C194 13 181 13 181 13 C143 13 127 55 143 106 C143 106 186 223 186 223 C186 223 388 223 388 223 C388 223 447 96 447 96 C447 96 446 96 446 96 C467 51 455 13 419 13 C419 13 408 13 408 13 C408 13 408 0 408 0 C408 0 491 0 491 0 C491 0 579 0 579 0 C579 0 667 0 667 0 C667 0 716 0 716 0 C716 0 716 13 716 13 L716 13 Z M369 263 C369 263 200 264 200 264 C200 264 275 469 275 469 C275 469 369 263 369 263 L369 263 Z " />
<glyph glyph-name="Aring" unicode="&#xc5;" horiz-adv-x="722" d="M329 728 C302 728 274 759 274 788 C274 820 299 847 329 847 C359 847 384 820 384 788 C384 759 356 728 329 728 L329 728 Z M232 788 C232 743 282 695 329 695 C376 695 426 743 426 788 C426 837 381 880 329 880 C277 880 232 837 232 788 L232 788 Z M716 13 C716 13 708 13 708 13 C682 13 643 51 622 96 C622 96 622 96 622 96 C622 96 349 675 349 675 C349 675 309 675 309 675 C309 675 84 87 84 87 C66 46 30 13 5 13 C5 13 -4 13 -4 13 C-4 13 -4 0 -4 0 C-4 0 51 0 51 0 C51 0 78 0 78 0 C78 0 105 0 105 0 C105 0 194 0 194 0 C194 0 194 13 194 13 C194 13 181 13 181 13 C143 13 127 55 143 106 C143 106 186 223 186 223 C186 223 388 223 388 223 C388 223 447 96 447 96 C447 96 446 96 446 96 C467 51 455 13 419 13 C419 13 408 13 408 13 C408 13 408 0 408 0 C408 0 491 0 491 0 C491 0 579 0 579 0 C579 0 667 0 667 0 C667 0 716 0 716 0 C716 0 716 13 716 13 L716 13 Z M369 263 C369 263 200 264 200 264 C200 264 275 469 275 469 C275 469 369 263 369 263 L369 263 Z " />
<glyph glyph-name="Ccedilla" unicode="&#xc7;" horiz-adv-x="760" d="M701 473 C701 473 701 611 701 611 C647 640 530 665 446 665 C222 665 32 511 32 330 C32 149 222 -5 446 -5 C537 -5 655 25 702 59 C702 59 702 194 702 194 C702 194 691 194 691 194 C688 186 683 172 680 165 C656 101 562 42 474 36 C474 36 474 36 474 36 C464 35 455 35 446 35 C319 35 211 171 211 330 C211 489 319 625 446 625 C466 625 488 623 510 621 C510 621 510 620 510 620 C580 612 658 558 679 502 C682 495 687 481 690 473 C690 473 701 473 701 473 L701 473 Z " />
<glyph glyph-name="Egrave" unicode="&#xc8;" horiz-adv-x="659" d="M494 253 C494 253 494 322 494 322 C494 322 494 342 494 342 C494 342 494 363 494 363 C494 363 494 423 494 423 C494 423 483 423 483 423 C483 423 481 414 481 414 C472 387 419 364 362 363 C362 363 355 363 355 363 C355 363 264 363 264 363 C264 363 264 620 264 620 C264 620 404 620 404 620 C468 620 537 577 554 527 C554 527 560 510 560 510 C560 510 569 510 569 510 C569 510 569 640 569 640 C569 640 569 660 569 660 C569 660 549 660 549 660 C549 660 473 660 473 660 C473 660 264 660 264 660 C264 660 183 660 183 660 C183 660 102 660 102 660 C102 660 41 660 41 660 C41 660 41 647 41 647 C41 647 50 647 50 647 C78 647 102 609 102 564 C102 564 102 96 102 96 C102 51 78 13 50 13 C50 13 41 13 41 13 C41 13 41 0 41 0 C41 0 102 0 102 0 C102 0 183 0 183 0 C183 0 264 0 264 0 C264 0 469 0 469 0 C469 0 559 0 559 0 C559 0 565 0 565 0 C566 5 568 15 568 20 C575 55 585 115 591 150 C591 150 582 150 582 150 C582 150 574 133 574 133 C548 83 472 41 407 40 C407 40 264 40 264 40 C264 40 264 322 264 322 C264 322 355 322 355 322 C414 322 472 295 481 264 C481 264 483 253 483 253 C483 253 494 253 494 253 L494 253 Z M334 870 C325 895 315 916 310 916 C287 916 224 871 224 854 C224 847 240 828 258 810 C258 810 381 689 381 689 C381 689 397 702 397 702 C397 702 334 870 334 870 L334 870 Z " />
<glyph glyph-name="Eacute" unicode="&#xc9;" horiz-adv-x="659" d="M296 689 C296 689 416 810 416 810 C433 828 448 847 449 854 C449 871 386 916 363 916 C359 916 349 895 339 870 C339 870 279 702 279 702 C279 702 296 689 296 689 L296 689 Z M494 253 C494 253 494 322 494 322 C494 322 494 342 494 342 C494 342 494 363 494 363 C494 363 494 423 494 423 C494 423 483 423 483 423 C483 423 481 414 481 414 C472 387 419 364 362 363 C362 363 355 363 355 363 C355 363 264 363 264 363 C264 363 264 620 264 620 C264 620 404 620 404 620 C468 620 537 577 554 527 C554 527 560 510 560 510 C560 510 569 510 569 510 C569 510 569 640 569 640 C569 640 569 660 569 660 C569 660 549 660 549 660 C549 660 473 660 473 660 C473 660 264 660 264 660 C264 660 183 660 183 660 C183 660 102 660 102 660 C102 660 41 660 41 660 C41 660 41 647 41 647 C41 647 50 647 50 647 C78 647 102 609 102 564 C102 564 102 96 102 96 C102 51 78 13 50 13 C50 13 41 13 41 13 C41 13 41 0 41 0 C41 0 102 0 102 0 C102 0 183 0 183 0 C183 0 264 0 264 0 C264 0 469 0 469 0 C469 0 559 0 559 0 C559 0 565 0 565 0 C566 5 568 15 568 20 C575 55 585 115 591 150 C591 150 582 150 582 150 C582 150 574 133 574 133 C548 83 472 41 407 40 C407 40 264 40 264 40 C264 40 264 322 264 322 C264 322 355 322 355 322 C414 322 472 295 481 264 C481 264 483 253 483 253 C483 253 494 253 494 253 L494 253 Z " />
<glyph glyph-name="Ecircumflex" unicode="&#xca;" horiz-adv-x="659" d="M494 253 C494 253 494 322 494 322 C494 322 494 342 494 342 C494 342 494 363 494 363 C494 363 494 423 494 423 C494 423 483 423 483 423 C483 423 481 414 481 414 C472 387 419 364 362 363 C362 363 355 363 355 363 C355 363 264 363 264 363 C264 363 264 620 264 620 C264 620 404 620 404 620 C468 620 537 577 554 527 C554 527 560 510 560 510 C560 510 569 510 569 510 C569 510 569 640 569 640 C569 640 569 660 569 660 C569 660 549 660 549 660 C549 660 473 660 473 660 C473 660 264 660 264 660 C264 660 183 660 183 660 C183 660 102 660 102 660 C102 660 41 660 41 660 C41 660 41 647 41 647 C41 647 50 647 50 647 C78 647 102 609 102 564 C102 564 102 96 102 96 C102 51 78 13 50 13 C50 13 41 13 41 13 C41 13 41 0 41 0 C41 0 102 0 102 0 C102 0 183 0 183 0 C183 0 264 0 264 0 C264 0 469 0 469 0 C469 0 559 0 559 0 C559 0 565 0 565 0 C566 5 568 15 568 20 C575 55 585 115 591 150 C591 150 582 150 582 150 C582 150 574 133 574 133 C548 83 472 41 407 40 C407 40 264 40 264 40 C264 40 264 322 264 322 C264 322 355 322 355 322 C414 322 472 295 481 264 C481 264 483 253 483 253 C483 253 494 253 494 253 L494 253 Z M325 776 C325 776 434 690 434 690 C434 690 449 703 449 703 C449 703 373 862 373 862 C368 873 348 904 325 904 C303 904 283 874 278 863 C278 863 201 703 201 703 C201 703 216 690 216 690 C216 690 325 776 325 776 L325 776 Z " />
<glyph glyph-name="Edieresis" unicode="&#xcb;" horiz-adv-x="659" d="M432 730 C475 730 512 767 512 810 C512 853 475 890 432 890 C389 890 352 853 352 810 C352 767 389 730 432 730 L432 730 Z M219 730 C262 730 299 767 299 810 C299 853 262 890 219 890 C176 890 139 853 139 810 C139 767 176 730 219 730 L219 730 Z M494 253 C494 253 494 322 494 322 C494 322 494 342 494 342 C494 342 494 363 494 363 C494 363 494 423 494 423 C494 423 483 423 483 423 C483 423 481 414 481 414 C472 387 419 364 362 363 C362 363 355 363 355 363 C355 363 264 363 264 363 C264 363 264 620 264 620 C264 620 404 620 404 620 C468 620 537 577 554 527 C554 527 560 510 560 510 C560 510 569 510 569 510 C569 510 569 640 569 640 C569 640 569 660 569 660 C569 660 549 660 549 660 C549 660 473 660 473 660 C473 660 264 660 264 660 C264 660 183 660 183 660 C183 660 102 660 102 660 C102 660 41 660 41 660 C41 660 41 647 41 647 C41 647 50 647 50 647 C78 647 102 609 102 564 C102 564 102 96 102 96 C102 51 78 13 50 13 C50 13 41 13 41 13 C41 13 41 0 41 0 C41 0 102 0 102 0 C102 0 183 0 183 0 C183 0 264 0 264 0 C264 0 469 0 469 0 C469 0 559 0 559 0 C559 0 565 0 565 0 C566 5 568 15 568 20 C575 55 585 115 591 150 C591 150 582 150 582 150 C582 150 574 133 574 133 C548 83 472 41 407 40 C407 40 264 40 264 40 C264 40 264 322 264 322 C264 322 355 322 355 322 C414 322 472 295 481 264 C481 264 483 253 483 253 C483 253 494 253 494 253 L494 253 Z " />
<glyph glyph-name="Igrave" unicode="&#xcc;" horiz-adv-x="365" d="M326 660 C326 660 265 660 265 660 C265 660 184 660 184 660 C184 660 103 660 103 660 C103 660 42 660 42 660 C42 660 42 647 42 647 C42 647 51 647 51 647 C79 647 103 609 103 564 C103 564 103 96 103 96 C103 51 79 13 51 13 C51 13 42 13 42 13 C42 13 42 0 42 0 C42 0 103 0 103 0 C103 0 184 0 184 0 C184 0 265 0 265 0 C265 0 326 0 326 0 C326 0 326 13 326 13 C326 13 316 13 316 13 C289 13 265 51 265 96 C265 96 265 564 265 564 C265 609 289 647 316 647 C316 647 326 647 326 647 C326 647 326 660 326 660 L326 660 Z M209 870 C199 895 189 916 184 916 C161 916 98 871 99 854 C98 847 114 828 132 810 C132 810 255 689 255 689 C255 689 272 702 272 702 C272 702 209 870 209 870 L209 870 Z " />
<glyph glyph-name="Iacute" unicode="&#xcd;" horiz-adv-x="365" d="M124 689 C124 689 244 810 244 810 C262 828 277 847 277 854 C277 871 214 916 191 916 C187 916 177 895 168 870 C168 870 107 702 107 702 C107 702 124 689 124 689 L124 689 Z M326 660 C326 660 265 660 265 660 C265 660 184 660 184 660 C184 660 103 660 103 660 C103 660 42 660 42 660 C42 660 42 647 42 647 C42 647 51 647 51 647 C79 647 103 609 103 564 C103 564 103 96 103 96 C103 51 79 13 51 13 C51 13 42 13 42 13 C42 13 42 0 42 0 C42 0 103 0 103 0 C103 0 184 0 184 0 C184 0 265 0 265 0 C265 0 326 0 326 0 C326 0 326 13 326 13 C326 13 316 13 316 13 C289 13 265 51 265 96 C265 96 265 564 265 564 C265 609 289 647 316 647 C316 647 326 647 326 647 C326 647 326 660 326 660 L326 660 Z " />
<glyph glyph-name="Icircumflex" unicode="&#xce;" horiz-adv-x="365" d="M326 660 C326 660 265 660 265 660 C265 660 184 660 184 660 C184 660 103 660 103 660 C103 660 42 660 42 660 C42 660 42 647 42 647 C42 647 51 647 51 647 C79 647 103 609 103 564 C103 564 103 96 103 96 C103 51 79 13 51 13 C51 13 42 13 42 13 C42 13 42 0 42 0 C42 0 103 0 103 0 C103 0 184 0 184 0 C184 0 265 0 265 0 C265 0 326 0 326 0 C326 0 326 13 326 13 C326 13 316 13 316 13 C289 13 265 51 265 96 C265 96 265 564 265 564 C265 609 289 647 316 647 C316 647 326 647 326 647 C326 647 326 660 326 660 L326 660 Z M184 777 C184 777 293 690 293 690 C293 690 308 703 308 703 C308 703 232 862 232 862 C227 873 207 904 184 904 C161 904 142 874 136 863 C136 863 60 703 60 703 C60 703 75 690 75 690 C75 690 184 777 184 777 L184 777 Z " />
<glyph glyph-name="Idieresis" unicode="&#xcf;" horiz-adv-x="365" d="M290 730 C333 730 370 767 370 810 C370 853 333 890 290 890 C247 890 210 853 210 810 C210 767 247 730 290 730 L290 730 Z M77 730 C120 730 157 767 157 810 C157 853 120 890 77 890 C34 890 -3 853 -3 810 C-3 767 34 730 77 730 L77 730 Z M326 660 C326 660 265 660 265 660 C265 660 184 660 184 660 C184 660 103 660 103 660 C103 660 42 660 42 660 C42 660 42 647 42 647 C42 647 51 647 51 647 C79 647 103 609 103 564 C103 564 103 96 103 96 C103 51 79 13 51 13 C51 13 42 13 42 13 C42 13 42 0 42 0 C42 0 103 0 103 0 C103 0 184 0 184 0 C184 0 265 0 265 0 C265 0 326 0 326 0 C326 0 326 13 326 13 C326 13 316 13 316 13 C289 13 265 51 265 96 C265 96 265 564 265 564 C265 609 289 647 316 647 C316 647 326 647 326 647 C326 647 326 660 326 660 L326 660 Z " />
<glyph glyph-name="Ntilde" unicode="&#xd1;" horiz-adv-x="702" d="M212 755 C212 782 228 805 248 805 C299 805 361 743 411 743 C466 743 513 816 513 902 C513 902 488 902 488 902 C488 870 468 842 444 842 C393 842 331 905 280 905 C230 905 187 836 187 755 C187 755 212 755 212 755 L212 755 Z M665 660 C665 660 604 660 604 660 C604 660 580 660 580 660 C580 660 556 660 556 660 C556 660 495 660 495 660 C495 660 495 647 495 647 C495 647 504 647 504 647 C532 647 556 609 556 564 C556 564 556 236 556 236 C556 236 239 660 239 660 C239 660 144 660 144 660 C144 660 120 660 120 660 C120 660 95 660 95 660 C95 660 35 660 35 660 C35 660 35 647 35 647 C35 647 44 647 44 647 C72 647 95 609 95 564 C95 564 95 96 95 96 C95 51 72 13 44 13 C44 13 35 13 35 13 C35 13 35 0 35 0 C35 0 95 0 95 0 C95 0 120 0 120 0 C120 0 144 0 144 0 C144 0 205 0 205 0 C205 0 205 13 205 13 C205 13 196 13 196 13 C168 13 144 51 144 96 C144 96 144 517 144 517 C144 517 482 70 482 70 C482 70 550 -20 550 -20 C550 -20 604 -20 604 -20 C604 -20 604 129 604 129 C604 129 604 564 604 564 C604 609 628 647 656 647 C656 647 665 647 665 647 C665 647 665 660 665 660 L665 660 Z " />
<glyph glyph-name="Ograve" unicode="&#xd2;" horiz-adv-x="759" d="M371 35 C276 35 211 187 211 330 C211 473 276 625 371 625 C466 625 531 473 531 330 C531 187 466 35 371 35 L371 35 Z M32 330 C32 167 169 -5 371 -5 C572 -5 709 167 709 330 C709 493 572 665 371 665 C169 665 32 493 32 330 L32 330 Z M395 870 C386 895 376 916 371 916 C348 916 285 871 285 854 C285 847 301 828 319 810 C319 810 442 689 442 689 C442 689 459 702 459 702 C459 702 395 870 395 870 L395 870 Z " />
<glyph glyph-name="Oacute" unicode="&#xd3;" horiz-adv-x="759" d="M349 689 C349 689 469 810 469 810 C486 828 501 847 502 854 C501 871 439 916 416 916 C412 916 401 895 392 870 C392 870 332 702 332 702 C332 702 349 689 349 689 L349 689 Z M371 35 C276 35 211 187 211 330 C211 473 276 625 371 625 C466 625 531 473 531 330 C531 187 466 35 371 35 L371 35 Z M32 330 C32 167 169 -5 371 -5 C572 -5 709 167 709 330 C709 493 572 665 371 665 C169 665 32 493 32 330 L32 330 Z " />
<glyph glyph-name="Ocircumflex" unicode="&#xd4;" horiz-adv-x="759" d="M371 35 C276 35 211 187 211 330 C211 473 276 625 371 625 C466 625 531 473 531 330 C531 187 466 35 371 35 L371 35 Z M32 330 C32 167 169 -5 371 -5 C572 -5 709 167 709 330 C709 493 572 665 371 665 C169 665 32 493 32 330 L32 330 Z M371 777 C371 777 480 690 480 690 C480 690 495 703 495 703 C495 703 419 862 419 862 C413 873 393 904 371 904 C348 904 329 874 323 863 C323 863 247 703 247 703 C247 703 262 690 262 690 C262 690 371 777 371 777 L371 777 Z " />
<glyph glyph-name="Otilde" unicode="&#xd5;" horiz-adv-x="759" d="M233 755 C233 782 249 805 269 805 C319 805 382 743 432 743 C487 743 533 816 533 902 C533 902 508 902 508 902 C508 870 488 842 465 842 C414 842 352 905 301 905 C251 905 208 836 208 755 C208 755 233 755 233 755 L233 755 Z M371 35 C276 35 211 187 211 330 C211 473 276 625 371 625 C466 625 531 473 531 330 C531 187 466 35 371 35 L371 35 Z M32 330 C32 167 169 -5 371 -5 C572 -5 709 167 709 330 C709 493 572 665 371 665 C169 665 32 493 32 330 L32 330 Z " />
<glyph glyph-name="Odieresis" unicode="&#xd6;" horiz-adv-x="759" d="M477 730 C520 730 557 767 557 810 C557 853 520 890 477 890 C434 890 397 853 397 810 C397 767 434 730 477 730 L477 730 Z M264 730 C307 730 344 767 344 810 C344 853 307 890 264 890 C221 890 184 853 184 810 C184 767 221 730 264 730 L264 730 Z M371 35 C276 35 211 187 211 330 C211 473 276 625 371 625 C466 625 531 473 531 330 C531 187 466 35 371 35 L371 35 Z M32 330 C32 167 169 -5 371 -5 C572 -5 709 167 709 330 C709 493 572 665 371 665 C169 665 32 493 32 330 L32 330 Z " />
<glyph glyph-name="Oslash" unicode="&#xd8;" horiz-adv-x="759" d="M58 -31 C58 -31 160 70 160 70 C216 24 288 -5 371 -5 C572 -5 709 167 709 330 C709 403 682 478 633 538 C633 538 735 639 735 639 C735 639 683 691 683 691 C683 691 581 590 581 590 C525 636 454 665 371 665 C169 665 32 493 32 330 C32 257 60 182 108 121 C108 121 7 21 7 21 C7 21 58 -31 58 -31 L58 -31 Z M371 35 C317 35 272 84 244 153 C244 153 521 427 521 427 C528 396 531 363 531 330 C531 187 466 35 371 35 C371 35 371 35 371 35 L371 35 Z M221 233 C214 264 211 297 211 330 C211 473 276 625 371 625 C425 625 469 576 498 507 C498 507 221 233 221 233 L221 233 Z " />
<glyph glyph-name="Ugrave" unicode="&#xd9;" horiz-adv-x="700" d="M680 660 C680 660 612 660 612 660 C612 660 587 660 587 660 C587 660 562 660 562 660 C562 660 489 660 489 660 C489 660 489 647 489 647 C489 647 500 647 500 647 C531 647 559 608 562 562 C562 562 561 211 561 211 C561 125 495 52 373 52 C285 52 237 117 237 193 C237 193 237 564 237 564 C237 609 261 647 289 647 C289 647 298 647 298 647 C298 647 298 660 298 660 C298 660 237 660 237 660 C237 660 156 660 156 660 C156 660 75 660 75 660 C75 660 15 660 15 660 C15 660 15 647 15 647 C15 647 24 647 24 647 C51 647 75 609 75 564 C75 564 75 225 75 225 C75 101 171 -5 349 -5 C519 -5 612 87 612 195 C612 195 612 554 612 554 C612 554 612 559 612 559 C613 607 639 647 670 647 C670 647 680 647 680 647 C680 647 680 660 680 660 L680 660 Z M368 870 C359 895 349 916 344 916 C321 916 258 871 258 854 C258 847 274 828 292 810 C292 810 414 689 414 689 C414 689 431 702 431 702 C431 702 368 870 368 870 L368 870 Z " />
<glyph glyph-name="Uacute" unicode="&#xda;" horiz-adv-x="700" d="M345 689 C345 689 464 810 464 810 C482 828 497 847 497 854 C497 871 435 916 411 916 C407 916 397 895 388 870 C388 870 328 702 328 702 C328 702 345 689 345 689 L345 689 Z M680 660 C680 660 612 660 612 660 C612 660 587 660 587 660 C587 660 562 660 562 660 C562 660 489 660 489 660 C489 660 489 647 489 647 C489 647 500 647 500 647 C531 647 559 608 562 562 C562 562 561 211 561 211 C561 125 495 52 373 52 C285 52 237 117 237 193 C237 193 237 564 237 564 C237 609 261 647 289 647 C289 647 298 647 298 647 C298 647 298 660 298 660 C298 660 237 660 237 660 C237 660 156 660 156 660 C156 660 75 660 75 660 C75 660 15 660 15 660 C15 660 15 647 15 647 C15 647 24 647 24 647 C51 647 75 609 75 564 C75 564 75 225 75 225 C75 101 171 -5 349 -5 C519 -5 612 87 612 195 C612 195 612 554 612 554 C612 554 612 559 612 559 C613 607 639 647 670 647 C670 647 680 647 680 647 C680 647 680 660 680 660 L680 660 Z " />
<glyph glyph-name="Ucircumflex" unicode="&#xdb;" horiz-adv-x="700" d="M680 660 C680 660 612 660 612 660 C612 660 587 660 587 660 C587 660 562 660 562 660 C562 660 489 660 489 660 C489 660 489 647 489 647 C489 647 500 647 500 647 C531 647 559 608 562 562 C562 562 561 211 561 211 C561 125 495 52 373 52 C285 52 237 117 237 193 C237 193 237 564 237 564 C237 609 261 647 289 647 C289 647 298 647 298 647 C298 647 298 660 298 660 C298 660 237 660 237 660 C237 660 156 660 156 660 C156 660 75 660 75 660 C75 660 15 660 15 660 C15 660 15 647 15 647 C15 647 24 647 24 647 C51 647 75 609 75 564 C75 564 75 225 75 225 C75 101 171 -5 349 -5 C519 -5 612 87 612 195 C612 195 612 554 612 554 C612 554 612 559 612 559 C613 607 639 647 670 647 C670 647 680 647 680 647 C680 647 680 660 680 660 L680 660 Z M343 776 C343 776 452 690 452 690 C452 690 468 703 468 703 C468 703 391 862 391 862 C386 873 366 904 343 904 C321 904 301 874 296 863 C296 863 219 703 219 703 C219 703 234 690 234 690 C234 690 343 776 343 776 L343 776 Z " />
<glyph glyph-name="Udieresis" unicode="&#xdc;" horiz-adv-x="700" d="M450 730 C493 730 530 767 530 810 C530 853 493 890 450 890 C407 890 370 853 370 810 C370 767 407 730 450 730 L450 730 Z M237 730 C280 730 317 767 317 810 C317 853 280 890 237 890 C194 890 157 853 157 810 C157 767 194 730 237 730 L237 730 Z M680 660 C680 660 612 660 612 660 C612 660 587 660 587 660 C587 660 562 660 562 660 C562 660 489 660 489 660 C489 660 489 647 489 647 C489 647 500 647 500 647 C531 647 559 608 562 562 C562 562 561 211 561 211 C561 125 495 52 373 52 C285 52 237 117 237 193 C237 193 237 564 237 564 C237 609 261 647 289 647 C289 647 298 647 298 647 C298 647 298 660 298 660 C298 660 237 660 237 660 C237 660 156 660 156 660 C156 660 75 660 75 660 C75 660 15 660 15 660 C15 660 15 647 15 647 C15 647 24 647 24 647 C51 647 75 609 75 564 C75 564 75 225 75 225 C75 101 171 -5 349 -5 C519 -5 612 87 612 195 C612 195 612 554 612 554 C612 554 612 559 612 559 C613 607 639 647 670 647 C670 647 680 647 680 647 C680 647 680 660 680 660 L680 660 Z " />
<glyph glyph-name="Yacute" unicode="&#xdd;" horiz-adv-x="687" d="M336 689 C336 689 456 810 456 810 C473 828 488 847 488 854 C488 871 426 916 403 916 C398 916 388 895 379 870 C379 870 319 702 319 702 C319 702 336 689 336 689 L336 689 Z M476 13 C476 13 467 13 467 13 C439 13 416 51 416 96 C416 96 416 346 416 346 C416 346 416 346 416 346 C416 346 583 578 583 578 C615 617 656 647 677 647 C677 647 685 647 685 647 C685 647 685 660 685 660 C685 660 642 660 642 660 C642 660 617 660 617 660 C617 660 592 660 592 660 C592 660 503 660 503 660 C502 660 502 657 503 654 C502 650 502 647 503 647 C503 647 515 647 515 647 C552 647 550 600 510 544 C510 544 511 544 511 544 C511 544 399 384 399 384 C399 384 283 564 283 564 C283 564 284 564 284 564 C255 609 256 647 285 647 C285 647 295 647 295 647 C295 647 295 660 295 660 C295 660 222 660 222 660 C222 660 125 660 125 660 C125 660 28 660 28 660 C28 660 -9 660 -9 660 C-9 660 -9 647 -9 647 C-9 647 -2 647 -2 647 C18 647 60 609 88 564 C88 564 88 564 88 564 C88 564 254 299 254 299 C254 299 254 96 254 96 C254 51 230 13 202 13 C202 13 193 13 193 13 C193 13 193 0 193 0 C193 0 254 0 254 0 C254 0 335 0 335 0 C335 0 416 0 416 0 C416 0 476 0 476 0 C476 0 476 13 476 13 L476 13 Z " />
<glyph glyph-name="agrave" unicode="&#xe0;" horiz-adv-x="597" d="M548 64 C505 73 489 90 488 149 C488 149 488 162 488 162 C488 162 488 500 488 500 C488 500 446 500 446 500 C446 500 369 429 369 429 C349 468 306 505 274 505 C155 505 54 372 54 216 C54 97 128 -5 215 -5 C253 -5 303 36 338 92 C338 92 338 0 338 0 C338 0 338 -5 338 -5 C338 -5 363 -5 363 -5 C363 -5 447 25 447 25 C447 25 548 56 548 56 C548 56 548 64 548 64 L548 64 Z M240 710 C231 735 221 756 216 756 C193 756 130 711 130 694 C130 687 146 668 163 650 C163 650 286 529 286 529 C286 529 303 542 303 542 C303 542 240 710 240 710 L240 710 Z M338 126 C326 104 308 87 298 87 C251 87 211 172 211 273 C211 376 237 464 267 464 C292 464 326 431 338 400 C338 400 338 126 338 126 L338 126 Z " />
<glyph glyph-name="aacute" unicode="&#xe1;" horiz-adv-x="527" d="M203 529 C203 529 323 650 323 650 C340 668 355 687 355 694 C355 711 293 756 270 756 C266 756 256 735 246 710 C246 710 186 542 186 542 C186 542 203 529 203 529 L203 529 Z M506 84 C499 72 484 62 464 62 C436 62 424 95 424 134 C424 134 424 348 424 348 C424 433 353 505 270 505 C162 505 57 448 41 382 C41 382 191 382 191 382 C201 426 222 464 237 464 C252 464 265 426 265 382 C265 382 265 266 265 266 C265 266 225 262 225 262 C124 251 37 180 37 107 C37 47 91 -5 155 -5 C202 -5 248 10 284 35 C299 7 325 -10 362 -10 C445 -10 500 24 523 64 C523 64 506 84 506 84 L506 84 Z M265 224 C265 224 265 117 265 117 C265 111 265 104 266 98 C254 96 242 95 230 95 C206 95 185 120 185 150 C185 180 204 210 225 215 C225 215 265 224 265 224 L265 224 Z " />
<glyph glyph-name="acircumflex" unicode="&#xe2;" horiz-adv-x="597" d="M548 64 C505 73 489 90 488 149 C488 149 488 162 488 162 C488 162 488 500 488 500 C488 500 446 500 446 500 C446 500 369 429 369 429 C349 468 306 505 274 505 C155 505 54 372 54 216 C54 97 128 -5 215 -5 C253 -5 303 36 338 92 C338 92 338 0 338 0 C338 0 338 -5 338 -5 C338 -5 363 -5 363 -5 C363 -5 447 25 447 25 C447 25 548 56 548 56 C548 56 548 64 548 64 L548 64 Z M215 616 C215 616 324 530 324 530 C324 530 340 543 340 543 C340 543 263 702 263 702 C258 713 238 744 215 744 C193 744 173 714 168 703 C168 703 91 543 91 543 C91 543 106 530 106 530 C106 530 215 616 215 616 L215 616 Z M338 126 C326 104 308 87 298 87 C251 87 211 172 211 273 C211 376 237 464 267 464 C292 464 326 431 338 400 C338 400 338 126 338 126 L338 126 Z " />
<glyph glyph-name="atilde" unicode="&#xe3;" horiz-adv-x="597" d="M78 595 C78 622 94 645 113 645 C164 645 226 583 277 583 C332 583 378 656 378 742 C378 742 353 742 353 742 C353 710 333 682 309 682 C259 682 196 745 146 745 C96 745 53 676 53 595 C53 595 78 595 78 595 L78 595 Z M548 64 C505 73 489 90 488 149 C488 149 488 162 488 162 C488 162 488 500 488 500 C488 500 446 500 446 500 C446 500 369 429 369 429 C349 468 306 505 274 505 C155 505 54 372 54 216 C54 97 128 -5 215 -5 C253 -5 303 36 338 92 C338 92 338 0 338 0 C338 0 338 -5 338 -5 C338 -5 363 -5 363 -5 C363 -5 447 25 447 25 C447 25 548 56 548 56 C548 56 548 64 548 64 L548 64 Z M338 126 C326 104 308 87 298 87 C251 87 211 172 211 273 C211 376 237 464 267 464 C292 464 326 431 338 400 C338 400 338 126 338 126 L338 126 Z " />
<glyph glyph-name="adieresis" unicode="&#xe4;" horiz-adv-x="597" d="M322 570 C365 570 402 607 402 650 C402 693 365 730 322 730 C279 730 242 693 242 650 C242 607 279 570 322 570 L322 570 Z M109 570 C152 570 189 607 189 650 C189 693 152 730 109 730 C66 730 29 693 29 650 C29 607 66 570 109 570 L109 570 Z M548 64 C505 73 489 90 488 149 C488 149 488 162 488 162 C488 162 488 500 488 500 C488 500 446 500 446 500 C446 500 369 429 369 429 C349 468 306 505 274 505 C155 505 54 372 54 216 C54 97 128 -5 215 -5 C253 -5 303 36 338 92 C338 92 338 0 338 0 C338 0 338 -5 338 -5 C338 -5 363 -5 363 -5 C363 -5 447 25 447 25 C447 25 548 56 548 56 C548 56 548 64 548 64 L548 64 Z M338 126 C326 104 308 87 298 87 C251 87 211 172 211 273 C211 376 237 464 267 464 C292 464 326 431 338 400 C338 400 338 126 338 126 L338 126 Z " />
<glyph glyph-name="aring" unicode="&#xe5;" horiz-adv-x="597" d="M215 568 C188 568 160 599 160 628 C160 660 185 687 215 687 C245 687 271 660 271 628 C271 599 242 568 215 568 L215 568 Z M118 628 C118 583 168 535 215 535 C262 535 312 583 312 628 C312 677 268 720 215 720 C163 720 118 677 118 628 L118 628 Z M548 64 C505 73 489 90 488 149 C488 149 488 162 488 162 C488 162 488 500 488 500 C488 500 446 500 446 500 C446 500 369 429 369 429 C349 468 306 505 274 505 C155 505 54 372 54 216 C54 97 128 -5 215 -5 C253 -5 303 36 338 92 C338 92 338 0 338 0 C338 0 338 -5 338 -5 C338 -5 363 -5 363 -5 C363 -5 447 25 447 25 C447 25 548 56 548 56 C548 56 548 64 548 64 L548 64 Z M338 126 C326 104 308 87 298 87 C251 87 211 172 211 273 C211 376 237 464 267 464 C292 464 326 431 338 400 C338 400 338 126 338 126 L338 126 Z " />
<glyph glyph-name="ccedilla" unicode="&#xe7;" horiz-adv-x="546" d="M497 119 C497 119 482 134 482 134 C456 108 418 86 399 86 C297 86 209 177 209 283 C209 380 248 463 294 463 C324 463 352 436 355 405 C359 365 393 331 430 331 C466 331 497 362 497 397 C491 456 406 505 311 505 C170 505 50 377 50 226 C50 101 153 -5 274 -5 C326 -5 429 52 497 119 L497 119 Z " />
<glyph glyph-name="egrave" unicode="&#xe8;" horiz-adv-x="552" d="M503 119 C503 119 488 134 488 134 C462 108 422 86 402 86 C302 86 216 170 209 271 C209 271 361 271 361 271 C361 271 502 271 502 271 C502 397 407 505 296 505 C163 505 50 377 50 226 C50 101 154 -5 277 -5 C331 -5 435 52 503 119 L503 119 Z M321 710 C312 735 302 756 297 756 C274 756 211 711 211 694 C211 687 227 668 244 650 C244 650 367 529 367 529 C367 529 384 542 384 542 C384 542 321 710 321 710 L321 710 Z M209 299 C213 389 247 463 288 463 C328 463 362 432 362 397 C362 361 333 325 298 315 C298 315 209 299 209 299 L209 299 Z " />
<glyph glyph-name="eacute" unicode="&#xe9;" horiz-adv-x="552" d="M267 529 C267 529 387 650 387 650 C405 668 420 687 420 694 C420 711 357 756 334 756 C330 756 320 735 310 710 C310 710 250 542 250 542 C250 542 267 529 267 529 L267 529 Z M503 119 C503 119 488 134 488 134 C462 108 422 86 402 86 C302 86 216 170 209 271 C209 271 361 271 361 271 C361 271 502 271 502 271 C502 397 407 505 296 505 C163 505 50 377 50 226 C50 101 154 -5 277 -5 C331 -5 435 52 503 119 L503 119 Z M209 299 C213 389 247 463 288 463 C328 463 362 432 362 397 C362 361 333 325 298 315 C298 315 209 299 209 299 L209 299 Z " />
<glyph glyph-name="ecircumflex" unicode="&#xea;" horiz-adv-x="552" d="M503 119 C503 119 488 134 488 134 C462 108 422 86 402 86 C302 86 216 170 209 271 C209 271 361 271 361 271 C361 271 502 271 502 271 C502 397 407 505 296 505 C163 505 50 377 50 226 C50 101 154 -5 277 -5 C331 -5 435 52 503 119 L503 119 Z M296 616 C296 616 405 530 405 530 C405 530 421 543 421 543 C421 543 344 702 344 702 C339 713 319 744 296 744 C274 744 254 714 249 703 C249 703 172 543 172 543 C172 543 187 530 187 530 C187 530 296 616 296 616 L296 616 Z M209 299 C213 389 247 463 288 463 C328 463 362 432 362 397 C362 361 333 325 298 315 C298 315 209 299 209 299 L209 299 Z " />
<glyph glyph-name="edieresis" unicode="&#xeb;" horiz-adv-x="552" d="M403 570 C446 570 483 607 483 650 C483 693 446 730 403 730 C360 730 323 693 323 650 C323 607 360 570 403 570 L403 570 Z M190 570 C233 570 270 607 270 650 C270 693 233 730 190 730 C147 730 110 693 110 650 C110 607 147 570 190 570 L190 570 Z M503 119 C503 119 488 134 488 134 C462 108 422 86 402 86 C302 86 216 170 209 271 C209 271 361 271 361 271 C361 271 502 271 502 271 C502 397 407 505 296 505 C163 505 50 377 50 226 C50 101 154 -5 277 -5 C331 -5 435 52 503 119 L503 119 Z M209 299 C213 389 247 463 288 463 C328 463 362 432 362 397 C362 361 333 325 298 315 C298 315 209 299 209 299 L209 299 Z " />
<glyph glyph-name="igrave" unicode="&#xec;" horiz-adv-x="361" d="M256 0 C256 0 316 0 316 0 C316 0 316 13 316 13 C316 13 304 13 304 13 C278 13 256 10 256 0 C256 0 256 404 256 404 C256 404 256 505 256 505 C256 505 247 505 247 505 C247 505 55 446 55 446 C55 446 55 437 55 437 C55 437 91 423 91 423 C99 420 106 404 106 360 C106 360 106 0 106 0 C106 0 45 0 45 0 C45 0 45 13 45 13 C45 13 57 13 57 13 C84 13 106 10 106 0 C106 0 256 0 256 0 L256 0 Z M205 710 C196 735 186 756 181 756 C158 756 95 711 95 694 C95 687 111 668 129 650 C129 650 252 529 252 529 C252 529 268 542 268 542 C268 542 205 710 205 710 L205 710 Z " />
<glyph glyph-name="iacute" unicode="&#xed;" horiz-adv-x="361" d="M106 529 C106 529 225 650 225 650 C243 668 258 687 258 694 C258 711 195 756 172 756 C168 756 158 735 149 710 C149 710 89 542 89 542 C89 542 106 529 106 529 L106 529 Z M256 0 C256 0 316 0 316 0 C316 0 316 13 316 13 C316 13 304 13 304 13 C278 13 256 10 256 0 C256 0 256 404 256 404 C256 404 256 505 256 505 C256 505 247 505 247 505 C247 505 55 446 55 446 C55 446 55 437 55 437 C55 437 91 423 91 423 C99 420 106 404 106 360 C106 360 106 0 106 0 C106 0 45 0 45 0 C45 0 45 13 45 13 C45 13 57 13 57 13 C84 13 106 10 106 0 C106 0 256 0 256 0 L256 0 Z " />
<glyph glyph-name="icircumflex" unicode="&#xee;" horiz-adv-x="361" d="M256 0 C256 0 316 0 316 0 C316 0 316 13 316 13 C316 13 304 13 304 13 C278 13 256 10 256 0 C256 0 256 404 256 404 C256 404 256 505 256 505 C256 505 247 505 247 505 C247 505 55 446 55 446 C55 446 55 437 55 437 C55 437 91 423 91 423 C99 420 106 404 106 360 C106 360 106 0 106 0 C106 0 45 0 45 0 C45 0 45 13 45 13 C45 13 57 13 57 13 C84 13 106 10 106 0 C106 0 256 0 256 0 L256 0 Z M133 655 C133 655 181 617 181 617 C181 617 228 654 228 654 C228 654 133 655 133 655 L133 655 Z M181 617 C181 617 290 530 290 530 C290 530 305 543 305 543 C305 543 229 702 229 702 C223 713 203 744 181 744 C158 744 138 714 133 703 C133 703 56 543 56 543 C56 543 72 530 72 530 C72 530 181 617 181 617 L181 617 Z " />
<glyph glyph-name="idieresis" unicode="&#xef;" horiz-adv-x="361" d="M287 570 C330 570 367 607 367 650 C367 693 330 730 287 730 C244 730 207 693 207 650 C207 607 244 570 287 570 L287 570 Z M74 570 C117 570 154 607 154 650 C154 693 117 730 74 730 C31 730 -6 693 -6 650 C-6 607 31 570 74 570 L74 570 Z M256 0 C256 0 316 0 316 0 C316 0 316 13 316 13 C316 13 304 13 304 13 C278 13 256 10 256 0 C256 0 256 404 256 404 C256 404 256 505 256 505 C256 505 247 505 247 505 C247 505 55 446 55 446 C55 446 55 437 55 437 C55 437 91 423 91 423 C99 420 106 404 106 360 C106 360 106 0 106 0 C106 0 45 0 45 0 C45 0 45 13 45 13 C45 13 57 13 57 13 C84 13 106 10 106 0 C106 0 256 0 256 0 L256 0 Z " />
<glyph glyph-name="ntilde" unicode="&#xf1;" horiz-adv-x="615" d="M172 595 C172 622 189 645 208 645 C259 645 321 583 372 583 C426 583 473 656 473 742 C473 742 448 742 448 742 C448 710 428 682 404 682 C353 682 291 745 240 745 C190 745 147 676 147 595 C147 595 172 595 172 595 L172 595 Z M576 13 C576 13 567 13 567 13 C539 13 515 51 515 96 C515 96 515 339 515 339 C515 429 479 505 413 505 C364 505 297 466 255 416 C255 416 255 500 255 500 C255 500 225 500 225 500 C225 500 44 444 44 444 C44 444 44 436 44 436 C90 426 105 407 105 338 C105 338 105 96 105 96 C105 51 81 13 53 13 C53 13 44 13 44 13 C44 13 44 0 44 0 C44 0 105 0 105 0 C105 0 180 0 180 0 C180 0 255 0 255 0 C255 0 305 0 305 0 C305 0 315 0 315 0 C315 0 365 0 365 0 C365 0 440 0 440 0 C440 0 515 0 515 0 C515 0 576 0 576 0 C576 0 576 13 576 13 L576 13 Z M314 13 C314 13 306 13 306 13 C278 13 255 51 255 96 C255 96 255 365 255 365 C255 365 204 365 204 365 C204 365 255 379 255 379 C255 379 255 392 255 392 C267 399 283 404 297 404 C341 404 365 367 365 323 C365 323 365 96 365 96 C365 51 341 13 314 13 C314 13 314 13 314 13 L314 13 Z " />
<glyph glyph-name="ograve" unicode="&#xf2;" horiz-adv-x="616" d="M308 28 C259 28 217 130 217 250 C217 370 259 472 308 472 C358 472 400 370 400 250 C400 130 358 28 308 28 L308 28 Z M50 250 C50 112 169 -5 308 -5 C448 -5 567 112 567 250 C567 388 448 505 308 505 C169 505 50 388 50 250 L50 250 Z M333 710 C324 735 314 756 309 756 C286 756 223 711 223 694 C223 687 239 668 256 650 C256 650 379 529 379 529 C379 529 396 542 396 542 C396 542 333 710 333 710 L333 710 Z " />
<glyph glyph-name="oacute" unicode="&#xf3;" horiz-adv-x="616" d="M279 529 C279 529 399 650 399 650 C417 668 432 687 432 694 C432 711 369 756 346 756 C342 756 332 735 322 710 C322 710 262 542 262 542 C262 542 279 529 279 529 L279 529 Z M308 28 C259 28 217 130 217 250 C217 370 259 472 308 472 C358 472 400 370 400 250 C400 130 358 28 308 28 L308 28 Z M50 250 C50 112 169 -5 308 -5 C448 -5 567 112 567 250 C567 388 448 505 308 505 C169 505 50 388 50 250 L50 250 Z " />
<glyph glyph-name="ocircumflex" unicode="&#xf4;" horiz-adv-x="616" d="M308 28 C259 28 217 130 217 250 C217 370 259 472 308 472 C358 472 400 370 400 250 C400 130 358 28 308 28 L308 28 Z M50 250 C50 112 169 -5 308 -5 C448 -5 567 112 567 250 C567 388 448 505 308 505 C169 505 50 388 50 250 L50 250 Z M308 616 C308 616 417 530 417 530 C417 530 433 543 433 543 C433 543 356 702 356 702 C351 713 331 744 308 744 C286 744 266 714 261 703 C261 703 184 543 184 543 C184 543 199 530 199 530 C199 530 308 616 308 616 L308 616 Z " />
<glyph glyph-name="otilde" unicode="&#xf5;" horiz-adv-x="616" d="M171 595 C171 622 187 645 206 645 C257 645 319 583 370 583 C425 583 471 656 471 742 C471 742 446 742 446 742 C446 710 426 682 402 682 C352 682 289 745 239 745 C189 745 146 676 146 595 C146 595 171 595 171 595 L171 595 Z M308 28 C259 28 217 130 217 250 C217 370 259 472 308 472 C358 472 400 370 400 250 C400 130 358 28 308 28 L308 28 Z M50 250 C50 112 169 -5 308 -5 C448 -5 567 112 567 250 C567 388 448 505 308 505 C169 505 50 388 50 250 L50 250 Z " />
<glyph glyph-name="odieresis" unicode="&#xf6;" horiz-adv-x="616" d="M415 570 C458 570 495 607 495 650 C495 693 458 730 415 730 C372 730 335 693 335 650 C335 607 372 570 415 570 L415 570 Z M202 570 C245 570 282 607 282 650 C282 693 245 730 202 730 C159 730 122 693 122 650 C122 607 159 570 202 570 L202 570 Z M308 28 C259 28 217 130 217 250 C217 370 259 472 308 472 C358 472 400 370 400 250 C400 130 358 28 308 28 L308 28 Z M50 250 C50 112 169 -5 308 -5 C448 -5 567 112 567 250 C567 388 448 505 308 505 C169 505 50 388 50 250 L50 250 Z " />
<glyph glyph-name="oslash" unicode="&#xf8;" horiz-adv-x="616" d="M68 -23 C68 -23 146 54 146 54 C191 17 247 -5 308 -5 C448 -5 567 112 567 250 C567 310 544 367 507 411 C507 411 584 487 584 487 C584 487 549 523 549 523 C549 523 471 446 471 446 C426 483 369 505 308 505 C169 505 50 388 50 250 C50 190 73 134 110 90 C110 90 32 13 32 13 C32 13 68 -23 68 -23 L68 -23 Z M308 28 C276 28 246 72 230 137 C230 137 397 302 397 302 C399 286 400 268 400 250 C400 130 358 28 308 28 C308 28 308 28 308 28 L308 28 Z M220 198 C218 215 217 232 217 250 C217 370 259 472 308 472 C341 472 370 428 387 363 C387 363 220 198 220 198 L220 198 Z " />
<glyph glyph-name="ugrave" unicode="&#xf9;" horiz-adv-x="580" d="M546 64 C500 74 486 92 485 162 C485 162 485 500 485 500 C485 500 410 500 410 500 C410 500 335 500 335 500 C335 500 275 500 275 500 C275 500 275 487 275 487 C275 487 284 487 284 487 C311 487 335 449 335 404 C335 404 335 121 335 121 C335 121 335 113 335 113 C325 102 316 94 313 94 C260 94 224 128 224 169 C224 169 225 500 225 500 C225 500 150 500 150 500 C150 500 75 500 75 500 C75 500 14 500 14 500 C14 500 14 487 14 487 C14 487 23 487 23 487 C51 487 75 449 75 404 C75 404 75 153 75 153 C75 68 124 -5 195 -5 C233 -5 288 35 335 88 C335 88 335 39 335 39 C335 39 335 0 335 0 C335 0 365 0 365 0 C365 0 546 56 546 56 C546 56 546 64 546 64 L546 64 Z M305 710 C296 735 285 756 280 756 C257 756 195 711 195 694 C194 687 210 668 228 650 C228 650 351 529 351 529 C351 529 368 542 368 542 C368 542 305 710 305 710 L305 710 Z " />
<glyph glyph-name="uacute" unicode="&#xfa;" horiz-adv-x="580" d="M251 529 C251 529 371 650 371 650 C388 668 403 687 403 694 C403 711 341 756 318 756 C314 756 304 735 294 710 C294 710 234 542 234 542 C234 542 251 529 251 529 L251 529 Z M546 64 C500 74 486 92 485 162 C485 162 485 500 485 500 C485 500 410 500 410 500 C410 500 335 500 335 500 C335 500 275 500 275 500 C275 500 275 487 275 487 C275 487 284 487 284 487 C311 487 335 449 335 404 C335 404 335 121 335 121 C335 121 335 113 335 113 C325 102 316 94 313 94 C260 94 224 128 224 169 C224 169 225 500 225 500 C225 500 150 500 150 500 C150 500 75 500 75 500 C75 500 14 500 14 500 C14 500 14 487 14 487 C14 487 23 487 23 487 C51 487 75 449 75 404 C75 404 75 153 75 153 C75 68 124 -5 195 -5 C233 -5 288 35 335 88 C335 88 335 39 335 39 C335 39 335 0 335 0 C335 0 365 0 365 0 C365 0 546 56 546 56 C546 56 546 64 546 64 L546 64 Z " />
<glyph glyph-name="ucircumflex" unicode="&#xfb;" horiz-adv-x="580" d="M546 64 C500 74 486 92 485 162 C485 162 485 500 485 500 C485 500 410 500 410 500 C410 500 335 500 335 500 C335 500 275 500 275 500 C275 500 275 487 275 487 C275 487 284 487 284 487 C311 487 335 449 335 404 C335 404 335 121 335 121 C335 121 335 113 335 113 C325 102 316 94 313 94 C260 94 224 128 224 169 C224 169 225 500 225 500 C225 500 150 500 150 500 C150 500 75 500 75 500 C75 500 14 500 14 500 C14 500 14 487 14 487 C14 487 23 487 23 487 C51 487 75 449 75 404 C75 404 75 153 75 153 C75 68 124 -5 195 -5 C233 -5 288 35 335 88 C335 88 335 39 335 39 C335 39 335 0 335 0 C335 0 365 0 365 0 C365 0 546 56 546 56 C546 56 546 64 546 64 L546 64 Z M280 616 C280 616 389 530 389 530 C389 530 404 543 404 543 C404 543 328 702 328 702 C323 713 303 744 280 744 C258 744 238 714 233 703 C233 703 156 543 156 543 C156 543 171 530 171 530 C171 530 280 616 280 616 L280 616 Z " />
<glyph glyph-name="udieresis" unicode="&#xfc;" horiz-adv-x="580" d="M387 570 C430 570 467 607 467 650 C467 693 430 730 387 730 C344 730 307 693 307 650 C307 607 344 570 387 570 L387 570 Z M174 570 C217 570 254 607 254 650 C254 693 217 730 174 730 C131 730 94 693 94 650 C94 607 131 570 174 570 L174 570 Z M546 64 C500 74 486 92 485 162 C485 162 485 500 485 500 C485 500 410 500 410 500 C410 500 335 500 335 500 C335 500 275 500 275 500 C275 500 275 487 275 487 C275 487 284 487 284 487 C311 487 335 449 335 404 C335 404 335 121 335 121 C335 121 335 113 335 113 C325 102 316 94 313 94 C260 94 224 128 224 169 C224 169 225 500 225 500 C225 500 150 500 150 500 C150 500 75 500 75 500 C75 500 14 500 14 500 C14 500 14 487 14 487 C14 487 23 487 23 487 C51 487 75 449 75 404 C75 404 75 153 75 153 C75 68 124 -5 195 -5 C233 -5 288 35 335 88 C335 88 335 39 335 39 C335 39 335 0 335 0 C335 0 365 0 365 0 C365 0 546 56 546 56 C546 56 546 64 546 64 L546 64 Z " />
<glyph glyph-name="ydieresis" unicode="&#xff;" horiz-adv-x="540" d="M392 570 C435 570 472 607 472 650 C472 693 435 730 392 730 C349 730 312 693 312 650 C312 607 349 570 392 570 L392 570 Z M179 570 C222 570 259 607 259 650 C259 693 222 730 179 730 C136 730 99 693 99 650 C99 607 136 570 179 570 L179 570 Z M597 500 C597 500 542 500 542 500 C542 500 517 500 517 500 C517 500 492 500 492 500 C492 500 431 500 431 500 C431 500 431 487 431 487 C431 487 440 487 440 487 C465 487 471 449 452 404 C452 404 452 404 452 404 C452 404 359 181 359 181 C359 181 248 404 248 404 C248 404 248 404 248 404 C226 449 228 487 253 487 C253 487 261 487 261 487 C261 487 261 500 261 500 C261 500 200 500 200 500 C200 500 115 500 115 500 C115 500 29 500 29 500 C29 500 -26 500 -26 500 C-26 500 -26 487 -26 487 C-26 487 -17 487 -17 487 C12 487 54 449 76 404 C76 404 76 404 76 404 C76 404 270 10 270 10 C270 10 237 -58 237 -58 C215 -105 185 -131 153 -131 C124 -131 82 -105 53 -105 C13 -105 -22 -134 -22 -169 C-22 -202 16 -230 61 -230 C153 -230 229 -174 277 -72 C277 -72 305 -10 305 -10 C305 -10 502 414 502 414 C524 454 562 487 588 487 C588 487 597 487 597 487 C597 487 597 500 597 500 L597 500 Z " />
<glyph glyph-name="Amacron" unicode="&#x100;" horiz-adv-x="722" d="M179 756 C179 756 479 756 479 756 C479 756 479 840 479 840 C479 840 179 840 179 840 C179 840 179 756 179 756 L179 756 Z M716 13 C716 13 708 13 708 13 C682 13 643 51 622 96 C622 96 622 96 622 96 C622 96 349 675 349 675 C349 675 309 675 309 675 C309 675 84 87 84 87 C66 46 30 13 5 13 C5 13 -4 13 -4 13 C-4 13 -4 0 -4 0 C-4 0 51 0 51 0 C51 0 78 0 78 0 C78 0 105 0 105 0 C105 0 194 0 194 0 C194 0 194 13 194 13 C194 13 181 13 181 13 C143 13 127 55 143 106 C143 106 186 223 186 223 C186 223 388 223 388 223 C388 223 447 96 447 96 C447 96 446 96 446 96 C467 51 455 13 419 13 C419 13 408 13 408 13 C408 13 408 0 408 0 C408 0 491 0 491 0 C491 0 579 0 579 0 C579 0 667 0 667 0 C667 0 716 0 716 0 C716 0 716 13 716 13 L716 13 Z M369 263 C369 263 200 264 200 264 C200 264 275 469 275 469 C275 469 369 263 369 263 L369 263 Z " />
<glyph glyph-name="amacron" unicode="&#x101;" horiz-adv-x="597" d="M65 596 C65 596 365 596 365 596 C365 596 365 680 365 680 C365 680 65 680 65 680 C65 680 65 596 65 596 L65 596 Z M548 64 C505 73 489 90 488 149 C488 149 488 162 488 162 C488 162 488 500 488 500 C488 500 446 500 446 500 C446 500 369 429 369 429 C349 468 306 505 274 505 C155 505 54 372 54 216 C54 97 128 -5 215 -5 C253 -5 303 36 338 92 C338 92 338 0 338 0 C338 0 338 -5 338 -5 C338 -5 363 -5 363 -5 C363 -5 447 25 447 25 C447 25 548 56 548 56 C548 56 548 64 548 64 L548 64 Z M338 126 C326 104 308 87 298 87 C251 87 211 172 211 273 C211 376 237 464 267 464 C292 464 326 431 338 400 C338 400 338 126 338 126 L338 126 Z " />
<glyph glyph-name="Abreve" unicode="&#x102;" horiz-adv-x="722" d="M188 869 C235 787 300 718 329 718 C358 718 423 787 470 869 C470 869 447 882 447 882 C427 847 373 818 329 818 C285 818 231 847 211 882 C211 882 188 869 188 869 L188 869 Z M716 13 C716 13 708 13 708 13 C682 13 643 51 622 96 C622 96 622 96 622 96 C622 96 349 675 349 675 C349 675 309 675 309 675 C309 675 84 87 84 87 C66 46 30 13 5 13 C5 13 -4 13 -4 13 C-4 13 -4 0 -4 0 C-4 0 51 0 51 0 C51 0 78 0 78 0 C78 0 105 0 105 0 C105 0 194 0 194 0 C194 0 194 13 194 13 C194 13 181 13 181 13 C143 13 127 55 143 106 C143 106 186 223 186 223 C186 223 388 223 388 223 C388 223 447 96 447 96 C447 96 446 96 446 96 C467 51 455 13 419 13 C419 13 408 13 408 13 C408 13 408 0 408 0 C408 0 491 0 491 0 C491 0 579 0 579 0 C579 0 667 0 667 0 C667 0 716 0 716 0 C716 0 716 13 716 13 L716 13 Z M369 263 C369 263 200 264 200 264 C200 264 275 469 275 469 C275 469 369 263 369 263 L369 263 Z " />
<glyph glyph-name="abreve" unicode="&#x103;" horiz-adv-x="597" d="M74 679 C121 597 186 528 215 528 C244 528 309 597 356 679 C356 679 333 692 333 692 C313 657 259 628 215 628 C171 628 117 657 97 692 C97 692 74 679 74 679 L74 679 Z M548 64 C505 73 489 90 488 149 C488 149 488 162 488 162 C488 162 488 500 488 500 C488 500 446 500 446 500 C446 500 369 429 369 429 C349 468 306 505 274 505 C155 505 54 372 54 216 C54 97 128 -5 215 -5 C253 -5 303 36 338 92 C338 92 338 0 338 0 C338 0 338 -5 338 -5 C338 -5 363 -5 363 -5 C363 -5 447 25 447 25 C447 25 548 56 548 56 C548 56 548 64 548 64 L548 64 Z M338 126 C326 104 308 87 298 87 C251 87 211 172 211 273 C211 376 237 464 267 464 C292 464 326 431 338 400 C338 400 338 126 338 126 L338 126 Z " />
<glyph glyph-name="Aogonek" unicode="&#x104;" horiz-adv-x="722" d="M716 13 C716 13 708 13 708 13 C682 13 643 51 622 96 C622 96 622 96 622 96 C622 96 349 675 349 675 C349 675 309 675 309 675 C309 675 84 87 84 87 C66 46 30 13 5 13 C5 13 -4 13 -4 13 C-4 13 -4 0 -4 0 C-4 0 51 0 51 0 C51 0 78 0 78 0 C78 0 105 0 105 0 C105 0 194 0 194 0 C194 0 194 13 194 13 C194 13 181 13 181 13 C143 13 127 55 143 106 C143 106 186 223 186 223 C186 223 388 223 388 223 C388 223 447 96 447 96 C447 96 446 96 446 96 C467 51 455 13 419 13 C419 13 408 13 408 13 C408 13 408 0 408 0 C408 0 432 0 432 0 C373 -41 302 -107 302 -152 C302 -198 374 -238 459 -238 C487 -238 528 -218 548 -194 C548 -194 538 -181 538 -181 C531 -189 510 -196 492 -196 C439 -196 394 -168 394 -136 C394 -81 465 -9 491 0 C491 0 579 0 579 0 C579 0 667 0 667 0 C667 0 716 0 716 0 C716 0 716 13 716 13 L716 13 Z M369 263 C369 263 200 264 200 264 C200 264 275 469 275 469 C275 469 369 263 369 263 L369 263 Z " />
<glyph glyph-name="aogonek" unicode="&#x105;" horiz-adv-x="527" d="M506 84 C499 72 484 62 464 62 C436 62 424 95 424 134 C424 134 424 348 424 348 C424 433 353 505 270 505 C162 505 57 448 41 382 C41 382 191 382 191 382 C201 426 222 464 237 464 C252 464 265 426 265 382 C265 382 265 266 265 266 C265 266 225 262 225 262 C124 251 37 180 37 107 C37 47 91 -5 155 -5 C202 -5 248 10 284 35 C299 7 325 -10 362 -10 C367 -10 372 -10 377 -10 C328 -50 282 -102 282 -140 C282 -193 354 -238 440 -238 C468 -238 509 -218 529 -194 C529 -194 518 -181 518 -181 C511 -189 490 -196 472 -196 C419 -196 374 -163 374 -124 C374 -77 421 -19 453 7 C486 20 510 41 523 64 C523 64 506 84 506 84 L506 84 Z M265 224 C265 224 265 117 265 117 C265 111 265 104 266 98 C254 96 242 95 230 95 C206 95 185 120 185 150 C185 180 204 210 225 215 C225 215 265 224 265 224 L265 224 Z " />
<glyph glyph-name="Cacute" unicode="&#x106;" horiz-adv-x="760" d="M401 689 C401 689 521 810 521 810 C538 828 553 847 554 854 C553 871 491 916 468 916 C464 916 454 895 444 870 C444 870 384 702 384 702 C384 702 401 689 401 689 L401 689 Z M701 473 C701 473 701 611 701 611 C647 640 530 665 446 665 C222 665 32 511 32 330 C32 149 222 -5 446 -5 C537 -5 655 25 702 59 C702 59 702 194 702 194 C702 194 691 194 691 194 C688 186 683 172 680 165 C656 101 562 42 474 36 C474 36 474 36 474 36 C464 35 455 35 446 35 C319 35 211 171 211 330 C211 489 319 625 446 625 C466 625 488 623 510 621 C510 621 510 620 510 620 C580 612 658 558 679 502 C682 495 687 481 690 473 C690 473 701 473 701 473 L701 473 Z " />
<glyph glyph-name="cacute" unicode="&#x107;" horiz-adv-x="546" d="M236 529 C236 529 356 650 356 650 C374 668 389 687 389 694 C389 711 326 756 303 756 C299 756 289 735 279 710 C279 710 219 542 219 542 C219 542 236 529 236 529 L236 529 Z M497 119 C497 119 482 134 482 134 C456 108 418 86 399 86 C297 86 209 177 209 283 C209 380 248 463 294 463 C324 463 352 436 355 405 C359 365 393 331 430 331 C466 331 497 362 497 397 C491 456 406 505 311 505 C170 505 50 377 50 226 C50 101 153 -5 274 -5 C326 -5 429 52 497 119 L497 119 Z " />
<glyph glyph-name="Ccircumflex" unicode="&#x108;" horiz-adv-x="760" d="M701 473 C701 473 701 611 701 611 C647 640 530 665 446 665 C222 665 32 511 32 330 C32 149 222 -5 446 -5 C537 -5 655 25 702 59 C702 59 702 194 702 194 C702 194 691 194 691 194 C688 186 683 172 680 165 C656 101 562 42 474 36 C474 36 474 36 474 36 C464 35 455 35 446 35 C319 35 211 171 211 330 C211 489 319 625 446 625 C466 625 488 623 510 621 C510 621 510 620 510 620 C580 612 658 558 679 502 C682 495 687 481 690 473 C690 473 701 473 701 473 L701 473 Z M446 777 C446 777 554 690 554 690 C554 690 570 703 570 703 C570 703 494 862 494 862 C488 873 468 904 446 904 C423 904 403 874 398 863 C398 863 321 703 321 703 C321 703 337 690 337 690 C337 690 446 777 446 777 L446 777 Z " />
<glyph glyph-name="Cdotaccent" unicode="&#x10a;" horiz-adv-x="760" d="M446 730 C489 730 526 767 526 810 C526 853 489 890 446 890 C403 890 366 853 366 810 C366 767 403 730 446 730 L446 730 Z M701 473 C701 473 701 611 701 611 C647 640 530 665 446 665 C222 665 32 511 32 330 C32 149 222 -5 446 -5 C537 -5 655 25 702 59 C702 59 702 194 702 194 C702 194 691 194 691 194 C688 186 683 172 680 165 C656 101 562 42 474 36 C474 36 474 36 474 36 C464 35 455 35 446 35 C319 35 211 171 211 330 C211 489 319 625 446 625 C466 625 488 623 510 621 C510 621 510 620 510 620 C580 612 658 558 679 502 C682 495 687 481 690 473 C690 473 701 473 701 473 L701 473 Z " />
<glyph glyph-name="cdotaccent" unicode="&#x10b;" horiz-adv-x="546" d="M311 570 C354 570 391 607 391 650 C391 693 354 730 311 730 C268 730 231 693 231 650 C231 607 268 570 311 570 L311 570 Z M497 119 C497 119 482 134 482 134 C456 108 418 86 399 86 C297 86 209 177 209 283 C209 380 248 463 294 463 C324 463 352 436 355 405 C359 365 393 331 430 331 C466 331 497 362 497 397 C491 456 406 505 311 505 C170 505 50 377 50 226 C50 101 153 -5 274 -5 C326 -5 429 52 497 119 L497 119 Z " />
<glyph glyph-name="Ccaron" unicode="&#x10c;" horiz-adv-x="760" d="M701 473 C701 473 701 611 701 611 C647 640 530 665 446 665 C222 665 32 511 32 330 C32 149 222 -5 446 -5 C537 -5 655 25 702 59 C702 59 702 194 702 194 C702 194 691 194 691 194 C688 186 683 172 680 165 C656 101 562 42 474 36 C474 36 474 36 474 36 C464 35 455 35 446 35 C319 35 211 171 211 330 C211 489 319 625 446 625 C466 625 488 623 510 621 C510 621 510 620 510 620 C580 612 658 558 679 502 C682 495 687 481 690 473 C690 473 701 473 701 473 L701 473 Z M446 843 C446 843 554 930 554 930 C554 930 570 917 570 917 C570 917 494 758 494 758 C488 747 468 716 446 716 C423 716 403 746 398 757 C398 757 321 917 321 917 C321 917 337 930 337 930 C337 930 446 843 446 843 L446 843 Z " />
<glyph glyph-name="ccaron" unicode="&#x10d;" horiz-adv-x="546" d="M497 119 C497 119 482 134 482 134 C456 108 418 86 399 86 C297 86 209 177 209 283 C209 380 248 463 294 463 C324 463 352 436 355 405 C359 365 393 331 430 331 C466 331 497 362 497 397 C491 456 406 505 311 505 C170 505 50 377 50 226 C50 101 153 -5 274 -5 C326 -5 429 52 497 119 L497 119 Z M311 684 C311 684 420 770 420 770 C420 770 435 757 435 757 C435 757 359 598 359 598 C354 587 334 556 311 556 C289 556 269 586 264 597 C264 597 187 757 187 757 C187 757 202 770 202 770 C202 770 311 684 311 684 L311 684 Z " />
<glyph glyph-name="Dcaron" unicode="&#x10e;" horiz-adv-x="803" d="M25 647 C25 647 34 647 34 647 C61 647 85 609 85 564 C85 564 85 96 85 96 C85 51 61 13 34 13 C34 13 25 13 25 13 C25 13 25 0 25 0 C25 0 85 0 85 0 C85 0 166 0 166 0 C166 0 247 0 247 0 C247 0 385 0 385 0 C584 0 754 152 754 330 C754 508 568 660 350 660 C350 660 247 660 247 660 C247 660 166 660 166 660 C166 660 85 660 85 660 C85 660 25 660 25 660 C25 660 25 647 25 647 L25 647 Z M339 844 C339 844 447 930 447 930 C447 930 463 917 463 917 C463 917 386 758 386 758 C381 747 361 716 338 716 C316 716 296 746 291 757 C291 757 214 917 214 917 C214 917 230 930 230 930 C230 930 339 844 339 844 L339 844 Z M247 42 C247 42 247 618 247 618 C247 618 350 618 350 618 C481 618 592 486 592 330 C592 174 497 42 385 42 C385 42 247 42 247 42 L247 42 Z " />
<glyph glyph-name="dcaron" unicode="&#x10f;" horiz-adv-x="619" d="M570 64 C527 73 511 90 510 149 C510 149 510 162 510 162 C510 162 510 599 510 599 C510 599 510 681 510 681 C510 681 510 720 510 720 C510 720 480 720 480 720 C480 720 299 664 299 664 C299 664 299 656 299 656 C345 646 360 628 360 558 C360 558 360 479 360 479 C339 495 316 505 296 505 C165 505 54 372 54 216 C54 97 138 -5 237 -5 C265 -5 318 29 360 72 C360 72 360 39 360 39 C360 39 360 0 360 0 C360 0 390 0 390 0 C390 0 570 56 570 56 C570 56 570 64 570 64 L570 64 Z M670 606 C699 646 723 707 723 716 C723 739 655 750 629 750 C601 751 581 682 576 640 C576 640 555 473 555 473 C555 473 574 467 574 467 C574 467 670 606 670 606 L670 606 Z M360 121 C360 121 360 100 360 100 C349 92 333 87 319 87 C261 87 211 172 211 273 C211 376 247 464 288 464 C312 464 340 445 360 422 C360 422 360 121 360 121 L360 121 Z " />
<glyph glyph-name="Emacron" unicode="&#x112;" horiz-adv-x="659" d="M175 756 C175 756 475 756 475 756 C475 756 475 840 475 840 C475 840 175 840 175 840 C175 840 175 756 175 756 L175 756 Z M494 253 C494 253 494 322 494 322 C494 322 494 342 494 342 C494 342 494 363 494 363 C494 363 494 423 494 423 C494 423 483 423 483 423 C483 423 481 414 481 414 C472 387 419 364 362 363 C362 363 355 363 355 363 C355 363 264 363 264 363 C264 363 264 620 264 620 C264 620 404 620 404 620 C468 620 537 577 554 527 C554 527 560 510 560 510 C560 510 569 510 569 510 C569 510 569 640 569 640 C569 640 569 660 569 660 C569 660 549 660 549 660 C549 660 473 660 473 660 C473 660 264 660 264 660 C264 660 183 660 183 660 C183 660 102 660 102 660 C102 660 41 660 41 660 C41 660 41 647 41 647 C41 647 50 647 50 647 C78 647 102 609 102 564 C102 564 102 96 102 96 C102 51 78 13 50 13 C50 13 41 13 41 13 C41 13 41 0 41 0 C41 0 102 0 102 0 C102 0 183 0 183 0 C183 0 264 0 264 0 C264 0 469 0 469 0 C469 0 559 0 559 0 C559 0 565 0 565 0 C566 5 568 15 568 20 C575 55 585 115 591 150 C591 150 582 150 582 150 C582 150 574 133 574 133 C548 83 472 41 407 40 C407 40 264 40 264 40 C264 40 264 322 264 322 C264 322 355 322 355 322 C414 322 472 295 481 264 C481 264 483 253 483 253 C483 253 494 253 494 253 L494 253 Z " />
<glyph glyph-name="emacron" unicode="&#x113;" horiz-adv-x="552" d="M146 596 C146 596 446 596 446 596 C446 596 446 680 446 680 C446 680 146 680 146 680 C146 680 146 596 146 596 L146 596 Z M503 119 C503 119 488 134 488 134 C462 108 422 86 402 86 C302 86 216 170 209 271 C209 271 361 271 361 271 C361 271 502 271 502 271 C502 397 407 505 296 505 C163 505 50 377 50 226 C50 101 154 -5 277 -5 C331 -5 435 52 503 119 L503 119 Z M209 299 C213 389 247 463 288 463 C328 463 362 432 362 397 C362 361 333 325 298 315 C298 315 209 299 209 299 L209 299 Z " />
<glyph glyph-name="Ebreve" unicode="&#x114;" horiz-adv-x="659" d="M184 869 C231 787 296 718 325 718 C354 718 419 787 466 869 C466 869 443 882 443 882 C423 847 369 818 325 818 C281 818 227 847 207 882 C207 882 184 869 184 869 L184 869 Z M494 253 C494 253 494 322 494 322 C494 322 494 342 494 342 C494 342 494 363 494 363 C494 363 494 423 494 423 C494 423 483 423 483 423 C483 423 481 414 481 414 C472 387 419 364 362 363 C362 363 355 363 355 363 C355 363 264 363 264 363 C264 363 264 620 264 620 C264 620 404 620 404 620 C468 620 537 577 554 527 C554 527 560 510 560 510 C560 510 569 510 569 510 C569 510 569 640 569 640 C569 640 569 660 569 660 C569 660 549 660 549 660 C549 660 473 660 473 660 C473 660 264 660 264 660 C264 660 183 660 183 660 C183 660 102 660 102 660 C102 660 41 660 41 660 C41 660 41 647 41 647 C41 647 50 647 50 647 C78 647 102 609 102 564 C102 564 102 96 102 96 C102 51 78 13 50 13 C50 13 41 13 41 13 C41 13 41 0 41 0 C41 0 102 0 102 0 C102 0 183 0 183 0 C183 0 264 0 264 0 C264 0 469 0 469 0 C469 0 559 0 559 0 C559 0 565 0 565 0 C566 5 568 15 568 20 C575 55 585 115 591 150 C591 150 582 150 582 150 C582 150 574 133 574 133 C548 83 472 41 407 40 C407 40 264 40 264 40 C264 40 264 322 264 322 C264 322 355 322 355 322 C414 322 472 295 481 264 C481 264 483 253 483 253 C483 253 494 253 494 253 L494 253 Z " />
<glyph glyph-name="ebreve" unicode="&#x115;" horiz-adv-x="552" d="M155 709 C202 627 267 558 296 558 C325 558 390 627 437 709 C437 709 414 722 414 722 C394 687 340 658 296 658 C252 658 198 687 178 722 C178 722 155 709 155 709 L155 709 Z M503 119 C503 119 488 134 488 134 C462 108 422 86 402 86 C302 86 216 170 209 271 C209 271 361 271 361 271 C361 271 502 271 502 271 C502 397 407 505 296 505 C163 505 50 377 50 226 C50 101 154 -5 277 -5 C331 -5 435 52 503 119 L503 119 Z M209 299 C213 389 247 463 288 463 C328 463 362 432 362 397 C362 361 333 325 298 315 C298 315 209 299 209 299 L209 299 Z " />
<glyph glyph-name="Edotaccent" unicode="&#x116;" horiz-adv-x="659" d="M325 730 C368 730 405 767 405 810 C405 853 368 890 325 890 C282 890 245 853 245 810 C245 767 282 730 325 730 L325 730 Z M494 253 C494 253 494 322 494 322 C494 322 494 342 494 342 C494 342 494 363 494 363 C494 363 494 423 494 423 C494 423 483 423 483 423 C483 423 481 414 481 414 C472 387 419 364 362 363 C362 363 355 363 355 363 C355 363 264 363 264 363 C264 363 264 620 264 620 C264 620 404 620 404 620 C468 620 537 577 554 527 C554 527 560 510 560 510 C560 510 569 510 569 510 C569 510 569 640 569 640 C569 640 569 660 569 660 C569 660 549 660 549 660 C549 660 473 660 473 660 C473 660 264 660 264 660 C264 660 183 660 183 660 C183 660 102 660 102 660 C102 660 41 660 41 660 C41 660 41 647 41 647 C41 647 50 647 50 647 C78 647 102 609 102 564 C102 564 102 96 102 96 C102 51 78 13 50 13 C50 13 41 13 41 13 C41 13 41 0 41 0 C41 0 102 0 102 0 C102 0 183 0 183 0 C183 0 264 0 264 0 C264 0 469 0 469 0 C469 0 559 0 559 0 C559 0 565 0 565 0 C566 5 568 15 568 20 C575 55 585 115 591 150 C591 150 582 150 582 150 C582 150 574 133 574 133 C548 83 472 41 407 40 C407 40 264 40 264 40 C264 40 264 322 264 322 C264 322 355 322 355 322 C414 322 472 295 481 264 C481 264 483 253 483 253 C483 253 494 253 494 253 L494 253 Z " />
<glyph glyph-name="edotaccent" unicode="&#x117;" horiz-adv-x="552" d="M296 570 C339 570 376 607 376 650 C376 693 339 730 296 730 C253 730 216 693 216 650 C216 607 253 570 296 570 L296 570 Z M503 119 C503 119 488 134 488 134 C462 108 422 86 402 86 C302 86 216 170 209 271 C209 271 361 271 361 271 C361 271 502 271 502 271 C502 397 407 505 296 505 C163 505 50 377 50 226 C50 101 154 -5 277 -5 C331 -5 435 52 503 119 L503 119 Z M209 299 C213 389 247 463 288 463 C328 463 362 432 362 397 C362 361 333 325 298 315 C298 315 209 299 209 299 L209 299 Z " />
<glyph glyph-name="Eogonek" unicode="&#x118;" horiz-adv-x="659" d="M494 253 C494 253 494 322 494 322 C494 322 494 342 494 342 C494 342 494 363 494 363 C494 363 494 423 494 423 C494 423 483 423 483 423 C483 423 481 414 481 414 C472 387 419 364 362 363 C362 363 355 363 355 363 C355 363 264 363 264 363 C264 363 264 620 264 620 C264 620 404 620 404 620 C468 620 537 577 554 527 C554 527 560 510 560 510 C560 510 569 510 569 510 C569 510 569 640 569 640 C569 640 569 660 569 660 C569 660 549 660 549 660 C549 660 473 660 473 660 C473 660 264 660 264 660 C264 660 183 660 183 660 C183 660 102 660 102 660 C102 660 41 660 41 660 C41 660 41 647 41 647 C41 647 50 647 50 647 C78 647 102 609 102 564 C102 564 102 96 102 96 C102 51 78 13 50 13 C50 13 41 13 41 13 C41 13 41 0 41 0 C41 0 102 0 102 0 C102 0 183 0 183 0 C183 0 264 0 264 0 C264 0 469 0 469 0 C469 0 500 0 500 0 C441 -41 370 -107 370 -152 C370 -198 442 -238 527 -238 C555 -238 596 -218 616 -194 C616 -194 606 -181 606 -181 C599 -189 578 -196 560 -196 C507 -196 462 -168 462 -136 C462 -81 533 -9 559 0 C559 0 565 0 565 0 C566 5 568 15 568 20 C575 55 585 115 591 150 C591 150 582 150 582 150 C582 150 574 133 574 133 C548 83 472 41 407 40 C407 40 264 40 264 40 C264 40 264 322 264 322 C264 322 355 322 355 322 C414 322 472 295 481 264 C481 264 483 253 483 253 C483 253 494 253 494 253 L494 253 Z " />
<glyph glyph-name="eogonek" unicode="&#x119;" horiz-adv-x="552" d="M209 299 C213 389 247 463 288 463 C328 463 362 432 362 397 C362 361 333 325 298 315 C298 315 209 299 209 299 L209 299 Z M361 271 C361 271 502 271 502 271 C502 397 407 505 296 505 C163 505 50 377 50 226 C50 101 154 -5 277 -5 C279 -5 282 -5 284 -5 C241 -44 203 -91 203 -127 C203 -187 275 -238 360 -238 C388 -238 429 -218 450 -194 C450 -194 439 -181 439 -181 C432 -189 411 -196 393 -196 C340 -196 295 -157 295 -111 C295 -59 349 7 380 29 C423 52 468 84 503 119 C503 119 488 134 488 134 C462 108 422 86 402 86 C302 86 216 170 209 271 C209 271 361 271 361 271 L361 271 Z " />
<glyph glyph-name="Ecaron" unicode="&#x11a;" horiz-adv-x="659" d="M494 253 C494 253 494 322 494 322 C494 322 494 342 494 342 C494 342 494 363 494 363 C494 363 494 423 494 423 C494 423 483 423 483 423 C483 423 481 414 481 414 C472 387 419 364 362 363 C362 363 355 363 355 363 C355 363 264 363 264 363 C264 363 264 620 264 620 C264 620 404 620 404 620 C468 620 537 577 554 527 C554 527 560 510 560 510 C560 510 569 510 569 510 C569 510 569 640 569 640 C569 640 569 660 569 660 C569 660 549 660 549 660 C549 660 473 660 473 660 C473 660 264 660 264 660 C264 660 183 660 183 660 C183 660 102 660 102 660 C102 660 41 660 41 660 C41 660 41 647 41 647 C41 647 50 647 50 647 C78 647 102 609 102 564 C102 564 102 96 102 96 C102 51 78 13 50 13 C50 13 41 13 41 13 C41 13 41 0 41 0 C41 0 102 0 102 0 C102 0 183 0 183 0 C183 0 264 0 264 0 C264 0 469 0 469 0 C469 0 559 0 559 0 C559 0 565 0 565 0 C566 5 568 15 568 20 C575 55 585 115 591 150 C591 150 582 150 582 150 C582 150 574 133 574 133 C548 83 472 41 407 40 C407 40 264 40 264 40 C264 40 264 322 264 322 C264 322 355 322 355 322 C414 322 472 295 481 264 C481 264 483 253 483 253 C483 253 494 253 494 253 L494 253 Z M325 844 C325 844 434 930 434 930 C434 930 449 917 449 917 C449 917 373 758 373 758 C368 747 348 716 325 716 C303 716 283 746 278 757 C278 757 201 917 201 917 C201 917 216 930 216 930 C216 930 325 844 325 844 L325 844 Z " />
<glyph glyph-name="ecaron" unicode="&#x11b;" horiz-adv-x="552" d="M503 119 C503 119 488 134 488 134 C462 108 422 86 402 86 C302 86 216 170 209 271 C209 271 361 271 361 271 C361 271 502 271 502 271 C502 397 407 505 296 505 C163 505 50 377 50 226 C50 101 154 -5 277 -5 C331 -5 435 52 503 119 L503 119 Z M296 684 C296 684 405 770 405 770 C405 770 421 757 421 757 C421 757 344 598 344 598 C339 587 319 556 296 556 C274 556 254 586 249 597 C249 597 172 757 172 757 C172 757 187 770 187 770 C187 770 296 684 296 684 L296 684 Z M209 299 C213 389 247 463 288 463 C328 463 362 432 362 397 C362 361 333 325 298 315 C298 315 209 299 209 299 L209 299 Z " />
<glyph glyph-name="Gcircumflex" unicode="&#x11c;" horiz-adv-x="841" d="M747 310 C747 310 687 310 687 310 C687 310 614 310 614 310 C614 310 541 310 541 310 C541 310 480 310 480 310 C480 310 480 297 480 297 C480 297 489 297 489 297 C517 297 541 259 541 214 C541 214 541 46 541 46 C505 39 468 35 436 35 C314 35 211 171 211 330 C211 489 314 625 436 625 C452 625 470 624 489 622 C489 622 489 621 489 621 C560 613 638 558 659 502 C662 495 667 481 670 473 C670 473 681 473 681 473 C681 473 681 611 681 611 C627 640 514 665 436 665 C218 665 32 511 32 330 C32 149 218 -5 436 -5 C518 -5 634 21 687 51 C687 51 687 214 687 214 C687 214 687 219 687 219 C688 262 711 297 738 297 C738 297 747 297 747 297 C747 297 747 310 747 310 L747 310 Z M436 777 C436 777 544 690 544 690 C544 690 560 703 560 703 C560 703 484 862 484 862 C478 873 458 904 436 904 C413 904 393 874 388 863 C388 863 311 703 311 703 C311 703 327 690 327 690 C327 690 436 777 436 777 L436 777 Z " />
<glyph glyph-name="Gbreve" unicode="&#x11e;" horiz-adv-x="841" d="M295 869 C341 787 406 718 436 718 C465 718 530 787 577 869 C577 869 554 882 554 882 C534 847 480 818 436 818 C392 818 338 847 318 882 C318 882 295 869 295 869 L295 869 Z M747 310 C747 310 687 310 687 310 C687 310 614 310 614 310 C614 310 541 310 541 310 C541 310 480 310 480 310 C480 310 480 297 480 297 C480 297 489 297 489 297 C517 297 541 259 541 214 C541 214 541 46 541 46 C505 39 468 35 436 35 C314 35 211 171 211 330 C211 489 314 625 436 625 C452 625 470 624 489 622 C489 622 489 621 489 621 C560 613 638 558 659 502 C662 495 667 481 670 473 C670 473 681 473 681 473 C681 473 681 611 681 611 C627 640 514 665 436 665 C218 665 32 511 32 330 C32 149 218 -5 436 -5 C518 -5 634 21 687 51 C687 51 687 214 687 214 C687 214 687 219 687 219 C688 262 711 297 738 297 C738 297 747 297 747 297 C747 297 747 310 747 310 L747 310 Z " />
<glyph glyph-name="gbreve" unicode="&#x11f;" horiz-adv-x="484" d="M78 709 C125 627 190 558 219 558 C248 558 313 627 360 709 C360 709 337 722 337 722 C317 687 263 658 219 658 C175 658 121 687 101 722 C101 722 78 709 78 709 L78 709 Z M485 500 C485 500 343 455 343 455 C311 486 267 505 219 505 C126 505 46 431 46 344 C46 285 82 232 135 203 C78 190 35 137 35 77 C35 40 58 6 94 -15 C45 -38 10 -89 10 -146 C10 -200 84 -245 172 -245 C330 -245 465 -140 465 -17 C465 50 381 107 283 107 C283 107 189 103 189 103 C160 102 136 117 136 136 C136 161 149 182 164 182 C164 182 219 182 219 182 C313 182 393 256 393 344 C393 364 389 384 381 402 C381 402 485 417 485 417 C485 417 485 500 485 500 L485 500 Z M187 344 C187 413 202 472 219 472 C236 472 251 413 251 344 C251 275 236 216 219 216 C202 216 187 275 187 344 L187 344 Z M140 -33 C157 -37 176 -39 196 -38 C196 -38 242 -36 242 -36 C304 -36 357 -62 357 -93 C357 -153 280 -204 189 -204 C146 -204 110 -169 110 -129 C110 -89 122 -53 140 -33 C140 -33 140 -33 140 -33 L140 -33 Z " />
<glyph glyph-name="Gdotaccent" unicode="&#x120;" horiz-adv-x="841" d="M436 730 C479 730 516 767 516 810 C516 853 479 890 436 890 C393 890 356 853 356 810 C356 767 393 730 436 730 L436 730 Z M747 310 C747 310 687 310 687 310 C687 310 614 310 614 310 C614 310 541 310 541 310 C541 310 480 310 480 310 C480 310 480 297 480 297 C480 297 489 297 489 297 C517 297 541 259 541 214 C541 214 541 46 541 46 C505 39 468 35 436 35 C314 35 211 171 211 330 C211 489 314 625 436 625 C452 625 470 624 489 622 C489 622 489 621 489 621 C560 613 638 558 659 502 C662 495 667 481 670 473 C670 473 681 473 681 473 C681 473 681 611 681 611 C627 640 514 665 436 665 C218 665 32 511 32 330 C32 149 218 -5 436 -5 C518 -5 634 21 687 51 C687 51 687 214 687 214 C687 214 687 219 687 219 C688 262 711 297 738 297 C738 297 747 297 747 297 C747 297 747 310 747 310 L747 310 Z " />
<glyph glyph-name="gdotaccent" unicode="&#x121;" horiz-adv-x="484" d="M219 570 C262 570 299 607 299 650 C299 693 262 730 219 730 C176 730 139 693 139 650 C139 607 176 570 219 570 L219 570 Z M485 500 C485 500 343 455 343 455 C311 486 267 505 219 505 C126 505 46 431 46 344 C46 285 82 232 135 203 C78 190 35 137 35 77 C35 40 58 6 94 -15 C45 -38 10 -89 10 -146 C10 -200 84 -245 172 -245 C330 -245 465 -140 465 -17 C465 50 381 107 283 107 C283 107 189 103 189 103 C160 102 136 117 136 136 C136 161 149 182 164 182 C164 182 219 182 219 182 C313 182 393 256 393 344 C393 364 389 384 381 402 C381 402 485 417 485 417 C485 417 485 500 485 500 L485 500 Z M187 344 C187 413 202 472 219 472 C236 472 251 413 251 344 C251 275 236 216 219 216 C202 216 187 275 187 344 L187 344 Z M140 -33 C157 -37 176 -39 196 -38 C196 -38 242 -36 242 -36 C304 -36 357 -62 357 -93 C357 -153 280 -204 189 -204 C146 -204 110 -169 110 -129 C110 -89 122 -53 140 -33 C140 -33 140 -33 140 -33 L140 -33 Z " />
<glyph glyph-name="Hcircumflex" unicode="&#x124;" horiz-adv-x="767" d="M728 660 C728 660 667 660 667 660 C667 660 586 660 586 660 C586 660 505 660 505 660 C505 660 445 660 445 660 C445 660 445 647 445 647 C445 647 454 647 454 647 C481 647 505 609 505 564 C505 564 505 358 505 358 C505 358 264 358 264 358 C264 358 264 564 264 564 C264 609 287 647 315 647 C315 647 324 647 324 647 C324 647 324 660 324 660 C324 660 264 660 264 660 C264 660 183 660 183 660 C183 660 102 660 102 660 C102 660 41 660 41 660 C41 660 41 647 41 647 C41 647 50 647 50 647 C78 647 102 609 102 564 C102 564 102 96 102 96 C102 51 78 13 50 13 C50 13 41 13 41 13 C41 13 41 0 41 0 C41 0 102 0 102 0 C102 0 183 0 183 0 C183 0 264 0 264 0 C264 0 324 0 324 0 C324 0 324 13 324 13 C324 13 315 13 315 13 C287 13 264 51 264 96 C264 96 264 318 264 318 C264 318 505 318 505 318 C505 318 505 96 505 96 C505 51 481 13 454 13 C454 13 445 13 445 13 C445 13 445 0 445 0 C445 0 505 0 505 0 C505 0 586 0 586 0 C586 0 667 0 667 0 C667 0 728 0 728 0 C728 0 728 13 728 13 C728 13 719 13 719 13 C691 13 667 51 667 96 C667 96 667 564 667 564 C667 609 691 647 719 647 C719 647 728 647 728 647 C728 647 728 660 728 660 L728 660 Z M385 777 C385 777 493 690 493 690 C493 690 509 703 509 703 C509 703 432 862 432 862 C427 873 407 904 385 904 C362 904 342 874 337 863 C337 863 260 703 260 703 C260 703 276 690 276 690 C276 690 385 777 385 777 L385 777 Z " />
<glyph glyph-name="Itilde" unicode="&#x128;" horiz-adv-x="365" d="M46 755 C46 782 62 805 82 805 C133 805 195 743 246 743 C300 743 347 816 347 902 C347 902 322 902 322 902 C322 870 302 842 278 842 C227 842 165 905 114 905 C64 905 21 836 21 755 C21 755 46 755 46 755 L46 755 Z M326 660 C326 660 265 660 265 660 C265 660 184 660 184 660 C184 660 103 660 103 660 C103 660 42 660 42 660 C42 660 42 647 42 647 C42 647 51 647 51 647 C79 647 103 609 103 564 C103 564 103 96 103 96 C103 51 79 13 51 13 C51 13 42 13 42 13 C42 13 42 0 42 0 C42 0 103 0 103 0 C103 0 184 0 184 0 C184 0 265 0 265 0 C265 0 326 0 326 0 C326 0 326 13 326 13 C326 13 316 13 316 13 C289 13 265 51 265 96 C265 96 265 564 265 564 C265 609 289 647 316 647 C316 647 326 647 326 647 C326 647 326 660 326 660 L326 660 Z " />
<glyph glyph-name="itilde" unicode="&#x129;" horiz-adv-x="361" d="M43 595 C43 622 59 645 79 645 C129 645 191 583 242 583 C297 583 343 656 343 742 C343 742 318 742 318 742 C318 710 298 682 275 682 C224 682 162 745 111 745 C61 745 18 676 18 595 C18 595 43 595 43 595 L43 595 Z M256 0 C256 0 316 0 316 0 C316 0 316 13 316 13 C316 13 304 13 304 13 C278 13 256 10 256 0 C256 0 256 404 256 404 C256 404 256 505 256 505 C256 505 247 505 247 505 C247 505 55 446 55 446 C55 446 55 437 55 437 C55 437 91 423 91 423 C99 420 106 404 106 360 C106 360 106 0 106 0 C106 0 45 0 45 0 C45 0 45 13 45 13 C45 13 57 13 57 13 C84 13 106 10 106 0 C106 0 256 0 256 0 L256 0 Z " />
<glyph glyph-name="Imacron" unicode="&#x12a;" horiz-adv-x="365" d="M34 756 C34 756 334 756 334 756 C334 756 334 840 334 840 C334 840 34 840 34 840 C34 840 34 756 34 756 L34 756 Z M326 660 C326 660 265 660 265 660 C265 660 184 660 184 660 C184 660 103 660 103 660 C103 660 42 660 42 660 C42 660 42 647 42 647 C42 647 51 647 51 647 C79 647 103 609 103 564 C103 564 103 96 103 96 C103 51 79 13 51 13 C51 13 42 13 42 13 C42 13 42 0 42 0 C42 0 103 0 103 0 C103 0 184 0 184 0 C184 0 265 0 265 0 C265 0 326 0 326 0 C326 0 326 13 326 13 C326 13 316 13 316 13 C289 13 265 51 265 96 C265 96 265 564 265 564 C265 609 289 647 316 647 C316 647 326 647 326 647 C326 647 326 660 326 660 L326 660 Z " />
<glyph glyph-name="imacron" unicode="&#x12b;" horiz-adv-x="361" d="M31 596 C31 596 331 596 331 596 C331 596 331 680 331 680 C331 680 31 680 31 680 C31 680 31 596 31 596 L31 596 Z M256 0 C256 0 316 0 316 0 C316 0 316 13 316 13 C316 13 304 13 304 13 C278 13 256 10 256 0 C256 0 256 404 256 404 C256 404 256 505 256 505 C256 505 247 505 247 505 C247 505 55 446 55 446 C55 446 55 437 55 437 C55 437 91 423 91 423 C99 420 106 404 106 360 C106 360 106 0 106 0 C106 0 45 0 45 0 C45 0 45 13 45 13 C45 13 57 13 57 13 C84 13 106 10 106 0 C106 0 256 0 256 0 L256 0 Z " />
<glyph glyph-name="Ibreve" unicode="&#x12c;" horiz-adv-x="365" d="M43 869 C90 787 155 718 184 718 C213 718 278 787 325 869 C325 869 302 882 302 882 C282 847 228 818 184 818 C140 818 86 847 66 882 C66 882 43 869 43 869 L43 869 Z M326 660 C326 660 265 660 265 660 C265 660 184 660 184 660 C184 660 103 660 103 660 C103 660 42 660 42 660 C42 660 42 647 42 647 C42 647 51 647 51 647 C79 647 103 609 103 564 C103 564 103 96 103 96 C103 51 79 13 51 13 C51 13 42 13 42 13 C42 13 42 0 42 0 C42 0 103 0 103 0 C103 0 184 0 184 0 C184 0 265 0 265 0 C265 0 326 0 326 0 C326 0 326 13 326 13 C326 13 316 13 316 13 C289 13 265 51 265 96 C265 96 265 564 265 564 C265 609 289 647 316 647 C316 647 326 647 326 647 C326 647 326 660 326 660 L326 660 Z " />
<glyph glyph-name="ibreve" unicode="&#x12d;" horiz-adv-x="361" d="M40 709 C87 627 152 558 181 558 C210 558 275 627 322 709 C322 709 299 722 299 722 C279 687 225 658 181 658 C137 658 83 687 63 722 C63 722 40 709 40 709 L40 709 Z M256 0 C256 0 316 0 316 0 C316 0 316 13 316 13 C316 13 304 13 304 13 C278 13 256 10 256 0 C256 0 256 404 256 404 C256 404 256 505 256 505 C256 505 247 505 247 505 C247 505 55 446 55 446 C55 446 55 437 55 437 C55 437 91 423 91 423 C99 420 106 404 106 360 C106 360 106 0 106 0 C106 0 45 0 45 0 C45 0 45 13 45 13 C45 13 57 13 57 13 C84 13 106 10 106 0 C106 0 256 0 256 0 L256 0 Z " />
<glyph glyph-name="Idotaccent" unicode="&#x130;" horiz-adv-x="365" d="M184 730 C227 730 264 767 264 810 C264 853 227 890 184 890 C141 890 104 853 104 810 C104 767 141 730 184 730 L184 730 Z M326 660 C326 660 265 660 265 660 C265 660 184 660 184 660 C184 660 103 660 103 660 C103 660 42 660 42 660 C42 660 42 647 42 647 C42 647 51 647 51 647 C79 647 103 609 103 564 C103 564 103 96 103 96 C103 51 79 13 51 13 C51 13 42 13 42 13 C42 13 42 0 42 0 C42 0 103 0 103 0 C103 0 184 0 184 0 C184 0 265 0 265 0 C265 0 326 0 326 0 C326 0 326 13 326 13 C326 13 316 13 316 13 C289 13 265 51 265 96 C265 96 265 564 265 564 C265 609 289 647 316 647 C316 647 326 647 326 647 C326 647 326 660 326 660 L326 660 Z " />
<glyph glyph-name="dotlessi" unicode="&#x131;" horiz-adv-x="361" d="M256 0 C256 0 316 0 316 0 C316 0 316 13 316 13 C316 13 304 13 304 13 C278 13 256 10 256 0 C256 0 256 404 256 404 C256 404 256 505 256 505 C256 505 247 505 247 505 C247 505 55 446 55 446 C55 446 55 437 55 437 C55 437 91 423 91 423 C99 420 106 404 106 360 C106 360 106 0 106 0 C106 0 45 0 45 0 C45 0 45 13 45 13 C45 13 57 13 57 13 C84 13 106 10 106 0 C106 0 256 0 256 0 L256 0 Z " />
<glyph glyph-name="Jcircumflex" unicode="&#x134;" horiz-adv-x="488" d="M448 660 C448 660 388 660 388 660 C388 660 307 660 307 660 C307 660 226 660 226 660 C226 660 165 660 165 660 C165 660 165 647 165 647 C165 647 174 647 174 647 C202 647 226 609 226 564 C226 564 226 200 226 200 C226 86 214 24 193 24 C168 24 145 51 141 83 C137 119 103 150 66 150 C27 150 -4 119 0 83 C5 33 74 -10 151 -10 C305 -10 388 112 388 336 C388 336 388 564 388 564 C388 609 411 647 439 647 C439 647 448 647 448 647 C448 647 448 660 448 660 L448 660 Z M307 777 C307 777 416 690 416 690 C416 690 431 703 431 703 C431 703 355 862 355 862 C349 873 329 904 307 904 C284 904 265 874 259 863 C259 863 183 703 183 703 C183 703 198 690 198 690 C198 690 307 777 307 777 L307 777 Z " />
<glyph glyph-name="Lacute" unicode="&#x139;" horiz-adv-x="659" d="M161 689 C161 689 281 810 281 810 C299 828 314 847 314 854 C314 871 251 916 228 916 C224 916 214 895 205 870 C205 870 144 702 144 702 C144 702 161 689 161 689 L161 689 Z M577 162 C577 162 569 144 569 144 C546 88 476 41 417 40 C417 40 264 40 264 40 C264 40 264 564 264 564 C264 609 287 647 315 647 C315 647 324 647 324 647 C324 647 324 660 324 660 C324 660 264 660 264 660 C264 660 183 660 183 660 C183 660 102 660 102 660 C102 660 41 660 41 660 C41 660 41 647 41 647 C41 647 50 647 50 647 C78 647 102 609 102 564 C102 564 102 96 102 96 C102 51 78 13 50 13 C50 13 41 13 41 13 C41 13 41 0 41 0 C41 0 102 0 102 0 C102 0 183 0 183 0 C183 0 264 0 264 0 C264 0 469 0 469 0 C469 0 559 0 559 0 C559 0 565 0 565 0 C566 5 568 15 568 20 C575 57 586 119 592 156 C586 158 577 162 577 162 L577 162 Z " />
<glyph glyph-name="Lcaron" unicode="&#x13d;" horiz-adv-x="659" d="M577 162 C577 162 569 144 569 144 C546 88 476 41 417 40 C417 40 264 40 264 40 C264 40 264 564 264 564 C264 609 287 647 315 647 C315 647 324 647 324 647 C324 647 324 660 324 660 C324 660 264 660 264 660 C264 660 183 660 183 660 C183 660 102 660 102 660 C102 660 41 660 41 660 C41 660 41 647 41 647 C41 647 50 647 50 647 C78 647 102 609 102 564 C102 564 102 96 102 96 C102 51 78 13 50 13 C50 13 41 13 41 13 C41 13 41 0 41 0 C41 0 102 0 102 0 C102 0 183 0 183 0 C183 0 264 0 264 0 C264 0 469 0 469 0 C469 0 559 0 559 0 C559 0 565 0 565 0 C566 5 568 15 568 20 C575 57 586 119 592 156 C586 158 577 162 577 162 L577 162 Z M485 546 C514 586 538 647 538 656 C538 679 469 690 444 690 C416 691 396 622 391 580 C391 580 370 413 370 413 C370 413 389 407 389 407 C389 407 485 546 485 546 L485 546 Z " />
<glyph glyph-name="lcaron" unicode="&#x13e;" horiz-adv-x="361" d="M45 656 C91 646 106 628 106 558 C106 558 106 96 106 96 C106 51 82 13 54 13 C54 13 45 13 45 13 C45 13 45 0 45 0 C45 0 106 0 106 0 C106 0 181 0 181 0 C181 0 256 0 256 0 C256 0 316 0 316 0 C316 0 316 13 316 13 C316 13 307 13 307 13 C280 13 257 48 256 91 C256 91 256 96 256 96 C256 96 256 599 256 599 C256 599 256 681 256 681 C256 681 256 720 256 720 C256 720 226 720 226 720 C226 720 45 664 45 664 C45 664 45 656 45 656 L45 656 Z M416 576 C445 616 469 677 469 686 C469 709 400 720 375 720 C347 721 327 652 322 610 C322 610 301 443 301 443 C301 443 320 437 320 437 C320 437 416 576 416 576 L416 576 Z " />
<glyph glyph-name="Lslash" unicode="&#x141;" horiz-adv-x="659" d="M52 255 C52 255 102 269 102 269 C102 269 102 96 102 96 C102 51 78 13 50 13 C50 13 41 13 41 13 C41 13 41 0 41 0 C41 0 102 0 102 0 C102 0 183 0 183 0 C183 0 264 0 264 0 C264 0 469 0 469 0 C469 0 559 0 559 0 C559 0 565 0 565 0 C566 5 568 15 568 20 C575 57 586 119 592 156 C586 158 577 162 577 162 C577 162 569 144 569 144 C546 88 476 41 417 40 C417 40 264 40 264 40 C264 40 264 314 264 314 C264 314 411 355 411 355 C411 355 411 405 411 405 C411 405 264 364 264 364 C264 364 264 564 264 564 C264 609 287 647 315 647 C315 647 324 647 324 647 C324 647 324 660 324 660 C324 660 264 660 264 660 C264 660 183 660 183 660 C183 660 102 660 102 660 C102 660 41 660 41 660 C41 660 41 647 41 647 C41 647 50 647 50 647 C78 647 102 609 102 564 C102 564 102 319 102 319 C102 319 52 305 52 305 C52 305 52 255 52 255 L52 255 Z " />
<glyph glyph-name="lslash" unicode="&#x142;" horiz-adv-x="361" d="M6 285 C6 285 106 314 106 314 C106 314 106 96 106 96 C106 51 82 13 54 13 C54 13 45 13 45 13 C45 13 45 0 45 0 C45 0 106 0 106 0 C106 0 181 0 181 0 C181 0 256 0 256 0 C256 0 316 0 316 0 C316 0 316 13 316 13 C316 13 307 13 307 13 C280 13 257 48 256 91 C256 91 256 96 256 96 C256 96 256 356 256 356 C256 356 356 385 356 385 C356 385 356 435 356 435 C356 435 256 406 256 406 C256 406 256 599 256 599 C256 599 256 681 256 681 C256 681 256 720 256 720 C256 720 226 720 226 720 C226 720 45 664 45 664 C45 664 45 656 45 656 C91 646 106 628 106 558 C106 558 106 364 106 364 C106 364 6 335 6 335 C6 335 6 285 6 285 L6 285 Z " />
<glyph glyph-name="Nacute" unicode="&#x143;" horiz-adv-x="702" d="M321 689 C321 689 440 810 440 810 C458 828 473 847 473 854 C473 871 411 916 387 916 C384 916 373 895 364 870 C364 870 304 702 304 702 C304 702 321 689 321 689 L321 689 Z M665 660 C665 660 604 660 604 660 C604 660 580 660 580 660 C580 660 556 660 556 660 C556 660 495 660 495 660 C495 660 495 647 495 647 C495 647 504 647 504 647 C532 647 556 609 556 564 C556 564 556 236 556 236 C556 236 239 660 239 660 C239 660 144 660 144 660 C144 660 120 660 120 660 C120 660 95 660 95 660 C95 660 35 660 35 660 C35 660 35 647 35 647 C35 647 44 647 44 647 C72 647 95 609 95 564 C95 564 95 96 95 96 C95 51 72 13 44 13 C44 13 35 13 35 13 C35 13 35 0 35 0 C35 0 95 0 95 0 C95 0 120 0 120 0 C120 0 144 0 144 0 C144 0 205 0 205 0 C205 0 205 13 205 13 C205 13 196 13 196 13 C168 13 144 51 144 96 C144 96 144 517 144 517 C144 517 482 70 482 70 C482 70 550 -20 550 -20 C550 -20 604 -20 604 -20 C604 -20 604 129 604 129 C604 129 604 564 604 564 C604 609 628 647 656 647 C656 647 665 647 665 647 C665 647 665 660 665 660 L665 660 Z " />
<glyph glyph-name="nacute" unicode="&#x144;" horiz-adv-x="615" d="M235 529 C235 529 355 650 355 650 C373 668 388 687 388 694 C388 711 325 756 302 756 C298 756 288 735 278 710 C278 710 218 542 218 542 C218 542 235 529 235 529 L235 529 Z M576 13 C576 13 567 13 567 13 C539 13 515 51 515 96 C515 96 515 339 515 339 C515 429 479 505 413 505 C364 505 297 466 255 416 C255 416 255 500 255 500 C255 500 225 500 225 500 C225 500 44 444 44 444 C44 444 44 436 44 436 C90 426 105 407 105 338 C105 338 105 96 105 96 C105 51 81 13 53 13 C53 13 44 13 44 13 C44 13 44 0 44 0 C44 0 105 0 105 0 C105 0 180 0 180 0 C180 0 255 0 255 0 C255 0 305 0 305 0 C305 0 315 0 315 0 C315 0 365 0 365 0 C365 0 440 0 440 0 C440 0 515 0 515 0 C515 0 576 0 576 0 C576 0 576 13 576 13 L576 13 Z M314 13 C314 13 306 13 306 13 C278 13 255 51 255 96 C255 96 255 365 255 365 C255 365 204 365 204 365 C204 365 255 379 255 379 C255 379 255 392 255 392 C267 399 283 404 297 404 C341 404 365 367 365 323 C365 323 365 96 365 96 C365 51 341 13 314 13 C314 13 314 13 314 13 L314 13 Z " />
<glyph glyph-name="Ncaron" unicode="&#x147;" horiz-adv-x="702" d="M665 660 C665 660 604 660 604 660 C604 660 580 660 580 660 C580 660 556 660 556 660 C556 660 495 660 495 660 C495 660 495 647 495 647 C495 647 504 647 504 647 C532 647 556 609 556 564 C556 564 556 236 556 236 C556 236 239 660 239 660 C239 660 144 660 144 660 C144 660 120 660 120 660 C120 660 95 660 95 660 C95 660 35 660 35 660 C35 660 35 647 35 647 C35 647 44 647 44 647 C72 647 95 609 95 564 C95 564 95 96 95 96 C95 51 72 13 44 13 C44 13 35 13 35 13 C35 13 35 0 35 0 C35 0 95 0 95 0 C95 0 120 0 120 0 C120 0 144 0 144 0 C144 0 205 0 205 0 C205 0 205 13 205 13 C205 13 196 13 196 13 C168 13 144 51 144 96 C144 96 144 517 144 517 C144 517 482 70 482 70 C482 70 550 -20 550 -20 C550 -20 604 -20 604 -20 C604 -20 604 129 604 129 C604 129 604 564 604 564 C604 609 628 647 656 647 C656 647 665 647 665 647 C665 647 665 660 665 660 L665 660 Z M350 843 C350 843 459 930 459 930 C459 930 474 917 474 917 C474 917 398 758 398 758 C392 747 372 716 350 716 C327 716 308 746 302 757 C302 757 226 917 226 917 C226 917 241 930 241 930 C241 930 350 843 350 843 L350 843 Z " />
<glyph glyph-name="ncaron" unicode="&#x148;" horiz-adv-x="615" d="M576 13 C576 13 567 13 567 13 C539 13 515 51 515 96 C515 96 515 339 515 339 C515 429 479 505 413 505 C364 505 297 466 255 416 C255 416 255 500 255 500 C255 500 225 500 225 500 C225 500 44 444 44 444 C44 444 44 436 44 436 C90 426 105 407 105 338 C105 338 105 96 105 96 C105 51 81 13 53 13 C53 13 44 13 44 13 C44 13 44 0 44 0 C44 0 105 0 105 0 C105 0 180 0 180 0 C180 0 255 0 255 0 C255 0 305 0 305 0 C305 0 315 0 315 0 C315 0 365 0 365 0 C365 0 440 0 440 0 C440 0 515 0 515 0 C515 0 576 0 576 0 C576 0 576 13 576 13 L576 13 Z M310 684 C310 684 419 770 419 770 C419 770 434 757 434 757 C434 757 358 598 358 598 C353 587 333 556 310 556 C288 556 268 586 263 597 C263 597 186 757 186 757 C186 757 201 770 201 770 C201 770 310 684 310 684 L310 684 Z M314 13 C314 13 306 13 306 13 C278 13 255 51 255 96 C255 96 255 365 255 365 C255 365 204 365 204 365 C204 365 255 379 255 379 C255 379 255 392 255 392 C267 399 283 404 297 404 C341 404 365 367 365 323 C365 323 365 96 365 96 C365 51 341 13 314 13 C314 13 314 13 314 13 L314 13 Z " />
<glyph glyph-name="Omacron" unicode="&#x14c;" horiz-adv-x="759" d="M221 756 C221 756 521 756 521 756 C521 756 521 840 521 840 C521 840 221 840 221 840 C221 840 221 756 221 756 L221 756 Z M371 35 C276 35 211 187 211 330 C211 473 276 625 371 625 C466 625 531 473 531 330 C531 187 466 35 371 35 L371 35 Z M32 330 C32 167 169 -5 371 -5 C572 -5 709 167 709 330 C709 493 572 665 371 665 C169 665 32 493 32 330 L32 330 Z " />
<glyph glyph-name="omacron" unicode="&#x14d;" horiz-adv-x="616" d="M158 596 C158 596 458 596 458 596 C458 596 458 680 458 680 C458 680 158 680 158 680 C158 680 158 596 158 596 L158 596 Z M308 28 C259 28 217 130 217 250 C217 370 259 472 308 472 C358 472 400 370 400 250 C400 130 358 28 308 28 L308 28 Z M50 250 C50 112 169 -5 308 -5 C448 -5 567 112 567 250 C567 388 448 505 308 505 C169 505 50 388 50 250 L50 250 Z " />
<glyph glyph-name="Obreve" unicode="&#x14e;" horiz-adv-x="759" d="M230 869 C277 787 342 718 371 718 C400 718 465 787 512 869 C512 869 489 882 489 882 C469 847 415 818 371 818 C327 818 273 847 253 882 C253 882 230 869 230 869 L230 869 Z M371 35 C276 35 211 187 211 330 C211 473 276 625 371 625 C466 625 531 473 531 330 C531 187 466 35 371 35 L371 35 Z M32 330 C32 167 169 -5 371 -5 C572 -5 709 167 709 330 C709 493 572 665 371 665 C169 665 32 493 32 330 L32 330 Z " />
<glyph glyph-name="obreve" unicode="&#x14f;" horiz-adv-x="616" d="M167 709 C214 627 279 558 308 558 C337 558 402 627 449 709 C449 709 426 722 426 722 C406 687 352 658 308 658 C264 658 210 687 190 722 C190 722 167 709 167 709 L167 709 Z M308 28 C259 28 217 130 217 250 C217 370 259 472 308 472 C358 472 400 370 400 250 C400 130 358 28 308 28 L308 28 Z M50 250 C50 112 169 -5 308 -5 C448 -5 567 112 567 250 C567 388 448 505 308 505 C169 505 50 388 50 250 L50 250 Z " />
<glyph glyph-name="Racute" unicode="&#x154;" horiz-adv-x="766" d="M288 689 C288 689 408 810 408 810 C426 828 441 847 440 854 C440 871 378 916 355 916 C351 916 341 895 331 870 C331 870 271 702 271 702 C271 702 288 689 288 689 L288 689 Z M25 647 C25 647 34 647 34 647 C61 647 85 609 85 564 C85 564 85 96 85 96 C85 51 61 13 34 13 C34 13 25 13 25 13 C25 13 25 0 25 0 C25 0 85 0 85 0 C85 0 166 0 166 0 C166 0 247 0 247 0 C247 0 308 0 308 0 C308 0 308 13 308 13 C308 13 299 13 299 13 C271 13 247 51 247 96 C247 96 247 301 247 301 C247 301 306 301 306 301 C306 301 446 106 446 106 C511 14 547 0 711 0 C711 0 766 0 766 0 C766 0 766 33 766 33 C766 33 761 33 761 33 C712 33 700 39 673 74 C673 74 487 326 487 326 C578 359 641 419 641 485 C641 580 511 660 359 660 C359 660 247 660 247 660 C247 660 166 660 166 660 C166 660 85 660 85 660 C85 660 25 660 25 660 C25 660 25 647 25 647 L25 647 Z M336 342 C336 342 276 342 276 342 C276 342 247 342 247 342 C247 342 247 618 247 618 C247 618 359 618 359 618 C419 618 471 557 471 485 C471 408 409 342 336 342 L336 342 Z " />
<glyph glyph-name="Rcaron" unicode="&#x158;" horiz-adv-x="674" d="M25 647 C25 647 34 647 34 647 C61 647 85 609 85 564 C85 564 85 96 85 96 C85 51 61 13 34 13 C34 13 25 13 25 13 C25 13 25 0 25 0 C25 0 85 0 85 0 C85 0 166 0 166 0 C166 0 247 0 247 0 C247 0 308 0 308 0 C308 0 308 13 308 13 C308 13 299 13 299 13 C271 13 247 51 247 96 C247 96 247 301 247 301 C247 301 336 301 336 301 C370 210 525 50 675 -47 C675 -47 690 -23 690 -23 C654 0 571 165 510 335 C510 335 509 335 509 335 C588 369 641 424 641 485 C641 580 511 660 359 660 C359 660 247 660 247 660 C247 660 166 660 166 660 C166 660 85 660 85 660 C85 660 25 660 25 660 C25 660 25 647 25 647 L25 647 Z M363 843 C363 843 472 930 472 930 C472 930 487 917 487 917 C487 917 411 758 411 758 C405 747 385 716 363 716 C340 716 321 746 315 757 C315 757 239 917 239 917 C239 917 254 930 254 930 C254 930 363 843 363 843 L363 843 Z M247 342 C247 342 247 618 247 618 C247 618 359 618 359 618 C419 618 471 557 471 485 C471 408 409 342 336 342 C336 342 247 342 247 342 L247 342 Z " />
<glyph glyph-name="rcaron" unicode="&#x159;" horiz-adv-x="468" d="M44 436 C90 426 105 407 105 338 C105 338 105 96 105 96 C105 51 81 13 53 13 C53 13 44 13 44 13 C44 13 44 0 44 0 C44 0 105 0 105 0 C105 0 180 0 180 0 C180 0 255 0 255 0 C255 0 315 0 315 0 C316 0 316 3 315 6 C316 10 316 13 315 13 C315 13 306 13 306 13 C278 13 255 51 255 96 C255 96 255 365 255 365 C255 365 204 365 204 365 C204 365 238 374 238 374 C238 374 238 374 238 374 C238 374 238 374 238 374 C238 374 255 379 255 379 C255 379 253 391 253 391 C257 393 260 394 264 394 C304 394 347 339 387 339 C426 339 459 372 459 411 C459 462 432 505 383 505 C334 505 277 466 249 416 C249 416 234 500 234 500 C234 500 204 500 204 500 C204 500 44 444 44 444 C44 444 44 436 44 436 L44 436 Z M244 684 C244 684 353 770 353 770 C353 770 368 757 368 757 C368 757 292 598 292 598 C287 587 267 556 244 556 C221 556 202 586 197 597 C197 597 120 757 120 757 C120 757 135 770 135 770 C135 770 244 684 244 684 L244 684 Z " />
<glyph glyph-name="Sacute" unicode="&#x15a;" horiz-adv-x="517" d="M219 689 C219 689 339 810 339 810 C356 828 371 847 371 854 C371 871 309 916 286 916 C282 916 271 895 262 870 C262 870 202 702 202 702 C202 702 219 689 219 689 L219 689 Z M37 193 C37 193 37 46 37 46 C37 46 53 69 53 69 C53 69 53 69 53 69 C53 69 37 46 37 46 C74 19 163 -5 231 -5 C361 -5 472 89 472 199 C472 274 399 364 312 393 C222 424 145 480 145 515 C145 574 199 625 263 625 C268 625 274 624 281 622 C281 622 281 622 281 622 C326 611 380 560 398 510 C402 500 408 483 412 473 C412 473 423 473 423 473 C423 473 423 624 423 624 C423 624 410 599 410 599 C410 599 410 599 410 599 C410 599 423 624 423 624 C383 646 312 665 270 665 C142 665 33 566 33 450 C33 379 104 295 186 267 C279 236 357 174 357 132 C357 80 299 35 231 35 C229 35 226 35 224 35 C224 35 224 36 224 36 C160 39 84 98 58 164 C55 172 50 185 47 193 C47 193 37 193 37 193 L37 193 Z " />
<glyph glyph-name="sacute" unicode="&#x15b;" horiz-adv-x="418" d="M164 529 C164 529 284 650 284 650 C302 668 317 687 317 694 C317 711 254 756 231 756 C227 756 217 735 208 710 C208 710 148 542 148 542 C148 542 164 529 164 529 L164 529 Z M42 145 C42 145 42 34 42 34 C70 13 127 -5 166 -5 C275 -5 368 72 368 163 C368 213 326 277 278 303 C212 338 156 385 156 405 C156 441 193 472 239 472 C239 472 239 472 239 472 C250 490 268 486 287 463 C275 465 265 463 262 458 C262 458 240 471 240 471 C243 468 272 451 309 430 C317 416 324 399 331 379 C333 375 336 367 337 363 C337 363 347 363 347 363 C347 363 347 470 347 470 C347 470 335 447 335 447 C335 447 335 447 335 447 C335 447 347 470 347 470 C313 489 263 505 240 505 C132 505 40 435 40 354 C40 307 101 235 172 197 C211 176 244 135 244 107 C244 65 212 29 175 29 C168 29 158 32 146 36 C114 51 79 86 61 126 C58 131 54 140 51 145 C51 145 42 145 42 145 L42 145 Z M239 472 C239 472 240 472 240 472 C240 472 240 472 240 471 C240 471 239 472 239 472 L239 472 Z " />
<glyph glyph-name="Scircumflex" unicode="&#x15c;" horiz-adv-x="517" d="M37 193 C37 193 37 46 37 46 C37 46 53 69 53 69 C53 69 53 69 53 69 C53 69 37 46 37 46 C74 19 163 -5 231 -5 C361 -5 472 89 472 199 C472 274 399 364 312 393 C222 424 145 480 145 515 C145 574 199 625 263 625 C268 625 274 624 281 622 C281 622 281 622 281 622 C326 611 380 560 398 510 C402 500 408 483 412 473 C412 473 423 473 423 473 C423 473 423 624 423 624 C423 624 410 599 410 599 C410 599 410 599 410 599 C410 599 423 624 423 624 C383 646 312 665 270 665 C142 665 33 566 33 450 C33 379 104 295 186 267 C279 236 357 174 357 132 C357 80 299 35 231 35 C229 35 226 35 224 35 C224 35 224 36 224 36 C160 39 84 98 58 164 C55 172 50 185 47 193 C47 193 37 193 37 193 L37 193 Z M264 776 C264 776 372 690 372 690 C372 690 388 703 388 703 C388 703 311 862 311 862 C306 873 286 904 263 904 C241 904 221 874 216 863 C216 863 139 703 139 703 C139 703 155 690 155 690 C155 690 264 776 264 776 L264 776 Z " />
<glyph glyph-name="Scedilla" unicode="&#x15e;" horiz-adv-x="517" d="M37 193 C37 193 37 46 37 46 C37 46 53 69 53 69 C53 69 53 69 53 69 C53 69 37 46 37 46 C74 19 163 -5 231 -5 C361 -5 472 89 472 199 C472 274 399 364 312 393 C222 424 145 480 145 515 C145 574 199 625 263 625 C268 625 274 624 281 622 C281 622 281 622 281 622 C326 611 380 560 398 510 C402 500 408 483 412 473 C412 473 423 473 423 473 C423 473 423 624 423 624 C423 624 410 599 410 599 C410 599 410 599 410 599 C410 599 423 624 423 624 C383 646 312 665 270 665 C142 665 33 566 33 450 C33 379 104 295 186 267 C279 236 357 174 357 132 C357 80 299 35 231 35 C229 35 226 35 224 35 C224 35 224 36 224 36 C160 39 84 98 58 164 C55 172 50 185 47 193 C47 193 37 193 37 193 L37 193 Z " />
<glyph glyph-name="scedilla" unicode="&#x15f;" horiz-adv-x="418" d="M42 145 C42 145 42 34 42 34 C70 13 127 -5 166 -5 C275 -5 368 72 368 163 C368 213 326 277 278 303 C212 338 156 385 156 405 C156 441 193 472 239 472 C239 472 239 472 239 472 C250 490 268 486 287 463 C275 465 265 463 262 458 C262 458 240 471 240 471 C243 468 272 451 309 430 C317 416 324 399 331 379 C333 375 336 367 337 363 C337 363 347 363 347 363 C347 363 347 470 347 470 C347 470 335 447 335 447 C335 447 335 447 335 447 C335 447 347 470 347 470 C313 489 263 505 240 505 C132 505 40 435 40 354 C40 307 101 235 172 197 C211 176 244 135 244 107 C244 65 212 29 175 29 C168 29 158 32 146 36 C114 51 79 86 61 126 C58 131 54 140 51 145 C51 145 42 145 42 145 L42 145 Z M239 472 C239 472 240 472 240 472 C240 472 240 472 240 471 C240 471 239 472 239 472 L239 472 Z " />
<glyph glyph-name="Scaron" unicode="&#x160;" horiz-adv-x="517" d="M37 193 C37 193 37 46 37 46 C37 46 53 69 53 69 C53 69 53 69 53 69 C53 69 37 46 37 46 C74 19 163 -5 231 -5 C361 -5 472 89 472 199 C472 274 399 364 312 393 C222 424 145 480 145 515 C145 574 199 625 263 625 C268 625 274 624 281 622 C281 622 281 622 281 622 C326 611 380 560 398 510 C402 500 408 483 412 473 C412 473 423 473 423 473 C423 473 423 624 423 624 C423 624 410 599 410 599 C410 599 410 599 410 599 C410 599 423 624 423 624 C383 646 312 665 270 665 C142 665 33 566 33 450 C33 379 104 295 186 267 C279 236 357 174 357 132 C357 80 299 35 231 35 C229 35 226 35 224 35 C224 35 224 36 224 36 C160 39 84 98 58 164 C55 172 50 185 47 193 C47 193 37 193 37 193 L37 193 Z M264 844 C264 844 372 930 372 930 C372 930 388 917 388 917 C388 917 311 758 311 758 C306 747 286 716 263 716 C241 716 221 746 216 757 C216 757 139 917 139 917 C139 917 155 930 155 930 C155 930 264 844 264 844 L264 844 Z " />
<glyph glyph-name="scaron" unicode="&#x161;" horiz-adv-x="418" d="M42 145 C42 145 42 34 42 34 C70 13 127 -5 166 -5 C275 -5 368 72 368 163 C368 213 326 277 278 303 C212 338 156 385 156 405 C156 441 193 472 239 472 C239 472 239 472 239 472 C250 490 268 486 287 463 C275 465 265 463 262 458 C262 458 240 471 240 471 C243 468 272 451 309 430 C317 416 324 399 331 379 C333 375 336 367 337 363 C337 363 347 363 347 363 C347 363 347 470 347 470 C347 470 335 447 335 447 C335 447 335 447 335 447 C335 447 347 470 347 470 C313 489 263 505 240 505 C132 505 40 435 40 354 C40 307 101 235 172 197 C211 176 244 135 244 107 C244 65 212 29 175 29 C168 29 158 32 146 36 C114 51 79 86 61 126 C58 131 54 140 51 145 C51 145 42 145 42 145 L42 145 Z M240 683 C240 683 348 770 348 770 C348 770 364 757 364 757 C364 757 288 598 288 598 C282 587 262 556 240 556 C217 556 197 586 192 597 C192 597 115 757 115 757 C115 757 131 770 131 770 C131 770 240 683 240 683 L240 683 Z M239 472 C239 472 240 472 240 472 C240 472 240 472 240 471 C240 471 239 472 239 472 L239 472 Z " />
<glyph glyph-name="Tcaron" unicode="&#x164;" horiz-adv-x="620" d="M634 498 C631 536 625 602 622 640 C621 645 621 655 620 660 C620 660 580 660 580 660 C580 660 524 660 524 660 C524 660 96 660 96 660 C96 660 40 660 40 660 C40 660 0 660 0 660 C-1 655 -1 645 -2 640 C-5 602 -11 536 -14 498 C-14 498 -4 498 -4 498 C-4 498 5 521 5 521 C27 574 92 620 145 620 C145 620 229 620 229 620 C229 620 229 96 229 96 C229 51 205 13 177 13 C177 13 168 13 168 13 C168 13 168 0 168 0 C168 0 229 0 229 0 C229 0 310 0 310 0 C310 0 391 0 391 0 C391 0 452 0 452 0 C452 0 452 13 452 13 C452 13 443 13 443 13 C415 13 391 51 391 96 C391 96 391 620 391 620 C391 620 475 620 475 620 C528 620 593 574 615 521 C615 521 624 498 624 498 C624 498 634 498 634 498 L634 498 Z M310 844 C310 844 419 930 419 930 C419 930 434 917 434 917 C434 917 358 758 358 758 C353 747 333 716 310 716 C287 716 268 746 262 757 C262 757 186 917 186 917 C186 917 201 930 201 930 C201 930 310 844 310 844 L310 844 Z " />
<glyph glyph-name="tcaron" unicode="&#x165;" horiz-adv-x="397" d="M365 500 C365 500 230 500 230 500 C230 500 230 640 230 640 C230 640 205 640 205 640 C148 550 66 467 25 458 C25 458 25 442 25 442 C25 442 80 442 80 442 C80 442 80 142 80 142 C80 39 117 -5 205 -5 C247 -5 317 38 377 89 C377 89 366 102 366 102 C341 80 307 62 280 62 C244 62 229 78 229 116 C229 116 230 442 230 442 C230 442 365 442 365 442 C365 442 365 500 365 500 L365 500 Z M525 576 C554 616 578 677 578 686 C578 709 509 720 484 720 C456 721 436 652 431 610 C431 610 410 443 410 443 C410 443 429 437 429 437 C429 437 525 576 525 576 L525 576 Z " />
<glyph glyph-name="Utilde" unicode="&#x168;" horiz-adv-x="700" d="M206 755 C206 782 222 805 241 805 C292 805 354 743 405 743 C460 743 506 816 506 902 C506 902 481 902 481 902 C481 870 461 842 437 842 C387 842 324 905 274 905 C224 905 181 836 181 755 C181 755 206 755 206 755 L206 755 Z M680 660 C680 660 612 660 612 660 C612 660 587 660 587 660 C587 660 562 660 562 660 C562 660 489 660 489 660 C489 660 489 647 489 647 C489 647 500 647 500 647 C531 647 559 608 562 562 C562 562 561 211 561 211 C561 125 495 52 373 52 C285 52 237 117 237 193 C237 193 237 564 237 564 C237 609 261 647 289 647 C289 647 298 647 298 647 C298 647 298 660 298 660 C298 660 237 660 237 660 C237 660 156 660 156 660 C156 660 75 660 75 660 C75 660 15 660 15 660 C15 660 15 647 15 647 C15 647 24 647 24 647 C51 647 75 609 75 564 C75 564 75 225 75 225 C75 101 171 -5 349 -5 C519 -5 612 87 612 195 C612 195 612 554 612 554 C612 554 612 559 612 559 C613 607 639 647 670 647 C670 647 680 647 680 647 C680 647 680 660 680 660 L680 660 Z " />
<glyph glyph-name="utilde" unicode="&#x169;" horiz-adv-x="580" d="M142 595 C142 622 159 645 178 645 C229 645 291 583 342 583 C396 583 443 656 443 742 C443 742 418 742 418 742 C418 710 398 682 374 682 C323 682 261 745 210 745 C160 745 117 676 117 595 C117 595 142 595 142 595 L142 595 Z M546 64 C500 74 486 92 485 162 C485 162 485 500 485 500 C485 500 410 500 410 500 C410 500 335 500 335 500 C335 500 275 500 275 500 C275 500 275 487 275 487 C275 487 284 487 284 487 C311 487 335 449 335 404 C335 404 335 121 335 121 C335 121 335 113 335 113 C325 102 316 94 313 94 C260 94 224 128 224 169 C224 169 225 500 225 500 C225 500 150 500 150 500 C150 500 75 500 75 500 C75 500 14 500 14 500 C14 500 14 487 14 487 C14 487 23 487 23 487 C51 487 75 449 75 404 C75 404 75 153 75 153 C75 68 124 -5 195 -5 C233 -5 288 35 335 88 C335 88 335 39 335 39 C335 39 335 0 335 0 C335 0 365 0 365 0 C365 0 546 56 546 56 C546 56 546 64 546 64 L546 64 Z " />
<glyph glyph-name="Umacron" unicode="&#x16a;" horiz-adv-x="700" d="M193 756 C193 756 493 756 493 756 C493 756 493 840 493 840 C493 840 193 840 193 840 C193 840 193 756 193 756 L193 756 Z M680 660 C680 660 612 660 612 660 C612 660 587 660 587 660 C587 660 562 660 562 660 C562 660 489 660 489 660 C489 660 489 647 489 647 C489 647 500 647 500 647 C531 647 559 608 562 562 C562 562 561 211 561 211 C561 125 495 52 373 52 C285 52 237 117 237 193 C237 193 237 564 237 564 C237 609 261 647 289 647 C289 647 298 647 298 647 C298 647 298 660 298 660 C298 660 237 660 237 660 C237 660 156 660 156 660 C156 660 75 660 75 660 C75 660 15 660 15 660 C15 660 15 647 15 647 C15 647 24 647 24 647 C51 647 75 609 75 564 C75 564 75 225 75 225 C75 101 171 -5 349 -5 C519 -5 612 87 612 195 C612 195 612 554 612 554 C612 554 612 559 612 559 C613 607 639 647 670 647 C670 647 680 647 680 647 C680 647 680 660 680 660 L680 660 Z " />
<glyph glyph-name="umacron" unicode="&#x16b;" horiz-adv-x="580" d="M130 596 C130 596 430 596 430 596 C430 596 430 680 430 680 C430 680 130 680 130 680 C130 680 130 596 130 596 L130 596 Z M546 64 C500 74 486 92 485 162 C485 162 485 500 485 500 C485 500 410 500 410 500 C410 500 335 500 335 500 C335 500 275 500 275 500 C275 500 275 487 275 487 C275 487 284 487 284 487 C311 487 335 449 335 404 C335 404 335 121 335 121 C335 121 335 113 335 113 C325 102 316 94 313 94 C260 94 224 128 224 169 C224 169 225 500 225 500 C225 500 150 500 150 500 C150 500 75 500 75 500 C75 500 14 500 14 500 C14 500 14 487 14 487 C14 487 23 487 23 487 C51 487 75 449 75 404 C75 404 75 153 75 153 C75 68 124 -5 195 -5 C233 -5 288 35 335 88 C335 88 335 39 335 39 C335 39 335 0 335 0 C335 0 365 0 365 0 C365 0 546 56 546 56 C546 56 546 64 546 64 L546 64 Z " />
<glyph glyph-name="Ubreve" unicode="&#x16c;" horiz-adv-x="700" d="M202 869 C249 787 314 718 343 718 C372 718 437 787 484 869 C484 869 461 882 461 882 C441 847 387 818 343 818 C299 818 245 847 225 882 C225 882 202 869 202 869 L202 869 Z M680 660 C680 660 612 660 612 660 C612 660 587 660 587 660 C587 660 562 660 562 660 C562 660 489 660 489 660 C489 660 489 647 489 647 C489 647 500 647 500 647 C531 647 559 608 562 562 C562 562 561 211 561 211 C561 125 495 52 373 52 C285 52 237 117 237 193 C237 193 237 564 237 564 C237 609 261 647 289 647 C289 647 298 647 298 647 C298 647 298 660 298 660 C298 660 237 660 237 660 C237 660 156 660 156 660 C156 660 75 660 75 660 C75 660 15 660 15 660 C15 660 15 647 15 647 C15 647 24 647 24 647 C51 647 75 609 75 564 C75 564 75 225 75 225 C75 101 171 -5 349 -5 C519 -5 612 87 612 195 C612 195 612 554 612 554 C612 554 612 559 612 559 C613 607 639 647 670 647 C670 647 680 647 680 647 C680 647 680 660 680 660 L680 660 Z " />
<glyph glyph-name="ubreve" unicode="&#x16d;" horiz-adv-x="580" d="M139 709 C186 627 251 558 280 558 C309 558 374 627 421 709 C421 709 398 722 398 722 C378 687 324 658 280 658 C236 658 182 687 162 722 C162 722 139 709 139 709 L139 709 Z M546 64 C500 74 486 92 485 162 C485 162 485 500 485 500 C485 500 410 500 410 500 C410 500 335 500 335 500 C335 500 275 500 275 500 C275 500 275 487 275 487 C275 487 284 487 284 487 C311 487 335 449 335 404 C335 404 335 121 335 121 C335 121 335 113 335 113 C325 102 316 94 313 94 C260 94 224 128 224 169 C224 169 225 500 225 500 C225 500 150 500 150 500 C150 500 75 500 75 500 C75 500 14 500 14 500 C14 500 14 487 14 487 C14 487 23 487 23 487 C51 487 75 449 75 404 C75 404 75 153 75 153 C75 68 124 -5 195 -5 C233 -5 288 35 335 88 C335 88 335 39 335 39 C335 39 335 0 335 0 C335 0 365 0 365 0 C365 0 546 56 546 56 C546 56 546 64 546 64 L546 64 Z " />
<glyph glyph-name="Uring" unicode="&#x16e;" horiz-adv-x="700" d="M343 728 C316 728 288 759 288 788 C288 820 313 847 343 847 C373 847 399 820 399 788 C399 759 370 728 343 728 L343 728 Z M246 788 C246 743 296 695 343 695 C390 695 440 743 440 788 C440 837 396 880 343 880 C291 880 246 837 246 788 L246 788 Z M680 660 C680 660 612 660 612 660 C612 660 587 660 587 660 C587 660 562 660 562 660 C562 660 489 660 489 660 C489 660 489 647 489 647 C489 647 500 647 500 647 C531 647 559 608 562 562 C562 562 561 211 561 211 C561 125 495 52 373 52 C285 52 237 117 237 193 C237 193 237 564 237 564 C237 609 261 647 289 647 C289 647 298 647 298 647 C298 647 298 660 298 660 C298 660 237 660 237 660 C237 660 156 660 156 660 C156 660 75 660 75 660 C75 660 15 660 15 660 C15 660 15 647 15 647 C15 647 24 647 24 647 C51 647 75 609 75 564 C75 564 75 225 75 225 C75 101 171 -5 349 -5 C519 -5 612 87 612 195 C612 195 612 554 612 554 C612 554 612 559 612 559 C613 607 639 647 670 647 C670 647 680 647 680 647 C680 647 680 660 680 660 L680 660 Z " />
<glyph glyph-name="uring" unicode="&#x16f;" horiz-adv-x="580" d="M280 568 C253 568 225 599 225 628 C225 660 250 687 280 687 C310 687 335 660 335 628 C335 599 307 568 280 568 L280 568 Z M183 628 C183 583 233 535 280 535 C327 535 377 583 377 628 C377 677 332 720 280 720 C228 720 183 677 183 628 L183 628 Z M546 64 C500 74 486 92 485 162 C485 162 485 500 485 500 C485 500 410 500 410 500 C410 500 335 500 335 500 C335 500 275 500 275 500 C275 500 275 487 275 487 C275 487 284 487 284 487 C311 487 335 449 335 404 C335 404 335 121 335 121 C335 121 335 113 335 113 C325 102 316 94 313 94 C260 94 224 128 224 169 C224 169 225 500 225 500 C225 500 150 500 150 500 C150 500 75 500 75 500 C75 500 14 500 14 500 C14 500 14 487 14 487 C14 487 23 487 23 487 C51 487 75 449 75 404 C75 404 75 153 75 153 C75 68 124 -5 195 -5 C233 -5 288 35 335 88 C335 88 335 39 335 39 C335 39 335 0 335 0 C335 0 365 0 365 0 C365 0 546 56 546 56 C546 56 546 64 546 64 L546 64 Z " />
<glyph glyph-name="Wcircumflex" unicode="&#x174;" horiz-adv-x="1034" d="M1030 660 C1030 660 973 660 973 660 C973 660 948 660 948 660 C948 660 923 660 923 660 C923 660 838 660 838 660 C838 660 838 647 838 647 C838 647 850 647 850 647 C887 647 907 609 893 564 C893 564 894 564 894 564 C894 564 791 229 791 229 C791 229 592 670 592 670 C592 670 551 670 551 670 C551 670 397 211 397 211 C397 211 261 564 261 564 C261 564 261 564 261 564 C244 609 256 647 287 647 C287 647 297 647 297 647 C297 647 297 660 297 660 C297 660 224 660 224 660 C224 660 135 660 135 660 C135 660 46 660 46 660 C46 660 3 660 3 660 C3 660 3 647 3 647 C3 647 10 647 10 647 C32 647 67 609 85 564 C85 564 85 564 85 564 C85 564 321 -15 321 -15 C321 -15 362 -15 362 -15 C362 -15 592 670 592 670 C592 670 506 412 506 412 C506 412 716 -15 716 -15 C716 -15 758 -15 758 -15 C758 -15 945 573 945 573 C962 614 995 647 1020 647 C1020 647 1030 647 1030 647 C1030 647 1030 660 1030 660 L1030 660 Z M572 777 C572 777 680 690 680 690 C680 690 696 703 696 703 C696 703 620 862 620 862 C614 873 594 904 572 904 C549 904 529 874 524 863 C524 863 447 703 447 703 C447 703 463 690 463 690 C463 690 572 777 572 777 L572 777 Z " />
<glyph glyph-name="Ycircumflex" unicode="&#x176;" horiz-adv-x="687" d="M476 13 C476 13 467 13 467 13 C439 13 416 51 416 96 C416 96 416 346 416 346 C416 346 416 346 416 346 C416 346 583 578 583 578 C615 617 656 647 677 647 C677 647 685 647 685 647 C685 647 685 660 685 660 C685 660 642 660 642 660 C642 660 617 660 617 660 C617 660 592 660 592 660 C592 660 503 660 503 660 C502 660 502 657 503 654 C502 650 502 647 503 647 C503 647 515 647 515 647 C552 647 550 600 510 544 C510 544 511 544 511 544 C511 544 399 384 399 384 C399 384 283 564 283 564 C283 564 284 564 284 564 C255 609 256 647 285 647 C285 647 295 647 295 647 C295 647 295 660 295 660 C295 660 222 660 222 660 C222 660 125 660 125 660 C125 660 28 660 28 660 C28 660 -9 660 -9 660 C-9 660 -9 647 -9 647 C-9 647 -2 647 -2 647 C18 647 60 609 88 564 C88 564 88 564 88 564 C88 564 254 299 254 299 C254 299 254 96 254 96 C254 51 230 13 202 13 C202 13 193 13 193 13 C193 13 193 0 193 0 C193 0 254 0 254 0 C254 0 335 0 335 0 C335 0 416 0 416 0 C416 0 476 0 476 0 C476 0 476 13 476 13 L476 13 Z M335 777 C335 777 444 690 444 690 C444 690 459 703 459 703 C459 703 383 862 383 862 C377 873 357 904 335 904 C312 904 293 874 287 863 C287 863 211 703 211 703 C211 703 226 690 226 690 C226 690 335 777 335 777 L335 777 Z " />
<glyph glyph-name="Ydieresis" unicode="&#x178;" horiz-adv-x="687" d="M441 730 C484 730 521 767 521 810 C521 853 484 890 441 890 C398 890 361 853 361 810 C361 767 398 730 441 730 L441 730 Z M228 730 C271 730 308 767 308 810 C308 853 271 890 228 890 C185 890 148 853 148 810 C148 767 185 730 228 730 L228 730 Z M476 13 C476 13 467 13 467 13 C439 13 416 51 416 96 C416 96 416 346 416 346 C416 346 416 346 416 346 C416 346 583 578 583 578 C615 617 656 647 677 647 C677 647 685 647 685 647 C685 647 685 660 685 660 C685 660 642 660 642 660 C642 660 617 660 617 660 C617 660 592 660 592 660 C592 660 503 660 503 660 C502 660 502 657 503 654 C502 650 502 647 503 647 C503 647 515 647 515 647 C552 647 550 600 510 544 C510 544 511 544 511 544 C511 544 399 384 399 384 C399 384 283 564 283 564 C283 564 284 564 284 564 C255 609 256 647 285 647 C285 647 295 647 295 647 C295 647 295 660 295 660 C295 660 222 660 222 660 C222 660 125 660 125 660 C125 660 28 660 28 660 C28 660 -9 660 -9 660 C-9 660 -9 647 -9 647 C-9 647 -2 647 -2 647 C18 647 60 609 88 564 C88 564 88 564 88 564 C88 564 254 299 254 299 C254 299 254 96 254 96 C254 51 230 13 202 13 C202 13 193 13 193 13 C193 13 193 0 193 0 C193 0 254 0 254 0 C254 0 335 0 335 0 C335 0 416 0 416 0 C416 0 476 0 476 0 C476 0 476 13 476 13 L476 13 Z " />
<glyph glyph-name="Zacute" unicode="&#x179;" horiz-adv-x="588" d="M317 689 C317 689 437 810 437 810 C455 828 470 847 470 854 C470 871 407 916 384 916 C380 916 370 895 361 870 C361 870 301 702 301 702 C301 702 317 689 317 689 L317 689 Z M493 21 C500 58 511 121 517 157 C517 157 516 158 514 158 C507 161 502 163 502 163 C502 163 494 145 494 145 C471 90 400 42 342 42 C342 42 225 42 225 42 C225 42 530 660 530 660 C530 660 438 660 438 660 C438 660 345 660 345 660 C345 660 159 660 159 660 C159 660 103 660 103 660 C103 660 62 660 62 660 C61 655 58 645 57 640 C48 608 34 554 26 523 C26 523 36 523 36 523 C36 523 46 537 46 537 C76 582 148 620 201 620 C201 620 325 620 325 620 C325 620 23 0 23 0 C23 0 113 0 113 0 C113 0 204 0 204 0 C204 0 393 0 393 0 C393 0 484 0 484 0 C484 0 489 0 489 0 C491 6 492 16 493 21 L493 21 Z " />
<glyph glyph-name="zacute" unicode="&#x17a;" horiz-adv-x="483" d="M197 529 C197 529 316 650 316 650 C334 668 349 687 349 694 C349 711 286 756 263 756 C259 756 249 735 240 710 C240 710 180 542 180 542 C180 542 197 529 197 529 L197 529 Z M408 155 C408 155 401 137 401 137 C377 81 307 34 248 34 C248 34 248 33 248 33 C248 33 219 33 219 33 C219 33 433 500 433 500 C433 500 347 500 347 500 C347 500 260 500 260 500 C260 500 166 500 166 500 C166 500 110 500 110 500 C110 500 70 500 70 500 C69 495 67 487 65 483 C59 458 48 416 41 392 C41 392 51 392 51 392 C51 392 60 403 60 403 C87 437 156 465 210 465 C210 465 210 465 210 465 C210 465 244 466 244 466 C244 466 27 0 27 0 C27 0 115 0 115 0 C115 0 204 0 204 0 C204 0 301 0 301 0 C301 0 390 0 390 0 C390 0 397 0 397 0 C398 4 399 12 400 17 C406 52 417 113 423 149 C417 151 408 155 408 155 C408 155 408 155 408 155 L408 155 Z " />
<glyph glyph-name="Zdotaccent" unicode="&#x17b;" horiz-adv-x="588" d="M316 730 C359 730 396 767 396 810 C396 853 359 890 316 890 C273 890 236 853 236 810 C236 767 273 730 316 730 L316 730 Z M493 21 C500 58 511 121 517 157 C517 157 516 158 514 158 C507 161 502 163 502 163 C502 163 494 145 494 145 C471 90 400 42 342 42 C342 42 225 42 225 42 C225 42 530 660 530 660 C530 660 438 660 438 660 C438 660 345 660 345 660 C345 660 159 660 159 660 C159 660 103 660 103 660 C103 660 62 660 62 660 C61 655 58 645 57 640 C48 608 34 554 26 523 C26 523 36 523 36 523 C36 523 46 537 46 537 C76 582 148 620 201 620 C201 620 325 620 325 620 C325 620 23 0 23 0 C23 0 113 0 113 0 C113 0 204 0 204 0 C204 0 393 0 393 0 C393 0 484 0 484 0 C484 0 489 0 489 0 C491 6 492 16 493 21 L493 21 Z " />
<glyph glyph-name="zdotaccent" unicode="&#x17c;" horiz-adv-x="483" d="M272 570 C315 570 352 607 352 650 C352 693 315 730 272 730 C229 730 192 693 192 650 C192 607 229 570 272 570 L272 570 Z M408 155 C408 155 401 137 401 137 C377 81 307 34 248 34 C248 34 248 33 248 33 C248 33 219 33 219 33 C219 33 433 500 433 500 C433 500 347 500 347 500 C347 500 260 500 260 500 C260 500 166 500 166 500 C166 500 110 500 110 500 C110 500 70 500 70 500 C69 495 67 487 65 483 C59 458 48 416 41 392 C41 392 51 392 51 392 C51 392 60 403 60 403 C87 437 156 465 210 465 C210 465 210 465 210 465 C210 465 244 466 244 466 C244 466 27 0 27 0 C27 0 115 0 115 0 C115 0 204 0 204 0 C204 0 301 0 301 0 C301 0 390 0 390 0 C390 0 397 0 397 0 C398 4 399 12 400 17 C406 52 417 113 423 149 C417 151 408 155 408 155 C408 155 408 155 408 155 L408 155 Z " />
<glyph glyph-name="Zcaron" unicode="&#x17d;" horiz-adv-x="588" d="M316 844 C316 844 425 930 425 930 C425 930 440 917 440 917 C440 917 364 758 364 758 C359 747 339 716 316 716 C294 716 274 746 269 757 C269 757 192 917 192 917 C192 917 207 930 207 930 C207 930 316 844 316 844 L316 844 Z M493 21 C500 58 511 121 517 157 C517 157 516 158 514 158 C507 161 502 163 502 163 C502 163 494 145 494 145 C471 90 400 42 342 42 C342 42 225 42 225 42 C225 42 530 660 530 660 C530 660 438 660 438 660 C438 660 345 660 345 660 C345 660 159 660 159 660 C159 660 103 660 103 660 C103 660 62 660 62 660 C61 655 58 645 57 640 C48 608 34 554 26 523 C26 523 36 523 36 523 C36 523 46 537 46 537 C76 582 148 620 201 620 C201 620 325 620 325 620 C325 620 23 0 23 0 C23 0 113 0 113 0 C113 0 204 0 204 0 C204 0 393 0 393 0 C393 0 484 0 484 0 C484 0 489 0 489 0 C491 6 492 16 493 21 L493 21 Z " />
<glyph glyph-name="zcaron" unicode="&#x17e;" horiz-adv-x="483" d="M408 155 C408 155 401 137 401 137 C377 81 307 34 248 34 C248 34 248 33 248 33 C248 33 219 33 219 33 C219 33 433 500 433 500 C433 500 347 500 347 500 C347 500 260 500 260 500 C260 500 166 500 166 500 C166 500 110 500 110 500 C110 500 70 500 70 500 C69 495 67 487 65 483 C59 458 48 416 41 392 C41 392 51 392 51 392 C51 392 60 403 60 403 C87 437 156 465 210 465 C210 465 210 465 210 465 C210 465 244 466 244 466 C244 466 27 0 27 0 C27 0 115 0 115 0 C115 0 204 0 204 0 C204 0 301 0 301 0 C301 0 390 0 390 0 C390 0 397 0 397 0 C398 4 399 12 400 17 C406 52 417 113 423 149 C417 151 408 155 408 155 C408 155 408 155 408 155 L408 155 Z M272 683 C272 683 381 770 381 770 C381 770 396 757 396 757 C396 757 320 598 320 598 C314 587 294 556 272 556 C249 556 230 586 224 597 C224 597 147 757 147 757 C147 757 163 770 163 770 C163 770 272 683 272 683 L272 683 Z " />
<glyph glyph-name="SmallLetterOwithogon" unicode="&#x1eb;" horiz-adv-x="699" d="M716 -9 C716 -9 700 -2 700 -2 C689 -26 627 -46 565 -46 C478 -46 406 -28 364 -4 C535 6 649 145 649 277 C649 413 525 558 343 558 C161 558 37 413 37 277 C37 150 144 16 304 -3 C387 -80 486 -143 550 -143 C606 -143 683 -81 716 -9 L716 -9 Z M343 31 C256 31 197 157 197 277 C197 396 256 522 343 522 C430 522 489 396 489 277 C489 157 430 31 343 31 L343 31 Z " />
<glyph glyph-name="CapitalLetterAwithdo" unicode="&#x226;" horiz-adv-x="722" d="M329 730 C372 730 409 767 409 810 C409 853 372 890 329 890 C286 890 249 853 249 810 C249 767 286 730 329 730 L329 730 Z M716 13 C716 13 708 13 708 13 C682 13 643 51 622 96 C622 96 622 96 622 96 C622 96 349 675 349 675 C349 675 309 675 309 675 C309 675 84 87 84 87 C66 46 30 13 5 13 C5 13 -4 13 -4 13 C-4 13 -4 0 -4 0 C-4 0 51 0 51 0 C51 0 78 0 78 0 C78 0 105 0 105 0 C105 0 194 0 194 0 C194 0 194 13 194 13 C194 13 181 13 181 13 C143 13 127 55 143 106 C143 106 186 223 186 223 C186 223 388 223 388 223 C388 223 447 96 447 96 C447 96 446 96 446 96 C467 51 455 13 419 13 C419 13 408 13 408 13 C408 13 408 0 408 0 C408 0 491 0 491 0 C491 0 579 0 579 0 C579 0 667 0 667 0 C667 0 716 0 716 0 C716 0 716 13 716 13 L716 13 Z M369 263 C369 263 200 264 200 264 C200 264 275 469 275 469 C275 469 369 263 369 263 L369 263 Z " />
<glyph glyph-name="LETTERSMALLCAPITALG" unicode="&#x262;" horiz-adv-x="767" d="M673 260 C673 260 613 260 613 260 C613 260 547 260 547 260 C547 260 481 260 481 260 C481 260 421 260 421 260 C421 260 421 247 421 247 C421 247 430 247 430 247 C458 248 481 209 481 164 C481 164 481 43 481 43 C450 36 418 31 393 31 C287 31 197 144 197 277 C197 409 287 522 393 522 C400 522 407 522 414 521 C414 521 414 521 414 521 C484 515 563 459 585 399 C588 391 593 377 596 369 C596 369 607 369 607 369 C607 369 607 503 607 503 C552 533 454 558 393 558 C201 558 37 429 37 277 C37 125 201 -5 393 -5 C458 -5 559 21 613 52 C613 52 613 164 613 164 C613 164 613 169 613 169 C614 212 637 248 664 247 C664 247 673 247 673 247 C673 247 673 260 673 260 L673 260 Z " />
<glyph glyph-name="LETTERSMALLCAPITALI" unicode="&#x26a;" horiz-adv-x="357" d="M50 541 C50 541 60 541 60 541 C87 541 111 502 111 457 C111 457 111 96 111 96 C111 51 87 13 60 13 C60 13 50 13 50 13 C50 13 50 0 50 0 C50 0 111 0 111 0 C111 0 184 0 184 0 C184 0 257 0 257 0 C257 0 317 0 317 0 C318 0 318 3 317 6 C318 10 318 13 317 13 C317 13 308 13 308 13 C280 13 257 51 257 96 C257 96 257 457 257 457 C257 502 280 541 308 541 C308 541 317 541 317 541 C318 541 318 544 317 547 C318 551 318 554 317 553 C281 554 220 554 184 553 C148 552 86 554 50 553 C50 553 50 541 50 541 L50 541 Z " />
<glyph glyph-name="LETTERSMALLCAPITALN" unicode="&#x274;" horiz-adv-x="638" d="M600 553 C578 554 540 554 517 553 C495 554 457 554 435 553 C435 553 435 541 435 541 C435 541 444 541 444 541 C472 541 496 502 496 457 C496 457 496 211 496 211 C496 211 226 553 226 553 C226 553 140 491 140 491 C140 491 140 492 140 492 C140 492 226 553 226 553 C226 553 140 553 140 553 C140 553 119 553 119 553 C96 554 58 554 36 553 C36 553 36 541 36 541 C36 541 45 541 45 541 C73 541 97 502 97 457 C97 457 97 96 97 96 C97 51 73 13 45 13 C45 13 36 13 36 13 C36 13 36 0 36 0 C36 0 97 0 97 0 C97 0 119 0 119 0 C119 0 140 0 140 0 C140 0 201 0 201 0 C201 0 201 13 201 13 C201 13 192 13 192 13 C164 13 140 51 140 96 C140 96 140 428 140 428 C140 428 429 63 429 63 C429 63 495 -20 495 -20 C495 -20 539 -20 539 -20 C539 -20 539 116 539 116 C539 116 539 457 539 457 C540 502 563 541 591 541 C591 541 600 541 600 541 C600 541 600 553 600 553 L600 553 Z " />
<glyph glyph-name="LETTERSMALLCAPITALR" unicode="&#x280;" horiz-adv-x="682" d="M29 541 C29 541 38 541 38 541 C65 541 89 502 89 457 C89 457 89 96 89 96 C89 51 65 13 38 13 C38 13 29 13 29 13 C29 13 29 0 29 0 C29 0 89 0 89 0 C89 0 162 0 162 0 C162 0 235 0 235 0 C235 0 296 0 296 0 C296 0 296 13 296 13 C296 13 286 13 286 13 C259 13 235 51 235 96 C235 96 235 252 235 252 C235 252 265 252 265 252 C265 252 380 106 380 106 C453 14 487 0 632 0 C632 0 682 0 682 0 C682 0 682 29 682 29 C682 29 677 29 677 29 C630 29 618 36 585 77 C585 77 427 275 427 275 C504 303 556 353 556 409 C556 487 441 553 305 553 C305 553 235 553 235 553 C235 553 162 553 162 553 C126 554 64 554 29 553 C29 553 29 541 29 541 L29 541 Z M291 289 C291 289 236 289 236 289 C236 289 235 289 235 289 C235 289 235 516 235 516 C235 516 305 516 305 516 C358 516 403 467 403 409 C403 344 352 289 291 289 L291 289 Z " />
<glyph glyph-name="LETTERSMALLCAPITALY" unicode="&#x28f;" horiz-adv-x="611" d="M433 13 C433 13 424 13 424 13 C396 13 372 51 372 96 C372 96 372 293 372 293 C372 293 372 293 372 293 C372 293 500 465 500 465 C534 506 578 541 601 541 C601 541 609 541 609 541 C609 541 609 553 609 553 C591 554 561 554 543 553 C513 554 462 554 432 553 C432 553 432 541 432 541 C432 541 444 541 444 541 C479 541 477 495 439 440 C439 440 351 319 351 319 C351 319 267 457 267 457 C267 457 267 457 267 457 C239 502 241 541 271 541 C271 541 280 541 280 541 C280 541 280 553 280 553 C237 554 163 554 120 553 C87 554 30 554 -4 553 C-4 553 -4 541 -4 541 C-4 541 3 541 3 541 C23 541 65 502 95 457 C95 457 95 457 95 457 C95 457 226 254 226 254 C226 254 226 96 226 96 C226 51 202 13 175 13 C175 13 166 13 166 13 C166 13 166 0 166 0 C166 0 226 0 226 0 C226 0 299 0 299 0 C299 0 372 0 372 0 C372 0 433 0 433 0 C433 0 433 13 433 13 L433 13 Z " />
<glyph glyph-name="LETTERSMALLCAPITALB" unicode="&#x299;" horiz-adv-x="625" d="M29 541 C29 541 38 541 38 541 C65 541 89 502 89 457 C89 457 89 96 89 96 C89 51 65 13 38 13 C38 13 29 13 29 13 C29 13 29 0 29 0 C29 0 89 0 89 0 C89 0 162 0 162 0 C162 0 235 0 235 0 C235 0 326 0 326 0 C477 0 606 70 606 153 C606 219 516 277 399 293 C487 314 549 360 549 412 C549 488 437 553 305 553 C305 553 235 553 235 553 C235 553 162 553 162 553 C126 554 64 554 29 553 C29 553 29 541 29 541 L29 541 Z M235 302 C235 302 235 516 235 516 C235 516 305 516 305 516 C359 516 404 468 404 412 C404 352 352 302 291 302 C291 302 235 302 235 302 L235 302 Z M235 268 C235 268 290 268 290 268 C378 268 453 215 453 153 C453 91 388 38 311 38 C311 38 235 38 235 38 C235 38 235 268 235 268 L235 268 Z " />
<glyph glyph-name="LETTERSMALLCAPITALH" unicode="&#x29c;" horiz-adv-x="707" d="M668 553 C632 554 571 554 534 553 C499 554 437 554 401 553 C401 553 401 541 401 541 C401 541 410 541 410 541 C438 541 462 502 462 457 C462 457 462 303 462 303 C462 303 252 303 252 303 C252 303 252 457 252 457 C252 457 252 462 252 462 C253 505 276 541 303 541 C303 541 312 541 312 541 C312 541 312 553 312 553 C276 554 215 554 179 553 C143 552 81 554 45 553 C45 553 45 541 45 541 C45 541 54 541 54 541 C82 541 106 502 106 457 C106 457 106 96 106 96 C106 51 82 13 54 13 C54 13 45 13 45 13 C45 13 45 0 45 0 C45 0 106 0 106 0 C106 0 179 0 179 0 C179 0 252 0 252 0 C252 0 312 0 312 0 C312 0 312 13 312 13 C312 13 303 13 303 13 C276 13 253 48 252 91 C252 91 252 96 252 96 C252 96 252 267 252 267 C252 267 462 267 462 267 C462 267 462 96 462 96 C462 51 438 13 410 13 C410 13 401 13 401 13 C401 13 401 0 401 0 C401 0 462 0 462 0 C462 0 534 0 534 0 C534 0 607 0 607 0 C607 0 668 0 668 0 C668 0 668 13 668 13 C668 13 659 13 659 13 C631 13 607 51 607 96 C607 96 607 457 607 457 C607 502 631 541 659 541 C659 541 668 541 668 541 C668 541 668 553 668 553 L668 553 Z " />
<glyph glyph-name="LETTERSMALLCAPITALL" unicode="&#x29f;" horiz-adv-x="602" d="M519 158 C519 158 511 140 511 140 C487 84 417 37 359 36 C359 36 252 36 252 36 C252 36 252 457 252 457 C252 457 252 462 252 462 C253 505 276 541 303 541 C303 541 312 541 312 541 C312 541 312 553 312 553 C276 554 215 554 179 553 C143 552 81 554 45 553 C45 553 45 541 45 541 C45 541 54 541 54 541 C82 541 106 502 106 457 C106 457 106 96 106 96 C106 51 82 13 54 13 C54 13 45 13 45 13 C45 13 45 0 45 0 C45 0 106 0 106 0 C106 0 179 0 179 0 C179 0 252 0 252 0 C252 0 411 0 411 0 C411 0 502 0 502 0 C502 0 507 0 507 0 C508 5 510 13 510 18 C517 54 528 116 534 152 C529 154 519 158 519 158 C519 158 519 158 519 158 L519 158 Z " />
<glyph glyph-name="LETTERSMALLCAPITALA" unicode="&#x1d00;" horiz-adv-x="645" d="M638 13 C638 13 630 13 630 13 C605 13 565 51 543 96 C543 96 543 96 543 96 C543 96 312 566 312 566 C312 566 276 566 276 566 C276 566 88 90 88 90 C70 48 33 13 6 13 C6 13 -3 13 -3 13 C-3 13 -3 0 -3 0 C-3 0 53 0 53 0 C53 0 77 0 77 0 C77 0 101 0 101 0 C101 0 190 0 190 0 C190 0 190 13 190 13 C190 13 177 13 177 13 C141 13 125 53 139 103 C139 103 171 187 171 187 C171 187 340 187 340 187 C340 187 384 96 384 96 C384 96 384 96 384 96 C406 51 395 13 360 13 C360 13 348 13 348 13 C348 13 348 0 348 0 C348 0 431 0 431 0 C431 0 511 0 511 0 C511 0 590 0 590 0 C590 0 638 0 638 0 C638 0 638 13 638 13 L638 13 Z M323 222 C323 222 184 223 184 223 C184 223 244 384 244 384 C244 384 323 222 323 222 L323 222 Z " />
<glyph glyph-name="LETTERSMALLCAPITALC" unicode="&#x1d04;" horiz-adv-x="686" d="M627 369 C627 369 627 503 627 503 C572 533 469 558 403 558 C205 558 37 429 37 277 C37 125 205 -5 403 -5 C477 -5 580 25 628 60 C628 60 617 75 617 75 C617 75 617 75 617 75 C617 75 628 60 628 60 C628 60 628 192 628 192 C628 192 617 192 617 192 C614 184 609 170 606 162 C580 91 487 31 403 31 C292 31 197 144 197 277 C197 409 292 522 403 522 C413 522 423 521 434 520 C434 520 434 520 434 520 C505 513 583 457 605 399 C608 391 613 377 616 369 C616 369 627 369 627 369 L627 369 Z " />
<glyph glyph-name="LETTERSMALLCAPITALD" unicode="&#x1d05;" horiz-adv-x="719" d="M29 541 C29 541 38 541 38 541 C65 541 89 502 89 457 C89 457 89 96 89 96 C89 51 65 13 38 13 C38 13 29 13 29 13 C29 13 29 0 29 0 C29 0 89 0 89 0 C89 0 162 0 162 0 C162 0 235 0 235 0 C235 0 332 0 332 0 C514 0 669 127 669 277 C669 426 503 553 307 553 C307 553 235 553 235 553 C235 553 162 553 162 553 C126 554 64 554 29 553 C29 553 29 541 29 541 L29 541 Z M235 38 C235 38 235 516 235 516 C235 516 307 516 307 516 C424 516 524 406 524 277 C524 148 435 38 332 38 C332 38 235 38 235 38 L235 38 Z " />
<glyph glyph-name="LETTERSMALLCAPITALE" unicode="&#x1d07;" horiz-adv-x="602" d="M437 200 C437 200 437 269 437 269 C437 269 437 287 437 287 C437 287 437 305 437 305 C437 305 437 366 437 366 C437 366 426 366 426 366 C426 366 423 357 423 357 C415 329 357 305 298 305 C298 305 252 305 252 305 C252 305 252 517 252 517 C252 517 345 517 345 517 C409 517 478 474 495 424 C495 424 500 408 500 408 C500 408 510 408 510 408 C510 408 510 535 510 535 C510 535 510 553 510 553 C510 554 507 554 503 553 C502 554 499 554 497 553 C474 554 436 554 413 553 C413 553 252 553 252 553 C252 553 179 553 179 553 C143 554 81 554 45 553 C45 553 45 541 45 541 C45 541 54 541 54 541 C82 541 106 502 106 457 C106 457 106 96 106 96 C106 51 82 13 54 13 C54 13 45 13 45 13 C45 13 45 0 45 0 C45 0 106 0 106 0 C106 0 179 0 179 0 C179 0 252 0 252 0 C252 0 411 0 411 0 C411 0 502 0 502 0 C502 0 507 0 507 0 C508 5 510 13 510 18 C517 53 527 111 533 146 C533 146 524 146 524 146 C524 146 515 129 515 129 C489 79 413 37 349 36 C349 36 252 36 252 36 C252 36 252 269 252 269 C252 269 298 269 298 269 C357 269 415 242 423 210 C423 210 426 200 426 200 C426 200 437 200 437 200 L437 200 Z " />
<glyph glyph-name="LETTERSMALLCAPITALJ" unicode="&#x1d0a;" horiz-adv-x="432" d="M392 553 C356 554 294 554 259 553 C223 554 161 554 125 553 C125 553 125 541 125 541 C125 541 134 541 134 541 C162 541 186 502 186 457 C186 457 186 168 186 168 C186 72 179 20 166 20 C145 20 128 45 127 75 C127 107 95 135 60 135 C27 135 -1 107 0 75 C0 29 60 -10 129 -10 C260 -10 332 96 332 290 C332 290 331 464 331 464 C334 506 356 541 383 541 C383 541 392 541 392 541 C392 541 392 553 392 553 L392 553 Z " />
<glyph glyph-name="LETTERSMALLCAPITALK" unicode="&#x1d0b;" horiz-adv-x="616" d="M372 541 C372 541 380 541 380 541 C403 541 393 502 358 457 C358 457 358 457 358 457 C358 457 327 416 327 416 C327 416 326 417 326 417 C326 417 235 298 235 298 C235 298 235 457 235 457 C235 502 259 541 286 541 C286 541 296 541 296 541 C296 541 296 553 296 553 C260 554 198 554 162 553 C126 552 64 554 29 553 C29 553 29 541 29 541 C29 541 38 541 38 541 C65 541 89 502 89 457 C89 457 89 96 89 96 C89 51 65 13 38 13 C38 13 29 13 29 13 C29 13 29 0 29 0 C29 0 89 0 89 0 C89 0 162 0 162 0 C162 0 235 0 235 0 C235 0 296 0 296 0 C296 0 296 13 296 13 C296 13 286 13 286 13 C259 13 235 51 235 96 C235 96 235 298 235 298 C235 298 342 91 342 91 C374 29 450 -5 557 -5 C557 -5 607 -5 607 -5 C607 -5 607 24 607 24 C607 24 602 24 602 24 C555 24 495 89 433 210 C433 210 345 381 345 381 C345 381 408 464 408 464 C443 506 492 541 518 541 C518 541 528 541 528 541 C527 541 527 544 528 547 C527 550 527 552 527 553 C507 554 474 554 455 553 C432 554 394 554 372 553 C372 553 372 541 372 541 L372 541 Z M527 553 C528 553 528 553 528 553 C528 553 528 553 527 553 C527 553 527 553 527 553 L527 553 Z " />
<glyph glyph-name="LETTERSMALLCAPITALM" unicode="&#x1d0d;" horiz-adv-x="822" d="M784 553 C750 554 692 554 658 553 C658 553 645 553 645 553 C645 553 593 553 593 553 C593 553 364 -5 364 -5 C364 -5 400 -5 400 -5 C400 -5 596 441 596 441 C596 441 605 96 605 96 C605 96 605 96 605 96 C607 51 584 13 556 13 C556 13 547 13 547 13 C547 13 547 0 547 0 C547 0 608 0 608 0 C608 0 681 0 681 0 C681 0 754 0 754 0 C754 0 814 0 814 0 C814 0 814 13 814 13 C814 13 805 13 805 13 C777 13 751 51 749 96 C749 96 749 96 749 96 C749 96 729 463 729 463 C729 506 749 541 775 541 C775 541 784 541 784 541 C784 541 784 553 784 553 L784 553 Z M55 541 C55 541 64 541 64 541 C92 541 114 502 111 457 C111 457 112 457 112 457 C112 457 95 96 95 96 C95 96 95 96 95 96 C93 51 67 13 40 13 C40 13 31 13 31 13 C31 13 31 0 31 0 C31 0 91 0 91 0 C91 0 113 0 113 0 C113 0 134 0 134 0 C134 0 223 0 223 0 C223 0 223 13 223 13 C223 13 210 13 210 13 C170 13 138 57 139 110 C139 110 151 382 151 382 C151 382 327 63 327 63 C327 63 364 -5 364 -5 C364 -5 431 159 431 159 C431 159 426 170 426 170 C426 170 224 553 224 553 C224 553 159 553 159 553 C159 553 138 553 138 553 C115 554 77 554 55 553 C55 553 55 541 55 541 L55 541 Z " />
<glyph glyph-name="LETTERSMALLCAPITALO" unicode="&#x1d0f;" horiz-adv-x="699" d="M343 31 C256 31 197 157 197 277 C197 396 256 522 343 522 C430 522 489 396 489 277 C489 157 430 31 343 31 L343 31 Z M37 277 C37 140 161 -5 343 -5 C525 -5 649 140 649 277 C649 413 525 558 343 558 C161 558 37 413 37 277 L37 277 Z " />
<glyph glyph-name="LETTERSMALLCAPITALP" unicode="&#x1d18;" horiz-adv-x="543" d="M29 541 C29 541 38 541 38 541 C65 541 89 502 89 457 C89 457 89 96 89 96 C89 51 65 13 38 13 C38 13 29 13 29 13 C29 13 29 0 29 0 C29 0 89 0 89 0 C89 0 162 0 162 0 C162 0 235 0 235 0 C235 0 296 0 296 0 C296 0 296 13 296 13 C296 13 286 13 286 13 C259 13 235 51 235 96 C235 96 235 237 235 237 C235 237 280 237 280 237 C412 237 524 311 524 397 C524 481 417 553 292 553 C292 553 235 553 235 553 C235 553 162 553 162 553 C126 554 64 554 29 553 C29 553 29 541 29 541 L29 541 Z M235 275 C235 275 235 516 235 516 C235 516 292 516 292 516 C335 516 371 461 371 397 C371 331 329 275 280 275 C280 275 235 275 235 275 L235 275 Z " />
<glyph glyph-name="LETTERSMALLCAPITALT" unicode="&#x1d1b;" horiz-adv-x="560" d="M570 396 C567 433 561 497 558 535 C557 540 557 549 556 553 C556 554 553 554 550 553 C548 554 546 554 544 553 C521 554 483 554 460 553 C460 553 100 553 100 553 C77 554 39 554 16 553 C14 554 12 554 10 553 C7 554 4 554 4 553 C3 549 3 540 2 535 C-1 497 -7 433 -10 396 C-10 396 0 396 0 396 C0 396 10 418 10 418 C32 472 96 517 150 517 C150 517 207 517 207 517 C207 517 207 96 207 96 C207 51 183 13 156 13 C156 13 146 13 146 13 C146 13 146 0 146 0 C146 0 207 0 207 0 C207 0 280 0 280 0 C280 0 353 0 353 0 C353 0 414 0 414 0 C414 0 414 13 414 13 C414 13 404 13 404 13 C377 13 353 51 353 96 C353 96 353 517 353 517 C353 517 410 517 410 517 C464 517 528 472 550 418 C550 418 560 396 560 396 C560 396 570 396 570 396 L570 396 Z " />
<glyph glyph-name="LETTERSMALLCAPITALU" unicode="&#x1d1c;" horiz-adv-x="626" d="M607 553 C582 554 540 554 516 553 C490 554 446 554 420 553 C420 553 420 541 420 541 C420 541 431 541 431 541 C465 541 493 498 493 447 C493 447 493 171 493 171 C493 103 437 46 335 46 C264 46 225 95 225 153 C225 153 225 457 225 457 C225 502 249 541 276 541 C276 541 286 541 286 541 C286 541 286 553 286 553 C250 554 188 554 152 553 C116 552 54 554 19 553 C19 553 19 541 19 541 C19 541 28 541 28 541 C55 541 79 502 79 457 C79 457 79 181 79 181 C79 80 161 -5 313 -5 C459 -5 538 69 538 156 C538 156 538 447 538 447 C538 498 565 541 597 541 C597 541 607 541 607 541 C607 541 607 553 607 553 L607 553 Z " />
<glyph glyph-name="LETTERSMALLCAPITALV" unicode="&#x1d20;" horiz-adv-x="630" d="M629 553 C608 554 572 554 550 553 C518 554 463 554 431 553 C431 553 431 541 431 541 C431 541 445 541 445 541 C485 541 502 492 483 434 C483 434 382 163 382 163 C382 163 235 467 235 467 C219 507 230 541 262 541 C262 541 274 541 274 541 C273 541 273 544 274 547 C273 550 273 552 273 553 C229 554 156 554 113 553 C80 554 23 554 -10 553 C-10 553 -10 541 -10 541 C-10 541 -3 541 -3 541 C18 541 53 507 75 466 C75 466 315 -15 315 -15 C315 -15 353 -15 353 -15 C353 -15 536 457 536 457 C536 457 536 457 536 457 C553 502 592 541 620 541 C620 541 629 541 629 541 C629 541 629 553 629 553 L629 553 Z M273 553 C274 553 274 553 274 553 C274 553 274 553 273 553 C273 553 273 553 273 553 L273 553 Z " />
<glyph glyph-name="LETTERSMALLCAPITALW" unicode="&#x1d21;" horiz-adv-x="894" d="M889 553 C868 554 832 554 810 553 C781 554 732 554 703 553 C703 553 703 541 703 541 C703 541 715 541 715 541 C752 541 772 502 758 457 C758 457 758 457 758 457 C758 457 613 -15 613 -15 C613 -15 651 -15 651 -15 C651 -15 805 466 805 466 C821 507 854 541 880 541 C880 541 889 541 889 541 C889 541 889 553 889 553 L889 553 Z M279 553 C238 554 167 554 126 553 C93 554 36 554 3 553 C3 553 3 541 3 541 C3 541 10 541 10 541 C31 541 64 505 84 462 C84 462 282 -15 282 -15 C282 -15 320 -15 320 -15 C320 -15 440 344 440 344 C440 344 613 -15 613 -15 C613 -15 676 191 676 191 C676 191 514 563 514 563 C514 563 476 563 476 563 C476 563 347 178 347 178 C347 178 242 457 242 457 C225 502 238 541 269 541 C269 541 279 541 279 541 C279 541 279 553 279 553 L279 553 Z " />
<glyph glyph-name="LETTERSMALLCAPITALZ" unicode="&#x1d22;" horiz-adv-x="528" d="M445 159 C445 159 438 141 438 141 C414 85 344 38 285 38 C285 38 209 38 209 38 C209 38 470 553 470 553 C470 553 387 553 387 553 C387 553 304 553 304 553 C304 553 167 553 167 553 C145 554 106 554 84 553 C82 554 79 554 77 553 C74 554 71 554 71 553 C70 549 68 540 66 535 C58 504 44 451 35 420 C35 420 45 420 45 420 C45 420 55 434 55 434 C86 479 157 517 210 517 C210 517 286 517 286 517 C286 517 27 0 27 0 C27 0 109 0 109 0 C109 0 190 0 190 0 C190 0 337 0 337 0 C337 0 428 0 428 0 C428 0 433 0 433 0 C434 5 436 14 437 19 C443 55 454 117 460 153 C454 155 445 159 445 159 L445 159 Z " />
<glyph glyph-name="Wgrave" unicode="&#x1e80;" horiz-adv-x="1034" d="M1030 660 C1030 660 973 660 973 660 C973 660 948 660 948 660 C948 660 923 660 923 660 C923 660 838 660 838 660 C838 660 838 647 838 647 C838 647 850 647 850 647 C887 647 907 609 893 564 C893 564 894 564 894 564 C894 564 791 229 791 229 C791 229 592 670 592 670 C592 670 551 670 551 670 C551 670 397 211 397 211 C397 211 261 564 261 564 C261 564 261 564 261 564 C244 609 256 647 287 647 C287 647 297 647 297 647 C297 647 297 660 297 660 C297 660 224 660 224 660 C224 660 135 660 135 660 C135 660 46 660 46 660 C46 660 3 660 3 660 C3 660 3 647 3 647 C3 647 10 647 10 647 C32 647 67 609 85 564 C85 564 85 564 85 564 C85 564 321 -15 321 -15 C321 -15 362 -15 362 -15 C362 -15 592 670 592 670 C592 670 506 412 506 412 C506 412 716 -15 716 -15 C716 -15 758 -15 758 -15 C758 -15 945 573 945 573 C962 614 995 647 1020 647 C1020 647 1030 647 1030 647 C1030 647 1030 660 1030 660 L1030 660 Z M596 870 C587 895 577 916 572 916 C549 916 486 871 486 854 C486 847 502 828 520 810 C520 810 643 689 643 689 C643 689 659 702 659 702 C659 702 596 870 596 870 L596 870 Z " />
<glyph glyph-name="Wacute" unicode="&#x1e82;" horiz-adv-x="1034" d="M512 689 C512 689 632 810 632 810 C649 828 664 847 664 854 C664 871 602 916 579 916 C574 916 564 895 555 870 C555 870 495 702 495 702 C495 702 512 689 512 689 L512 689 Z M1030 660 C1030 660 973 660 973 660 C973 660 948 660 948 660 C948 660 923 660 923 660 C923 660 838 660 838 660 C838 660 838 647 838 647 C838 647 850 647 850 647 C887 647 907 609 893 564 C893 564 894 564 894 564 C894 564 791 229 791 229 C791 229 592 670 592 670 C592 670 551 670 551 670 C551 670 397 211 397 211 C397 211 261 564 261 564 C261 564 261 564 261 564 C244 609 256 647 287 647 C287 647 297 647 297 647 C297 647 297 660 297 660 C297 660 224 660 224 660 C224 660 135 660 135 660 C135 660 46 660 46 660 C46 660 3 660 3 660 C3 660 3 647 3 647 C3 647 10 647 10 647 C32 647 67 609 85 564 C85 564 85 564 85 564 C85 564 321 -15 321 -15 C321 -15 362 -15 362 -15 C362 -15 592 670 592 670 C592 670 506 412 506 412 C506 412 716 -15 716 -15 C716 -15 758 -15 758 -15 C758 -15 945 573 945 573 C962 614 995 647 1020 647 C1020 647 1030 647 1030 647 C1030 647 1030 660 1030 660 L1030 660 Z " />
<glyph glyph-name="Wdieresis" unicode="&#x1e84;" horiz-adv-x="1034" d="M678 730 C721 730 758 767 758 810 C758 853 721 890 678 890 C635 890 598 853 598 810 C598 767 635 730 678 730 L678 730 Z M465 730 C508 730 545 767 545 810 C545 853 508 890 465 890 C422 890 385 853 385 810 C385 767 422 730 465 730 L465 730 Z M1030 660 C1030 660 973 660 973 660 C973 660 948 660 948 660 C948 660 923 660 923 660 C923 660 838 660 838 660 C838 660 838 647 838 647 C838 647 850 647 850 647 C887 647 907 609 893 564 C893 564 894 564 894 564 C894 564 791 229 791 229 C791 229 592 670 592 670 C592 670 551 670 551 670 C551 670 397 211 397 211 C397 211 261 564 261 564 C261 564 261 564 261 564 C244 609 256 647 287 647 C287 647 297 647 297 647 C297 647 297 660 297 660 C297 660 224 660 224 660 C224 660 135 660 135 660 C135 660 46 660 46 660 C46 660 3 660 3 660 C3 660 3 647 3 647 C3 647 10 647 10 647 C32 647 67 609 85 564 C85 564 85 564 85 564 C85 564 321 -15 321 -15 C321 -15 362 -15 362 -15 C362 -15 592 670 592 670 C592 670 506 412 506 412 C506 412 716 -15 716 -15 C716 -15 758 -15 758 -15 C758 -15 945 573 945 573 C962 614 995 647 1020 647 C1020 647 1030 647 1030 647 C1030 647 1030 660 1030 660 L1030 660 Z " />
<glyph glyph-name="CapitalLetterEWITHTI" unicode="&#x1ebc;" horiz-adv-x="659" d="M188 755 C188 782 204 805 223 805 C274 805 336 743 387 743 C441 743 488 816 488 902 C488 902 463 902 463 902 C463 870 443 842 419 842 C369 842 306 905 256 905 C206 905 163 836 163 755 C163 755 188 755 188 755 L188 755 Z M494 253 C494 253 494 322 494 322 C494 322 494 342 494 342 C494 342 494 363 494 363 C494 363 494 423 494 423 C494 423 483 423 483 423 C483 423 481 414 481 414 C472 387 419 364 362 363 C362 363 355 363 355 363 C355 363 264 363 264 363 C264 363 264 620 264 620 C264 620 404 620 404 620 C468 620 537 577 554 527 C554 527 560 510 560 510 C560 510 569 510 569 510 C569 510 569 640 569 640 C569 640 569 660 569 660 C569 660 549 660 549 660 C549 660 473 660 473 660 C473 660 264 660 264 660 C264 660 183 660 183 660 C183 660 102 660 102 660 C102 660 41 660 41 660 C41 660 41 647 41 647 C41 647 50 647 50 647 C78 647 102 609 102 564 C102 564 102 96 102 96 C102 51 78 13 50 13 C50 13 41 13 41 13 C41 13 41 0 41 0 C41 0 102 0 102 0 C102 0 183 0 183 0 C183 0 264 0 264 0 C264 0 469 0 469 0 C469 0 559 0 559 0 C559 0 565 0 565 0 C566 5 568 15 568 20 C575 55 585 115 591 150 C591 150 582 150 582 150 C582 150 574 133 574 133 C548 83 472 41 407 40 C407 40 264 40 264 40 C264 40 264 322 264 322 C264 322 355 322 355 322 C414 322 472 295 481 264 C481 264 483 253 483 253 C483 253 494 253 494 253 L494 253 Z " />
<glyph glyph-name="Ygrave" unicode="&#x1ef2;" horiz-adv-x="687" d="M476 13 C476 13 467 13 467 13 C439 13 416 51 416 96 C416 96 416 346 416 346 C416 346 416 346 416 346 C416 346 583 578 583 578 C615 617 656 647 677 647 C677 647 685 647 685 647 C685 647 685 660 685 660 C685 660 642 660 642 660 C642 660 617 660 617 660 C617 660 592 660 592 660 C592 660 503 660 503 660 C502 660 502 657 503 654 C502 650 502 647 503 647 C503 647 515 647 515 647 C552 647 550 600 510 544 C510 544 511 544 511 544 C511 544 399 384 399 384 C399 384 283 564 283 564 C283 564 284 564 284 564 C255 609 256 647 285 647 C285 647 295 647 295 647 C295 647 295 660 295 660 C295 660 222 660 222 660 C222 660 125 660 125 660 C125 660 28 660 28 660 C28 660 -9 660 -9 660 C-9 660 -9 647 -9 647 C-9 647 -2 647 -2 647 C18 647 60 609 88 564 C88 564 88 564 88 564 C88 564 254 299 254 299 C254 299 254 96 254 96 C254 51 230 13 202 13 C202 13 193 13 193 13 C193 13 193 0 193 0 C193 0 254 0 254 0 C254 0 335 0 335 0 C335 0 416 0 416 0 C416 0 476 0 476 0 C476 0 476 13 476 13 L476 13 Z M359 870 C350 895 340 916 335 916 C312 916 249 871 249 854 C249 847 265 828 283 810 C283 810 406 689 406 689 C406 689 422 702 422 702 C422 702 359 870 359 870 L359 870 Z " />
<glyph glyph-name="quoteleft" unicode="&#x2018;" horiz-adv-x="282" d="M139 501 C130 501 121 499 113 496 C112 501 112 505 112 509 C112 569 151 635 196 652 C196 652 189 669 189 669 C112 640 46 541 46 454 C46 431 58 399 74 377 C88 356 112 342 139 342 C182 342 219 378 219 421 C219 464 182 501 139 501 L139 501 Z " />
<glyph glyph-name="quoteright" unicode="&#x2019;" horiz-adv-x="282" d="M196 641 C196 641 196 641 196 641 C181 656 161 665 139 665 C97 665 60 628 60 586 C60 543 97 506 139 506 C148 506 158 508 166 511 C167 506 167 502 167 498 C167 437 128 372 83 355 C83 355 89 337 89 337 C167 366 233 465 233 553 C233 580 216 620 196 641 C196 641 196 641 196 641 L196 641 Z " />
<glyph glyph-name="quotedblleft" unicode="&#x201c;" horiz-adv-x="505" d="M362 501 C353 501 343 499 335 496 C334 501 334 505 334 509 C334 569 373 635 419 652 C419 652 412 669 412 669 C335 640 269 541 269 454 C269 431 281 399 297 377 C311 356 335 342 362 342 C405 342 442 378 442 421 C442 464 405 501 362 501 L362 501 Z M139 501 C130 501 121 499 113 496 C112 501 112 505 112 509 C112 569 151 635 196 652 C196 652 189 669 189 669 C112 640 46 541 46 454 C46 431 58 399 74 377 C88 356 112 342 139 342 C182 342 219 378 219 421 C219 464 182 501 139 501 L139 501 Z " />
</font>
</svg>
