<?xml version="1.0" encoding="UTF-8"?>
<svg xmlns="http://www.w3.org/2000/svg" xmlns:xlink="http://www.w3.org/1999/xlink" version="1.2" >
<font id="Zimra Bold">
<font-face  font-family="Zimra" units-per-em="1024" ascent="936" descent="-280" font-style="normal" font-weight="700" font-stretch="normal" cap-height="660" x-height="500" underline-position="0" underline-thickness="0" />
<missing-glyph  horiz-adv-x="472" d="M0 700 C0 700 432 700 432 700 C432 700 432 0 432 0 C432 0 0 0 0 0 C0 0 0 700 0 700 L0 700 Z M50 50 C50 50 382 50 382 50 C382 50 382 650 382 650 C382 650 50 650 50 650 C50 650 50 50 50 50 L50 50 Z " />
<glyph glyph-name="NULL" d="" />
<glyph glyph-name="CR" unicode="&#xd;" horiz-adv-x="256" d="" />
<glyph glyph-name="space" unicode="&#x20;" horiz-adv-x="250" d="" />
<glyph glyph-name="exclam" unicode="&#x21;" horiz-adv-x="265" d="M143 -5 C186 -5 223 32 223 75 C223 118 186 155 143 155 C100 155 63 118 63 75 C63 32 100 -5 143 -5 L143 -5 Z M206 583 C212 627 180 665 135 665 C89 665 56 627 65 583 C65 583 135 230 135 230 C135 230 151 230 151 230 C151 230 206 583 206 583 L206 583 Z " />
<glyph glyph-name="quotedbl" unicode="&#x22;" horiz-adv-x="403" d="M216 660 C216 660 280 400 280 400 C280 400 299 400 299 400 C299 400 363 660 363 660 C363 660 216 660 216 660 L216 660 Z M39 660 C39 660 103 400 103 400 C103 400 122 400 122 400 C122 400 186 660 186 660 C186 660 39 660 39 660 L39 660 Z " />
<glyph glyph-name="numbersign" unicode="&#x23;" horiz-adv-x="553" d="M390 656 C390 656 367 504 367 504 C367 504 237 504 237 504 C237 504 260 656 260 656 C260 656 215 656 215 656 C215 656 192 504 192 504 C192 504 71 504 71 504 C71 504 59 416 59 416 C59 416 178 416 178 416 C178 416 152 244 152 244 C152 244 28 244 28 244 C28 244 16 156 16 156 C16 156 139 156 139 156 C139 156 115 0 115 0 C115 0 159 0 159 0 C159 0 183 156 183 156 C183 156 314 156 314 156 C314 156 290 0 290 0 C290 0 334 0 334 0 C334 0 358 156 358 156 C358 156 473 156 473 156 C473 156 486 244 486 244 C486 244 372 244 372 244 C372 244 398 416 398 416 C398 416 522 416 522 416 C522 416 534 504 534 504 C534 504 412 504 412 504 C412 504 435 656 435 656 C435 656 390 656 390 656 L390 656 Z M223 416 C223 416 353 416 353 416 C353 416 327 244 327 244 C327 244 197 244 197 244 C197 244 223 416 223 416 L223 416 Z " />
<glyph glyph-name="dollar" unicode="&#x24;" horiz-adv-x="512" d="M275 735 C275 735 275 664 275 664 C270 665 265 665 260 665 C251 665 243 664 234 663 C234 663 234 735 234 735 C234 735 195 735 195 735 C195 735 195 655 195 655 C106 629 39 550 39 461 C39 394 110 314 195 284 C195 284 195 33 195 33 C137 51 80 101 60 155 C57 163 52 177 49 185 C49 185 39 185 39 185 C39 185 39 49 39 49 C39 49 51 67 51 67 C51 67 51 67 52 67 C52 67 39 49 39 49 C70 26 134 6 195 -2 C195 -2 195 -75 195 -75 C195 -75 234 -75 234 -75 C234 -75 234 -5 234 -5 C237 -5 241 -5 244 -5 C254 -5 265 -4 275 -3 C275 -3 275 -75 275 -75 C275 -75 314 -75 314 -75 C314 -75 314 5 314 5 C402 31 468 105 468 188 C468 257 398 339 314 373 C314 373 314 617 314 617 C350 597 384 559 398 521 C402 511 409 493 413 482 C413 482 424 482 424 482 C424 482 424 621 424 621 C395 637 352 651 314 659 C314 659 314 735 314 735 C314 735 275 735 275 735 L275 735 Z M234 405 C234 405 234 632 234 632 C241 633 247 634 254 634 C260 634 267 633 275 632 C275 632 275 386 275 386 C261 392 247 398 234 405 C234 405 234 405 234 405 L234 405 Z M195 427 C153 455 126 486 126 511 C126 557 154 598 195 619 C195 619 195 427 195 427 L195 427 Z M234 270 C248 264 262 257 275 250 C275 250 275 29 275 29 C265 27 255 26 244 26 C241 26 237 26 234 26 C234 26 234 270 234 270 L234 270 Z M314 225 C353 196 379 163 379 137 C379 98 353 63 314 43 C314 43 314 225 314 225 L314 225 Z " />
<glyph glyph-name="ampersand" unicode="&#x26;" horiz-adv-x="729" d="M637 380 C637 380 458 380 458 380 C458 380 458 367 458 367 C458 367 470 367 470 367 C503 367 531 343 531 270 C531 270 531 240 531 240 C531 209 522 179 507 153 C480 180 451 213 418 252 C381 297 346 344 317 387 C402 422 465 487 465 548 C465 611 394 665 310 665 C226 665 155 588 155 497 C155 466 175 418 206 364 C118 318 50 232 50 157 C50 70 144 -5 254 -5 C333 -5 406 22 461 64 C560 -6 649 -14 730 0 C730 0 730 19 730 19 C688 11 628 33 525 134 C545 167 556 203 556 240 C556 240 556 270 556 270 C556 343 588 367 625 367 C625 367 637 367 637 367 C637 367 637 380 637 380 L637 380 Z M302 411 C266 468 243 518 243 548 C243 598 270 640 303 640 C342 640 376 595 376 541 C376 491 345 441 302 411 C302 411 302 411 302 411 L302 411 Z M438 81 C404 59 362 46 318 46 C232 46 159 117 159 201 C159 253 185 307 221 340 C252 289 292 234 335 183 C370 141 405 107 438 81 C438 81 438 81 438 81 L438 81 Z " />
<glyph glyph-name="quotesingle" unicode="&#x27;" horiz-adv-x="226" d="M39 660 C39 660 103 400 103 400 C103 400 122 400 122 400 C122 400 186 660 186 660 C186 660 39 660 39 660 L39 660 Z " />
<glyph glyph-name="parenleft" unicode="&#x28;" horiz-adv-x="278" d="M257 690 C150 612 59 464 59 270 C59 76 150 -72 257 -150 C257 -150 268 -135 268 -135 C204 -87 149 47 149 270 C149 493 204 627 268 675 C268 675 257 690 257 690 L257 690 Z " />
<glyph glyph-name="parenright" unicode="&#x29;" horiz-adv-x="278" d="M10 -150 C117 -72 208 76 208 270 C208 464 117 612 10 690 C10 690 -1 675 -1 675 C63 627 118 493 118 270 C118 47 63 -87 -1 -135 C-1 -135 10 -150 10 -150 L10 -150 Z " />
<glyph glyph-name="asterisk" unicode="&#x2a;" horiz-adv-x="300" d="M137 540 C137 540 29 510 29 510 C10 505 4 483 16 462 C28 442 50 436 64 450 C64 450 144 529 144 529 C144 529 115 420 115 420 C110 401 126 385 150 385 C174 385 190 401 185 420 C185 420 156 529 156 529 C156 529 236 450 236 450 C250 436 272 442 284 462 C296 483 290 505 271 510 C271 510 163 540 163 540 C163 540 271 570 271 570 C290 575 296 597 284 617 C272 638 250 644 236 630 C236 630 156 551 156 551 C156 551 185 660 185 660 C190 679 174 695 150 695 C126 695 110 679 115 660 C115 660 144 551 144 551 C144 551 64 630 64 630 C50 644 28 638 16 617 C4 597 10 575 29 570 C29 570 137 540 137 540 L137 540 Z " />
<glyph glyph-name="plus" unicode="&#x2b;" horiz-adv-x="555" d="M247 450 C247 450 247 276 247 276 C247 276 75 276 75 276 C75 276 75 224 75 224 C75 224 247 224 247 224 C247 224 247 50 247 50 C247 50 303 50 303 50 C303 50 303 224 303 224 C303 224 475 224 475 224 C475 224 475 276 475 276 C475 276 303 276 303 276 C303 276 303 450 303 450 C303 450 247 450 247 450 L247 450 Z " />
<glyph glyph-name="comma" unicode="&#x2c;" horiz-adv-x="282" d="M179 6 C203 21 219 46 219 74 C219 117 182 154 139 154 C97 154 60 117 60 74 C60 53 69 33 84 19 C84 19 61 -4 61 -4 C118 -63 167 -84 167 -50 C167 -91 128 -140 83 -157 C83 -157 89 -174 89 -174 C167 -145 233 -63 233 5 C233 -17 211 -15 179 6 C179 6 179 6 179 6 L179 6 Z " />
<glyph glyph-name="hyphen" unicode="&#x2d;" horiz-adv-x="280" d="M20 184 C20 184 260 184 260 184 C260 184 260 273 260 273 C260 273 20 273 20 273 C20 273 20 184 20 184 L20 184 Z " />
<glyph glyph-name="period" unicode="&#x2e;" horiz-adv-x="265" d="M125 -5 C168 -5 205 32 205 75 C205 118 168 155 125 155 C82 155 45 118 45 75 C45 32 82 -5 125 -5 L125 -5 Z " />
<glyph glyph-name="slash" unicode="&#x2f;" horiz-adv-x="361" d="M0 -145 C0 -145 51 -145 51 -145 C51 -145 361 710 361 710 C361 710 310 710 310 710 C310 710 0 -145 0 -145 L0 -145 Z " />
<glyph glyph-name="zero" unicode="0" horiz-adv-x="616" d="M308 21 C238 21 178 126 178 250 C178 374 238 479 308 479 C379 479 439 374 439 250 C439 126 379 21 308 21 L308 21 Z M50 250 C50 112 169 -5 308 -5 C448 -5 567 112 567 250 C567 388 448 505 308 505 C169 505 50 388 50 250 L50 250 Z " />
<glyph glyph-name="one" unicode="1" horiz-adv-x="346" d="M291 500 C291 500 231 500 231 500 C231 500 173 500 173 500 C173 500 116 500 116 500 C116 500 55 500 55 500 C55 500 55 487 55 487 C55 487 64 487 64 487 C92 487 116 449 116 404 C116 404 116 96 116 96 C116 51 92 13 64 13 C64 13 55 13 55 13 C55 13 55 0 55 0 C55 0 116 0 116 0 C116 0 173 0 173 0 C173 0 231 0 231 0 C231 0 291 0 291 0 C291 0 291 13 291 13 C291 13 282 13 282 13 C255 13 232 48 231 91 C231 91 231 96 231 96 C231 96 231 404 231 404 C231 404 231 409 231 409 C232 452 255 487 282 487 C282 487 291 487 291 487 C291 487 291 500 291 500 L291 500 Z " />
<glyph glyph-name="two" unicode="2" horiz-adv-x="487" d="M448 176 C448 176 447 167 447 167 C444 139 404 115 359 115 C359 115 203 115 203 115 C343 207 442 283 442 355 C442 436 365 505 274 505 C195 505 101 438 69 359 C69 359 84 350 84 350 C99 388 160 420 217 420 C270 420 314 372 314 316 C314 194 181 127 25 26 C25 26 25 0 25 0 C25 0 445 0 445 0 C445 0 451 65 451 65 C454 97 458 146 460 176 C460 176 448 176 448 176 L448 176 Z " />
<glyph glyph-name="three" unicode="3" horiz-adv-x="470" d="M24 -215 C238 -204 421 -86 421 41 C421 118 348 184 253 204 C335 254 392 317 392 367 C392 442 321 505 238 505 C164 505 58 442 9 369 C9 369 22 359 22 359 C45 393 117 421 180 421 C232 421 276 379 276 330 C276 290 247 245 203 210 C200 210 196 210 193 210 C197 210 200 210 202 209 C182 193 160 180 137 169 C126 165 115 160 103 156 C103 156 103 137 103 137 C106 138 108 139 111 139 C129 145 152 149 167 149 C239 149 300 97 300 35 C300 -82 172 -188 23 -196 C23 -196 24 -215 24 -215 L24 -215 Z " />
<glyph glyph-name="four" unicode="4" horiz-adv-x="490" d="M69 51 C69 51 255 309 255 309 C255 309 255 51 255 51 C255 51 69 51 69 51 L69 51 Z M255 0 C255 0 255 -150 255 -150 C255 -150 370 -150 370 -150 C370 -150 370 0 370 0 C370 0 480 0 480 0 C480 0 480 51 480 51 C480 51 370 51 370 51 C370 51 370 469 370 469 C370 469 371 470 371 470 C371 470 370 472 370 472 C370 472 370 505 370 505 C370 505 351 505 351 505 C351 505 4 20 4 20 C4 20 4 0 4 0 C4 0 29 0 29 0 C29 0 32 0 32 0 C32 0 255 0 255 0 L255 0 Z " />
<glyph glyph-name="five" unicode="5" horiz-adv-x="456" d="M64 173 C64 173 93 173 93 173 C93 173 107 173 107 173 C207 173 291 115 291 48 C291 -60 171 -155 30 -160 C30 -160 31 -182 31 -182 C234 -175 407 -52 407 85 C407 194 296 286 166 286 C166 286 102 286 102 286 C102 286 93 173 93 173 C93 173 118 500 118 500 C118 500 84 500 84 500 C84 500 64 173 64 173 L64 173 Z M298 500 C298 500 118 500 118 500 C118 500 109 379 109 379 C109 379 355 379 355 379 C355 379 394 500 394 500 C401 522 409 545 414 561 C414 561 401 561 401 561 C401 561 398 552 398 552 C389 524 343 500 298 500 L298 500 Z " />
<glyph glyph-name="six" unicode="6" horiz-adv-x="568" d="M489 715 C253 707 53 513 53 293 C53 132 156 -5 277 -5 C414 -5 525 97 519 217 C519 333 426 432 318 432 C255 432 211 392 186 333 C186 523 325 690 489 696 C489 696 489 715 489 715 L489 715 Z M184 183 C186 300 222 400 299 400 C352 400 398 313 398 210 C403 111 353 27 290 27 C233 27 184 99 184 183 L184 183 Z " />
<glyph glyph-name="seven" unicode="7" horiz-adv-x="443" d="M27 322 C27 322 28 331 28 331 C30 359 71 382 116 382 C116 382 382 382 382 382 C382 382 113 -140 113 -140 C113 -140 241 -140 241 -140 C305 70 369 280 434 489 C434 489 425 500 425 500 C425 500 30 500 30 500 C30 500 25 441 25 441 C22 409 17 354 14 322 C14 322 27 322 27 322 L27 322 Z " />
<glyph glyph-name="eight" unicode="8" horiz-adv-x="539" d="M325 372 C312 379 297 385 283 390 C224 412 173 478 173 534 C173 591 214 640 261 640 C315 640 361 576 361 501 C361 450 346 401 325 372 C325 372 325 372 325 372 L325 372 Z M349 359 C411 392 457 456 457 520 C457 598 370 665 267 665 C164 665 77 584 77 489 C77 431 116 364 172 319 C101 297 49 233 49 160 C49 71 150 -5 269 -5 C389 -5 490 80 490 180 C490 238 430 312 349 359 C349 359 349 359 349 359 L349 359 Z M193 303 C209 293 225 284 242 278 C318 251 382 188 382 141 C382 75 333 20 276 20 C212 20 157 93 157 179 C157 231 172 278 193 303 C193 303 193 303 193 303 L193 303 Z " />
<glyph glyph-name="nine" unicode="9" horiz-adv-x="568" d="M80 -215 C316 -207 516 -13 516 207 C516 368 413 505 292 505 C155 505 44 403 50 283 C50 167 142 68 251 68 C314 68 357 107 382 166 C382 -24 242 -190 80 -196 C80 -196 80 -215 80 -215 L80 -215 Z M385 317 C383 200 347 100 270 100 C217 100 171 187 171 290 C166 389 216 473 279 473 C336 473 385 401 385 317 L385 317 Z " />
<glyph glyph-name="colon" unicode="&#x3a;" horiz-adv-x="265" d="M125 408 C168 408 205 445 205 488 C205 531 168 568 125 568 C82 568 45 531 45 488 C45 445 82 408 125 408 L125 408 Z M125 -5 C168 -5 205 32 205 75 C205 118 168 155 125 155 C82 155 45 118 45 75 C45 32 82 -5 125 -5 L125 -5 Z " />
<glyph glyph-name="semicolon" unicode="&#x3b;" horiz-adv-x="282" d="M139 411 C182 411 219 447 219 490 C219 533 182 569 139 569 C97 569 60 533 60 490 C60 447 97 411 139 411 L139 411 Z M179 6 C203 21 219 46 219 74 C219 117 182 154 139 154 C97 154 60 117 60 74 C60 53 69 33 84 19 C84 19 61 -4 61 -4 C118 -63 167 -84 167 -50 C167 -91 128 -140 83 -157 C83 -157 89 -174 89 -174 C167 -145 233 -63 233 5 C233 -17 211 -15 179 6 C179 6 179 6 179 6 L179 6 Z " />
<glyph glyph-name="less" unicode="&#x3c;" horiz-adv-x="540" d="M465 500 C465 500 50 309 50 309 C50 309 40 304 40 304 C40 304 40 246 40 246 C40 246 50 241 50 241 C50 241 465 50 465 50 C465 50 465 108 465 108 C465 108 88 275 88 275 C88 275 465 443 465 443 C465 443 465 500 465 500 L465 500 Z " />
<glyph glyph-name="equal" unicode="&#x3d;" horiz-adv-x="537" d="M88 226 C88 226 88 174 88 174 C88 174 468 174 468 174 C468 174 468 226 468 226 C468 226 88 226 88 226 L88 226 Z M88 326 C88 326 88 274 88 274 C88 274 468 274 468 274 C468 274 468 326 468 326 C468 326 88 326 88 326 L88 326 Z " />
<glyph glyph-name="greater" unicode="&#x3e;" horiz-adv-x="530" d="M440 275 C440 275 75 108 75 108 C75 108 75 50 75 50 C75 50 477 241 477 241 C477 241 490 247 490 247 C490 247 490 303 490 303 C490 303 477 309 477 309 C477 309 75 500 75 500 C75 500 75 443 75 443 C75 443 440 275 440 275 L440 275 Z " />
<glyph glyph-name="question" unicode="&#x3f;" horiz-adv-x="372" d="M139 -5 C182 -5 219 32 219 75 C219 118 182 155 139 155 C96 155 59 118 59 75 C59 32 96 -5 139 -5 L139 -5 Z M119 377 C110 377 104 369 106 360 C106 360 131 235 131 235 C131 235 147 235 147 235 C147 235 158 290 158 290 C158 290 193 290 193 290 C302 290 337 375 337 416 C337 550 236 665 118 665 C74 665 36 631 36 592 C36 565 59 542 85 542 C108 542 132 575 155 575 C239 575 311 508 311 429 C311 412 273 377 154 377 C154 377 119 377 119 377 L119 377 Z " />
<glyph glyph-name="at" unicode="&#x40;" horiz-adv-x="1177" d="M1039 0 C980 -126 783 -234 611 -234 C359 -234 145 -7 145 259 C145 525 349 752 589 752 C829 752 1033 564 1033 343 C1033 163 953 10 859 10 C792 10 757 97 782 200 C782 200 852 480 852 480 C852 480 744 480 744 480 C744 480 726 409 726 409 C705 456 652 490 594 490 C426 490 282 351 282 188 C282 88 365 4 463 4 C544 4 626 49 670 111 C684 29 748 -30 838 -30 C992 -30 1123 142 1123 343 C1123 581 878 784 589 784 C301 784 56 543 56 259 C56 -25 311 -266 611 -266 C796 -266 1010 -144 1077 0 C1077 0 1039 0 1039 0 L1039 0 Z M713 356 C713 356 674 200 674 200 C656 129 586 68 522 68 C461 68 408 133 408 210 C408 344 492 458 591 458 C657 458 712 412 713 356 L713 356 Z " />
<glyph glyph-name="A" unicode="A" horiz-adv-x="732" d="M695 13 C695 13 687 13 687 13 C664 13 629 46 609 87 C609 87 353 675 353 675 C353 675 322 675 322 675 C322 675 105 84 105 84 C86 44 52 13 28 13 C28 13 18 13 18 13 C18 13 18 0 18 0 C18 0 74 0 74 0 C74 0 95 0 95 0 C95 0 115 0 115 0 C115 0 204 0 204 0 C204 0 204 13 204 13 C204 13 192 13 192 13 C153 13 136 58 155 111 C155 111 154 111 154 111 C154 111 195 226 195 226 C195 226 417 226 417 226 C417 226 472 96 472 96 C472 96 471 96 471 96 C490 51 476 13 440 13 C440 13 428 13 428 13 C428 13 428 0 428 0 C428 0 512 0 512 0 C512 0 579 0 579 0 C579 0 647 0 647 0 C647 0 695 0 695 0 C695 0 695 13 695 13 L695 13 Z M404 256 C404 256 206 257 206 257 C206 257 296 514 296 514 C296 514 404 256 404 256 L404 256 Z " />
<glyph glyph-name="B" unicode="B" horiz-adv-x="634" d="M13 647 C13 647 22 647 22 647 C50 647 74 609 74 564 C74 564 74 96 74 96 C74 51 50 13 22 13 C22 13 13 13 13 13 C13 13 13 0 13 0 C13 0 74 0 74 0 C74 0 136 0 136 0 C136 0 198 0 198 0 C198 0 341 0 341 0 C488 0 614 82 614 179 C614 259 514 329 385 347 C485 370 559 430 559 498 C559 585 447 660 316 660 C316 660 198 660 198 660 C198 660 136 660 136 660 C136 660 74 660 74 660 C74 660 13 660 13 660 C13 660 13 647 13 647 L13 647 Z M198 355 C198 355 198 628 198 628 C198 628 316 628 316 628 C380 628 435 568 435 498 C435 421 369 355 292 355 C292 355 198 355 198 355 L198 355 Z M198 326 C198 326 284 326 284 326 C392 326 484 258 484 179 C484 100 412 32 328 32 C328 32 198 32 198 32 C198 32 198 326 198 326 L198 326 Z " />
<glyph glyph-name="C" unicode="C" horiz-adv-x="728" d="M668 480 C668 480 668 609 668 609 C668 609 661 595 661 595 C661 595 661 595 661 595 C661 595 668 609 668 609 C612 639 497 665 416 665 C215 665 43 511 43 330 C43 149 215 -5 416 -5 C505 -5 621 25 669 61 C669 61 660 74 660 74 C660 74 660 74 660 74 C660 74 669 61 669 61 C669 61 669 188 669 188 C669 188 658 188 658 188 C655 180 650 166 647 158 C624 93 529 32 441 27 C441 27 441 27 441 27 C432 26 424 26 416 26 C288 26 179 166 179 330 C179 494 288 634 416 634 C438 634 464 632 489 628 C557 615 627 562 646 509 C649 501 654 487 657 480 C657 480 668 480 668 480 L668 480 Z " />
<glyph glyph-name="D" unicode="D" horiz-adv-x="746" d="M34 647 C34 647 43 647 43 647 C71 647 95 609 95 564 C95 564 95 96 95 96 C95 51 71 13 43 13 C43 13 34 13 34 13 C34 13 34 0 34 0 C34 0 95 0 95 0 C95 0 157 0 157 0 C157 0 219 0 219 0 C219 0 360 0 360 0 C542 0 697 152 697 330 C697 508 526 660 325 660 C325 660 219 660 219 660 C219 660 157 660 157 660 C157 660 95 660 95 660 C95 660 34 660 34 660 C34 660 34 647 34 647 L34 647 Z M219 32 C219 32 219 628 219 628 C219 628 325 628 325 628 C459 628 573 491 573 330 C573 169 475 32 360 32 C360 32 219 32 219 32 L219 32 Z " />
<glyph glyph-name="E" unicode="E" horiz-adv-x="611" d="M446 258 C446 258 446 327 446 327 C446 327 446 342 446 342 C446 342 446 358 446 358 C446 358 446 418 446 418 C446 419 445 419 444 418 C439 419 435 419 435 418 C435 418 433 409 433 409 C424 381 366 358 307 358 C307 358 216 358 216 358 C216 358 216 629 216 629 C216 629 351 629 351 629 C415 629 484 586 501 536 C501 536 507 520 507 520 C507 520 516 520 516 520 C516 520 516 644 516 644 C516 644 516 660 516 660 C516 660 501 660 501 660 C501 660 420 660 420 660 C420 660 216 660 216 660 C216 660 154 660 154 660 C154 660 92 660 92 660 C92 660 31 660 31 660 C31 660 31 647 31 647 C31 647 40 647 40 647 C68 647 92 609 92 564 C92 564 92 96 92 96 C92 51 68 13 40 13 C40 13 31 13 31 13 C31 13 31 0 31 0 C31 0 92 0 92 0 C92 0 154 0 154 0 C154 0 216 0 216 0 C216 0 419 0 419 0 C419 0 511 0 511 0 C511 0 515 0 515 0 C516 4 518 11 518 16 C524 49 534 107 540 140 C540 140 531 140 531 140 C531 140 522 124 522 124 C496 74 420 31 356 31 C356 31 216 31 216 31 C216 31 216 327 216 327 C216 327 307 327 307 327 C366 327 424 300 433 268 C433 268 435 258 435 258 C435 258 446 258 446 258 L446 258 Z " />
<glyph glyph-name="F" unicode="F" horiz-adv-x="550" d="M446 253 C446 253 446 322 446 322 C446 322 446 337 446 337 C446 337 446 353 446 353 C446 353 446 414 446 414 C446 414 435 414 435 414 C435 414 433 404 433 404 C424 377 366 353 307 353 C307 353 226 353 226 353 C226 353 226 629 226 629 C226 629 391 629 391 629 C455 629 524 586 541 536 C541 536 547 520 547 520 C547 520 556 520 556 520 C556 520 556 644 556 644 C556 644 556 660 556 660 C556 660 541 660 541 660 C541 660 460 660 460 660 C460 660 226 660 226 660 C226 660 164 660 164 660 C164 660 102 660 102 660 C102 660 41 660 41 660 C41 660 41 647 41 647 C41 647 50 647 50 647 C78 647 102 609 102 564 C102 564 102 96 102 96 C102 51 78 13 50 13 C50 13 41 13 41 13 C41 13 41 0 41 0 C41 0 102 0 102 0 C102 0 164 0 164 0 C164 0 226 0 226 0 C226 0 296 0 296 0 C296 0 296 13 296 13 C296 13 286 13 286 13 C253 13 226 51 226 96 C226 96 226 322 226 322 C226 322 307 322 307 322 C366 322 424 295 433 264 C433 264 435 253 435 253 C435 253 446 253 446 253 L446 253 Z " />
<glyph glyph-name="G" unicode="G" horiz-adv-x="728" d="M715 310 C715 310 654 310 654 310 C654 310 598 310 598 310 C598 310 542 310 542 310 C542 310 482 310 482 310 C482 310 482 297 482 297 C482 297 491 297 491 297 C518 297 542 259 542 214 C542 214 542 45 542 45 C497 34 447 26 406 26 C283 26 179 166 179 330 C179 494 283 634 406 634 C425 634 446 632 468 629 C536 616 606 563 626 509 C629 501 634 487 637 480 C637 480 648 480 648 480 C648 480 648 609 648 609 C648 609 641 595 641 595 C641 595 641 595 641 595 C641 595 648 609 648 609 C592 639 481 665 406 665 C210 665 43 511 43 330 C43 149 210 -5 406 -5 C485 -5 599 22 654 53 C654 53 654 214 654 214 C654 259 678 297 706 297 C706 297 715 297 715 297 C715 297 715 310 715 310 L715 310 Z " />
<glyph glyph-name="H" unicode="H" horiz-adv-x="757" d="M699 660 C699 660 639 660 639 660 C639 660 576 660 576 660 C576 660 514 660 514 660 C514 660 454 660 454 660 C454 660 454 647 454 647 C454 647 463 647 463 647 C490 647 514 609 514 564 C514 564 514 327 514 327 C514 327 207 327 207 327 C207 327 207 564 207 564 C207 609 230 647 258 647 C258 647 267 647 267 647 C267 647 267 660 267 660 C267 660 207 660 207 660 C207 660 145 660 145 660 C145 660 83 660 83 660 C83 660 22 660 22 660 C22 660 22 647 22 647 C22 647 31 647 31 647 C59 647 83 609 83 564 C83 564 83 96 83 96 C83 51 59 13 31 13 C31 13 22 13 22 13 C22 13 22 0 22 0 C22 0 83 0 83 0 C83 0 145 0 145 0 C145 0 207 0 207 0 C207 0 267 0 267 0 C267 0 267 13 267 13 C267 13 258 13 258 13 C230 13 207 51 207 96 C207 96 207 296 207 296 C207 296 514 296 514 296 C514 296 514 96 514 96 C514 51 490 13 463 13 C463 13 454 13 454 13 C454 13 454 0 454 0 C454 0 514 0 514 0 C514 0 576 0 576 0 C576 0 639 0 639 0 C639 0 699 0 699 0 C699 0 699 13 699 13 C699 13 690 13 690 13 C663 13 640 48 639 91 C639 91 639 96 639 96 C639 96 639 564 639 564 C639 564 639 569 639 569 C640 612 663 647 690 647 C690 647 699 647 699 647 C699 647 699 660 699 660 L699 660 Z " />
<glyph glyph-name="I" unicode="I" horiz-adv-x="316" d="M276 660 C276 660 216 660 216 660 C216 660 154 660 154 660 C154 660 91 660 91 660 C91 660 31 660 31 660 C31 660 31 647 31 647 C31 647 40 647 40 647 C68 647 91 609 91 564 C91 564 91 96 91 96 C91 51 68 13 40 13 C40 13 31 13 31 13 C31 13 31 0 31 0 C31 0 91 0 91 0 C91 0 154 0 154 0 C154 0 216 0 216 0 C216 0 276 0 276 0 C276 0 276 13 276 13 C276 13 267 13 267 13 C240 13 217 48 216 91 C216 91 216 96 216 96 C216 96 216 564 216 564 C216 564 216 569 216 569 C217 612 240 647 267 647 C267 647 276 647 276 647 C276 647 276 660 276 660 L276 660 Z " />
<glyph glyph-name="J" unicode="J" horiz-adv-x="417" d="M387 660 C387 660 326 660 326 660 C326 660 264 660 264 660 C264 660 202 660 202 660 C202 660 142 660 142 660 C142 660 142 647 142 647 C142 647 151 647 151 647 C178 647 202 609 202 564 C202 564 202 200 202 200 C202 81 187 16 158 16 C138 16 115 38 108 64 C102 91 75 115 51 115 C16 115 -7 91 0 64 C10 24 68 -10 127 -10 C256 -10 327 101 327 305 C327 305 326 570 326 570 C329 612 351 647 378 647 C378 647 387 647 387 647 C387 647 387 660 387 660 L387 660 Z " />
<glyph glyph-name="K" unicode="K" horiz-adv-x="670" d="M432 647 C432 647 439 647 439 647 C460 647 444 612 403 570 C403 570 280 446 280 446 C280 446 280 446 280 446 C280 446 190 355 190 355 C190 355 190 564 190 564 C190 609 213 647 241 647 C241 647 250 647 250 647 C250 647 250 660 250 660 C250 660 190 660 190 660 C190 660 128 660 128 660 C128 660 66 660 66 660 C66 660 5 660 5 660 C5 660 5 647 5 647 C5 647 14 647 14 647 C42 647 66 609 66 564 C66 564 66 96 66 96 C66 51 42 13 14 13 C14 13 5 13 5 13 C5 13 5 0 5 0 C5 0 66 0 66 0 C66 0 128 0 128 0 C128 0 190 0 190 0 C190 0 250 0 250 0 C250 0 250 13 250 13 C250 13 241 13 241 13 C213 13 190 51 190 96 C190 96 190 355 190 355 C190 355 360 119 360 119 C418 39 509 -5 617 -5 C617 -5 661 -5 661 -5 C661 -5 661 20 661 20 C661 20 656 20 656 20 C612 20 540 87 450 210 C450 210 299 420 299 420 C299 420 442 564 442 564 C442 564 442 564 442 564 C486 609 548 647 576 647 C576 647 585 647 585 647 C585 647 585 660 585 660 C585 660 537 660 537 660 C537 660 515 660 515 660 C515 660 492 660 492 660 C492 660 432 660 432 660 C432 660 432 647 432 647 L432 647 Z " />
<glyph glyph-name="L" unicode="L" horiz-adv-x="601" d="M266 660 C266 660 206 660 206 660 C206 660 144 660 144 660 C144 660 82 660 82 660 C82 660 21 660 21 660 C21 660 21 647 21 647 C21 647 30 647 30 647 C58 647 82 609 82 564 C82 564 82 96 82 96 C82 51 58 13 30 13 C30 13 21 13 21 13 C21 13 21 0 21 0 C21 0 82 0 82 0 C82 0 144 0 144 0 C144 0 206 0 206 0 C206 0 409 0 409 0 C409 0 501 0 501 0 C501 0 505 0 505 0 C506 4 508 11 508 16 C515 51 525 111 531 146 C531 146 530 147 528 147 C522 150 516 152 516 152 C516 152 508 134 508 134 C484 78 414 31 356 31 C356 31 206 31 206 31 C206 31 206 564 206 564 C206 609 229 647 257 647 C257 647 266 647 266 647 C266 647 266 660 266 660 L266 660 Z " />
<glyph glyph-name="M" unicode="M" horiz-adv-x="861" d="M823 660 C823 660 763 660 763 660 C763 660 707 660 707 660 C707 660 696 660 696 660 C696 660 651 660 651 660 C651 660 447 142 447 142 C447 142 446 144 446 144 C446 144 209 660 209 660 C209 660 155 660 155 660 C155 660 136 660 136 660 C136 660 117 660 117 660 C117 660 57 660 57 660 C57 660 57 647 57 647 C57 647 66 647 66 647 C91 647 111 615 114 575 C114 575 95 87 95 87 C91 46 67 13 41 13 C41 13 32 13 32 13 C32 13 32 0 32 0 C32 0 92 0 92 0 C92 0 111 0 111 0 C111 0 130 0 130 0 C130 0 219 0 219 0 C219 0 219 13 219 13 C219 13 205 13 205 13 C167 13 135 54 134 104 C134 104 149 504 149 504 C149 504 361 54 361 54 C361 54 389 -5 389 -5 C389 -5 420 -5 420 -5 C420 -5 654 558 654 558 C654 558 666 96 666 96 C666 96 666 96 666 96 C667 51 645 13 617 13 C617 13 608 13 608 13 C608 13 608 0 608 0 C608 0 669 0 669 0 C669 0 731 0 731 0 C731 0 793 0 793 0 C793 0 853 0 853 0 C853 0 853 13 853 13 C853 13 844 13 844 13 C819 13 795 44 789 83 C789 83 767 574 767 574 C768 614 789 647 814 647 C814 647 823 647 823 647 C823 647 823 660 823 660 L823 660 Z " />
<glyph glyph-name="N" unicode="N" horiz-adv-x="671" d="M654 660 C654 660 593 660 593 660 C593 660 574 660 574 660 C574 660 556 660 556 660 C556 660 495 660 495 660 C495 660 495 647 495 647 C495 647 504 647 504 647 C532 647 556 609 556 564 C556 564 556 182 556 182 C556 182 208 660 208 660 C208 660 136 660 136 660 C136 660 117 660 117 660 C117 660 98 660 98 660 C98 660 38 660 38 660 C38 660 38 647 38 647 C38 647 47 647 47 647 C74 647 98 609 98 564 C98 564 98 96 98 96 C98 51 74 13 47 13 C47 13 38 13 38 13 C38 13 38 0 38 0 C38 0 98 0 98 0 C98 0 117 0 117 0 C117 0 136 0 136 0 C136 0 196 0 196 0 C196 0 196 13 196 13 C196 13 187 13 187 13 C159 13 136 51 136 96 C136 96 136 549 136 549 C136 549 499 54 499 54 C499 54 553 -20 553 -20 C553 -20 593 -20 593 -20 C593 -20 593 99 593 99 C593 99 593 564 593 564 C593 609 617 647 644 647 C644 647 654 647 654 647 C654 647 654 660 654 660 L654 660 Z " />
<glyph glyph-name="O" unicode="O" horiz-adv-x="759" d="M376 26 C259 26 179 182 179 330 C179 478 259 634 376 634 C492 634 572 478 572 330 C572 182 492 26 376 26 L376 26 Z M43 330 C43 167 178 -5 376 -5 C574 -5 709 167 709 330 C709 493 574 665 376 665 C178 665 43 493 43 330 L43 330 Z " />
<glyph glyph-name="P" unicode="P" horiz-adv-x="562" d="M4 647 C4 647 13 647 13 647 C41 647 65 609 65 564 C65 564 65 96 65 96 C65 51 41 13 13 13 C13 13 4 13 4 13 C4 13 4 0 4 0 C4 0 65 0 65 0 C65 0 127 0 127 0 C127 0 189 0 189 0 C189 0 249 0 249 0 C249 0 249 13 249 13 C249 13 240 13 240 13 C212 13 189 51 189 96 C189 96 189 285 189 285 C189 285 278 285 278 285 C421 285 542 372 542 473 C542 574 431 660 300 660 C300 660 189 660 189 660 C189 660 127 660 127 660 C127 660 65 660 65 660 C65 660 4 660 4 660 C4 660 4 647 4 647 L4 647 Z M189 317 C189 317 189 628 189 628 C189 628 300 628 300 628 C361 628 412 557 412 473 C412 389 350 317 278 317 C278 317 189 317 189 317 L189 317 Z " />
<glyph glyph-name="Q" unicode="Q" horiz-adv-x="759" d="M803 -28 C803 -28 790 -20 790 -20 C778 -40 706 -57 633 -57 C527 -57 439 -34 393 -5 C582 5 709 172 709 330 C709 493 574 665 376 665 C178 665 43 493 43 330 C43 176 164 14 344 -3 C425 -79 534 -140 620 -140 C682 -140 766 -89 803 -28 L803 -28 Z M376 26 C259 26 179 182 179 330 C179 478 259 634 376 634 C492 634 572 478 572 330 C572 182 492 26 376 26 L376 26 Z " />
<glyph glyph-name="R" unicode="R" horiz-adv-x="718" d="M34 647 C34 647 43 647 43 647 C71 647 95 609 95 564 C95 564 95 96 95 96 C95 51 71 13 43 13 C43 13 34 13 34 13 C34 13 34 0 34 0 C34 0 95 0 95 0 C95 0 157 0 157 0 C157 0 219 0 219 0 C219 0 279 0 279 0 C279 0 279 13 279 13 C279 13 270 13 270 13 C242 13 219 51 219 96 C219 96 219 303 219 303 C219 303 288 303 288 303 C288 303 433 106 433 106 C500 14 531 0 656 0 C656 0 700 0 700 0 C700 0 700 25 700 25 C700 25 695 25 695 25 C656 25 644 33 608 81 C608 81 427 321 427 321 C518 351 583 414 583 485 C583 580 469 660 335 660 C335 660 219 660 219 660 C219 660 157 660 157 660 C157 660 95 660 95 660 C95 660 34 660 34 660 C34 660 34 647 34 647 L34 647 Z M312 335 C312 335 264 335 264 335 C264 335 219 335 219 335 C219 335 219 628 219 628 C219 628 335 628 335 628 C398 628 452 562 452 485 C452 404 388 335 312 335 L312 335 Z " />
<glyph glyph-name="S" unicode="S" horiz-adv-x="493" d="M20 185 C20 185 20 49 20 49 C20 49 32 67 32 67 C32 67 32 67 33 67 C33 67 20 49 20 49 C59 20 154 -5 225 -5 C346 -5 449 84 449 188 C449 261 371 349 280 378 C186 408 107 469 107 511 C107 577 166 634 235 634 C242 634 252 633 263 630 C263 630 263 630 263 630 C308 620 361 570 379 521 C383 511 390 493 394 482 C394 482 405 482 405 482 C405 482 405 621 405 621 C361 645 286 665 241 665 C122 665 20 571 20 461 C20 392 95 310 183 282 C279 251 360 184 360 137 C360 77 298 26 225 26 C220 26 215 26 209 27 C209 27 209 27 209 27 C142 32 65 91 41 155 C38 163 33 177 30 185 C30 185 20 185 20 185 L20 185 Z " />
<glyph glyph-name="T" unicode="T" horiz-adv-x="620" d="M624 508 C621 545 615 607 612 644 C612 649 611 656 611 660 C611 660 580 660 580 660 C580 660 515 660 515 660 C515 660 105 660 105 660 C105 660 40 660 40 660 C40 660 9 660 9 660 C9 656 8 649 8 644 C5 607 -1 545 -4 508 C-4 508 6 508 6 508 C6 508 15 530 15 530 C38 584 102 629 156 629 C156 629 248 629 248 629 C248 629 248 96 248 96 C248 51 224 13 196 13 C196 13 187 13 187 13 C187 13 187 0 187 0 C187 0 248 0 248 0 C248 0 310 0 310 0 C310 0 372 0 372 0 C372 0 433 0 433 0 C433 0 433 13 433 13 C433 13 424 13 424 13 C396 13 372 51 372 96 C372 96 372 629 372 629 C372 629 464 629 464 629 C518 629 582 584 605 530 C605 530 614 508 614 508 C614 508 624 508 624 508 L624 508 Z " />
<glyph glyph-name="U" unicode="U" horiz-adv-x="698" d="M649 660 C649 660 580 660 580 660 C580 660 561 660 561 660 C561 660 542 660 542 660 C542 660 469 660 469 660 C469 660 469 647 469 647 C469 647 480 647 480 647 C512 647 539 608 542 562 C542 562 541 202 541 202 C541 113 476 38 356 38 C261 38 209 110 209 195 C209 195 209 564 209 564 C209 609 232 647 260 647 C260 647 269 647 269 647 C269 647 269 660 269 660 C269 660 209 660 209 660 C209 660 147 660 147 660 C147 660 85 660 85 660 C85 660 24 660 24 660 C24 660 24 647 24 647 C24 647 33 647 33 647 C61 647 85 609 85 564 C85 564 85 219 85 219 C85 98 174 -5 337 -5 C495 -5 580 84 580 189 C580 189 580 554 580 554 C581 604 607 647 639 647 C639 647 649 647 649 647 C649 647 649 660 649 660 L649 660 Z " />
<glyph glyph-name="V" unicode="V" horiz-adv-x="718" d="M689 660 C689 660 632 660 632 660 C632 660 613 660 613 660 C613 660 594 660 594 660 C594 660 497 660 497 660 C497 660 497 647 497 647 C497 647 511 647 511 647 C553 647 571 598 552 540 C552 540 417 153 417 153 C417 153 233 570 233 570 C217 613 231 647 263 647 C263 647 275 647 275 647 C275 647 275 660 275 660 C275 660 194 660 194 660 C194 660 126 660 126 660 C126 660 57 660 57 660 C57 660 14 660 14 660 C14 660 14 647 14 647 C14 647 22 647 22 647 C43 647 76 613 96 572 C96 572 358 -15 358 -15 C358 -15 390 -15 390 -15 C390 -15 598 564 598 564 C598 564 598 564 598 564 C614 609 652 647 679 647 C679 647 689 647 689 647 C689 647 689 660 689 660 L689 660 Z " />
<glyph glyph-name="W" unicode="W" horiz-adv-x="1035" d="M1002 660 C1002 660 945 660 945 660 C945 660 926 660 926 660 C926 660 907 660 907 660 C907 660 822 660 822 660 C822 660 822 647 822 647 C822 647 834 647 834 647 C871 647 892 609 878 564 C878 564 878 564 878 564 C878 564 705 -15 705 -15 C705 -15 737 -15 737 -15 C737 -15 918 574 918 574 C934 614 967 647 993 647 C993 647 1002 647 1002 647 C1002 647 1002 660 1002 660 L1002 660 Z M274 660 C274 660 201 660 201 660 C201 660 133 660 133 660 C133 660 65 660 65 660 C65 660 21 660 21 660 C21 660 21 647 21 647 C21 647 28 647 28 647 C51 647 84 609 101 564 C101 564 101 564 101 564 C101 564 320 -15 320 -15 C320 -15 352 -15 352 -15 C352 -15 567 670 567 670 C567 670 535 670 535 670 C535 670 320 -15 320 -15 C320 -15 376 164 376 164 C376 164 235 564 235 564 C235 564 235 564 235 564 C219 609 232 647 264 647 C264 647 274 647 274 647 C274 647 274 660 274 660 L274 660 Z M705 -15 C705 -15 762 177 762 177 C762 177 567 670 567 670 C567 670 503 466 503 466 C503 466 705 -15 705 -15 L705 -15 Z " />
<glyph glyph-name="X" unicode="X" horiz-adv-x="693" d="M629 660 C629 660 577 660 577 660 C577 660 552 660 552 660 C552 660 528 660 528 660 C528 660 439 660 439 660 C439 660 439 647 439 647 C439 647 451 647 451 647 C489 647 496 609 467 564 C467 564 467 564 467 564 C467 564 365 404 365 404 C365 404 263 564 263 564 C263 564 263 564 263 564 C234 609 238 647 271 647 C271 647 282 647 282 647 C282 647 282 660 282 660 C282 660 201 660 201 660 C201 660 131 660 131 660 C131 660 60 660 60 660 C60 660 24 660 24 660 C24 660 24 647 24 647 C24 647 30 647 30 647 C49 647 87 615 115 574 C115 574 284 311 284 311 C284 311 284 311 284 311 C284 311 131 82 131 82 C101 43 58 13 33 13 C33 13 24 13 24 13 C24 13 24 0 24 0 C24 0 76 0 76 0 C76 0 99 0 99 0 C99 0 122 0 122 0 C122 0 211 0 211 0 C211 0 211 13 211 13 C211 13 199 13 199 13 C162 13 159 58 194 111 C194 111 193 111 193 111 C193 111 303 282 303 282 C303 282 422 96 422 96 C422 96 422 96 422 96 C451 51 447 13 414 13 C414 13 403 13 403 13 C403 13 403 0 403 0 C403 0 484 0 484 0 C484 0 554 0 554 0 C554 0 625 0 625 0 C625 0 662 0 662 0 C662 0 662 13 662 13 C662 13 655 13 655 13 C636 13 598 45 570 86 C570 86 384 375 384 375 C384 375 512 564 512 564 C512 564 512 564 512 564 C542 609 592 647 620 647 C620 647 629 647 629 647 C629 647 629 660 629 660 L629 660 Z " />
<glyph glyph-name="Y" unicode="Y" horiz-adv-x="660" d="M455 13 C455 13 446 13 446 13 C418 13 394 51 394 96 C394 96 394 327 394 327 C394 327 557 573 557 573 C587 614 629 647 651 647 C651 647 659 647 659 647 C659 647 659 660 659 660 C659 660 615 660 615 660 C615 660 596 660 596 660 C596 660 576 660 576 660 C576 660 487 660 487 660 C488 660 488 657 487 654 C488 650 488 647 487 647 C487 647 500 647 500 647 C535 647 537 602 503 548 C503 548 379 356 379 356 C379 356 250 573 250 573 C228 614 233 647 261 647 C261 647 271 647 271 647 C271 647 271 660 271 660 C271 660 198 660 198 660 C198 660 124 660 124 660 C124 660 49 660 49 660 C49 660 12 660 12 660 C12 660 12 647 12 647 C12 647 19 647 19 647 C38 647 77 611 103 568 C103 568 270 287 270 287 C270 287 270 96 270 96 C270 51 246 13 218 13 C218 13 209 13 209 13 C209 13 209 0 209 0 C209 0 270 0 270 0 C270 0 332 0 332 0 C332 0 394 0 394 0 C394 0 455 0 455 0 C455 0 455 13 455 13 L455 13 Z " />
<glyph glyph-name="Z" unicode="Z" horiz-adv-x="588" d="M510 154 C510 154 502 135 502 135 C478 80 408 32 350 32 C350 32 189 32 189 32 C189 32 530 660 530 660 C530 660 459 660 459 660 C459 660 388 660 388 660 C388 660 179 660 179 660 C179 660 113 660 113 660 C113 660 82 660 82 660 C81 656 79 649 78 644 C70 614 56 562 48 532 C48 532 58 532 58 532 C58 532 68 547 68 547 C99 591 170 629 223 629 C223 629 371 629 371 629 C371 629 33 0 33 0 C33 0 103 0 103 0 C103 0 172 0 172 0 C172 0 402 0 402 0 C402 0 494 0 494 0 C494 0 499 0 499 0 C499 4 501 12 502 16 C508 51 518 112 525 147 C525 149 510 154 510 154 L510 154 Z " />
<glyph glyph-name="bracketleft" unicode="&#x5b;" horiz-adv-x="269" d="M154 634 C154 634 259 634 259 634 C259 634 259 660 259 660 C259 660 154 660 154 660 C154 660 65 660 65 660 C65 660 65 -120 65 -120 C65 -120 154 -120 154 -120 C154 -120 259 -120 259 -120 C259 -120 259 -94 259 -94 C259 -94 154 -94 154 -94 C154 -94 154 634 154 634 L154 634 Z " />
<glyph glyph-name="backslash" unicode="&#x5c;" horiz-adv-x="270" d="M230 -145 C230 -145 270 -145 270 -145 C270 -145 -20 710 -20 710 C-20 710 -60 710 -60 710 C-60 710 230 -145 230 -145 L230 -145 Z " />
<glyph glyph-name="bracketright" unicode="&#x5d;" horiz-adv-x="268" d="M109 634 C109 634 109 -94 109 -94 C109 -94 4 -94 4 -94 C4 -94 4 -120 4 -120 C4 -120 109 -120 109 -120 C109 -120 199 -120 199 -120 C199 -120 199 660 199 660 C199 660 109 660 109 660 C109 660 4 660 4 660 C4 660 4 634 4 634 C4 634 109 634 109 634 L109 634 Z " />
<glyph glyph-name="underscore" unicode="&#x5f;" horiz-adv-x="455" d="M5 -50 C5 -50 5 -114 5 -114 C5 -114 450 -114 450 -114 C450 -114 450 -50 450 -50 C450 -50 5 -50 5 -50 L5 -50 Z " />
<glyph glyph-name="a" unicode="a" horiz-adv-x="511" d="M490 64 C483 54 467 45 445 45 C417 45 405 76 405 112 C405 112 405 352 405 352 C405 435 339 505 263 505 C162 505 64 453 49 391 C49 391 164 391 164 391 C175 435 208 473 237 473 C262 473 284 429 284 378 C284 378 284 258 284 258 C284 258 217 252 217 252 C119 242 36 175 36 105 C36 46 90 -5 154 -5 C202 -5 254 14 293 41 C305 11 329 -10 366 -10 C435 -10 482 17 503 48 C503 48 490 64 490 64 L490 64 Z M283 228 C283 228 283 100 283 100 C283 94 283 87 284 81 C262 76 237 72 212 72 C179 72 150 102 150 138 C150 174 181 210 217 216 C217 216 283 228 283 228 L283 228 Z " />
<glyph glyph-name="b" unicode="b" horiz-adv-x="571" d="M13 665 C59 655 74 637 74 568 C74 568 74 0 74 0 C74 0 87 0 87 0 C97 17 124 32 147 32 C187 32 232 -5 287 -5 C419 -5 532 112 532 249 C532 387 445 505 343 505 C280 505 209 483 189 458 C189 458 189 599 189 599 C189 599 189 690 189 690 C189 690 189 720 189 720 C189 720 166 720 166 720 C166 720 13 673 13 673 C13 673 13 665 13 665 L13 665 Z M189 439 C195 447 226 454 255 454 C337 454 407 340 407 207 C407 110 352 27 287 27 C234 27 189 96 189 177 C189 177 189 439 189 439 L189 439 Z " />
<glyph glyph-name="c" unicode="c" horiz-adv-x="521" d="M472 98 C472 98 460 110 460 110 C435 86 388 65 357 65 C257 65 172 161 172 273 C172 381 228 473 293 473 C327 473 360 441 363 404 C366 374 392 348 421 348 C448 348 472 371 472 399 C466 456 390 505 306 505 C168 505 50 378 50 229 C50 103 147 -5 261 -5 C318 -5 415 43 472 98 L472 98 Z " />
<glyph glyph-name="d" unicode="d" horiz-adv-x="595" d="M546 55 C500 65 485 83 485 152 C485 152 485 599 485 599 C485 599 485 690 485 690 C485 690 485 720 485 720 C485 720 462 720 462 720 C462 720 309 673 309 673 C309 673 309 665 309 665 C355 656 370 637 370 568 C370 568 370 463 370 463 C341 487 304 505 272 505 C146 505 38 374 38 219 C38 98 125 -5 227 -5 C270 -5 331 24 370 60 C370 60 370 30 370 30 C370 30 370 0 370 0 C370 0 393 0 393 0 C393 0 546 47 546 47 C546 47 546 55 546 55 L546 55 Z M370 121 C370 121 370 80 370 80 C355 71 322 65 290 65 C219 65 158 156 158 263 C158 377 208 474 267 474 C303 474 346 448 370 418 C370 418 370 121 370 121 L370 121 Z " />
<glyph glyph-name="e" unicode="e" horiz-adv-x="527" d="M478 98 C478 98 466 110 466 110 C441 86 392 65 360 65 C259 65 172 161 172 273 C172 280 172 286 173 293 C173 293 478 293 478 293 C478 407 389 505 285 505 C158 505 50 378 50 229 C50 103 148 -5 264 -5 C323 -5 421 43 478 98 L478 98 Z M174 314 C185 403 229 473 279 473 C329 473 371 434 371 389 C371 388 371 388 371 387 C370 360 347 335 320 330 C320 330 174 314 174 314 L174 314 Z M316 329 C316 329 315 329 315 329 C315 329 316 329 316 329 L316 329 Z " />
<glyph glyph-name="f" unicode="f" horiz-adv-x="461" d="M275 13 C275 13 265 13 265 13 C238 13 214 51 214 96 C214 96 214 455 214 455 C214 455 349 455 349 455 C349 455 349 500 349 500 C349 500 214 500 214 500 C214 500 214 533 214 533 C214 620 259 694 311 694 C337 694 360 671 363 645 C365 617 391 594 420 594 C448 594 471 617 471 645 C468 685 409 720 343 720 C224 720 115 646 105 558 C105 558 99 500 99 500 C99 500 31 500 31 500 C31 500 31 455 31 455 C31 455 99 455 99 455 C99 455 99 96 99 96 C99 51 75 13 47 13 C47 13 38 13 38 13 C38 13 38 0 38 0 C38 0 99 0 99 0 C99 0 156 0 156 0 C156 0 214 0 214 0 C214 0 275 0 275 0 C275 0 275 13 275 13 L275 13 Z " />
<glyph glyph-name="g" unicode="g" horiz-adv-x="478" d="M479 500 C479 500 339 468 339 468 C308 491 270 505 228 505 C134 505 54 432 54 346 C54 285 94 231 151 204 C90 194 41 145 41 89 C41 44 79 6 131 -10 C66 -30 16 -82 16 -134 C16 -193 88 -243 173 -243 C327 -243 459 -144 459 -28 C459 38 376 94 278 94 C278 94 189 90 189 90 C151 89 118 109 118 134 C118 163 144 187 173 187 C173 187 228 187 228 187 C323 187 403 260 403 346 C403 375 394 403 377 427 C377 427 479 436 479 436 C479 436 479 500 479 500 L479 500 Z M162 346 C162 418 193 479 228 479 C264 479 295 418 295 346 C295 274 264 212 228 212 C193 212 162 274 162 346 L162 346 Z M164 -17 C174 -18 184 -19 195 -18 C195 -18 247 -15 247 -15 C317 -15 376 -48 376 -86 C376 -154 289 -211 186 -211 C136 -211 93 -169 93 -120 C93 -73 125 -28 164 -17 C164 -17 164 -17 164 -17 L164 -17 Z " />
<glyph glyph-name="h" unicode="h" horiz-adv-x="607" d="M567 13 C567 13 558 13 558 13 C530 13 507 51 507 96 C507 96 507 338 507 338 C507 428 468 505 396 505 C339 505 264 473 220 433 C220 433 220 599 220 599 C220 599 220 690 220 690 C220 690 220 720 220 720 C220 720 197 720 197 720 C197 720 44 673 44 673 C44 673 44 665 44 665 C90 655 105 637 105 568 C105 568 105 96 105 96 C105 51 81 13 53 13 C53 13 44 13 44 13 C44 13 44 0 44 0 C44 0 105 0 105 0 C105 0 162 0 162 0 C162 0 220 0 220 0 C220 0 281 0 281 0 C281 0 281 13 281 13 C281 13 272 13 272 13 C244 13 220 51 220 96 C220 96 220 415 220 415 C239 422 274 428 307 428 C362 428 392 381 392 326 C392 326 392 96 392 96 C392 51 368 13 340 13 C340 13 331 13 331 13 C331 13 331 0 331 0 C331 0 392 0 392 0 C392 0 449 0 449 0 C449 0 507 0 507 0 C507 0 567 0 567 0 C567 0 567 13 567 13 L567 13 Z " />
<glyph glyph-name="i" unicode="i" horiz-adv-x="326" d="M45 445 C91 435 106 417 106 348 C106 348 106 96 106 96 C106 51 82 13 54 13 C54 13 45 13 45 13 C45 13 45 0 45 0 C45 0 106 0 106 0 C106 0 163 0 163 0 C163 0 221 0 221 0 C221 0 281 0 281 0 C281 0 281 13 281 13 C281 13 272 13 272 13 C245 13 222 48 221 91 C221 91 221 96 221 96 C221 96 221 379 221 379 C221 379 221 470 221 470 C221 470 221 500 221 500 C221 500 198 500 198 500 C198 500 45 453 45 453 C45 453 45 445 45 445 L45 445 Z M157 570 C198 570 233 605 233 647 C233 688 198 723 157 723 C115 723 80 688 80 647 C80 605 115 570 157 570 L157 570 Z " />
<glyph glyph-name="j" unicode="j" horiz-adv-x="326" d="M45 445 C87 436 104 420 106 362 C106 362 105 -1 105 -1 C105 -117 69 -176 -5 -223 C-5 -223 6 -239 6 -239 C151 -148 221 -71 221 31 C221 31 221 379 221 379 C221 379 221 470 221 470 C221 470 221 500 221 500 C221 500 198 500 198 500 C198 500 45 453 45 453 C45 453 45 445 45 445 L45 445 Z M157 570 C198 570 233 605 233 647 C233 688 198 723 157 723 C115 723 80 688 80 647 C80 605 115 570 157 570 L157 570 Z " />
<glyph glyph-name="k" unicode="k" horiz-adv-x="572" d="M603 13 C603 13 594 13 594 13 C566 13 514 51 482 96 C482 96 482 96 482 96 C482 96 308 337 308 337 C308 337 381 404 381 404 C430 449 495 487 523 487 C523 487 532 487 532 487 C532 487 532 500 532 500 C532 500 485 500 485 500 C485 500 460 500 460 500 C460 500 434 500 434 500 C434 500 373 500 373 500 C373 500 373 487 373 487 C373 487 381 487 381 487 C403 487 384 449 339 404 C339 404 340 404 340 404 C340 404 213 275 213 275 C213 275 213 599 213 599 C213 599 213 690 213 690 C213 690 213 720 213 720 C213 720 190 720 190 720 C190 720 37 673 37 673 C37 673 37 665 37 665 C83 655 98 637 98 568 C98 568 98 96 98 96 C98 51 74 13 46 13 C46 13 37 13 37 13 C37 13 37 0 37 0 C37 0 98 0 98 0 C98 0 155 0 155 0 C155 0 213 0 213 0 C213 0 274 0 274 0 C274 0 274 13 274 13 C274 13 264 13 264 13 C237 13 213 51 213 96 C213 96 213 275 213 275 C213 275 343 91 343 91 C372 48 378 13 355 13 C355 13 348 13 348 13 C348 13 348 0 348 0 C348 0 408 0 408 0 C408 0 480 0 480 0 C480 0 551 0 551 0 C551 0 603 0 603 0 C603 0 603 13 603 13 L603 13 Z " />
<glyph glyph-name="l" unicode="l" horiz-adv-x="326" d="M45 665 C91 655 106 637 106 568 C106 568 106 96 106 96 C106 51 82 13 54 13 C54 13 45 13 45 13 C45 13 45 0 45 0 C45 0 106 0 106 0 C106 0 163 0 163 0 C163 0 221 0 221 0 C221 0 281 0 281 0 C281 0 281 13 281 13 C281 13 272 13 272 13 C245 13 222 48 221 91 C221 91 221 96 221 96 C221 96 221 599 221 599 C221 599 221 690 221 690 C221 690 221 720 221 720 C221 720 198 720 198 720 C198 720 45 673 45 673 C45 673 45 665 45 665 L45 665 Z " />
<glyph glyph-name="m" unicode="m" horiz-adv-x="914" d="M874 13 C874 13 865 13 865 13 C837 13 814 51 813 96 C813 96 813 338 813 338 C813 428 755 505 695 505 C619 505 538 470 498 427 C476 473 440 505 402 505 C337 505 263 473 220 433 C220 433 220 500 220 500 C220 500 197 500 197 500 C197 500 44 453 44 453 C44 453 44 445 44 445 C90 435 105 417 105 348 C105 348 105 96 105 96 C105 51 81 13 53 13 C53 13 44 13 44 13 C44 13 44 0 44 0 C44 0 105 0 105 0 C105 0 162 0 162 0 C162 0 220 0 220 0 C220 0 281 0 281 0 C281 0 281 13 281 13 C281 13 272 13 272 13 C244 13 220 51 220 96 C220 96 220 374 220 374 C220 374 201 374 201 374 C201 374 220 379 220 379 C220 379 220 417 220 417 C240 427 275 435 313 435 C358 435 402 385 402 326 C402 326 402 96 402 96 C402 51 378 13 350 13 C350 13 341 13 341 13 C341 13 341 0 341 0 C341 0 402 0 402 0 C402 0 459 0 459 0 C459 0 517 0 517 0 C517 0 577 0 577 0 C577 0 577 13 577 13 C577 13 568 13 568 13 C540 13 517 51 517 96 C517 96 517 338 517 338 C517 364 512 388 505 410 C522 420 561 428 606 428 C653 428 698 381 698 326 C698 326 698 96 698 96 C698 51 674 13 647 13 C647 13 638 13 638 13 C638 13 638 0 638 0 C638 0 698 0 698 0 C698 0 756 0 756 0 C756 0 813 0 813 0 C813 0 874 0 874 0 C874 0 874 13 874 13 L874 13 Z " />
<glyph glyph-name="n" unicode="n" horiz-adv-x="607" d="M567 13 C567 13 558 13 558 13 C530 13 507 51 507 96 C507 96 507 338 507 338 C507 428 468 505 396 505 C339 505 264 473 220 433 C220 433 220 500 220 500 C220 500 197 500 197 500 C197 500 44 453 44 453 C44 453 44 445 44 445 C90 435 105 417 105 348 C105 348 105 96 105 96 C105 51 81 13 53 13 C53 13 44 13 44 13 C44 13 44 0 44 0 C44 0 105 0 105 0 C105 0 162 0 162 0 C162 0 220 0 220 0 C220 0 281 0 281 0 C281 0 281 13 281 13 C281 13 272 13 272 13 C244 13 220 51 220 96 C220 96 220 374 220 374 C220 374 201 374 201 374 C201 374 220 379 220 379 C220 379 220 415 220 415 C239 422 274 428 307 428 C362 428 392 381 392 326 C392 326 392 96 392 96 C392 51 368 13 340 13 C340 13 331 13 331 13 C331 13 331 0 331 0 C331 0 392 0 392 0 C392 0 449 0 449 0 C449 0 507 0 507 0 C507 0 567 0 567 0 C567 0 567 13 567 13 L567 13 Z " />
<glyph glyph-name="o" unicode="o" horiz-adv-x="606" d="M303 21 C236 21 178 126 178 250 C178 374 236 479 303 479 C371 479 429 374 429 250 C429 126 371 21 303 21 L303 21 Z M50 250 C50 112 167 -5 303 -5 C440 -5 557 112 557 250 C557 388 440 505 303 505 C167 505 50 388 50 250 L50 250 Z " />
<glyph glyph-name="p" unicode="p" horiz-adv-x="635" d="M44 445 C90 435 105 417 105 348 C105 348 105 -134 105 -134 C105 -179 81 -217 53 -217 C53 -217 44 -217 44 -217 C44 -217 44 -230 44 -230 C44 -230 105 -230 105 -230 C105 -230 162 -230 162 -230 C162 -230 220 -230 220 -230 C220 -230 281 -230 281 -230 C281 -230 281 -217 281 -217 C281 -217 272 -217 272 -217 C244 -217 220 -179 220 -134 C220 -134 220 21 220 21 C249 5 285 -5 322 -5 C462 -5 581 121 581 268 C581 396 495 505 394 505 C318 505 240 471 213 429 C213 429 204 500 204 500 C204 500 181 500 181 500 C181 500 44 453 44 453 C44 453 44 445 44 445 L44 445 Z M216 408 C233 419 269 428 305 428 C389 428 461 317 461 187 C461 101 397 27 322 27 C267 27 220 79 220 140 C220 140 220 374 220 374 C220 374 201 374 201 374 C201 374 220 379 220 379 C220 379 216 408 216 408 L216 408 Z " />
<glyph glyph-name="q" unicode="q" horiz-adv-x="599" d="M554 -217 C554 -217 545 -217 545 -217 C517 -217 494 -179 494 -134 C494 -134 494 500 494 500 C494 500 481 500 481 500 C471 483 438 468 409 468 C371 468 331 505 280 505 C155 505 48 374 48 219 C48 98 128 -5 223 -5 C271 -5 338 26 379 66 C379 66 379 -134 379 -134 C379 -179 355 -217 327 -217 C327 -217 318 -217 318 -217 C318 -217 318 -230 318 -230 C318 -230 379 -230 379 -230 C379 -230 436 -230 436 -230 C436 -230 494 -230 494 -230 C494 -230 554 -230 554 -230 C554 -230 554 -217 554 -217 L554 -217 Z M379 89 C362 76 323 65 286 65 C222 65 168 156 168 263 C168 376 219 473 280 473 C333 473 379 405 379 325 C379 325 379 89 379 89 L379 89 Z " />
<glyph glyph-name="r" unicode="r" horiz-adv-x="423" d="M44 445 C90 435 105 417 105 348 C105 348 105 96 105 96 C105 51 81 13 53 13 C53 13 44 13 44 13 C44 13 44 0 44 0 C44 0 105 0 105 0 C105 0 162 0 162 0 C162 0 220 0 220 0 C220 0 281 0 281 0 C281 0 281 13 281 13 C281 13 272 13 272 13 C244 13 220 51 220 96 C220 96 220 374 220 374 C220 374 201 374 201 374 C201 374 220 379 220 379 C220 379 216 411 216 411 C225 416 238 420 250 420 C284 420 325 376 358 376 C388 376 413 401 413 431 C413 471 388 505 342 505 C298 505 241 471 213 429 C213 429 204 500 204 500 C204 500 181 500 181 500 C181 500 44 453 44 453 C44 453 44 445 44 445 L44 445 Z " />
<glyph glyph-name="s" unicode="s" horiz-adv-x="419" d="M44 138 C44 138 44 36 44 36 C44 36 56 53 56 53 C56 53 56 53 56 53 C56 53 44 36 44 36 C74 14 139 -5 184 -5 C285 -5 370 68 370 153 C370 201 322 264 266 291 C197 324 137 375 137 402 C137 443 180 479 230 479 C232 479 243 474 259 467 C292 448 322 416 332 388 C334 383 336 375 338 371 C338 371 348 371 348 371 C348 371 348 467 348 467 C311 488 257 505 230 505 C132 505 49 439 49 362 C49 315 112 245 185 209 C233 186 274 141 274 111 C274 62 236 21 191 21 C144 21 85 65 62 117 C60 122 56 132 53 138 C53 138 44 138 44 138 L44 138 Z " />
<glyph glyph-name="t" unicode="t" horiz-adv-x="370" d="M338 500 C338 500 203 500 203 500 C203 500 203 640 203 640 C203 640 184 640 184 640 C140 555 67 476 25 468 C25 468 25 455 25 455 C25 455 88 455 88 455 C88 455 88 125 88 125 C88 34 120 -5 196 -5 C238 -5 299 31 350 74 C350 74 342 84 342 84 C318 64 284 46 253 46 C218 46 203 64 203 105 C203 105 203 455 203 455 C203 455 338 455 338 455 C338 455 338 500 338 500 L338 500 Z " />
<glyph glyph-name="u" unicode="u" horiz-adv-x="572" d="M537 55 C491 65 477 83 477 152 C477 152 477 500 477 500 C477 500 419 500 419 500 C419 500 362 500 362 500 C362 500 301 500 301 500 C301 500 301 487 301 487 C301 487 310 487 310 487 C338 487 362 449 362 404 C362 404 362 121 362 121 C362 121 362 92 362 92 C349 80 325 71 296 71 C233 71 190 115 190 166 C190 166 190 500 190 500 C190 500 132 500 132 500 C132 500 75 500 75 500 C75 500 14 500 14 500 C14 500 14 487 14 487 C14 487 23 487 23 487 C51 487 75 449 75 404 C75 404 75 154 75 154 C75 68 128 -5 206 -5 C261 -5 321 29 362 72 C362 72 362 30 362 30 C362 30 362 0 362 0 C362 0 385 0 385 0 C385 0 537 47 537 47 C537 47 537 55 537 55 L537 55 Z " />
<glyph glyph-name="v" unicode="v" horiz-adv-x="611" d="M564 500 C564 500 509 500 509 500 C509 500 490 500 490 500 C490 500 471 500 471 500 C471 500 410 500 410 500 C410 500 410 487 410 487 C410 487 418 487 418 487 C444 487 450 450 433 405 C433 405 327 137 327 137 C327 137 212 404 212 404 C212 404 212 404 212 404 C192 449 197 487 223 487 C223 487 231 487 231 487 C231 487 231 500 231 500 C231 500 170 500 170 500 C170 500 105 500 105 500 C105 500 39 500 39 500 C39 500 -16 500 -16 500 C-16 500 -16 487 -16 487 C-16 487 -7 487 -7 487 C21 487 62 449 82 404 C82 404 82 404 82 404 C82 404 269 -10 269 -10 C269 -10 288 -10 288 -10 C288 -10 471 413 471 413 C492 454 529 487 555 487 C555 487 564 487 564 487 C564 487 564 500 564 500 L564 500 Z " />
<glyph glyph-name="w" unicode="w" horiz-adv-x="941" d="M890 500 C890 500 847 500 847 500 C847 500 808 500 808 500 C808 500 723 500 723 500 C723 500 723 487 723 487 C723 487 737 487 737 487 C771 487 791 462 762 384 C762 384 664 137 664 137 C664 137 548 407 548 407 C524 467 542 487 572 487 C572 487 585 487 585 487 C585 487 585 500 585 500 C585 500 508 500 508 500 C508 500 376 500 376 500 C376 500 338 500 338 500 C338 500 338 487 338 487 C338 487 349 487 349 487 C365 487 388 467 417 409 C417 409 432 376 432 376 C432 376 336 134 336 134 C336 134 226 393 226 393 C226 393 226 393 226 393 C193 464 208 487 238 487 C238 487 251 487 251 487 C251 487 251 500 251 500 C251 500 180 500 180 500 C180 500 49 500 49 500 C49 500 6 500 6 500 C6 500 6 487 6 487 C6 487 17 487 17 487 C37 487 65 463 98 390 C98 390 99 390 99 390 C99 390 279 -10 279 -10 C279 -10 298 -10 298 -10 C298 -10 445 346 445 346 C445 346 606 -10 606 -10 C606 -10 626 -10 626 -10 C626 -10 815 425 815 425 C838 471 860 487 878 487 C878 487 890 487 890 487 C890 487 890 500 890 500 L890 500 Z " />
<glyph glyph-name="x" unicode="x" horiz-adv-x="557" d="M503 500 C503 500 453 500 453 500 C453 500 433 500 433 500 C433 500 414 500 414 500 C414 500 333 500 333 500 C333 500 333 487 333 487 C333 487 344 487 344 487 C377 487 376 449 342 404 C342 404 343 404 343 404 C343 404 288 331 288 331 C288 331 241 408 241 408 C216 451 218 487 247 487 C247 487 257 487 257 487 C257 487 257 500 257 500 C257 500 184 500 184 500 C184 500 114 500 114 500 C114 500 43 500 43 500 C43 500 3 500 3 500 C3 500 3 487 3 487 C3 487 10 487 10 487 C29 487 65 457 93 419 C93 419 209 231 209 231 C209 231 109 86 109 86 C77 46 29 13 -1 13 C-1 13 -11 13 -11 13 C-11 13 -11 0 -11 0 C-11 0 49 0 49 0 C49 0 68 0 68 0 C68 0 87 0 87 0 C87 0 184 0 184 0 C184 0 184 13 184 13 C184 13 171 13 171 13 C130 13 122 51 152 96 C152 96 151 96 151 96 C151 96 225 205 225 205 C225 205 296 89 296 89 C320 47 322 13 299 13 C299 13 291 13 291 13 C291 13 291 0 291 0 C291 0 351 0 351 0 C351 0 422 0 422 0 C422 0 492 0 492 0 C492 0 524 0 524 0 C524 0 524 13 524 13 C524 13 518 13 518 13 C500 13 460 51 433 96 C433 96 433 96 433 96 C433 96 300 311 300 311 C300 311 382 412 382 412 C417 453 468 487 494 487 C494 487 503 487 503 487 C503 487 503 500 503 500 L503 500 Z " />
<glyph glyph-name="y" unicode="y" horiz-adv-x="621" d="M595 500 C595 500 540 500 540 500 C540 500 521 500 521 500 C521 500 502 500 502 500 C502 500 441 500 441 500 C441 500 441 487 441 487 C441 487 449 487 449 487 C475 487 481 450 464 405 C464 405 358 137 358 137 C358 137 243 404 243 404 C243 404 243 404 243 404 C223 449 228 487 254 487 C254 487 262 487 262 487 C262 487 262 500 262 500 C262 500 201 500 201 500 C201 500 136 500 136 500 C136 500 70 500 70 500 C70 500 15 500 15 500 C15 500 15 487 15 487 C15 487 24 487 24 487 C52 487 93 449 113 404 C113 404 113 404 113 404 C113 404 293 6 293 6 C293 6 262 -62 262 -62 C236 -121 205 -154 174 -154 C148 -154 111 -129 86 -129 C54 -129 28 -151 28 -178 C28 -206 62 -230 103 -230 C181 -230 248 -174 292 -72 C292 -72 319 -10 319 -10 C319 -10 502 413 502 413 C523 454 560 487 586 487 C586 487 595 487 595 487 C595 487 595 500 595 500 L595 500 Z " />
<glyph glyph-name="z" unicode="z" horiz-adv-x="483" d="M212 473 C212 473 212 473 212 473 C212 473 286 474 286 474 C286 474 37 0 37 0 C37 0 105 0 105 0 C105 0 173 0 173 0 C173 0 309 0 309 0 C309 0 400 0 400 0 C400 0 406 0 406 0 C406 3 407 9 408 13 C414 48 424 106 431 141 C430 141 429 142 428 142 C421 145 415 147 415 147 C415 147 408 129 408 129 C384 73 314 26 255 26 C255 26 187 26 187 26 C187 26 433 500 433 500 C433 500 367 500 367 500 C367 500 300 500 300 500 C300 500 166 500 166 500 C166 500 101 500 101 500 C101 500 70 500 70 500 C69 496 68 490 67 487 C60 463 50 423 44 400 C44 400 54 400 54 400 C54 400 63 411 63 411 C90 445 159 473 212 473 C212 473 212 473 212 473 L212 473 Z " />
<glyph glyph-name="braceleft" unicode="&#x7b;" horiz-adv-x="254" d="M239 -120 C239 -120 239 -101 239 -101 C239 -101 225 -101 225 -101 C184 -101 149 -47 149 16 C149 16 149 139 149 139 C149 202 110 257 58 270 C110 283 149 338 149 402 C149 402 149 524 149 524 C149 587 184 641 225 641 C225 641 239 641 239 641 C239 641 239 660 239 660 C239 660 199 660 199 660 C124 660 60 597 60 524 C60 524 60 338 60 338 C60 307 37 280 10 280 C10 280 5 280 5 280 C5 280 5 260 5 260 C5 260 10 260 10 260 C37 260 60 234 60 203 C60 203 60 16 60 16 C60 -57 124 -120 199 -120 C199 -120 239 -120 239 -120 L239 -120 Z " />
<glyph glyph-name="bar" unicode="&#x7c;" horiz-adv-x="209" d="M60 770 C60 770 60 -234 60 -234 C60 -234 149 -234 149 -234 C149 -234 149 770 149 770 C149 770 60 770 60 770 L60 770 Z " />
<glyph glyph-name="braceright" unicode="&#x7d;" horiz-adv-x="254" d="M5 660 C5 660 5 641 5 641 C5 641 19 641 19 641 C60 641 95 587 95 524 C95 524 95 401 95 401 C95 338 134 283 186 270 C134 257 95 202 95 138 C95 138 95 16 95 16 C95 -47 60 -101 19 -101 C19 -101 5 -101 5 -101 C5 -101 5 -120 5 -120 C5 -120 45 -120 45 -120 C120 -120 184 -57 184 16 C184 16 184 202 184 202 C184 233 207 260 234 260 C234 260 239 260 239 260 C239 260 239 280 239 280 C239 280 234 280 234 280 C207 280 184 306 184 337 C184 337 184 524 184 524 C184 597 120 660 45 660 C45 660 5 660 5 660 L5 660 Z " />
<glyph glyph-name="[namenotfound]" unicode="&#xa0;" horiz-adv-x="220" d="" />
<glyph glyph-name="exclamdown" unicode="&#xa1;" horiz-adv-x="265" d="M123 505 C79 505 43 468 43 425 C43 382 79 345 123 345 C166 345 203 382 203 425 C203 468 166 505 123 505 L123 505 Z M60 -83 C53 -127 86 -165 130 -165 C177 -165 209 -127 201 -83 C201 -83 130 270 130 270 C130 270 115 270 115 270 C115 270 60 -83 60 -83 L60 -83 Z " />
<glyph glyph-name="cent" unicode="&#xa2;" horiz-adv-x="521" d="M272 575 C272 575 272 502 272 502 C149 484 50 366 50 229 C50 103 147 -5 261 -5 C265 -5 268 -5 272 -4 C272 -4 272 -75 272 -75 C272 -75 310 -75 310 -75 C310 -75 310 3 310 3 C364 19 429 57 472 98 C472 98 460 110 460 110 C435 86 388 65 357 65 C341 65 325 68 310 72 C310 72 310 470 310 470 C337 462 361 435 363 404 C366 374 392 348 421 348 C448 348 472 371 472 399 C466 455 392 503 310 505 C310 505 310 575 310 575 C310 575 272 575 272 575 L272 575 Z M272 89 C213 125 172 195 172 273 C172 369 216 453 272 470 C272 470 272 89 272 89 L272 89 Z " />
<glyph glyph-name="guillemotleft" unicode="&#xab;" horiz-adv-x="460" d="M297 250 C297 250 413 454 413 454 C413 454 400 466 400 466 C400 466 184 256 184 256 C184 256 184 244 184 244 C184 244 403 34 403 34 C403 34 416 46 416 46 C416 46 297 250 297 250 L297 250 Z M133 250 C133 250 248 454 248 454 C248 454 236 466 236 466 C236 466 20 256 20 256 C20 256 20 244 20 244 C20 244 239 34 239 34 C239 34 251 46 251 46 C251 46 133 250 133 250 L133 250 Z " />
<glyph glyph-name="guillemotright" unicode="&#xbb;" horiz-adv-x="460" d="M164 250 C164 250 48 454 48 454 C48 454 61 466 61 466 C61 466 276 256 276 256 C276 256 276 244 276 244 C276 244 58 34 58 34 C58 34 45 46 45 46 C45 46 164 250 164 250 L164 250 Z M328 250 C328 250 213 454 213 454 C213 454 225 466 225 466 C225 466 441 256 441 256 C441 256 441 244 441 244 C441 244 222 34 222 34 C222 34 209 46 209 46 C209 46 328 250 328 250 L328 250 Z " />
<glyph glyph-name="questiondown" unicode="&#xbf;" horiz-adv-x="372" d="M234 505 C190 505 153 468 154 425 C153 382 190 345 234 345 C277 345 313 382 314 425 C313 468 277 505 234 505 L234 505 Z M254 123 C263 123 269 131 267 140 C267 140 241 265 241 265 C241 265 226 265 226 265 C226 265 215 210 215 210 C215 210 180 210 180 210 C71 210 35 125 35 84 C35 -50 136 -165 254 -165 C299 -165 337 -131 337 -92 C337 -65 314 -42 287 -42 C264 -42 241 -75 218 -75 C133 -75 61 -8 61 71 C61 88 100 123 219 123 C219 123 254 123 254 123 L254 123 Z " />
<glyph glyph-name="Agrave" unicode="&#xc0;" horiz-adv-x="682" d="M675 13 C675 13 667 13 667 13 C644 13 609 46 589 87 C589 87 333 675 333 675 C333 675 302 675 302 675 C302 675 85 84 85 84 C66 44 32 13 8 13 C8 13 -2 13 -2 13 C-2 13 -2 0 -2 0 C-2 0 54 0 54 0 C54 0 75 0 75 0 C75 0 95 0 95 0 C95 0 184 0 184 0 C184 0 184 13 184 13 C184 13 172 13 172 13 C133 13 116 58 135 111 C135 111 134 111 134 111 C134 111 175 226 175 226 C175 226 397 226 397 226 C397 226 452 96 452 96 C452 96 451 96 451 96 C470 51 456 13 420 13 C420 13 408 13 408 13 C408 13 408 0 408 0 C408 0 492 0 492 0 C492 0 559 0 559 0 C559 0 627 0 627 0 C627 0 675 0 675 0 C675 0 675 13 675 13 L675 13 Z M328 859 C316 886 304 909 299 909 C281 909 233 874 233 861 C233 855 250 834 270 814 C270 814 389 690 389 690 C389 690 402 699 402 699 C402 699 328 859 328 859 L328 859 Z M384 256 C384 256 186 257 186 257 C186 257 276 514 276 514 C276 514 384 256 384 256 L384 256 Z " />
<glyph glyph-name="Aacute" unicode="&#xc1;" horiz-adv-x="682" d="M257 690 C257 690 373 814 373 814 C393 834 409 855 409 861 C409 874 361 909 343 909 C339 909 327 886 315 859 C315 859 244 699 244 699 C244 699 257 690 257 690 L257 690 Z M675 13 C675 13 667 13 667 13 C644 13 609 46 589 87 C589 87 333 675 333 675 C333 675 302 675 302 675 C302 675 85 84 85 84 C66 44 32 13 8 13 C8 13 -2 13 -2 13 C-2 13 -2 0 -2 0 C-2 0 54 0 54 0 C54 0 75 0 75 0 C75 0 95 0 95 0 C95 0 184 0 184 0 C184 0 184 13 184 13 C184 13 172 13 172 13 C133 13 116 58 135 111 C135 111 134 111 134 111 C134 111 175 226 175 226 C175 226 397 226 397 226 C397 226 452 96 452 96 C452 96 451 96 451 96 C470 51 456 13 420 13 C420 13 408 13 408 13 C408 13 408 0 408 0 C408 0 492 0 492 0 C492 0 559 0 559 0 C559 0 627 0 627 0 C627 0 675 0 675 0 C675 0 675 13 675 13 L675 13 Z M384 256 C384 256 186 257 186 257 C186 257 276 514 276 514 C276 514 384 256 384 256 L384 256 Z " />
<glyph glyph-name="Acircumflex" unicode="&#xc2;" horiz-adv-x="682" d="M675 13 C675 13 667 13 667 13 C644 13 609 46 589 87 C589 87 333 675 333 675 C333 675 302 675 302 675 C302 675 85 84 85 84 C66 44 32 13 8 13 C8 13 -2 13 -2 13 C-2 13 -2 0 -2 0 C-2 0 54 0 54 0 C54 0 75 0 75 0 C75 0 95 0 95 0 C95 0 184 0 184 0 C184 0 184 13 184 13 C184 13 172 13 172 13 C133 13 116 58 135 111 C135 111 134 111 134 111 C134 111 175 226 175 226 C175 226 397 226 397 226 C397 226 452 96 452 96 C452 96 451 96 451 96 C470 51 456 13 420 13 C420 13 408 13 408 13 C408 13 408 0 408 0 C408 0 492 0 492 0 C492 0 559 0 559 0 C559 0 627 0 627 0 C627 0 675 0 675 0 C675 0 675 13 675 13 L675 13 Z M318 800 C318 800 428 691 428 691 C428 691 439 701 439 701 C439 701 354 872 354 872 C350 881 334 904 317 904 C301 904 285 881 281 872 C281 872 195 701 195 701 C195 701 207 691 207 691 C207 691 318 800 318 800 L318 800 Z M384 256 C384 256 186 257 186 257 C186 257 276 514 276 514 C276 514 384 256 384 256 L384 256 Z " />
<glyph glyph-name="Atilde" unicode="&#xc3;" horiz-adv-x="682" d="M178 755 C178 785 196 811 217 811 C269 811 334 748 387 748 C435 748 476 811 476 885 C476 885 457 885 457 885 C457 853 436 825 411 825 C359 825 294 887 242 887 C197 887 159 826 159 755 C159 755 178 755 178 755 L178 755 Z M675 13 C675 13 667 13 667 13 C644 13 609 46 589 87 C589 87 333 675 333 675 C333 675 302 675 302 675 C302 675 85 84 85 84 C66 44 32 13 8 13 C8 13 -2 13 -2 13 C-2 13 -2 0 -2 0 C-2 0 54 0 54 0 C54 0 75 0 75 0 C75 0 95 0 95 0 C95 0 184 0 184 0 C184 0 184 13 184 13 C184 13 172 13 172 13 C133 13 116 58 135 111 C135 111 134 111 134 111 C134 111 175 226 175 226 C175 226 397 226 397 226 C397 226 452 96 452 96 C452 96 451 96 451 96 C470 51 456 13 420 13 C420 13 408 13 408 13 C408 13 408 0 408 0 C408 0 492 0 492 0 C492 0 559 0 559 0 C559 0 627 0 627 0 C627 0 675 0 675 0 C675 0 675 13 675 13 L675 13 Z M384 256 C384 256 186 257 186 257 C186 257 276 514 276 514 C276 514 384 256 384 256 L384 256 Z " />
<glyph glyph-name="Adieresis" unicode="&#xc4;" horiz-adv-x="682" d="M418 730 C456 730 488 762 488 800 C488 838 456 871 418 871 C380 871 347 838 347 800 C347 762 380 730 418 730 L418 730 Z M217 730 C255 730 287 762 287 800 C287 838 255 871 217 871 C179 871 147 838 147 800 C147 762 179 730 217 730 L217 730 Z M675 13 C675 13 667 13 667 13 C644 13 609 46 589 87 C589 87 333 675 333 675 C333 675 302 675 302 675 C302 675 85 84 85 84 C66 44 32 13 8 13 C8 13 -2 13 -2 13 C-2 13 -2 0 -2 0 C-2 0 54 0 54 0 C54 0 75 0 75 0 C75 0 95 0 95 0 C95 0 184 0 184 0 C184 0 184 13 184 13 C184 13 172 13 172 13 C133 13 116 58 135 111 C135 111 134 111 134 111 C134 111 175 226 175 226 C175 226 397 226 397 226 C397 226 452 96 452 96 C452 96 451 96 451 96 C470 51 456 13 420 13 C420 13 408 13 408 13 C408 13 408 0 408 0 C408 0 492 0 492 0 C492 0 559 0 559 0 C559 0 627 0 627 0 C627 0 675 0 675 0 C675 0 675 13 675 13 L675 13 Z M384 256 C384 256 186 257 186 257 C186 257 276 514 276 514 C276 514 384 256 384 256 L384 256 Z " />
<glyph glyph-name="Aring" unicode="&#xc5;" horiz-adv-x="682" d="M317 721 C286 721 253 755 253 788 C253 823 283 854 317 854 C352 854 381 823 381 788 C381 755 348 721 317 721 L317 721 Z M221 788 C221 743 271 695 317 695 C364 695 413 743 413 788 C413 837 369 880 317 880 C265 880 221 837 221 788 L221 788 Z M675 13 C675 13 667 13 667 13 C644 13 609 46 589 87 C589 87 333 675 333 675 C333 675 302 675 302 675 C302 675 85 84 85 84 C66 44 32 13 8 13 C8 13 -2 13 -2 13 C-2 13 -2 0 -2 0 C-2 0 54 0 54 0 C54 0 75 0 75 0 C75 0 95 0 95 0 C95 0 184 0 184 0 C184 0 184 13 184 13 C184 13 172 13 172 13 C133 13 116 58 135 111 C135 111 134 111 134 111 C134 111 175 226 175 226 C175 226 397 226 397 226 C397 226 452 96 452 96 C452 96 451 96 451 96 C470 51 456 13 420 13 C420 13 408 13 408 13 C408 13 408 0 408 0 C408 0 492 0 492 0 C492 0 559 0 559 0 C559 0 627 0 627 0 C627 0 675 0 675 0 C675 0 675 13 675 13 L675 13 Z M384 256 C384 256 186 257 186 257 C186 257 276 514 276 514 C276 514 384 256 384 256 L384 256 Z " />
<glyph glyph-name="Ccedilla" unicode="&#xc7;" horiz-adv-x="728" d="M668 480 C668 480 668 609 668 609 C668 609 661 595 661 595 C661 595 661 595 661 595 C661 595 668 609 668 609 C612 639 497 665 416 665 C215 665 43 511 43 330 C43 149 215 -5 416 -5 C505 -5 621 25 669 61 C669 61 660 74 660 74 C660 74 660 74 660 74 C660 74 669 61 669 61 C669 61 669 188 669 188 C669 188 658 188 658 188 C655 180 650 166 647 158 C624 93 529 32 441 27 C441 27 441 27 441 27 C432 26 424 26 416 26 C288 26 179 166 179 330 C179 494 288 634 416 634 C438 634 464 632 489 628 C557 615 627 562 646 509 C649 501 654 487 657 480 C657 480 668 480 668 480 L668 480 Z " />
<glyph glyph-name="Egrave" unicode="&#xc8;" horiz-adv-x="621" d="M456 258 C456 258 456 327 456 327 C456 327 456 342 456 342 C456 342 456 358 456 358 C456 358 456 418 456 418 C456 419 455 419 454 418 C449 419 445 419 445 418 C445 418 443 409 443 409 C434 381 376 358 317 358 C317 358 226 358 226 358 C226 358 226 629 226 629 C226 629 361 629 361 629 C425 629 494 586 511 536 C511 536 517 520 517 520 C517 520 526 520 526 520 C526 520 526 644 526 644 C526 644 526 660 526 660 C526 660 511 660 511 660 C511 660 430 660 430 660 C430 660 226 660 226 660 C226 660 164 660 164 660 C164 660 102 660 102 660 C102 660 41 660 41 660 C41 660 41 647 41 647 C41 647 50 647 50 647 C78 647 102 609 102 564 C102 564 102 96 102 96 C102 51 78 13 50 13 C50 13 41 13 41 13 C41 13 41 0 41 0 C41 0 102 0 102 0 C102 0 164 0 164 0 C164 0 226 0 226 0 C226 0 429 0 429 0 C429 0 521 0 521 0 C521 0 525 0 525 0 C526 4 528 11 528 16 C534 49 544 107 550 140 C550 140 541 140 541 140 C541 140 532 124 532 124 C506 74 430 31 366 31 C366 31 226 31 226 31 C226 31 226 327 226 327 C226 327 317 327 317 327 C376 327 434 300 443 268 C443 268 445 258 445 258 C445 258 456 258 456 258 L456 258 Z M301 859 C290 886 277 909 272 909 C254 909 206 874 206 861 C206 855 223 834 243 814 C243 814 362 690 362 690 C362 690 375 699 375 699 C375 699 301 859 301 859 L301 859 Z " />
<glyph glyph-name="Eacute" unicode="&#xc9;" horiz-adv-x="621" d="M276 690 C276 690 392 814 392 814 C411 834 428 855 428 861 C428 874 380 909 362 909 C359 909 346 886 334 859 C334 859 263 699 263 699 C263 699 276 690 276 690 L276 690 Z M456 258 C456 258 456 327 456 327 C456 327 456 342 456 342 C456 342 456 358 456 358 C456 358 456 418 456 418 C456 419 455 419 454 418 C449 419 445 419 445 418 C445 418 443 409 443 409 C434 381 376 358 317 358 C317 358 226 358 226 358 C226 358 226 629 226 629 C226 629 361 629 361 629 C425 629 494 586 511 536 C511 536 517 520 517 520 C517 520 526 520 526 520 C526 520 526 644 526 644 C526 644 526 660 526 660 C526 660 511 660 511 660 C511 660 430 660 430 660 C430 660 226 660 226 660 C226 660 164 660 164 660 C164 660 102 660 102 660 C102 660 41 660 41 660 C41 660 41 647 41 647 C41 647 50 647 50 647 C78 647 102 609 102 564 C102 564 102 96 102 96 C102 51 78 13 50 13 C50 13 41 13 41 13 C41 13 41 0 41 0 C41 0 102 0 102 0 C102 0 164 0 164 0 C164 0 226 0 226 0 C226 0 429 0 429 0 C429 0 521 0 521 0 C521 0 525 0 525 0 C526 4 528 11 528 16 C534 49 544 107 550 140 C550 140 541 140 541 140 C541 140 532 124 532 124 C506 74 430 31 366 31 C366 31 226 31 226 31 C226 31 226 327 226 327 C226 327 317 327 317 327 C376 327 434 300 443 268 C443 268 445 258 445 258 C445 258 456 258 456 258 L456 258 Z " />
<glyph glyph-name="Ecircumflex" unicode="&#xca;" horiz-adv-x="621" d="M456 258 C456 258 456 327 456 327 C456 327 456 342 456 342 C456 342 456 358 456 358 C456 358 456 418 456 418 C456 419 455 419 454 418 C449 419 445 419 445 418 C445 418 443 409 443 409 C434 381 376 358 317 358 C317 358 226 358 226 358 C226 358 226 629 226 629 C226 629 361 629 361 629 C425 629 494 586 511 536 C511 536 517 520 517 520 C517 520 526 520 526 520 C526 520 526 644 526 644 C526 644 526 660 526 660 C526 660 511 660 511 660 C511 660 430 660 430 660 C430 660 226 660 226 660 C226 660 164 660 164 660 C164 660 102 660 102 660 C102 660 41 660 41 660 C41 660 41 647 41 647 C41 647 50 647 50 647 C78 647 102 609 102 564 C102 564 102 96 102 96 C102 51 78 13 50 13 C50 13 41 13 41 13 C41 13 41 0 41 0 C41 0 102 0 102 0 C102 0 164 0 164 0 C164 0 226 0 226 0 C226 0 429 0 429 0 C429 0 521 0 521 0 C521 0 525 0 525 0 C526 4 528 11 528 16 C534 49 544 107 550 140 C550 140 541 140 541 140 C541 140 532 124 532 124 C506 74 430 31 366 31 C366 31 226 31 226 31 C226 31 226 327 226 327 C226 327 317 327 317 327 C376 327 434 300 443 268 C443 268 445 258 445 258 C445 258 456 258 456 258 L456 258 Z M306 799 C306 799 416 691 416 691 C416 691 428 701 428 701 C428 701 343 872 343 872 C339 881 323 904 306 904 C290 904 274 881 270 872 C270 872 184 701 184 701 C184 701 196 691 196 691 C196 691 306 799 306 799 L306 799 Z " />
<glyph glyph-name="Edieresis" unicode="&#xcb;" horiz-adv-x="621" d="M406 730 C445 730 477 762 477 800 C477 838 445 871 406 871 C368 871 336 838 336 800 C336 762 368 730 406 730 L406 730 Z M206 730 C244 730 276 762 276 800 C276 838 244 871 206 871 C168 871 136 838 136 800 C136 762 168 730 206 730 L206 730 Z M456 258 C456 258 456 327 456 327 C456 327 456 342 456 342 C456 342 456 358 456 358 C456 358 456 418 456 418 C456 419 455 419 454 418 C449 419 445 419 445 418 C445 418 443 409 443 409 C434 381 376 358 317 358 C317 358 226 358 226 358 C226 358 226 629 226 629 C226 629 361 629 361 629 C425 629 494 586 511 536 C511 536 517 520 517 520 C517 520 526 520 526 520 C526 520 526 644 526 644 C526 644 526 660 526 660 C526 660 511 660 511 660 C511 660 430 660 430 660 C430 660 226 660 226 660 C226 660 164 660 164 660 C164 660 102 660 102 660 C102 660 41 660 41 660 C41 660 41 647 41 647 C41 647 50 647 50 647 C78 647 102 609 102 564 C102 564 102 96 102 96 C102 51 78 13 50 13 C50 13 41 13 41 13 C41 13 41 0 41 0 C41 0 102 0 102 0 C102 0 164 0 164 0 C164 0 226 0 226 0 C226 0 429 0 429 0 C429 0 521 0 521 0 C521 0 525 0 525 0 C526 4 528 11 528 16 C534 49 544 107 550 140 C550 140 541 140 541 140 C541 140 532 124 532 124 C506 74 430 31 366 31 C366 31 226 31 226 31 C226 31 226 327 226 327 C226 327 317 327 317 327 C376 327 434 300 443 268 C443 268 445 258 445 258 C445 258 456 258 456 258 L456 258 Z " />
<glyph glyph-name="Igrave" unicode="&#xcc;" horiz-adv-x="327" d="M287 660 C287 660 227 660 227 660 C227 660 165 660 165 660 C165 660 102 660 102 660 C102 660 42 660 42 660 C42 660 42 647 42 647 C42 647 51 647 51 647 C79 647 102 609 102 564 C102 564 102 96 102 96 C102 51 79 13 51 13 C51 13 42 13 42 13 C42 13 42 0 42 0 C42 0 102 0 102 0 C102 0 165 0 165 0 C165 0 227 0 227 0 C227 0 287 0 287 0 C287 0 287 13 287 13 C287 13 278 13 278 13 C251 13 228 48 227 91 C227 91 227 96 227 96 C227 96 227 564 227 564 C227 564 227 569 227 569 C228 612 251 647 278 647 C278 647 287 647 287 647 C287 647 287 660 287 660 L287 660 Z M175 859 C163 886 151 909 146 909 C128 909 80 874 80 861 C80 855 97 834 117 814 C117 814 236 690 236 690 C236 690 249 699 249 699 C249 699 175 859 175 859 L175 859 Z " />
<glyph glyph-name="Iacute" unicode="&#xcd;" horiz-adv-x="327" d="M104 690 C104 690 220 814 220 814 C240 834 256 855 256 861 C256 874 208 909 190 909 C186 909 174 886 162 859 C162 859 91 699 91 699 C91 699 104 690 104 690 L104 690 Z M287 660 C287 660 227 660 227 660 C227 660 165 660 165 660 C165 660 102 660 102 660 C102 660 42 660 42 660 C42 660 42 647 42 647 C42 647 51 647 51 647 C79 647 102 609 102 564 C102 564 102 96 102 96 C102 51 79 13 51 13 C51 13 42 13 42 13 C42 13 42 0 42 0 C42 0 102 0 102 0 C102 0 165 0 165 0 C165 0 227 0 227 0 C227 0 287 0 287 0 C287 0 287 13 287 13 C287 13 278 13 278 13 C251 13 228 48 227 91 C227 91 227 96 227 96 C227 96 227 564 227 564 C227 564 227 569 227 569 C228 612 251 647 278 647 C278 647 287 647 287 647 C287 647 287 660 287 660 L287 660 Z " />
<glyph glyph-name="Icircumflex" unicode="&#xce;" horiz-adv-x="327" d="M287 660 C287 660 227 660 227 660 C227 660 165 660 165 660 C165 660 102 660 102 660 C102 660 42 660 42 660 C42 660 42 647 42 647 C42 647 51 647 51 647 C79 647 102 609 102 564 C102 564 102 96 102 96 C102 51 79 13 51 13 C51 13 42 13 42 13 C42 13 42 0 42 0 C42 0 102 0 102 0 C102 0 165 0 165 0 C165 0 227 0 227 0 C227 0 287 0 287 0 C287 0 287 13 287 13 C287 13 278 13 278 13 C251 13 228 48 227 91 C227 91 227 96 227 96 C227 96 227 564 227 564 C227 564 227 569 227 569 C228 612 251 647 278 647 C278 647 287 647 287 647 C287 647 287 660 287 660 L287 660 Z M165 800 C165 800 275 691 275 691 C275 691 287 701 287 701 C287 701 201 872 201 872 C197 881 181 904 165 904 C148 904 132 881 128 872 C128 872 42 701 42 701 C42 701 54 691 54 691 C54 691 165 800 165 800 L165 800 Z " />
<glyph glyph-name="Idieresis" unicode="&#xcf;" horiz-adv-x="327" d="M265 730 C303 730 335 762 335 800 C335 838 303 871 265 871 C227 871 195 838 195 800 C195 762 227 730 265 730 L265 730 Z M64 730 C102 730 135 762 135 800 C135 838 102 871 64 871 C26 871 -6 838 -6 800 C-6 762 26 730 64 730 L64 730 Z M287 660 C287 660 227 660 227 660 C227 660 165 660 165 660 C165 660 102 660 102 660 C102 660 42 660 42 660 C42 660 42 647 42 647 C42 647 51 647 51 647 C79 647 102 609 102 564 C102 564 102 96 102 96 C102 51 79 13 51 13 C51 13 42 13 42 13 C42 13 42 0 42 0 C42 0 102 0 102 0 C102 0 165 0 165 0 C165 0 227 0 227 0 C227 0 287 0 287 0 C287 0 287 13 287 13 C287 13 278 13 278 13 C251 13 228 48 227 91 C227 91 227 96 227 96 C227 96 227 564 227 564 C227 564 227 569 227 569 C228 612 251 647 278 647 C278 647 287 647 287 647 C287 647 287 660 287 660 L287 660 Z " />
<glyph glyph-name="Ntilde" unicode="&#xd1;" horiz-adv-x="691" d="M206 755 C206 785 224 811 245 811 C298 811 363 748 415 748 C463 748 504 811 504 885 C504 885 485 885 485 885 C485 853 464 825 440 825 C387 825 322 887 270 887 C225 887 187 826 187 755 C187 755 206 755 206 755 L206 755 Z M654 660 C654 660 593 660 593 660 C593 660 574 660 574 660 C574 660 556 660 556 660 C556 660 495 660 495 660 C495 660 495 647 495 647 C495 647 504 647 504 647 C532 647 556 609 556 564 C556 564 556 182 556 182 C556 182 208 660 208 660 C208 660 136 660 136 660 C136 660 117 660 117 660 C117 660 98 660 98 660 C98 660 38 660 38 660 C38 660 38 647 38 647 C38 647 47 647 47 647 C74 647 98 609 98 564 C98 564 98 96 98 96 C98 51 74 13 47 13 C47 13 38 13 38 13 C38 13 38 0 38 0 C38 0 98 0 98 0 C98 0 117 0 117 0 C117 0 136 0 136 0 C136 0 196 0 196 0 C196 0 196 13 196 13 C196 13 187 13 187 13 C159 13 136 51 136 96 C136 96 136 549 136 549 C136 549 499 54 499 54 C499 54 553 -20 553 -20 C553 -20 593 -20 593 -20 C593 -20 593 99 593 99 C593 99 593 564 593 564 C593 609 617 647 644 647 C644 647 654 647 654 647 C654 647 654 660 654 660 L654 660 Z " />
<glyph glyph-name="Ograve" unicode="&#xd2;" horiz-adv-x="759" d="M376 26 C259 26 179 182 179 330 C179 478 259 634 376 634 C492 634 572 478 572 330 C572 182 492 26 376 26 L376 26 Z M43 330 C43 167 178 -5 376 -5 C574 -5 709 167 709 330 C709 493 574 665 376 665 C178 665 43 493 43 330 L43 330 Z M387 859 C375 886 362 909 357 909 C340 909 292 874 292 861 C292 855 309 834 328 814 C328 814 448 690 448 690 C448 690 461 699 461 699 C461 699 387 859 387 859 L387 859 Z " />
<glyph glyph-name="Oacute" unicode="&#xd3;" horiz-adv-x="759" d="M353 690 C353 690 470 814 470 814 C489 834 505 855 505 861 C505 874 457 909 440 909 C435 909 423 886 411 859 C411 859 341 699 341 699 C341 699 353 690 353 690 L353 690 Z M376 26 C259 26 179 182 179 330 C179 478 259 634 376 634 C492 634 572 478 572 330 C572 182 492 26 376 26 L376 26 Z M43 330 C43 167 178 -5 376 -5 C574 -5 709 167 709 330 C709 493 574 665 376 665 C178 665 43 493 43 330 L43 330 Z " />
<glyph glyph-name="Ocircumflex" unicode="&#xd4;" horiz-adv-x="759" d="M376 26 C259 26 179 182 179 330 C179 478 259 634 376 634 C492 634 572 478 572 330 C572 182 492 26 376 26 L376 26 Z M43 330 C43 167 178 -5 376 -5 C574 -5 709 167 709 330 C709 493 574 665 376 665 C178 665 43 493 43 330 L43 330 Z M376 799 C376 799 486 691 486 691 C486 691 498 701 498 701 C498 701 413 872 413 872 C408 881 392 904 376 904 C359 904 344 881 339 872 C339 872 254 701 254 701 C254 701 266 691 266 691 C266 691 376 799 376 799 L376 799 Z " />
<glyph glyph-name="Otilde" unicode="&#xd5;" horiz-adv-x="759" d="M237 755 C237 785 255 811 276 811 C328 811 393 748 445 748 C493 748 534 811 534 885 C534 885 515 885 515 885 C515 853 494 825 470 825 C418 825 353 887 301 887 C256 887 218 826 218 755 C218 755 237 755 237 755 L237 755 Z M376 26 C259 26 179 182 179 330 C179 478 259 634 376 634 C492 634 572 478 572 330 C572 182 492 26 376 26 L376 26 Z M43 330 C43 167 178 -5 376 -5 C574 -5 709 167 709 330 C709 493 574 665 376 665 C178 665 43 493 43 330 L43 330 Z " />
<glyph glyph-name="Odieresis" unicode="&#xd6;" horiz-adv-x="759" d="M476 730 C514 730 547 762 547 800 C547 838 514 871 476 871 C438 871 406 838 406 800 C406 762 438 730 476 730 L476 730 Z M276 730 C314 730 346 762 346 800 C346 838 314 871 276 871 C237 871 205 838 205 800 C205 762 237 730 276 730 L276 730 Z M376 26 C259 26 179 182 179 330 C179 478 259 634 376 634 C492 634 572 478 572 330 C572 182 492 26 376 26 L376 26 Z M43 330 C43 167 178 -5 376 -5 C574 -5 709 167 709 330 C709 493 574 665 376 665 C178 665 43 493 43 330 L43 330 Z " />
<glyph glyph-name="Oslash" unicode="&#xd8;" horiz-adv-x="759" d="M63 -25 C63 -25 162 75 162 75 C218 26 291 -5 376 -5 C574 -5 709 167 709 330 C709 406 680 483 629 545 C629 545 729 645 729 645 C729 645 689 685 689 685 C689 685 590 585 590 585 C534 634 461 665 376 665 C178 665 43 493 43 330 C43 254 72 177 123 115 C123 115 23 15 23 15 C23 15 63 -25 63 -25 L63 -25 Z M376 26 C312 26 260 72 225 138 C225 138 550 465 550 465 C564 423 572 376 572 330 C572 182 492 26 376 26 C376 26 376 26 376 26 L376 26 Z M201 194 C187 237 179 284 179 330 C179 478 259 634 376 634 C439 634 492 588 526 522 C526 522 201 194 201 194 L201 194 Z " />
<glyph glyph-name="Ugrave" unicode="&#xd9;" horiz-adv-x="669" d="M649 660 C649 660 580 660 580 660 C580 660 561 660 561 660 C561 660 542 660 542 660 C542 660 469 660 469 660 C469 660 469 647 469 647 C469 647 480 647 480 647 C512 647 539 608 542 562 C542 562 541 202 541 202 C541 113 476 38 356 38 C261 38 209 110 209 195 C209 195 209 564 209 564 C209 609 232 647 260 647 C260 647 269 647 269 647 C269 647 269 660 269 660 C269 660 209 660 209 660 C209 660 147 660 147 660 C147 660 85 660 85 660 C85 660 24 660 24 660 C24 660 24 647 24 647 C24 647 33 647 33 647 C61 647 85 609 85 564 C85 564 85 219 85 219 C85 98 174 -5 337 -5 C495 -5 580 84 580 189 C580 189 580 554 580 554 C581 604 607 647 639 647 C639 647 649 647 649 647 C649 647 649 660 649 660 L649 660 Z M343 859 C331 886 319 909 314 909 C296 909 248 874 248 861 C248 855 265 834 285 814 C285 814 404 690 404 690 C404 690 417 699 417 699 C417 699 343 859 343 859 L343 859 Z " />
<glyph glyph-name="Uacute" unicode="&#xda;" horiz-adv-x="669" d="M333 690 C333 690 449 814 449 814 C469 834 485 855 485 861 C485 874 437 909 419 909 C415 909 403 886 390 859 C390 859 320 699 320 699 C320 699 333 690 333 690 L333 690 Z M649 660 C649 660 580 660 580 660 C580 660 561 660 561 660 C561 660 542 660 542 660 C542 660 469 660 469 660 C469 660 469 647 469 647 C469 647 480 647 480 647 C512 647 539 608 542 562 C542 562 541 202 541 202 C541 113 476 38 356 38 C261 38 209 110 209 195 C209 195 209 564 209 564 C209 609 232 647 260 647 C260 647 269 647 269 647 C269 647 269 660 269 660 C269 660 209 660 209 660 C209 660 147 660 147 660 C147 660 85 660 85 660 C85 660 24 660 24 660 C24 660 24 647 24 647 C24 647 33 647 33 647 C61 647 85 609 85 564 C85 564 85 219 85 219 C85 98 174 -5 337 -5 C495 -5 580 84 580 189 C580 189 580 554 580 554 C581 604 607 647 639 647 C639 647 649 647 649 647 C649 647 649 660 649 660 L649 660 Z " />
<glyph glyph-name="Ucircumflex" unicode="&#xdb;" horiz-adv-x="669" d="M649 660 C649 660 580 660 580 660 C580 660 561 660 561 660 C561 660 542 660 542 660 C542 660 469 660 469 660 C469 660 469 647 469 647 C469 647 480 647 480 647 C512 647 539 608 542 562 C542 562 541 202 541 202 C541 113 476 38 356 38 C261 38 209 110 209 195 C209 195 209 564 209 564 C209 609 232 647 260 647 C260 647 269 647 269 647 C269 647 269 660 269 660 C269 660 209 660 209 660 C209 660 147 660 147 660 C147 660 85 660 85 660 C85 660 24 660 24 660 C24 660 24 647 24 647 C24 647 33 647 33 647 C61 647 85 609 85 564 C85 564 85 219 85 219 C85 98 174 -5 337 -5 C495 -5 580 84 580 189 C580 189 580 554 580 554 C581 604 607 647 639 647 C639 647 649 647 649 647 C649 647 649 660 649 660 L649 660 Z M333 800 C333 800 443 691 443 691 C443 691 455 701 455 701 C455 701 369 872 369 872 C365 881 349 904 332 904 C316 904 300 881 296 872 C296 872 210 701 210 701 C210 701 222 691 222 691 C222 691 333 800 333 800 L333 800 Z " />
<glyph glyph-name="Udieresis" unicode="&#xdc;" horiz-adv-x="669" d="M433 730 C471 730 503 762 503 800 C503 838 471 871 433 871 C395 871 362 838 362 800 C362 762 395 730 433 730 L433 730 Z M232 730 C270 730 302 762 302 800 C302 838 270 871 232 871 C194 871 162 838 162 800 C162 762 194 730 232 730 L232 730 Z M649 660 C649 660 580 660 580 660 C580 660 561 660 561 660 C561 660 542 660 542 660 C542 660 469 660 469 660 C469 660 469 647 469 647 C469 647 480 647 480 647 C512 647 539 608 542 562 C542 562 541 202 541 202 C541 113 476 38 356 38 C261 38 209 110 209 195 C209 195 209 564 209 564 C209 609 232 647 260 647 C260 647 269 647 269 647 C269 647 269 660 269 660 C269 660 209 660 209 660 C209 660 147 660 147 660 C147 660 85 660 85 660 C85 660 24 660 24 660 C24 660 24 647 24 647 C24 647 33 647 33 647 C61 647 85 609 85 564 C85 564 85 219 85 219 C85 98 174 -5 337 -5 C495 -5 580 84 580 189 C580 189 580 554 580 554 C581 604 607 647 639 647 C639 647 649 647 649 647 C649 647 649 660 649 660 L649 660 Z " />
<glyph glyph-name="Yacute" unicode="&#xdd;" horiz-adv-x="650" d="M322 690 C322 690 439 814 439 814 C458 834 474 855 474 861 C474 874 426 909 408 909 C404 909 392 886 380 859 C380 859 309 699 309 699 C309 699 322 690 322 690 L322 690 Z M445 13 C445 13 436 13 436 13 C408 13 384 51 384 96 C384 96 384 327 384 327 C384 327 547 573 547 573 C577 614 619 647 641 647 C641 647 649 647 649 647 C649 647 649 660 649 660 C649 660 605 660 605 660 C605 660 586 660 586 660 C586 660 566 660 566 660 C566 660 477 660 477 660 C478 660 478 657 477 654 C478 650 478 647 477 647 C477 647 490 647 490 647 C525 647 527 602 493 548 C493 548 369 356 369 356 C369 356 240 573 240 573 C218 614 223 647 251 647 C251 647 261 647 261 647 C261 647 261 660 261 660 C261 660 188 660 188 660 C188 660 114 660 114 660 C114 660 39 660 39 660 C39 660 2 660 2 660 C2 660 2 647 2 647 C2 647 9 647 9 647 C28 647 67 611 93 568 C93 568 260 287 260 287 C260 287 260 96 260 96 C260 51 236 13 208 13 C208 13 199 13 199 13 C199 13 199 0 199 0 C199 0 260 0 260 0 C260 0 322 0 322 0 C322 0 384 0 384 0 C384 0 445 0 445 0 C445 0 445 13 445 13 L445 13 Z " />
<glyph glyph-name="agrave" unicode="&#xe0;" horiz-adv-x="589" d="M540 55 C494 65 479 83 479 152 C479 152 479 500 479 500 C479 500 447 500 447 500 C447 500 387 427 387 427 C363 467 312 505 269 505 C153 505 54 374 54 219 C54 98 132 -5 224 -5 C269 -5 328 41 364 102 C364 102 364 0 364 0 C364 0 364 -5 364 -5 C364 -5 383 -5 383 -5 C383 -5 449 19 449 19 C449 19 540 47 540 47 C540 47 540 55 540 55 L540 55 Z M235 699 C223 726 210 749 206 749 C188 749 140 714 140 701 C140 695 157 674 176 654 C176 654 296 530 296 530 C296 530 309 539 309 539 C309 539 235 699 235 699 L235 699 Z M364 129 C344 93 312 65 287 65 C226 65 174 156 174 263 C174 377 215 474 264 474 C302 474 350 436 364 400 C364 400 364 129 364 129 L364 129 Z " />
<glyph glyph-name="aacute" unicode="&#xe1;" horiz-adv-x="511" d="M197 530 C197 530 313 654 313 654 C332 674 349 695 349 701 C349 714 301 749 283 749 C279 749 266 726 255 699 C255 699 184 539 184 539 C184 539 197 530 197 530 L197 530 Z M490 64 C483 54 467 45 445 45 C417 45 405 76 405 112 C405 112 405 352 405 352 C405 435 339 505 263 505 C162 505 64 453 49 391 C49 391 164 391 164 391 C175 435 208 473 237 473 C262 473 284 429 284 378 C284 378 284 258 284 258 C284 258 217 252 217 252 C119 242 36 175 36 105 C36 46 90 -5 154 -5 C202 -5 254 14 293 41 C305 11 329 -10 366 -10 C435 -10 482 17 503 48 C503 48 490 64 490 64 L490 64 Z M283 228 C283 228 283 100 283 100 C283 94 283 87 284 81 C262 76 237 72 212 72 C179 72 150 102 150 138 C150 174 181 210 217 216 C217 216 283 228 283 228 L283 228 Z " />
<glyph glyph-name="acircumflex" unicode="&#xe2;" horiz-adv-x="589" d="M540 55 C494 65 479 83 479 152 C479 152 479 500 479 500 C479 500 447 500 447 500 C447 500 387 427 387 427 C363 467 312 505 269 505 C153 505 54 374 54 219 C54 98 132 -5 224 -5 C269 -5 328 41 364 102 C364 102 364 0 364 0 C364 0 364 -5 364 -5 C364 -5 383 -5 383 -5 C383 -5 449 19 449 19 C449 19 540 47 540 47 C540 47 540 55 540 55 L540 55 Z M224 639 C224 639 334 531 334 531 C334 531 346 541 346 541 C346 541 261 712 261 712 C257 721 241 744 224 744 C208 744 192 721 188 712 C188 712 102 541 102 541 C102 541 114 531 114 531 C114 531 224 639 224 639 L224 639 Z M364 129 C344 93 312 65 287 65 C226 65 174 156 174 263 C174 377 215 474 264 474 C302 474 350 436 364 400 C364 400 364 129 364 129 L364 129 Z " />
<glyph glyph-name="atilde" unicode="&#xe3;" horiz-adv-x="589" d="M85 595 C85 625 103 651 124 651 C176 651 241 588 293 588 C341 588 382 651 382 725 C382 725 363 725 363 725 C363 693 342 665 318 665 C266 665 201 727 149 727 C104 727 66 666 66 595 C66 595 85 595 85 595 L85 595 Z M540 55 C494 65 479 83 479 152 C479 152 479 500 479 500 C479 500 447 500 447 500 C447 500 387 427 387 427 C363 467 312 505 269 505 C153 505 54 374 54 219 C54 98 132 -5 224 -5 C269 -5 328 41 364 102 C364 102 364 0 364 0 C364 0 364 -5 364 -5 C364 -5 383 -5 383 -5 C383 -5 449 19 449 19 C449 19 540 47 540 47 C540 47 540 55 540 55 L540 55 Z M364 129 C344 93 312 65 287 65 C226 65 174 156 174 263 C174 377 215 474 264 474 C302 474 350 436 364 400 C364 400 364 129 364 129 L364 129 Z " />
<glyph glyph-name="adieresis" unicode="&#xe4;" horiz-adv-x="589" d="M324 570 C363 570 395 602 395 640 C395 678 363 711 324 711 C286 711 254 678 254 640 C254 602 286 570 324 570 L324 570 Z M124 570 C162 570 194 602 194 640 C194 678 162 711 124 711 C86 711 54 678 54 640 C54 602 86 570 124 570 L124 570 Z M540 55 C494 65 479 83 479 152 C479 152 479 500 479 500 C479 500 447 500 447 500 C447 500 387 427 387 427 C363 467 312 505 269 505 C153 505 54 374 54 219 C54 98 132 -5 224 -5 C269 -5 328 41 364 102 C364 102 364 0 364 0 C364 0 364 -5 364 -5 C364 -5 383 -5 383 -5 C383 -5 449 19 449 19 C449 19 540 47 540 47 C540 47 540 55 540 55 L540 55 Z M364 129 C344 93 312 65 287 65 C226 65 174 156 174 263 C174 377 215 474 264 474 C302 474 350 436 364 400 C364 400 364 129 364 129 L364 129 Z " />
<glyph glyph-name="aring" unicode="&#xe5;" horiz-adv-x="589" d="M224 561 C193 561 160 595 160 628 C160 663 189 694 224 694 C259 694 288 663 288 628 C288 595 255 561 224 561 L224 561 Z M128 628 C128 583 177 535 224 535 C271 535 320 583 320 628 C320 677 276 720 224 720 C172 720 128 677 128 628 L128 628 Z M540 55 C494 65 479 83 479 152 C479 152 479 500 479 500 C479 500 447 500 447 500 C447 500 387 427 387 427 C363 467 312 505 269 505 C153 505 54 374 54 219 C54 98 132 -5 224 -5 C269 -5 328 41 364 102 C364 102 364 0 364 0 C364 0 364 -5 364 -5 C364 -5 383 -5 383 -5 C383 -5 449 19 449 19 C449 19 540 47 540 47 C540 47 540 55 540 55 L540 55 Z M364 129 C344 93 312 65 287 65 C226 65 174 156 174 263 C174 377 215 474 264 474 C302 474 350 436 364 400 C364 400 364 129 364 129 L364 129 Z " />
<glyph glyph-name="ccedilla" unicode="&#xe7;" horiz-adv-x="521" d="M472 98 C472 98 460 110 460 110 C435 86 388 65 357 65 C257 65 172 161 172 273 C172 381 228 473 293 473 C327 473 360 441 363 404 C366 374 392 348 421 348 C448 348 472 371 472 399 C466 456 390 505 306 505 C168 505 50 378 50 229 C50 103 147 -5 261 -5 C318 -5 415 43 472 98 L472 98 Z " />
<glyph glyph-name="egrave" unicode="&#xe8;" horiz-adv-x="527" d="M478 98 C478 98 466 110 466 110 C441 86 392 65 360 65 C259 65 172 161 172 273 C172 280 172 286 173 293 C173 293 478 293 478 293 C478 407 389 505 285 505 C158 505 50 378 50 229 C50 103 148 -5 264 -5 C323 -5 421 43 478 98 L478 98 Z M296 699 C284 726 271 749 266 749 C249 749 201 714 201 701 C201 695 218 674 237 654 C237 654 357 530 357 530 C357 530 370 539 370 539 C370 539 296 699 296 699 L296 699 Z M174 314 C185 403 229 473 279 473 C329 473 371 434 371 389 C371 388 371 388 371 387 C370 360 347 335 320 330 C320 330 174 314 174 314 L174 314 Z M316 329 C316 329 315 329 315 329 C315 329 316 329 316 329 L316 329 Z " />
<glyph glyph-name="eacute" unicode="&#xe9;" horiz-adv-x="527" d="M255 530 C255 530 371 654 371 654 C390 674 407 695 407 701 C407 714 359 749 341 749 C337 749 324 726 313 699 C313 699 242 539 242 539 C242 539 255 530 255 530 L255 530 Z M478 98 C478 98 466 110 466 110 C441 86 392 65 360 65 C259 65 172 161 172 273 C172 280 172 286 173 293 C173 293 478 293 478 293 C478 407 389 505 285 505 C158 505 50 378 50 229 C50 103 148 -5 264 -5 C323 -5 421 43 478 98 L478 98 Z M174 314 C185 403 229 473 279 473 C329 473 371 434 371 389 C371 388 371 388 371 387 C370 360 347 335 320 330 C320 330 174 314 174 314 L174 314 Z M316 329 C316 329 315 329 315 329 C315 329 316 329 316 329 L316 329 Z " />
<glyph glyph-name="ecircumflex" unicode="&#xea;" horiz-adv-x="527" d="M478 98 C478 98 466 110 466 110 C441 86 392 65 360 65 C259 65 172 161 172 273 C172 280 172 286 173 293 C173 293 478 293 478 293 C478 407 389 505 285 505 C158 505 50 378 50 229 C50 103 148 -5 264 -5 C323 -5 421 43 478 98 L478 98 Z M285 639 C285 639 395 531 395 531 C395 531 407 541 407 541 C407 541 322 712 322 712 C317 721 301 744 285 744 C269 744 253 721 249 712 C249 712 163 541 163 541 C163 541 175 531 175 531 C175 531 285 639 285 639 L285 639 Z M174 314 C185 403 229 473 279 473 C329 473 371 434 371 389 C371 388 371 388 371 387 C370 360 347 335 320 330 C320 330 174 314 174 314 L174 314 Z M316 329 C316 329 315 329 315 329 C315 329 316 329 316 329 L316 329 Z " />
<glyph glyph-name="edieresis" unicode="&#xeb;" horiz-adv-x="527" d="M385 570 C423 570 456 602 456 640 C456 678 423 711 385 711 C347 711 315 678 315 640 C315 602 347 570 385 570 L385 570 Z M185 570 C223 570 255 602 255 640 C255 678 223 711 185 711 C147 711 114 678 114 640 C114 602 147 570 185 570 L185 570 Z M478 98 C478 98 466 110 466 110 C441 86 392 65 360 65 C259 65 172 161 172 273 C172 280 172 286 173 293 C173 293 478 293 478 293 C478 407 389 505 285 505 C158 505 50 378 50 229 C50 103 148 -5 264 -5 C323 -5 421 43 478 98 L478 98 Z M174 314 C185 403 229 473 279 473 C329 473 371 434 371 389 C371 388 371 388 371 387 C370 360 347 335 320 330 C320 330 174 314 174 314 L174 314 Z M316 329 C316 329 315 329 315 329 C315 329 316 329 316 329 L316 329 Z " />
<glyph glyph-name="igrave" unicode="&#xec;" horiz-adv-x="326" d="M221 0 C221 0 281 0 281 0 C281 0 281 13 281 13 C281 13 269 13 269 13 C243 13 221 10 221 0 C221 0 221 404 221 404 C221 404 221 505 221 505 C221 505 214 505 214 505 C214 505 55 456 55 456 C55 456 55 447 55 447 C55 447 91 433 91 433 C99 430 106 414 106 371 C106 371 106 0 106 0 C106 0 45 0 45 0 C45 0 45 13 45 13 C45 13 57 13 57 13 C84 13 106 10 106 0 C106 0 221 0 221 0 L221 0 Z M174 699 C162 726 149 749 145 749 C127 749 79 714 79 701 C79 695 96 674 115 654 C115 654 235 530 235 530 C235 530 248 539 248 539 C248 539 174 699 174 699 L174 699 Z " />
<glyph glyph-name="iacute" unicode="&#xed;" horiz-adv-x="326" d="M87 530 C87 530 204 654 204 654 C223 674 239 695 239 701 C239 714 191 749 174 749 C170 749 158 726 145 699 C145 699 75 539 75 539 C75 539 87 530 87 530 L87 530 Z M221 0 C221 0 281 0 281 0 C281 0 281 13 281 13 C281 13 269 13 269 13 C243 13 221 10 221 0 C221 0 221 404 221 404 C221 404 221 505 221 505 C221 505 214 505 214 505 C214 505 55 456 55 456 C55 456 55 447 55 447 C55 447 91 433 91 433 C99 430 106 414 106 371 C106 371 106 0 106 0 C106 0 45 0 45 0 C45 0 45 13 45 13 C45 13 57 13 57 13 C84 13 106 10 106 0 C106 0 221 0 221 0 L221 0 Z " />
<glyph glyph-name="icircumflex" unicode="&#xee;" horiz-adv-x="326" d="M221 0 C221 0 281 0 281 0 C281 0 281 13 281 13 C281 13 269 13 269 13 C243 13 221 10 221 0 C221 0 221 404 221 404 C221 404 221 505 221 505 C221 505 214 505 214 505 C214 505 55 456 55 456 C55 456 55 447 55 447 C55 447 91 433 91 433 C99 430 106 414 106 371 C106 371 106 0 106 0 C106 0 45 0 45 0 C45 0 45 13 45 13 C45 13 57 13 57 13 C84 13 106 10 106 0 C106 0 221 0 221 0 L221 0 Z M126 676 C126 676 163 639 163 639 C163 639 200 675 200 675 C200 675 126 676 126 676 L126 676 Z M163 639 C163 639 273 531 273 531 C273 531 285 541 285 541 C285 541 200 712 200 712 C196 721 180 744 163 744 C147 744 131 721 127 712 C127 712 41 541 41 541 C41 541 53 531 53 531 C53 531 163 639 163 639 L163 639 Z " />
<glyph glyph-name="idieresis" unicode="&#xef;" horiz-adv-x="326" d="M263 570 C302 570 334 602 334 640 C334 678 302 711 263 711 C225 711 193 678 193 640 C193 602 225 570 263 570 L263 570 Z M63 570 C101 570 133 602 133 640 C133 678 101 711 63 711 C25 711 -7 678 -7 640 C-7 602 25 570 63 570 L63 570 Z M221 0 C221 0 281 0 281 0 C281 0 281 13 281 13 C281 13 269 13 269 13 C243 13 221 10 221 0 C221 0 221 404 221 404 C221 404 221 505 221 505 C221 505 214 505 214 505 C214 505 55 456 55 456 C55 456 55 447 55 447 C55 447 91 433 91 433 C99 430 106 414 106 371 C106 371 106 0 106 0 C106 0 45 0 45 0 C45 0 45 13 45 13 C45 13 57 13 57 13 C84 13 106 10 106 0 C106 0 221 0 221 0 L221 0 Z " />
<glyph glyph-name="ntilde" unicode="&#xf1;" horiz-adv-x="607" d="M167 595 C167 625 185 651 206 651 C258 651 323 588 375 588 C423 588 464 651 464 725 C464 725 445 725 445 725 C445 693 424 665 400 665 C348 665 283 727 231 727 C185 727 147 666 147 595 C147 595 167 595 167 595 L167 595 Z M567 13 C567 13 558 13 558 13 C530 13 507 51 507 96 C507 96 507 338 507 338 C507 428 468 505 396 505 C339 505 264 473 220 433 C220 433 220 500 220 500 C220 500 197 500 197 500 C197 500 44 453 44 453 C44 453 44 445 44 445 C90 435 105 417 105 348 C105 348 105 96 105 96 C105 51 81 13 53 13 C53 13 44 13 44 13 C44 13 44 0 44 0 C44 0 105 0 105 0 C105 0 162 0 162 0 C162 0 220 0 220 0 C220 0 281 0 281 0 C281 0 281 13 281 13 C281 13 272 13 272 13 C244 13 220 51 220 96 C220 96 220 374 220 374 C220 374 201 374 201 374 C201 374 220 379 220 379 C220 379 220 415 220 415 C239 422 274 428 307 428 C362 428 392 381 392 326 C392 326 392 96 392 96 C392 51 368 13 340 13 C340 13 331 13 331 13 C331 13 331 0 331 0 C331 0 392 0 392 0 C392 0 449 0 449 0 C449 0 507 0 507 0 C507 0 567 0 567 0 C567 0 567 13 567 13 L567 13 Z " />
<glyph glyph-name="ograve" unicode="&#xf2;" horiz-adv-x="606" d="M303 21 C236 21 178 126 178 250 C178 374 236 479 303 479 C371 479 429 374 429 250 C429 126 371 21 303 21 L303 21 Z M50 250 C50 112 167 -5 303 -5 C440 -5 557 112 557 250 C557 388 440 505 303 505 C167 505 50 388 50 250 L50 250 Z M314 699 C302 726 290 749 285 749 C267 749 219 714 219 701 C219 695 236 674 256 654 C256 654 375 530 375 530 C375 530 388 539 388 539 C388 539 314 699 314 699 L314 699 Z " />
<glyph glyph-name="oacute" unicode="&#xf3;" horiz-adv-x="606" d="M273 530 C273 530 390 654 390 654 C409 674 425 695 425 701 C425 714 377 749 360 749 C356 749 343 726 331 699 C331 699 260 539 260 539 C260 539 273 530 273 530 L273 530 Z M303 21 C236 21 178 126 178 250 C178 374 236 479 303 479 C371 479 429 374 429 250 C429 126 371 21 303 21 L303 21 Z M50 250 C50 112 167 -5 303 -5 C440 -5 557 112 557 250 C557 388 440 505 303 505 C167 505 50 388 50 250 L50 250 Z " />
<glyph glyph-name="ocircumflex" unicode="&#xf4;" horiz-adv-x="606" d="M303 21 C236 21 178 126 178 250 C178 374 236 479 303 479 C371 479 429 374 429 250 C429 126 371 21 303 21 L303 21 Z M50 250 C50 112 167 -5 303 -5 C440 -5 557 112 557 250 C557 388 440 505 303 505 C167 505 50 388 50 250 L50 250 Z M304 640 C304 640 414 531 414 531 C414 531 426 541 426 541 C426 541 340 712 340 712 C336 721 320 744 303 744 C287 744 271 721 267 712 C267 712 181 541 181 541 C181 541 193 531 193 531 C193 531 304 640 304 640 L304 640 Z " />
<glyph glyph-name="otilde" unicode="&#xf5;" horiz-adv-x="606" d="M164 595 C164 625 182 651 203 651 C255 651 320 588 373 588 C421 588 462 651 462 725 C462 725 443 725 443 725 C443 693 422 665 397 665 C345 665 280 727 228 727 C183 727 145 666 145 595 C145 595 164 595 164 595 L164 595 Z M303 21 C236 21 178 126 178 250 C178 374 236 479 303 479 C371 479 429 374 429 250 C429 126 371 21 303 21 L303 21 Z M50 250 C50 112 167 -5 303 -5 C440 -5 557 112 557 250 C557 388 440 505 303 505 C167 505 50 388 50 250 L50 250 Z " />
<glyph glyph-name="odieresis" unicode="&#xf6;" horiz-adv-x="606" d="M404 570 C442 570 474 602 474 640 C474 678 442 711 404 711 C366 711 333 678 333 640 C333 602 366 570 404 570 L404 570 Z M203 570 C241 570 273 602 273 640 C273 678 241 711 203 711 C165 711 133 678 133 640 C133 602 165 570 203 570 L203 570 Z M303 21 C236 21 178 126 178 250 C178 374 236 479 303 479 C371 479 429 374 429 250 C429 126 371 21 303 21 L303 21 Z M50 250 C50 112 167 -5 303 -5 C440 -5 557 112 557 250 C557 388 440 505 303 505 C167 505 50 388 50 250 L50 250 Z " />
<glyph glyph-name="oslash" unicode="&#xf8;" horiz-adv-x="606" d="M64 -19 C64 -19 140 57 140 57 C184 19 242 -5 303 -5 C440 -5 557 112 557 250 C557 312 533 370 495 415 C495 415 571 491 571 491 C571 491 543 519 543 519 C543 519 467 443 467 443 C422 481 365 505 303 505 C167 505 50 388 50 250 C50 188 74 130 112 85 C112 85 36 9 36 9 C36 9 64 -19 64 -19 L64 -19 Z M303 21 C262 21 224 60 201 119 C201 119 419 338 419 338 C425 311 429 281 429 250 C429 126 371 21 303 21 C303 21 303 21 303 21 L303 21 Z M188 162 C182 189 178 219 178 250 C178 374 236 479 303 479 C345 479 382 440 406 381 C406 381 188 162 188 162 L188 162 Z " />
<glyph glyph-name="ugrave" unicode="&#xf9;" horiz-adv-x="572" d="M537 55 C491 65 477 83 477 152 C477 152 477 500 477 500 C477 500 419 500 419 500 C419 500 362 500 362 500 C362 500 301 500 301 500 C301 500 301 487 301 487 C301 487 310 487 310 487 C338 487 362 449 362 404 C362 404 362 121 362 121 C362 121 362 92 362 92 C349 80 325 71 296 71 C233 71 190 115 190 166 C190 166 190 500 190 500 C190 500 132 500 132 500 C132 500 75 500 75 500 C75 500 14 500 14 500 C14 500 14 487 14 487 C14 487 23 487 23 487 C51 487 75 449 75 404 C75 404 75 154 75 154 C75 68 128 -5 206 -5 C261 -5 321 29 362 72 C362 72 362 30 362 30 C362 30 362 0 362 0 C362 0 385 0 385 0 C385 0 537 47 537 47 C537 47 537 55 537 55 L537 55 Z M287 699 C275 726 262 749 257 749 C240 749 192 714 192 701 C192 695 209 674 228 654 C228 654 348 530 348 530 C348 530 360 539 360 539 C360 539 287 699 287 699 L287 699 Z " />
<glyph glyph-name="uacute" unicode="&#xfa;" horiz-adv-x="572" d="M246 530 C246 530 362 654 362 654 C381 674 398 695 398 701 C398 714 350 749 332 749 C328 749 315 726 303 699 C303 699 233 539 233 539 C233 539 246 530 246 530 L246 530 Z M537 55 C491 65 477 83 477 152 C477 152 477 500 477 500 C477 500 419 500 419 500 C419 500 362 500 362 500 C362 500 301 500 301 500 C301 500 301 487 301 487 C301 487 310 487 310 487 C338 487 362 449 362 404 C362 404 362 121 362 121 C362 121 362 92 362 92 C349 80 325 71 296 71 C233 71 190 115 190 166 C190 166 190 500 190 500 C190 500 132 500 132 500 C132 500 75 500 75 500 C75 500 14 500 14 500 C14 500 14 487 14 487 C14 487 23 487 23 487 C51 487 75 449 75 404 C75 404 75 154 75 154 C75 68 128 -5 206 -5 C261 -5 321 29 362 72 C362 72 362 30 362 30 C362 30 362 0 362 0 C362 0 385 0 385 0 C385 0 537 47 537 47 C537 47 537 55 537 55 L537 55 Z " />
<glyph glyph-name="ucircumflex" unicode="&#xfb;" horiz-adv-x="572" d="M537 55 C491 65 477 83 477 152 C477 152 477 500 477 500 C477 500 419 500 419 500 C419 500 362 500 362 500 C362 500 301 500 301 500 C301 500 301 487 301 487 C301 487 310 487 310 487 C338 487 362 449 362 404 C362 404 362 121 362 121 C362 121 362 92 362 92 C349 80 325 71 296 71 C233 71 190 115 190 166 C190 166 190 500 190 500 C190 500 132 500 132 500 C132 500 75 500 75 500 C75 500 14 500 14 500 C14 500 14 487 14 487 C14 487 23 487 23 487 C51 487 75 449 75 404 C75 404 75 154 75 154 C75 68 128 -5 206 -5 C261 -5 321 29 362 72 C362 72 362 30 362 30 C362 30 362 0 362 0 C362 0 385 0 385 0 C385 0 537 47 537 47 C537 47 537 55 537 55 L537 55 Z M276 639 C276 639 386 531 386 531 C386 531 398 541 398 541 C398 541 313 712 313 712 C308 721 292 744 276 744 C259 744 244 721 239 712 C239 712 154 541 154 541 C154 541 166 531 166 531 C166 531 276 639 276 639 L276 639 Z " />
<glyph glyph-name="udieresis" unicode="&#xfc;" horiz-adv-x="572" d="M376 570 C414 570 446 602 446 640 C446 678 414 711 376 711 C338 711 306 678 306 640 C306 602 338 570 376 570 L376 570 Z M176 570 C214 570 246 602 246 640 C246 678 214 711 176 711 C137 711 105 678 105 640 C105 602 137 570 176 570 L176 570 Z M537 55 C491 65 477 83 477 152 C477 152 477 500 477 500 C477 500 419 500 419 500 C419 500 362 500 362 500 C362 500 301 500 301 500 C301 500 301 487 301 487 C301 487 310 487 310 487 C338 487 362 449 362 404 C362 404 362 121 362 121 C362 121 362 92 362 92 C349 80 325 71 296 71 C233 71 190 115 190 166 C190 166 190 500 190 500 C190 500 132 500 132 500 C132 500 75 500 75 500 C75 500 14 500 14 500 C14 500 14 487 14 487 C14 487 23 487 23 487 C51 487 75 449 75 404 C75 404 75 154 75 154 C75 68 128 -5 206 -5 C261 -5 321 29 362 72 C362 72 362 30 362 30 C362 30 362 0 362 0 C362 0 385 0 385 0 C385 0 537 47 537 47 C537 47 537 55 537 55 L537 55 Z " />
<glyph glyph-name="ydieresis" unicode="&#xff;" horiz-adv-x="507" d="M374 570 C412 570 444 602 444 640 C444 678 412 711 374 711 C336 711 304 678 304 640 C304 602 336 570 374 570 L374 570 Z M174 570 C212 570 244 602 244 640 C244 678 212 711 174 711 C135 711 103 678 103 640 C103 602 135 570 174 570 L174 570 Z M564 500 C564 500 509 500 509 500 C509 500 490 500 490 500 C490 500 471 500 471 500 C471 500 410 500 410 500 C410 500 410 487 410 487 C410 487 418 487 418 487 C444 487 450 450 433 405 C433 405 327 137 327 137 C327 137 212 404 212 404 C212 404 212 404 212 404 C192 449 197 487 223 487 C223 487 231 487 231 487 C231 487 231 500 231 500 C231 500 170 500 170 500 C170 500 105 500 105 500 C105 500 39 500 39 500 C39 500 -16 500 -16 500 C-16 500 -16 487 -16 487 C-16 487 -7 487 -7 487 C21 487 62 449 82 404 C82 404 82 404 82 404 C82 404 262 6 262 6 C262 6 231 -62 231 -62 C205 -121 174 -154 143 -154 C117 -154 80 -129 55 -129 C23 -129 -3 -151 -3 -178 C-3 -206 31 -230 72 -230 C150 -230 217 -174 261 -72 C261 -72 288 -10 288 -10 C288 -10 471 413 471 413 C492 454 529 487 555 487 C555 487 564 487 564 487 C564 487 564 500 564 500 L564 500 Z " />
<glyph glyph-name="Amacron" unicode="&#x100;" horiz-adv-x="682" d="M167 761 C167 761 467 761 467 761 C467 761 467 825 467 825 C467 825 167 825 167 825 C167 825 167 761 167 761 L167 761 Z M675 13 C675 13 667 13 667 13 C644 13 609 46 589 87 C589 87 333 675 333 675 C333 675 302 675 302 675 C302 675 85 84 85 84 C66 44 32 13 8 13 C8 13 -2 13 -2 13 C-2 13 -2 0 -2 0 C-2 0 54 0 54 0 C54 0 75 0 75 0 C75 0 95 0 95 0 C95 0 184 0 184 0 C184 0 184 13 184 13 C184 13 172 13 172 13 C133 13 116 58 135 111 C135 111 134 111 134 111 C134 111 175 226 175 226 C175 226 397 226 397 226 C397 226 452 96 452 96 C452 96 451 96 451 96 C470 51 456 13 420 13 C420 13 408 13 408 13 C408 13 408 0 408 0 C408 0 492 0 492 0 C492 0 559 0 559 0 C559 0 627 0 627 0 C627 0 675 0 675 0 C675 0 675 13 675 13 L675 13 Z M384 256 C384 256 186 257 186 257 C186 257 276 514 276 514 C276 514 384 256 384 256 L384 256 Z " />
<glyph glyph-name="amacron" unicode="&#x101;" horiz-adv-x="589" d="M74 601 C74 601 374 601 374 601 C374 601 374 665 374 665 C374 665 74 665 74 665 C74 665 74 601 74 601 L74 601 Z M540 55 C494 65 479 83 479 152 C479 152 479 500 479 500 C479 500 447 500 447 500 C447 500 387 427 387 427 C363 467 312 505 269 505 C153 505 54 374 54 219 C54 98 132 -5 224 -5 C269 -5 328 41 364 102 C364 102 364 0 364 0 C364 0 364 -5 364 -5 C364 -5 383 -5 383 -5 C383 -5 449 19 449 19 C449 19 540 47 540 47 C540 47 540 55 540 55 L540 55 Z M364 129 C344 93 312 65 287 65 C226 65 174 156 174 263 C174 377 215 474 264 474 C302 474 350 436 364 400 C364 400 364 129 364 129 L364 129 Z " />
<glyph glyph-name="Abreve" unicode="&#x102;" horiz-adv-x="682" d="M185 870 C216 798 277 736 317 736 C358 736 419 798 450 870 C450 870 431 878 431 878 C416 842 364 812 317 812 C271 812 219 842 204 878 C204 878 185 870 185 870 L185 870 Z M675 13 C675 13 667 13 667 13 C644 13 609 46 589 87 C589 87 333 675 333 675 C333 675 302 675 302 675 C302 675 85 84 85 84 C66 44 32 13 8 13 C8 13 -2 13 -2 13 C-2 13 -2 0 -2 0 C-2 0 54 0 54 0 C54 0 75 0 75 0 C75 0 95 0 95 0 C95 0 184 0 184 0 C184 0 184 13 184 13 C184 13 172 13 172 13 C133 13 116 58 135 111 C135 111 134 111 134 111 C134 111 175 226 175 226 C175 226 397 226 397 226 C397 226 452 96 452 96 C452 96 451 96 451 96 C470 51 456 13 420 13 C420 13 408 13 408 13 C408 13 408 0 408 0 C408 0 492 0 492 0 C492 0 559 0 559 0 C559 0 627 0 627 0 C627 0 675 0 675 0 C675 0 675 13 675 13 L675 13 Z M384 256 C384 256 186 257 186 257 C186 257 276 514 276 514 C276 514 384 256 384 256 L384 256 Z " />
<glyph glyph-name="abreve" unicode="&#x103;" horiz-adv-x="589" d="M92 680 C123 608 184 546 224 546 C265 546 325 608 356 680 C356 680 338 688 338 688 C323 652 271 622 224 622 C178 622 126 652 111 688 C111 688 92 680 92 680 L92 680 Z M540 55 C494 65 479 83 479 152 C479 152 479 500 479 500 C479 500 447 500 447 500 C447 500 387 427 387 427 C363 467 312 505 269 505 C153 505 54 374 54 219 C54 98 132 -5 224 -5 C269 -5 328 41 364 102 C364 102 364 0 364 0 C364 0 364 -5 364 -5 C364 -5 383 -5 383 -5 C383 -5 449 19 449 19 C449 19 540 47 540 47 C540 47 540 55 540 55 L540 55 Z M364 129 C344 93 312 65 287 65 C226 65 174 156 174 263 C174 377 215 474 264 474 C302 474 350 436 364 400 C364 400 364 129 364 129 L364 129 Z " />
<glyph glyph-name="Aogonek" unicode="&#x104;" horiz-adv-x="682" d="M675 13 C675 13 667 13 667 13 C644 13 609 46 589 87 C589 87 333 675 333 675 C333 675 302 675 302 675 C302 675 85 84 85 84 C66 44 32 13 8 13 C8 13 -2 13 -2 13 C-2 13 -2 0 -2 0 C-2 0 54 0 54 0 C54 0 75 0 75 0 C75 0 95 0 95 0 C95 0 184 0 184 0 C184 0 184 13 184 13 C184 13 172 13 172 13 C133 13 116 58 135 111 C135 111 134 111 134 111 C134 111 175 226 175 226 C175 226 397 226 397 226 C397 226 452 96 452 96 C452 96 451 96 451 96 C470 51 456 13 420 13 C420 13 408 13 408 13 C408 13 408 0 408 0 C408 0 446 0 446 0 C390 -38 319 -105 319 -151 C319 -197 383 -236 457 -236 C488 -236 527 -220 543 -201 C543 -201 535 -191 535 -191 C529 -198 505 -204 482 -204 C432 -204 389 -174 389 -139 C389 -84 464 -10 492 0 C492 0 559 0 559 0 C559 0 627 0 627 0 C627 0 675 0 675 0 C675 0 675 13 675 13 L675 13 Z M384 256 C384 256 186 257 186 257 C186 257 276 514 276 514 C276 514 384 256 384 256 L384 256 Z " />
<glyph glyph-name="aogonek" unicode="&#x105;" horiz-adv-x="511" d="M490 64 C485 58 477 52 466 48 C466 48 466 56 466 56 C460 54 452 50 444 45 C417 46 405 76 405 112 C405 112 405 352 405 352 C405 435 339 505 263 505 C162 505 64 453 49 391 C49 391 164 391 164 391 C175 435 208 473 237 473 C262 473 284 429 284 378 C284 378 284 258 284 258 C284 258 217 252 217 252 C119 242 36 175 36 105 C36 46 90 -5 154 -5 C202 -5 254 14 293 41 C305 11 329 -10 366 -10 C368 -10 370 -10 372 -10 C330 -48 293 -95 293 -131 C293 -188 357 -236 432 -236 C462 -236 502 -220 518 -201 C518 -201 510 -191 510 -191 C504 -198 480 -204 457 -204 C407 -204 364 -165 364 -118 C364 -79 395 -33 424 -3 C462 7 489 27 503 48 C503 48 490 64 490 64 L490 64 Z M283 228 C283 228 283 100 283 100 C283 94 283 87 284 81 C262 76 237 72 212 72 C179 72 150 102 150 138 C150 174 181 210 217 216 C217 216 283 228 283 228 L283 228 Z " />
<glyph glyph-name="Cacute" unicode="&#x106;" horiz-adv-x="728" d="M371 690 C371 690 487 814 487 814 C506 834 523 855 523 861 C523 874 475 909 457 909 C453 909 441 886 429 859 C429 859 358 699 358 699 C358 699 371 690 371 690 L371 690 Z M668 480 C668 480 668 609 668 609 C668 609 661 595 661 595 C661 595 661 595 661 595 C661 595 668 609 668 609 C612 639 497 665 416 665 C215 665 43 511 43 330 C43 149 215 -5 416 -5 C505 -5 621 25 669 61 C669 61 660 74 660 74 C660 74 660 74 660 74 C660 74 669 61 669 61 C669 61 669 188 669 188 C669 188 658 188 658 188 C655 180 650 166 647 158 C624 93 529 32 441 27 C441 27 441 27 441 27 C432 26 424 26 416 26 C288 26 179 166 179 330 C179 494 288 634 416 634 C438 634 464 632 489 628 C557 615 627 562 646 509 C649 501 654 487 657 480 C657 480 668 480 668 480 L668 480 Z " />
<glyph glyph-name="cacute" unicode="&#x107;" horiz-adv-x="521" d="M230 530 C230 530 346 654 346 654 C366 674 382 695 382 701 C382 714 334 749 316 749 C312 749 300 726 288 699 C288 699 217 539 217 539 C217 539 230 530 230 530 L230 530 Z M472 98 C472 98 460 110 460 110 C435 86 388 65 357 65 C257 65 172 161 172 273 C172 381 228 473 293 473 C327 473 360 441 363 404 C366 374 392 348 421 348 C448 348 472 371 472 399 C466 456 390 505 306 505 C168 505 50 378 50 229 C50 103 147 -5 261 -5 C318 -5 415 43 472 98 L472 98 Z " />
<glyph glyph-name="Ccircumflex" unicode="&#x108;" horiz-adv-x="728" d="M668 480 C668 480 668 609 668 609 C668 609 661 595 661 595 C661 595 661 595 661 595 C661 595 668 609 668 609 C612 639 497 665 416 665 C215 665 43 511 43 330 C43 149 215 -5 416 -5 C505 -5 621 25 669 61 C669 61 660 74 660 74 C660 74 660 74 660 74 C660 74 669 61 669 61 C669 61 669 188 669 188 C669 188 658 188 658 188 C655 180 650 166 647 158 C624 93 529 32 441 27 C441 27 441 27 441 27 C432 26 424 26 416 26 C288 26 179 166 179 330 C179 494 288 634 416 634 C438 634 464 632 489 628 C557 615 627 562 646 509 C649 501 654 487 657 480 C657 480 668 480 668 480 L668 480 Z M416 799 C416 799 526 691 526 691 C526 691 538 701 538 701 C538 701 453 872 453 872 C449 881 433 904 416 904 C400 904 384 881 380 872 C380 872 294 701 294 701 C294 701 306 691 306 691 C306 691 416 799 416 799 L416 799 Z " />
<glyph glyph-name="Cdotaccent" unicode="&#x10a;" horiz-adv-x="728" d="M416 730 C454 730 486 762 486 800 C486 838 454 871 416 871 C378 871 346 838 346 800 C346 762 378 730 416 730 L416 730 Z M668 480 C668 480 668 609 668 609 C668 609 661 595 661 595 C661 595 661 595 661 595 C661 595 668 609 668 609 C612 639 497 665 416 665 C215 665 43 511 43 330 C43 149 215 -5 416 -5 C505 -5 621 25 669 61 C669 61 660 74 660 74 C660 74 660 74 660 74 C660 74 669 61 669 61 C669 61 669 188 669 188 C669 188 658 188 658 188 C655 180 650 166 647 158 C624 93 529 32 441 27 C441 27 441 27 441 27 C432 26 424 26 416 26 C288 26 179 166 179 330 C179 494 288 634 416 634 C438 634 464 632 489 628 C557 615 627 562 646 509 C649 501 654 487 657 480 C657 480 668 480 668 480 L668 480 Z " />
<glyph glyph-name="cdotaccent" unicode="&#x10b;" horiz-adv-x="521" d="M306 570 C344 570 376 602 376 640 C376 678 344 711 306 711 C268 711 235 678 235 640 C235 602 268 570 306 570 L306 570 Z M472 98 C472 98 460 110 460 110 C435 86 388 65 357 65 C257 65 172 161 172 273 C172 381 228 473 293 473 C327 473 360 441 363 404 C366 374 392 348 421 348 C448 348 472 371 472 399 C466 456 390 505 306 505 C168 505 50 378 50 229 C50 103 147 -5 261 -5 C318 -5 415 43 472 98 L472 98 Z " />
<glyph glyph-name="Ccaron" unicode="&#x10c;" horiz-adv-x="728" d="M668 480 C668 480 668 609 668 609 C668 609 661 595 661 595 C661 595 661 595 661 595 C661 595 668 609 668 609 C612 639 497 665 416 665 C215 665 43 511 43 330 C43 149 215 -5 416 -5 C505 -5 621 25 669 61 C669 61 660 74 660 74 C660 74 660 74 660 74 C660 74 669 61 669 61 C669 61 669 188 669 188 C669 188 658 188 658 188 C655 180 650 166 647 158 C624 93 529 32 441 27 C441 27 441 27 441 27 C432 26 424 26 416 26 C288 26 179 166 179 330 C179 494 288 634 416 634 C438 634 464 632 489 628 C557 615 627 562 646 509 C649 501 654 487 657 480 C657 480 668 480 668 480 L668 480 Z M416 821 C416 821 526 929 526 929 C526 929 538 919 538 919 C538 919 453 748 453 748 C449 739 433 716 416 716 C400 716 384 739 380 748 C380 748 294 919 294 919 C294 919 306 929 306 929 C306 929 416 821 416 821 L416 821 Z " />
<glyph glyph-name="ccaron" unicode="&#x10d;" horiz-adv-x="521" d="M472 98 C472 98 460 110 460 110 C435 86 388 65 357 65 C257 65 172 161 172 273 C172 381 228 473 293 473 C327 473 360 441 363 404 C366 374 392 348 421 348 C448 348 472 371 472 399 C466 456 390 505 306 505 C168 505 50 378 50 229 C50 103 147 -5 261 -5 C318 -5 415 43 472 98 L472 98 Z M306 660 C306 660 416 769 416 769 C416 769 428 759 428 759 C428 759 343 588 343 588 C338 579 322 556 306 556 C289 556 274 579 269 588 C269 588 184 759 184 759 C184 759 195 769 195 769 C195 769 306 660 306 660 L306 660 Z " />
<glyph glyph-name="Dcaron" unicode="&#x10e;" horiz-adv-x="746" d="M34 647 C34 647 43 647 43 647 C71 647 95 609 95 564 C95 564 95 96 95 96 C95 51 71 13 43 13 C43 13 34 13 34 13 C34 13 34 0 34 0 C34 0 95 0 95 0 C95 0 157 0 157 0 C157 0 219 0 219 0 C219 0 360 0 360 0 C542 0 697 152 697 330 C697 508 526 660 325 660 C325 660 219 660 219 660 C219 660 157 660 157 660 C157 660 95 660 95 660 C95 660 34 660 34 660 C34 660 34 647 34 647 L34 647 Z M334 820 C334 820 444 929 444 929 C444 929 456 919 456 919 C456 919 370 748 370 748 C366 739 350 716 334 716 C317 716 301 739 297 748 C297 748 212 919 212 919 C212 919 223 929 223 929 C223 929 334 820 334 820 L334 820 Z M219 32 C219 32 219 628 219 628 C219 628 325 628 325 628 C459 628 573 491 573 330 C573 169 475 32 360 32 C360 32 219 32 219 32 L219 32 Z " />
<glyph glyph-name="dcaron" unicode="&#x10f;" horiz-adv-x="611" d="M562 55 C516 65 501 83 501 152 C501 152 501 599 501 599 C501 599 501 690 501 690 C501 690 501 720 501 720 C501 720 478 720 478 720 C478 720 325 673 325 673 C325 673 325 665 325 665 C371 656 386 637 386 568 C386 568 386 463 386 463 C357 487 320 505 288 505 C162 505 54 374 54 219 C54 98 141 -5 243 -5 C286 -5 347 24 386 60 C386 60 386 30 386 30 C386 30 386 0 386 0 C386 0 409 0 409 0 C409 0 562 47 562 47 C562 47 562 55 562 55 L562 55 Z M645 616 C670 659 692 717 692 725 C692 742 639 751 620 751 C598 751 579 684 573 643 C573 643 547 477 547 477 C547 477 562 472 562 472 C562 472 645 616 645 616 L645 616 Z M386 121 C386 121 386 80 386 80 C371 71 338 65 306 65 C235 65 174 156 174 263 C174 377 224 474 283 474 C319 474 362 448 386 418 C386 418 386 121 386 121 L386 121 Z " />
<glyph glyph-name="Emacron" unicode="&#x112;" horiz-adv-x="621" d="M156 761 C156 761 456 761 456 761 C456 761 456 825 456 825 C456 825 156 825 156 825 C156 825 156 761 156 761 L156 761 Z M456 258 C456 258 456 327 456 327 C456 327 456 342 456 342 C456 342 456 358 456 358 C456 358 456 418 456 418 C456 419 455 419 454 418 C449 419 445 419 445 418 C445 418 443 409 443 409 C434 381 376 358 317 358 C317 358 226 358 226 358 C226 358 226 629 226 629 C226 629 361 629 361 629 C425 629 494 586 511 536 C511 536 517 520 517 520 C517 520 526 520 526 520 C526 520 526 644 526 644 C526 644 526 660 526 660 C526 660 511 660 511 660 C511 660 430 660 430 660 C430 660 226 660 226 660 C226 660 164 660 164 660 C164 660 102 660 102 660 C102 660 41 660 41 660 C41 660 41 647 41 647 C41 647 50 647 50 647 C78 647 102 609 102 564 C102 564 102 96 102 96 C102 51 78 13 50 13 C50 13 41 13 41 13 C41 13 41 0 41 0 C41 0 102 0 102 0 C102 0 164 0 164 0 C164 0 226 0 226 0 C226 0 429 0 429 0 C429 0 521 0 521 0 C521 0 525 0 525 0 C526 4 528 11 528 16 C534 49 544 107 550 140 C550 140 541 140 541 140 C541 140 532 124 532 124 C506 74 430 31 366 31 C366 31 226 31 226 31 C226 31 226 327 226 327 C226 327 317 327 317 327 C376 327 434 300 443 268 C443 268 445 258 445 258 C445 258 456 258 456 258 L456 258 Z " />
<glyph glyph-name="emacron" unicode="&#x113;" horiz-adv-x="527" d="M135 601 C135 601 435 601 435 601 C435 601 435 665 435 665 C435 665 135 665 135 665 C135 665 135 601 135 601 L135 601 Z M478 98 C478 98 466 110 466 110 C441 86 392 65 360 65 C259 65 172 161 172 273 C172 280 172 286 173 293 C173 293 478 293 478 293 C478 407 389 505 285 505 C158 505 50 378 50 229 C50 103 148 -5 264 -5 C323 -5 421 43 478 98 L478 98 Z M174 314 C185 403 229 473 279 473 C329 473 371 434 371 389 C371 388 371 388 371 387 C370 360 347 335 320 330 C320 330 174 314 174 314 L174 314 Z M316 329 C316 329 315 329 315 329 C315 329 316 329 316 329 L316 329 Z " />
<glyph glyph-name="Ebreve" unicode="&#x114;" horiz-adv-x="621" d="M174 870 C205 798 266 736 306 736 C347 736 407 798 438 870 C438 870 420 878 420 878 C405 842 353 812 306 812 C260 812 208 842 193 878 C193 878 174 870 174 870 L174 870 Z M456 258 C456 258 456 327 456 327 C456 327 456 342 456 342 C456 342 456 358 456 358 C456 358 456 418 456 418 C456 419 455 419 454 418 C449 419 445 419 445 418 C445 418 443 409 443 409 C434 381 376 358 317 358 C317 358 226 358 226 358 C226 358 226 629 226 629 C226 629 361 629 361 629 C425 629 494 586 511 536 C511 536 517 520 517 520 C517 520 526 520 526 520 C526 520 526 644 526 644 C526 644 526 660 526 660 C526 660 511 660 511 660 C511 660 430 660 430 660 C430 660 226 660 226 660 C226 660 164 660 164 660 C164 660 102 660 102 660 C102 660 41 660 41 660 C41 660 41 647 41 647 C41 647 50 647 50 647 C78 647 102 609 102 564 C102 564 102 96 102 96 C102 51 78 13 50 13 C50 13 41 13 41 13 C41 13 41 0 41 0 C41 0 102 0 102 0 C102 0 164 0 164 0 C164 0 226 0 226 0 C226 0 429 0 429 0 C429 0 521 0 521 0 C521 0 525 0 525 0 C526 4 528 11 528 16 C534 49 544 107 550 140 C550 140 541 140 541 140 C541 140 532 124 532 124 C506 74 430 31 366 31 C366 31 226 31 226 31 C226 31 226 327 226 327 C226 327 317 327 317 327 C376 327 434 300 443 268 C443 268 445 258 445 258 C445 258 456 258 456 258 L456 258 Z " />
<glyph glyph-name="ebreve" unicode="&#x115;" horiz-adv-x="527" d="M153 710 C184 638 244 576 285 576 C326 576 386 638 417 710 C417 710 398 718 398 718 C383 682 331 652 285 652 C239 652 186 682 172 718 C172 718 153 710 153 710 L153 710 Z M478 98 C478 98 466 110 466 110 C441 86 392 65 360 65 C259 65 172 161 172 273 C172 280 172 286 173 293 C173 293 478 293 478 293 C478 407 389 505 285 505 C158 505 50 378 50 229 C50 103 148 -5 264 -5 C323 -5 421 43 478 98 L478 98 Z M174 314 C185 403 229 473 279 473 C329 473 371 434 371 389 C371 388 371 388 371 387 C370 360 347 335 320 330 C320 330 174 314 174 314 L174 314 Z M316 329 C316 329 315 329 315 329 C315 329 316 329 316 329 L316 329 Z " />
<glyph glyph-name="Edotaccent" unicode="&#x116;" horiz-adv-x="621" d="M306 730 C344 730 376 762 376 800 C376 838 344 871 306 871 C268 871 236 838 236 800 C236 762 268 730 306 730 L306 730 Z M456 258 C456 258 456 327 456 327 C456 327 456 342 456 342 C456 342 456 358 456 358 C456 358 456 418 456 418 C456 419 455 419 454 418 C449 419 445 419 445 418 C445 418 443 409 443 409 C434 381 376 358 317 358 C317 358 226 358 226 358 C226 358 226 629 226 629 C226 629 361 629 361 629 C425 629 494 586 511 536 C511 536 517 520 517 520 C517 520 526 520 526 520 C526 520 526 644 526 644 C526 644 526 660 526 660 C526 660 511 660 511 660 C511 660 430 660 430 660 C430 660 226 660 226 660 C226 660 164 660 164 660 C164 660 102 660 102 660 C102 660 41 660 41 660 C41 660 41 647 41 647 C41 647 50 647 50 647 C78 647 102 609 102 564 C102 564 102 96 102 96 C102 51 78 13 50 13 C50 13 41 13 41 13 C41 13 41 0 41 0 C41 0 102 0 102 0 C102 0 164 0 164 0 C164 0 226 0 226 0 C226 0 429 0 429 0 C429 0 521 0 521 0 C521 0 525 0 525 0 C526 4 528 11 528 16 C534 49 544 107 550 140 C550 140 541 140 541 140 C541 140 532 124 532 124 C506 74 430 31 366 31 C366 31 226 31 226 31 C226 31 226 327 226 327 C226 327 317 327 317 327 C376 327 434 300 443 268 C443 268 445 258 445 258 C445 258 456 258 456 258 L456 258 Z " />
<glyph glyph-name="edotaccent" unicode="&#x117;" horiz-adv-x="527" d="M285 570 C323 570 355 602 355 640 C355 678 323 711 285 711 C247 711 215 678 215 640 C215 602 247 570 285 570 L285 570 Z M478 98 C478 98 466 110 466 110 C441 86 392 65 360 65 C259 65 172 161 172 273 C172 280 172 286 173 293 C173 293 478 293 478 293 C478 407 389 505 285 505 C158 505 50 378 50 229 C50 103 148 -5 264 -5 C323 -5 421 43 478 98 L478 98 Z M174 314 C185 403 229 473 279 473 C329 473 371 434 371 389 C371 388 371 388 371 387 C370 360 347 335 320 330 C320 330 174 314 174 314 L174 314 Z M316 329 C316 329 315 329 315 329 C315 329 316 329 316 329 L316 329 Z " />
<glyph glyph-name="Eogonek" unicode="&#x118;" horiz-adv-x="621" d="M456 258 C456 258 456 327 456 327 C456 327 456 342 456 342 C456 342 456 358 456 358 C456 358 456 418 456 418 C456 419 455 419 454 418 C449 419 445 419 445 418 C445 418 443 409 443 409 C434 381 376 358 317 358 C317 358 226 358 226 358 C226 358 226 629 226 629 C226 629 361 629 361 629 C425 629 494 586 511 536 C511 536 517 520 517 520 C517 520 526 520 526 520 C526 520 526 644 526 644 C526 644 526 660 526 660 C526 660 511 660 511 660 C511 660 430 660 430 660 C430 660 226 660 226 660 C226 660 164 660 164 660 C164 660 102 660 102 660 C102 660 41 660 41 660 C41 660 41 647 41 647 C41 647 50 647 50 647 C78 647 102 609 102 564 C102 564 102 96 102 96 C102 51 78 13 50 13 C50 13 41 13 41 13 C41 13 41 0 41 0 C41 0 102 0 102 0 C102 0 164 0 164 0 C164 0 226 0 226 0 C226 0 429 0 429 0 C429 0 475 0 475 0 C419 -38 348 -105 348 -151 C348 -197 412 -236 486 -236 C517 -236 557 -220 572 -201 C572 -201 564 -191 564 -191 C558 -198 534 -204 511 -204 C461 -204 418 -174 418 -139 C418 -84 493 -10 521 0 C521 0 525 0 525 0 C526 4 528 11 528 16 C534 49 544 107 550 140 C550 140 541 140 541 140 C541 140 532 124 532 124 C506 74 430 31 366 31 C366 31 226 31 226 31 C226 31 226 327 226 327 C226 327 317 327 317 327 C376 327 434 300 443 268 C443 268 445 258 445 258 C445 258 456 258 456 258 L456 258 Z " />
<glyph glyph-name="eogonek" unicode="&#x119;" horiz-adv-x="527" d="M174 314 C185 403 229 473 279 473 C329 473 371 434 371 389 C371 388 371 388 371 387 C370 360 347 335 320 330 C320 330 174 314 174 314 L174 314 Z M173 293 C173 293 478 293 478 293 C478 407 389 505 285 505 C158 505 50 378 50 229 C50 108 140 4 249 -4 C196 -43 132 -106 132 -150 C132 -196 196 -236 271 -236 C301 -236 341 -220 357 -201 C357 -201 349 -191 349 -191 C343 -198 319 -204 296 -204 C246 -204 203 -173 203 -137 C203 -87 265 -20 297 -1 C355 11 431 52 478 98 C478 98 466 110 466 110 C441 86 392 65 360 65 C259 65 172 161 172 273 C172 280 172 286 173 293 L173 293 Z M316 329 C316 329 315 329 315 329 C315 329 316 329 316 329 L316 329 Z " />
<glyph glyph-name="Ecaron" unicode="&#x11a;" horiz-adv-x="621" d="M456 258 C456 258 456 327 456 327 C456 327 456 342 456 342 C456 342 456 358 456 358 C456 358 456 418 456 418 C456 419 455 419 454 418 C449 419 445 419 445 418 C445 418 443 409 443 409 C434 381 376 358 317 358 C317 358 226 358 226 358 C226 358 226 629 226 629 C226 629 361 629 361 629 C425 629 494 586 511 536 C511 536 517 520 517 520 C517 520 526 520 526 520 C526 520 526 644 526 644 C526 644 526 660 526 660 C526 660 511 660 511 660 C511 660 430 660 430 660 C430 660 226 660 226 660 C226 660 164 660 164 660 C164 660 102 660 102 660 C102 660 41 660 41 660 C41 660 41 647 41 647 C41 647 50 647 50 647 C78 647 102 609 102 564 C102 564 102 96 102 96 C102 51 78 13 50 13 C50 13 41 13 41 13 C41 13 41 0 41 0 C41 0 102 0 102 0 C102 0 164 0 164 0 C164 0 226 0 226 0 C226 0 429 0 429 0 C429 0 521 0 521 0 C521 0 525 0 525 0 C526 4 528 11 528 16 C534 49 544 107 550 140 C550 140 541 140 541 140 C541 140 532 124 532 124 C506 74 430 31 366 31 C366 31 226 31 226 31 C226 31 226 327 226 327 C226 327 317 327 317 327 C376 327 434 300 443 268 C443 268 445 258 445 258 C445 258 456 258 456 258 L456 258 Z M306 821 C306 821 416 929 416 929 C416 929 428 919 428 919 C428 919 343 748 343 748 C339 739 323 716 306 716 C290 716 274 739 270 748 C270 748 184 919 184 919 C184 919 196 929 196 929 C196 929 306 821 306 821 L306 821 Z " />
<glyph glyph-name="ecaron" unicode="&#x11b;" horiz-adv-x="527" d="M478 98 C478 98 466 110 466 110 C441 86 392 65 360 65 C259 65 172 161 172 273 C172 280 172 286 173 293 C173 293 478 293 478 293 C478 407 389 505 285 505 C158 505 50 378 50 229 C50 103 148 -5 264 -5 C323 -5 421 43 478 98 L478 98 Z M285 661 C285 661 395 769 395 769 C395 769 407 759 407 759 C407 759 322 588 322 588 C317 579 301 556 285 556 C269 556 253 579 249 588 C249 588 163 759 163 759 C163 759 175 769 175 769 C175 769 285 661 285 661 L285 661 Z M174 314 C185 403 229 473 279 473 C329 473 371 434 371 389 C371 388 371 388 371 387 C370 360 347 335 320 330 C320 330 174 314 174 314 L174 314 Z M316 329 C316 329 315 329 315 329 C315 329 316 329 316 329 L316 329 Z " />
<glyph glyph-name="Gcircumflex" unicode="&#x11c;" horiz-adv-x="808" d="M715 310 C715 310 654 310 654 310 C654 310 598 310 598 310 C598 310 542 310 542 310 C542 310 482 310 482 310 C482 310 482 297 482 297 C482 297 491 297 491 297 C518 297 542 259 542 214 C542 214 542 45 542 45 C497 34 447 26 406 26 C283 26 179 166 179 330 C179 494 283 634 406 634 C425 634 446 632 468 629 C536 616 606 563 626 509 C629 501 634 487 637 480 C637 480 648 480 648 480 C648 480 648 609 648 609 C648 609 641 595 641 595 C641 595 641 595 641 595 C641 595 648 609 648 609 C592 639 481 665 406 665 C210 665 43 511 43 330 C43 149 210 -5 406 -5 C485 -5 599 22 654 53 C654 53 654 214 654 214 C654 259 678 297 706 297 C706 297 715 297 715 297 C715 297 715 310 715 310 L715 310 Z M406 799 C406 799 516 691 516 691 C516 691 528 701 528 701 C528 701 443 872 443 872 C439 881 423 904 406 904 C390 904 374 881 370 872 C370 872 284 701 284 701 C284 701 296 691 296 691 C296 691 406 799 406 799 L406 799 Z " />
<glyph glyph-name="Gbreve" unicode="&#x11e;" horiz-adv-x="808" d="M274 870 C305 798 366 736 406 736 C447 736 507 798 538 870 C538 870 520 878 520 878 C505 842 453 812 406 812 C360 812 308 842 293 878 C293 878 274 870 274 870 L274 870 Z M715 310 C715 310 654 310 654 310 C654 310 598 310 598 310 C598 310 542 310 542 310 C542 310 482 310 482 310 C482 310 482 297 482 297 C482 297 491 297 491 297 C518 297 542 259 542 214 C542 214 542 45 542 45 C497 34 447 26 406 26 C283 26 179 166 179 330 C179 494 283 634 406 634 C425 634 446 632 468 629 C536 616 606 563 626 509 C629 501 634 487 637 480 C637 480 648 480 648 480 C648 480 648 609 648 609 C648 609 641 595 641 595 C641 595 641 595 641 595 C641 595 648 609 648 609 C592 639 481 665 406 665 C210 665 43 511 43 330 C43 149 210 -5 406 -5 C485 -5 599 22 654 53 C654 53 654 214 654 214 C654 259 678 297 706 297 C706 297 715 297 715 297 C715 297 715 310 715 310 L715 310 Z " />
<glyph glyph-name="gbreve" unicode="&#x11f;" horiz-adv-x="478" d="M96 710 C127 638 188 576 228 576 C269 576 330 638 361 710 C361 710 342 718 342 718 C327 682 275 652 228 652 C182 652 130 682 115 718 C115 718 96 710 96 710 L96 710 Z M479 500 C479 500 339 468 339 468 C308 491 270 505 228 505 C134 505 54 432 54 346 C54 285 94 231 151 204 C90 194 41 145 41 89 C41 54 63 24 97 4 C49 -28 16 -81 16 -134 C16 -193 88 -243 173 -243 C327 -243 459 -144 459 -28 C459 38 376 94 278 94 C278 94 189 90 189 90 C151 89 118 109 118 134 C118 163 144 187 173 187 C173 187 228 187 228 187 C323 187 403 260 403 346 C403 375 394 403 377 427 C377 427 479 436 479 436 C479 436 479 500 479 500 L479 500 Z M162 346 C162 418 193 479 228 479 C264 479 295 418 295 346 C295 274 264 212 228 212 C193 212 162 274 162 346 L162 346 Z M131 -10 C151 -16 172 -19 195 -18 C195 -18 247 -15 247 -15 C317 -15 376 -48 376 -86 C376 -154 289 -211 186 -211 C136 -211 93 -169 93 -120 C93 -78 108 -37 131 -10 C131 -10 131 -10 131 -10 L131 -10 Z " />
<glyph glyph-name="Gdotaccent" unicode="&#x120;" horiz-adv-x="808" d="M406 730 C444 730 476 762 476 800 C476 838 444 871 406 871 C368 871 336 838 336 800 C336 762 368 730 406 730 L406 730 Z M715 310 C715 310 654 310 654 310 C654 310 598 310 598 310 C598 310 542 310 542 310 C542 310 482 310 482 310 C482 310 482 297 482 297 C482 297 491 297 491 297 C518 297 542 259 542 214 C542 214 542 45 542 45 C497 34 447 26 406 26 C283 26 179 166 179 330 C179 494 283 634 406 634 C425 634 446 632 468 629 C536 616 606 563 626 509 C629 501 634 487 637 480 C637 480 648 480 648 480 C648 480 648 609 648 609 C648 609 641 595 641 595 C641 595 641 595 641 595 C641 595 648 609 648 609 C592 639 481 665 406 665 C210 665 43 511 43 330 C43 149 210 -5 406 -5 C485 -5 599 22 654 53 C654 53 654 214 654 214 C654 259 678 297 706 297 C706 297 715 297 715 297 C715 297 715 310 715 310 L715 310 Z " />
<glyph glyph-name="gdotaccent" unicode="&#x121;" horiz-adv-x="478" d="M228 570 C267 570 299 602 299 640 C299 678 267 711 228 711 C190 711 158 678 158 640 C158 602 190 570 228 570 L228 570 Z M479 500 C479 500 339 468 339 468 C308 491 270 505 228 505 C134 505 54 432 54 346 C54 285 94 231 151 204 C90 194 41 145 41 89 C41 54 63 24 97 4 C49 -28 16 -81 16 -134 C16 -193 88 -243 173 -243 C327 -243 459 -144 459 -28 C459 38 376 94 278 94 C278 94 189 90 189 90 C151 89 118 109 118 134 C118 163 144 187 173 187 C173 187 228 187 228 187 C323 187 403 260 403 346 C403 375 394 403 377 427 C377 427 479 436 479 436 C479 436 479 500 479 500 L479 500 Z M162 346 C162 418 193 479 228 479 C264 479 295 418 295 346 C295 274 264 212 228 212 C193 212 162 274 162 346 L162 346 Z M131 -10 C151 -16 172 -19 195 -18 C195 -18 247 -15 247 -15 C317 -15 376 -48 376 -86 C376 -154 289 -211 186 -211 C136 -211 93 -169 93 -120 C93 -78 108 -37 131 -10 C131 -10 131 -10 131 -10 L131 -10 Z " />
<glyph glyph-name="Hcircumflex" unicode="&#x124;" horiz-adv-x="758" d="M718 660 C718 660 658 660 658 660 C658 660 595 660 595 660 C595 660 533 660 533 660 C533 660 473 660 473 660 C473 660 473 647 473 647 C473 647 482 647 482 647 C509 647 533 609 533 564 C533 564 533 353 533 353 C533 353 226 353 226 353 C226 353 226 564 226 564 C226 609 249 647 277 647 C277 647 286 647 286 647 C286 647 286 660 286 660 C286 660 226 660 226 660 C226 660 164 660 164 660 C164 660 102 660 102 660 C102 660 41 660 41 660 C41 660 41 647 41 647 C41 647 50 647 50 647 C78 647 102 609 102 564 C102 564 102 96 102 96 C102 51 78 13 50 13 C50 13 41 13 41 13 C41 13 41 0 41 0 C41 0 102 0 102 0 C102 0 164 0 164 0 C164 0 226 0 226 0 C226 0 286 0 286 0 C286 0 286 13 286 13 C286 13 277 13 277 13 C249 13 226 51 226 96 C226 96 226 322 226 322 C226 322 533 322 533 322 C533 322 533 96 533 96 C533 51 509 13 482 13 C482 13 473 13 473 13 C473 13 473 0 473 0 C473 0 533 0 533 0 C533 0 595 0 595 0 C595 0 658 0 658 0 C658 0 718 0 718 0 C718 0 718 13 718 13 C718 13 709 13 709 13 C682 13 659 48 658 91 C658 91 658 96 658 96 C658 96 658 564 658 564 C658 564 658 569 658 569 C659 612 682 647 709 647 C709 647 718 647 718 647 C718 647 718 660 718 660 L718 660 Z M380 800 C380 800 490 691 490 691 C490 691 502 701 502 701 C502 701 416 872 416 872 C412 881 396 904 380 904 C363 904 347 881 343 872 C343 872 258 701 258 701 C258 701 269 691 269 691 C269 691 380 800 380 800 L380 800 Z " />
<glyph glyph-name="Itilde" unicode="&#x128;" horiz-adv-x="327" d="M25 755 C25 785 43 811 64 811 C117 811 181 748 234 748 C282 748 323 811 323 885 C323 885 304 885 304 885 C304 853 283 825 259 825 C206 825 141 887 89 887 C44 887 6 826 6 755 C6 755 25 755 25 755 L25 755 Z M287 660 C287 660 227 660 227 660 C227 660 165 660 165 660 C165 660 102 660 102 660 C102 660 42 660 42 660 C42 660 42 647 42 647 C42 647 51 647 51 647 C79 647 102 609 102 564 C102 564 102 96 102 96 C102 51 79 13 51 13 C51 13 42 13 42 13 C42 13 42 0 42 0 C42 0 102 0 102 0 C102 0 165 0 165 0 C165 0 227 0 227 0 C227 0 287 0 287 0 C287 0 287 13 287 13 C287 13 278 13 278 13 C251 13 228 48 227 91 C227 91 227 96 227 96 C227 96 227 564 227 564 C227 564 227 569 227 569 C228 612 251 647 278 647 C278 647 287 647 287 647 C287 647 287 660 287 660 L287 660 Z " />
<glyph glyph-name="itilde" unicode="&#x129;" horiz-adv-x="326" d="M24 595 C24 625 42 651 63 651 C115 651 180 588 232 588 C281 588 322 651 322 725 C322 725 302 725 302 725 C302 693 281 665 257 665 C205 665 140 727 88 727 C43 727 5 666 5 595 C5 595 24 595 24 595 L24 595 Z M221 0 C221 0 281 0 281 0 C281 0 281 13 281 13 C281 13 269 13 269 13 C243 13 221 10 221 0 C221 0 221 404 221 404 C221 404 221 505 221 505 C221 505 214 505 214 505 C214 505 55 456 55 456 C55 456 55 447 55 447 C55 447 91 433 91 433 C99 430 106 414 106 371 C106 371 106 0 106 0 C106 0 45 0 45 0 C45 0 45 13 45 13 C45 13 57 13 57 13 C84 13 106 10 106 0 C106 0 221 0 221 0 L221 0 Z " />
<glyph glyph-name="Imacron" unicode="&#x12a;" horiz-adv-x="327" d="M15 761 C15 761 315 761 315 761 C315 761 315 825 315 825 C315 825 15 825 15 825 C15 825 15 761 15 761 L15 761 Z M287 660 C287 660 227 660 227 660 C227 660 165 660 165 660 C165 660 102 660 102 660 C102 660 42 660 42 660 C42 660 42 647 42 647 C42 647 51 647 51 647 C79 647 102 609 102 564 C102 564 102 96 102 96 C102 51 79 13 51 13 C51 13 42 13 42 13 C42 13 42 0 42 0 C42 0 102 0 102 0 C102 0 165 0 165 0 C165 0 227 0 227 0 C227 0 287 0 287 0 C287 0 287 13 287 13 C287 13 278 13 278 13 C251 13 228 48 227 91 C227 91 227 96 227 96 C227 96 227 564 227 564 C227 564 227 569 227 569 C228 612 251 647 278 647 C278 647 287 647 287 647 C287 647 287 660 287 660 L287 660 Z " />
<glyph glyph-name="imacron" unicode="&#x12b;" horiz-adv-x="326" d="M13 601 C13 601 313 601 313 601 C313 601 313 665 313 665 C313 665 13 665 13 665 C13 665 13 601 13 601 L13 601 Z M221 0 C221 0 281 0 281 0 C281 0 281 13 281 13 C281 13 269 13 269 13 C243 13 221 10 221 0 C221 0 221 404 221 404 C221 404 221 505 221 505 C221 505 214 505 214 505 C214 505 55 456 55 456 C55 456 55 447 55 447 C55 447 91 433 91 433 C99 430 106 414 106 371 C106 371 106 0 106 0 C106 0 45 0 45 0 C45 0 45 13 45 13 C45 13 57 13 57 13 C84 13 106 10 106 0 C106 0 221 0 221 0 L221 0 Z " />
<glyph glyph-name="Ibreve" unicode="&#x12c;" horiz-adv-x="327" d="M32 870 C63 798 124 736 165 736 C205 736 266 798 297 870 C297 870 278 878 278 878 C263 842 211 812 165 812 C118 812 66 842 51 878 C51 878 32 870 32 870 L32 870 Z M287 660 C287 660 227 660 227 660 C227 660 165 660 165 660 C165 660 102 660 102 660 C102 660 42 660 42 660 C42 660 42 647 42 647 C42 647 51 647 51 647 C79 647 102 609 102 564 C102 564 102 96 102 96 C102 51 79 13 51 13 C51 13 42 13 42 13 C42 13 42 0 42 0 C42 0 102 0 102 0 C102 0 165 0 165 0 C165 0 227 0 227 0 C227 0 287 0 287 0 C287 0 287 13 287 13 C287 13 278 13 278 13 C251 13 228 48 227 91 C227 91 227 96 227 96 C227 96 227 564 227 564 C227 564 227 569 227 569 C228 612 251 647 278 647 C278 647 287 647 287 647 C287 647 287 660 287 660 L287 660 Z " />
<glyph glyph-name="ibreve" unicode="&#x12d;" horiz-adv-x="326" d="M31 710 C62 638 123 576 163 576 C204 576 264 638 295 710 C295 710 277 718 277 718 C262 682 210 652 163 652 C117 652 65 682 50 718 C50 718 31 710 31 710 L31 710 Z M221 0 C221 0 281 0 281 0 C281 0 281 13 281 13 C281 13 269 13 269 13 C243 13 221 10 221 0 C221 0 221 404 221 404 C221 404 221 505 221 505 C221 505 214 505 214 505 C214 505 55 456 55 456 C55 456 55 447 55 447 C55 447 91 433 91 433 C99 430 106 414 106 371 C106 371 106 0 106 0 C106 0 45 0 45 0 C45 0 45 13 45 13 C45 13 57 13 57 13 C84 13 106 10 106 0 C106 0 221 0 221 0 L221 0 Z " />
<glyph glyph-name="Idotaccent" unicode="&#x130;" horiz-adv-x="327" d="M165 730 C203 730 235 762 235 800 C235 838 203 871 165 871 C126 871 94 838 94 800 C94 762 126 730 165 730 L165 730 Z M287 660 C287 660 227 660 227 660 C227 660 165 660 165 660 C165 660 102 660 102 660 C102 660 42 660 42 660 C42 660 42 647 42 647 C42 647 51 647 51 647 C79 647 102 609 102 564 C102 564 102 96 102 96 C102 51 79 13 51 13 C51 13 42 13 42 13 C42 13 42 0 42 0 C42 0 102 0 102 0 C102 0 165 0 165 0 C165 0 227 0 227 0 C227 0 287 0 287 0 C287 0 287 13 287 13 C287 13 278 13 278 13 C251 13 228 48 227 91 C227 91 227 96 227 96 C227 96 227 564 227 564 C227 564 227 569 227 569 C228 612 251 647 278 647 C278 647 287 647 287 647 C287 647 287 660 287 660 L287 660 Z " />
<glyph glyph-name="dotlessi" unicode="&#x131;" horiz-adv-x="326" d="M221 0 C221 0 281 0 281 0 C281 0 281 13 281 13 C281 13 269 13 269 13 C243 13 221 10 221 0 C221 0 221 404 221 404 C221 404 221 505 221 505 C221 505 214 505 214 505 C214 505 55 456 55 456 C55 456 55 447 55 447 C55 447 91 433 91 433 C99 430 106 414 106 371 C106 371 106 0 106 0 C106 0 45 0 45 0 C45 0 45 13 45 13 C45 13 57 13 57 13 C84 13 106 10 106 0 C106 0 221 0 221 0 L221 0 Z " />
<glyph glyph-name="Jcircumflex" unicode="&#x134;" horiz-adv-x="427" d="M387 660 C387 660 326 660 326 660 C326 660 264 660 264 660 C264 660 202 660 202 660 C202 660 142 660 142 660 C142 660 142 647 142 647 C142 647 151 647 151 647 C178 647 202 609 202 564 C202 564 202 200 202 200 C202 81 187 16 158 16 C138 16 115 38 108 64 C102 91 75 115 51 115 C16 115 -7 91 0 64 C10 24 68 -10 127 -10 C256 -10 327 101 327 305 C327 305 326 570 326 570 C329 612 351 647 378 647 C378 647 387 647 387 647 C387 647 387 660 387 660 L387 660 Z M265 800 C265 800 375 691 375 691 C375 691 386 701 386 701 C386 701 301 872 301 872 C297 881 281 904 264 904 C248 904 232 881 228 872 C228 872 142 701 142 701 C142 701 154 691 154 691 C154 691 265 800 265 800 L265 800 Z " />
<glyph glyph-name="Lacute" unicode="&#x139;" horiz-adv-x="621" d="M141 690 C141 690 257 814 257 814 C277 834 293 855 293 861 C293 874 245 909 227 909 C223 909 211 886 199 859 C199 859 128 699 128 699 C128 699 141 690 141 690 L141 690 Z M286 660 C286 660 226 660 226 660 C226 660 164 660 164 660 C164 660 102 660 102 660 C102 660 41 660 41 660 C41 660 41 647 41 647 C41 647 50 647 50 647 C78 647 102 609 102 564 C102 564 102 96 102 96 C102 51 78 13 50 13 C50 13 41 13 41 13 C41 13 41 0 41 0 C41 0 102 0 102 0 C102 0 164 0 164 0 C164 0 226 0 226 0 C226 0 429 0 429 0 C429 0 521 0 521 0 C521 0 525 0 525 0 C526 4 528 11 528 16 C535 51 545 111 551 146 C551 146 550 147 548 147 C542 150 536 152 536 152 C536 152 528 134 528 134 C504 78 434 31 376 31 C376 31 226 31 226 31 C226 31 226 564 226 564 C226 609 249 647 277 647 C277 647 286 647 286 647 C286 647 286 660 286 660 L286 660 Z " />
<glyph glyph-name="Lcaron" unicode="&#x13d;" horiz-adv-x="621" d="M286 660 C286 660 226 660 226 660 C226 660 164 660 164 660 C164 660 102 660 102 660 C102 660 41 660 41 660 C41 660 41 647 41 647 C41 647 50 647 50 647 C78 647 102 609 102 564 C102 564 102 96 102 96 C102 51 78 13 50 13 C50 13 41 13 41 13 C41 13 41 0 41 0 C41 0 102 0 102 0 C102 0 164 0 164 0 C164 0 226 0 226 0 C226 0 429 0 429 0 C429 0 521 0 521 0 C521 0 525 0 525 0 C526 4 528 11 528 16 C535 51 545 111 551 146 C551 146 550 147 548 147 C542 150 536 152 536 152 C536 152 528 134 528 134 C504 78 434 31 376 31 C376 31 226 31 226 31 C226 31 226 564 226 564 C226 609 249 647 277 647 C277 647 286 647 286 647 C286 647 286 660 286 660 L286 660 Z M430 556 C456 599 477 657 477 665 C477 682 424 691 405 691 C383 691 364 624 358 583 C358 583 333 417 333 417 C333 417 347 412 347 412 C347 412 430 556 430 556 L430 556 Z " />
<glyph glyph-name="lcaron" unicode="&#x13e;" horiz-adv-x="326" d="M45 665 C91 655 106 637 106 568 C106 568 106 96 106 96 C106 51 82 13 54 13 C54 13 45 13 45 13 C45 13 45 0 45 0 C45 0 106 0 106 0 C106 0 163 0 163 0 C163 0 221 0 221 0 C221 0 281 0 281 0 C281 0 281 13 281 13 C281 13 272 13 272 13 C245 13 222 48 221 91 C221 91 221 96 221 96 C221 96 221 599 221 599 C221 599 221 690 221 690 C221 690 221 720 221 720 C221 720 198 720 198 720 C198 720 45 673 45 673 C45 673 45 665 45 665 L45 665 Z M365 586 C390 629 411 687 411 695 C411 712 358 721 339 721 C317 721 298 654 293 613 C293 613 267 447 267 447 C267 447 282 442 282 442 C282 442 365 586 365 586 L365 586 Z " />
<glyph glyph-name="Lslash" unicode="&#x141;" horiz-adv-x="621" d="M52 261 C52 261 102 277 102 277 C102 277 102 96 102 96 C102 51 78 13 50 13 C50 13 41 13 41 13 C41 13 41 0 41 0 C41 0 102 0 102 0 C102 0 164 0 164 0 C164 0 226 0 226 0 C226 0 429 0 429 0 C429 0 521 0 521 0 C521 0 525 0 525 0 C526 4 528 11 528 16 C535 51 545 111 551 146 C551 146 550 147 548 147 C542 150 536 152 536 152 C536 152 528 134 528 134 C504 78 434 31 376 31 C376 31 226 31 226 31 C226 31 226 315 226 315 C226 315 373 361 373 361 C373 361 373 399 373 399 C373 399 226 353 226 353 C226 353 226 564 226 564 C226 609 249 647 277 647 C277 647 286 647 286 647 C286 647 286 660 286 660 C286 660 226 660 226 660 C226 660 164 660 164 660 C164 660 102 660 102 660 C102 660 41 660 41 660 C41 660 41 647 41 647 C41 647 50 647 50 647 C78 647 102 609 102 564 C102 564 102 315 102 315 C102 315 52 299 52 299 C52 299 52 261 52 261 L52 261 Z " />
<glyph glyph-name="lslash" unicode="&#x142;" horiz-adv-x="326" d="M6 291 C6 291 106 323 106 323 C106 323 106 96 106 96 C106 51 82 13 54 13 C54 13 45 13 45 13 C45 13 45 0 45 0 C45 0 106 0 106 0 C106 0 163 0 163 0 C163 0 221 0 221 0 C221 0 281 0 281 0 C281 0 281 13 281 13 C281 13 272 13 272 13 C245 13 222 48 221 91 C221 91 221 96 221 96 C221 96 221 359 221 359 C221 359 321 391 321 391 C321 391 321 429 321 429 C321 429 221 397 221 397 C221 397 221 599 221 599 C221 599 221 690 221 690 C221 690 221 720 221 720 C221 720 198 720 198 720 C198 720 45 673 45 673 C45 673 45 665 45 665 C91 655 106 637 106 568 C106 568 106 361 106 361 C106 361 6 329 6 329 C6 329 6 291 6 291 L6 291 Z " />
<glyph glyph-name="Nacute" unicode="&#x143;" horiz-adv-x="691" d="M315 690 C315 690 432 814 432 814 C451 834 468 855 467 861 C467 874 419 909 402 909 C398 909 385 886 373 859 C373 859 303 699 303 699 C303 699 315 690 315 690 L315 690 Z M654 660 C654 660 593 660 593 660 C593 660 574 660 574 660 C574 660 556 660 556 660 C556 660 495 660 495 660 C495 660 495 647 495 647 C495 647 504 647 504 647 C532 647 556 609 556 564 C556 564 556 182 556 182 C556 182 208 660 208 660 C208 660 136 660 136 660 C136 660 117 660 117 660 C117 660 98 660 98 660 C98 660 38 660 38 660 C38 660 38 647 38 647 C38 647 47 647 47 647 C74 647 98 609 98 564 C98 564 98 96 98 96 C98 51 74 13 47 13 C47 13 38 13 38 13 C38 13 38 0 38 0 C38 0 98 0 98 0 C98 0 117 0 117 0 C117 0 136 0 136 0 C136 0 196 0 196 0 C196 0 196 13 196 13 C196 13 187 13 187 13 C159 13 136 51 136 96 C136 96 136 549 136 549 C136 549 499 54 499 54 C499 54 553 -20 553 -20 C553 -20 593 -20 593 -20 C593 -20 593 99 593 99 C593 99 593 564 593 564 C593 609 617 647 644 647 C644 647 654 647 654 647 C654 647 654 660 654 660 L654 660 Z " />
<glyph glyph-name="nacute" unicode="&#x144;" horiz-adv-x="607" d="M230 530 C230 530 347 654 347 654 C366 674 382 695 382 701 C382 714 334 749 316 749 C312 749 300 726 288 699 C288 699 217 539 217 539 C217 539 230 530 230 530 L230 530 Z M567 13 C567 13 558 13 558 13 C530 13 507 51 507 96 C507 96 507 338 507 338 C507 428 468 505 396 505 C339 505 264 473 220 433 C220 433 220 500 220 500 C220 500 197 500 197 500 C197 500 44 453 44 453 C44 453 44 445 44 445 C90 435 105 417 105 348 C105 348 105 96 105 96 C105 51 81 13 53 13 C53 13 44 13 44 13 C44 13 44 0 44 0 C44 0 105 0 105 0 C105 0 162 0 162 0 C162 0 220 0 220 0 C220 0 281 0 281 0 C281 0 281 13 281 13 C281 13 272 13 272 13 C244 13 220 51 220 96 C220 96 220 374 220 374 C220 374 201 374 201 374 C201 374 220 379 220 379 C220 379 220 415 220 415 C239 422 274 428 307 428 C362 428 392 381 392 326 C392 326 392 96 392 96 C392 51 368 13 340 13 C340 13 331 13 331 13 C331 13 331 0 331 0 C331 0 392 0 392 0 C392 0 449 0 449 0 C449 0 507 0 507 0 C507 0 567 0 567 0 C567 0 567 13 567 13 L567 13 Z " />
<glyph glyph-name="Ncaron" unicode="&#x147;" horiz-adv-x="691" d="M654 660 C654 660 593 660 593 660 C593 660 574 660 574 660 C574 660 556 660 556 660 C556 660 495 660 495 660 C495 660 495 647 495 647 C495 647 504 647 504 647 C532 647 556 609 556 564 C556 564 556 182 556 182 C556 182 208 660 208 660 C208 660 136 660 136 660 C136 660 117 660 117 660 C117 660 98 660 98 660 C98 660 38 660 38 660 C38 660 38 647 38 647 C38 647 47 647 47 647 C74 647 98 609 98 564 C98 564 98 96 98 96 C98 51 74 13 47 13 C47 13 38 13 38 13 C38 13 38 0 38 0 C38 0 98 0 98 0 C98 0 117 0 117 0 C117 0 136 0 136 0 C136 0 196 0 196 0 C196 0 196 13 196 13 C196 13 187 13 187 13 C159 13 136 51 136 96 C136 96 136 549 136 549 C136 549 499 54 499 54 C499 54 553 -20 553 -20 C553 -20 593 -20 593 -20 C593 -20 593 99 593 99 C593 99 593 564 593 564 C593 609 617 647 644 647 C644 647 654 647 654 647 C654 647 654 660 654 660 L654 660 Z M346 820 C346 820 456 929 456 929 C456 929 468 919 468 919 C468 919 382 748 382 748 C378 739 362 716 346 716 C329 716 313 739 309 748 C309 748 224 919 224 919 C224 919 235 929 235 929 C235 929 346 820 346 820 L346 820 Z " />
<glyph glyph-name="ncaron" unicode="&#x148;" horiz-adv-x="607" d="M567 13 C567 13 558 13 558 13 C530 13 507 51 507 96 C507 96 507 338 507 338 C507 428 468 505 396 505 C339 505 264 473 220 433 C220 433 220 500 220 500 C220 500 197 500 197 500 C197 500 44 453 44 453 C44 453 44 445 44 445 C90 435 105 417 105 348 C105 348 105 96 105 96 C105 51 81 13 53 13 C53 13 44 13 44 13 C44 13 44 0 44 0 C44 0 105 0 105 0 C105 0 162 0 162 0 C162 0 220 0 220 0 C220 0 281 0 281 0 C281 0 281 13 281 13 C281 13 272 13 272 13 C244 13 220 51 220 96 C220 96 220 374 220 374 C220 374 201 374 201 374 C201 374 220 379 220 379 C220 379 220 415 220 415 C239 422 274 428 307 428 C362 428 392 381 392 326 C392 326 392 96 392 96 C392 51 368 13 340 13 C340 13 331 13 331 13 C331 13 331 0 331 0 C331 0 392 0 392 0 C392 0 449 0 449 0 C449 0 507 0 507 0 C507 0 567 0 567 0 C567 0 567 13 567 13 L567 13 Z M306 661 C306 661 416 769 416 769 C416 769 428 759 428 759 C428 759 343 588 343 588 C338 579 322 556 306 556 C289 556 274 579 269 588 C269 588 184 759 184 759 C184 759 196 769 196 769 C196 769 306 661 306 661 L306 661 Z " />
<glyph glyph-name="Omacron" unicode="&#x14c;" horiz-adv-x="759" d="M226 761 C226 761 526 761 526 761 C526 761 526 825 526 825 C526 825 226 825 226 825 C226 825 226 761 226 761 L226 761 Z M376 26 C259 26 179 182 179 330 C179 478 259 634 376 634 C492 634 572 478 572 330 C572 182 492 26 376 26 L376 26 Z M43 330 C43 167 178 -5 376 -5 C574 -5 709 167 709 330 C709 493 574 665 376 665 C178 665 43 493 43 330 L43 330 Z " />
<glyph glyph-name="omacron" unicode="&#x14d;" horiz-adv-x="606" d="M153 601 C153 601 453 601 453 601 C453 601 453 665 453 665 C453 665 153 665 153 665 C153 665 153 601 153 601 L153 601 Z M303 21 C236 21 178 126 178 250 C178 374 236 479 303 479 C371 479 429 374 429 250 C429 126 371 21 303 21 L303 21 Z M50 250 C50 112 167 -5 303 -5 C440 -5 557 112 557 250 C557 388 440 505 303 505 C167 505 50 388 50 250 L50 250 Z " />
<glyph glyph-name="Obreve" unicode="&#x14e;" horiz-adv-x="759" d="M244 870 C275 798 335 736 376 736 C416 736 477 798 508 870 C508 870 489 878 489 878 C474 842 422 812 376 812 C330 812 277 842 262 878 C262 878 244 870 244 870 L244 870 Z M376 26 C259 26 179 182 179 330 C179 478 259 634 376 634 C492 634 572 478 572 330 C572 182 492 26 376 26 L376 26 Z M43 330 C43 167 178 -5 376 -5 C574 -5 709 167 709 330 C709 493 574 665 376 665 C178 665 43 493 43 330 L43 330 Z " />
<glyph glyph-name="obreve" unicode="&#x14f;" horiz-adv-x="606" d="M171 710 C202 638 263 576 303 576 C344 576 405 638 436 710 C436 710 417 718 417 718 C402 682 350 652 303 652 C257 652 205 682 190 718 C190 718 171 710 171 710 L171 710 Z M303 21 C236 21 178 126 178 250 C178 374 236 479 303 479 C371 479 429 374 429 250 C429 126 371 21 303 21 L303 21 Z M50 250 C50 112 167 -5 303 -5 C440 -5 557 112 557 250 C557 388 440 505 303 505 C167 505 50 388 50 250 L50 250 Z " />
<glyph glyph-name="Racute" unicode="&#x154;" horiz-adv-x="699" d="M263 690 C263 690 379 814 379 814 C399 834 415 855 415 861 C415 874 367 909 349 909 C345 909 333 886 321 859 C321 859 250 699 250 699 C250 699 263 690 263 690 L263 690 Z M34 647 C34 647 43 647 43 647 C71 647 95 609 95 564 C95 564 95 96 95 96 C95 51 71 13 43 13 C43 13 34 13 34 13 C34 13 34 0 34 0 C34 0 95 0 95 0 C95 0 157 0 157 0 C157 0 219 0 219 0 C219 0 279 0 279 0 C279 0 279 13 279 13 C279 13 270 13 270 13 C242 13 219 51 219 96 C219 96 219 303 219 303 C219 303 288 303 288 303 C288 303 433 106 433 106 C500 14 531 0 656 0 C656 0 700 0 700 0 C700 0 700 25 700 25 C700 25 695 25 695 25 C656 25 644 33 608 81 C608 81 427 321 427 321 C518 351 583 414 583 485 C583 580 469 660 335 660 C335 660 219 660 219 660 C219 660 157 660 157 660 C157 660 95 660 95 660 C95 660 34 660 34 660 C34 660 34 647 34 647 L34 647 Z M312 335 C312 335 264 335 264 335 C264 335 219 335 219 335 C219 335 219 628 219 628 C219 628 335 628 335 628 C398 628 452 562 452 485 C452 404 388 335 312 335 L312 335 Z " />
<glyph glyph-name="Rcaron" unicode="&#x158;" horiz-adv-x="617" d="M34 647 C34 647 43 647 43 647 C71 647 95 609 95 564 C95 564 95 96 95 96 C95 51 71 13 43 13 C43 13 34 13 34 13 C34 13 34 0 34 0 C34 0 95 0 95 0 C95 0 157 0 157 0 C157 0 219 0 219 0 C219 0 279 0 279 0 C279 0 279 13 279 13 C279 13 270 13 270 13 C242 13 219 51 219 96 C219 96 219 303 219 303 C219 303 312 303 312 303 C351 197 491 36 618 -46 C618 -46 629 -27 629 -27 C589 -1 503 162 443 327 C526 359 583 419 583 485 C583 580 469 660 335 660 C335 660 219 660 219 660 C219 660 157 660 157 660 C157 660 95 660 95 660 C95 660 34 660 34 660 C34 660 34 647 34 647 L34 647 Z M339 820 C339 820 449 929 449 929 C449 929 461 919 461 919 C461 919 375 748 375 748 C371 739 355 716 339 716 C322 716 306 739 302 748 C302 748 217 919 217 919 C217 919 228 929 228 929 C228 929 339 820 339 820 L339 820 Z M219 335 C219 335 219 628 219 628 C219 628 335 628 335 628 C398 628 452 562 452 485 C452 404 388 335 312 335 C312 335 219 335 219 335 L219 335 Z " />
<glyph glyph-name="rcaron" unicode="&#x159;" horiz-adv-x="423" d="M44 445 C90 435 105 417 105 348 C105 348 105 96 105 96 C105 51 81 13 53 13 C53 13 44 13 44 13 C44 13 44 0 44 0 C44 0 105 0 105 0 C105 0 162 0 162 0 C162 0 220 0 220 0 C220 0 281 0 281 0 C281 0 281 13 281 13 C281 13 272 13 272 13 C244 13 220 51 220 96 C220 96 220 374 220 374 C220 374 201 374 201 374 C201 374 220 379 220 379 C220 379 216 411 216 411 C225 416 238 420 250 420 C284 420 325 376 358 376 C388 376 413 401 413 431 C413 471 388 505 342 505 C298 505 241 471 213 429 C213 429 204 500 204 500 C204 500 181 500 181 500 C181 500 44 453 44 453 C44 453 44 445 44 445 L44 445 Z M224 660 C224 660 334 769 334 769 C334 769 345 759 345 759 C345 759 260 588 260 588 C256 579 240 556 223 556 C207 556 191 579 187 588 C187 588 101 759 101 759 C101 759 113 769 113 769 C113 769 224 660 224 660 L224 660 Z " />
<glyph glyph-name="Sacute" unicode="&#x15a;" horiz-adv-x="512" d="M209 690 C209 690 325 814 325 814 C345 834 361 855 361 861 C361 874 313 909 295 909 C291 909 279 886 267 859 C267 859 196 699 196 699 C196 699 209 690 209 690 L209 690 Z M39 185 C39 185 39 49 39 49 C39 49 51 67 51 67 C51 67 51 67 52 67 C52 67 39 49 39 49 C78 20 173 -5 244 -5 C365 -5 468 84 468 188 C468 261 390 349 299 378 C205 408 126 469 126 511 C126 577 185 634 254 634 C261 634 271 633 282 630 C282 630 282 630 282 630 C327 620 380 570 398 521 C402 511 409 493 413 482 C413 482 424 482 424 482 C424 482 424 621 424 621 C380 645 305 665 260 665 C141 665 39 571 39 461 C39 392 114 310 202 282 C298 251 379 184 379 137 C379 77 317 26 244 26 C239 26 234 26 228 27 C228 27 228 27 228 27 C161 32 84 91 60 155 C57 163 52 177 49 185 C49 185 39 185 39 185 L39 185 Z " />
<glyph glyph-name="sacute" unicode="&#x15b;" horiz-adv-x="419" d="M154 530 C154 530 271 654 271 654 C290 674 306 695 306 701 C306 714 258 749 241 749 C237 749 225 726 212 699 C212 699 142 539 142 539 C142 539 154 530 154 530 L154 530 Z M44 138 C44 138 44 36 44 36 C44 36 56 53 56 53 C56 53 56 53 56 53 C56 53 44 36 44 36 C74 14 139 -5 184 -5 C285 -5 370 68 370 153 C370 201 322 264 266 291 C197 324 137 375 137 402 C137 443 180 479 230 479 C232 479 243 474 259 467 C292 448 322 416 332 388 C334 383 336 375 338 371 C338 371 348 371 348 371 C348 371 348 467 348 467 C311 488 257 505 230 505 C132 505 49 439 49 362 C49 315 112 245 185 209 C233 186 274 141 274 111 C274 62 236 21 191 21 C144 21 85 65 62 117 C60 122 56 132 53 138 C53 138 44 138 44 138 L44 138 Z " />
<glyph glyph-name="Scircumflex" unicode="&#x15c;" horiz-adv-x="512" d="M39 185 C39 185 39 49 39 49 C39 49 51 67 51 67 C51 67 51 67 52 67 C52 67 39 49 39 49 C78 20 173 -5 244 -5 C365 -5 468 84 468 188 C468 261 390 349 299 378 C205 408 126 469 126 511 C126 577 185 634 254 634 C261 634 271 633 282 630 C282 630 282 630 282 630 C327 620 380 570 398 521 C402 511 409 493 413 482 C413 482 424 482 424 482 C424 482 424 621 424 621 C380 645 305 665 260 665 C141 665 39 571 39 461 C39 392 114 310 202 282 C298 251 379 184 379 137 C379 77 317 26 244 26 C239 26 234 26 228 27 C228 27 228 27 228 27 C161 32 84 91 60 155 C57 163 52 177 49 185 C49 185 39 185 39 185 L39 185 Z M255 800 C255 800 365 691 365 691 C365 691 376 701 376 701 C376 701 291 872 291 872 C287 881 271 904 254 904 C238 904 222 881 218 872 C218 872 132 701 132 701 C132 701 144 691 144 691 C144 691 255 800 255 800 L255 800 Z " />
<glyph glyph-name="Scedilla" unicode="&#x15e;" horiz-adv-x="512" d="M39 185 C39 185 39 49 39 49 C39 49 51 67 51 67 C51 67 51 67 52 67 C52 67 39 49 39 49 C78 20 173 -5 244 -5 C365 -5 468 84 468 188 C468 261 390 349 299 378 C205 408 126 469 126 511 C126 577 185 634 254 634 C261 634 271 633 282 630 C282 630 282 630 282 630 C327 620 380 570 398 521 C402 511 409 493 413 482 C413 482 424 482 424 482 C424 482 424 621 424 621 C380 645 305 665 260 665 C141 665 39 571 39 461 C39 392 114 310 202 282 C298 251 379 184 379 137 C379 77 317 26 244 26 C239 26 234 26 228 27 C228 27 228 27 228 27 C161 32 84 91 60 155 C57 163 52 177 49 185 C49 185 39 185 39 185 L39 185 Z " />
<glyph glyph-name="scedilla" unicode="&#x15f;" horiz-adv-x="419" d="M44 138 C44 138 44 36 44 36 C44 36 56 53 56 53 C56 53 56 53 56 53 C56 53 44 36 44 36 C74 14 139 -5 184 -5 C285 -5 370 68 370 153 C370 201 322 264 266 291 C197 324 137 375 137 402 C137 443 180 479 230 479 C232 479 243 474 259 467 C292 448 322 416 332 388 C334 383 336 375 338 371 C338 371 348 371 348 371 C348 371 348 467 348 467 C311 488 257 505 230 505 C132 505 49 439 49 362 C49 315 112 245 185 209 C233 186 274 141 274 111 C274 62 236 21 191 21 C144 21 85 65 62 117 C60 122 56 132 53 138 C53 138 44 138 44 138 L44 138 Z " />
<glyph glyph-name="Scaron" unicode="&#x160;" horiz-adv-x="512" d="M39 185 C39 185 39 49 39 49 C39 49 51 67 51 67 C51 67 51 67 52 67 C52 67 39 49 39 49 C78 20 173 -5 244 -5 C365 -5 468 84 468 188 C468 261 390 349 299 378 C205 408 126 469 126 511 C126 577 185 634 254 634 C261 634 271 633 282 630 C282 630 282 630 282 630 C327 620 380 570 398 521 C402 511 409 493 413 482 C413 482 424 482 424 482 C424 482 424 621 424 621 C380 645 305 665 260 665 C141 665 39 571 39 461 C39 392 114 310 202 282 C298 251 379 184 379 137 C379 77 317 26 244 26 C239 26 234 26 228 27 C228 27 228 27 228 27 C161 32 84 91 60 155 C57 163 52 177 49 185 C49 185 39 185 39 185 L39 185 Z M255 820 C255 820 365 929 365 929 C365 929 376 919 376 919 C376 919 291 748 291 748 C287 739 271 716 254 716 C238 716 222 739 218 748 C218 748 132 919 132 919 C132 919 144 929 144 929 C144 929 255 820 255 820 L255 820 Z " />
<glyph glyph-name="scaron" unicode="&#x161;" horiz-adv-x="419" d="M44 138 C44 138 44 36 44 36 C44 36 56 53 56 53 C56 53 56 53 56 53 C56 53 44 36 44 36 C74 14 139 -5 184 -5 C285 -5 370 68 370 153 C370 201 322 264 266 291 C197 324 137 375 137 402 C137 443 180 479 230 479 C232 479 243 474 259 467 C292 448 322 416 332 388 C334 383 336 375 338 371 C338 371 348 371 348 371 C348 371 348 467 348 467 C311 488 257 505 230 505 C132 505 49 439 49 362 C49 315 112 245 185 209 C233 186 274 141 274 111 C274 62 236 21 191 21 C144 21 85 65 62 117 C60 122 56 132 53 138 C53 138 44 138 44 138 L44 138 Z M230 661 C230 661 340 769 340 769 C340 769 352 759 352 759 C352 759 267 588 267 588 C263 579 247 556 230 556 C214 556 198 579 194 588 C194 588 108 759 108 759 C108 759 120 769 120 769 C120 769 230 661 230 661 L230 661 Z " />
<glyph glyph-name="Tcaron" unicode="&#x164;" horiz-adv-x="620" d="M624 508 C621 545 615 607 612 644 C612 649 611 656 611 660 C611 660 580 660 580 660 C580 660 515 660 515 660 C515 660 105 660 105 660 C105 660 40 660 40 660 C40 660 9 660 9 660 C9 656 8 649 8 644 C5 607 -1 545 -4 508 C-4 508 6 508 6 508 C6 508 15 530 15 530 C38 584 102 629 156 629 C156 629 248 629 248 629 C248 629 248 96 248 96 C248 51 224 13 196 13 C196 13 187 13 187 13 C187 13 187 0 187 0 C187 0 248 0 248 0 C248 0 310 0 310 0 C310 0 372 0 372 0 C372 0 433 0 433 0 C433 0 433 13 433 13 C433 13 424 13 424 13 C396 13 372 51 372 96 C372 96 372 629 372 629 C372 629 464 629 464 629 C518 629 582 584 605 530 C605 530 614 508 614 508 C614 508 624 508 624 508 L624 508 Z M310 821 C310 821 420 929 420 929 C420 929 432 919 432 919 C432 919 347 748 347 748 C342 739 326 716 310 716 C294 716 278 739 274 748 C274 748 188 919 188 919 C188 919 200 929 200 929 C200 929 310 821 310 821 L310 821 Z " />
<glyph glyph-name="tcaron" unicode="&#x165;" horiz-adv-x="370" d="M338 500 C338 500 203 500 203 500 C203 500 203 640 203 640 C203 640 184 640 184 640 C140 555 67 476 25 468 C25 468 25 455 25 455 C25 455 88 455 88 455 C88 455 88 125 88 125 C88 34 120 -5 196 -5 C238 -5 299 31 350 74 C350 74 342 84 342 84 C318 64 284 46 253 46 C218 46 203 64 203 105 C203 105 203 455 203 455 C203 455 338 455 338 455 C338 455 338 500 338 500 L338 500 Z M482 586 C508 629 529 687 529 695 C529 712 476 721 457 721 C435 721 416 654 410 613 C410 613 385 447 385 447 C385 447 399 442 399 442 C399 442 482 586 482 586 L482 586 Z " />
<glyph glyph-name="Utilde" unicode="&#x168;" horiz-adv-x="669" d="M193 755 C193 785 211 811 232 811 C284 811 349 748 402 748 C450 748 491 811 491 885 C491 885 472 885 472 885 C472 853 451 825 426 825 C374 825 309 887 257 887 C212 887 174 826 174 755 C174 755 193 755 193 755 L193 755 Z M649 660 C649 660 580 660 580 660 C580 660 561 660 561 660 C561 660 542 660 542 660 C542 660 469 660 469 660 C469 660 469 647 469 647 C469 647 480 647 480 647 C512 647 539 608 542 562 C542 562 541 202 541 202 C541 113 476 38 356 38 C261 38 209 110 209 195 C209 195 209 564 209 564 C209 609 232 647 260 647 C260 647 269 647 269 647 C269 647 269 660 269 660 C269 660 209 660 209 660 C209 660 147 660 147 660 C147 660 85 660 85 660 C85 660 24 660 24 660 C24 660 24 647 24 647 C24 647 33 647 33 647 C61 647 85 609 85 564 C85 564 85 219 85 219 C85 98 174 -5 337 -5 C495 -5 580 84 580 189 C580 189 580 554 580 554 C581 604 607 647 639 647 C639 647 649 647 649 647 C649 647 649 660 649 660 L649 660 Z " />
<glyph glyph-name="utilde" unicode="&#x169;" horiz-adv-x="572" d="M137 595 C137 625 155 651 176 651 C228 651 293 588 345 588 C393 588 434 651 434 725 C434 725 415 725 415 725 C415 693 394 665 370 665 C318 665 253 727 201 727 C155 727 117 666 117 595 C117 595 137 595 137 595 L137 595 Z M537 55 C491 65 477 83 477 152 C477 152 477 500 477 500 C477 500 419 500 419 500 C419 500 362 500 362 500 C362 500 301 500 301 500 C301 500 301 487 301 487 C301 487 310 487 310 487 C338 487 362 449 362 404 C362 404 362 121 362 121 C362 121 362 92 362 92 C349 80 325 71 296 71 C233 71 190 115 190 166 C190 166 190 500 190 500 C190 500 132 500 132 500 C132 500 75 500 75 500 C75 500 14 500 14 500 C14 500 14 487 14 487 C14 487 23 487 23 487 C51 487 75 449 75 404 C75 404 75 154 75 154 C75 68 128 -5 206 -5 C261 -5 321 29 362 72 C362 72 362 30 362 30 C362 30 362 0 362 0 C362 0 385 0 385 0 C385 0 537 47 537 47 C537 47 537 55 537 55 L537 55 Z " />
<glyph glyph-name="Umacron" unicode="&#x16a;" horiz-adv-x="669" d="M182 761 C182 761 482 761 482 761 C482 761 482 825 482 825 C482 825 182 825 182 825 C182 825 182 761 182 761 L182 761 Z M649 660 C649 660 580 660 580 660 C580 660 561 660 561 660 C561 660 542 660 542 660 C542 660 469 660 469 660 C469 660 469 647 469 647 C469 647 480 647 480 647 C512 647 539 608 542 562 C542 562 541 202 541 202 C541 113 476 38 356 38 C261 38 209 110 209 195 C209 195 209 564 209 564 C209 609 232 647 260 647 C260 647 269 647 269 647 C269 647 269 660 269 660 C269 660 209 660 209 660 C209 660 147 660 147 660 C147 660 85 660 85 660 C85 660 24 660 24 660 C24 660 24 647 24 647 C24 647 33 647 33 647 C61 647 85 609 85 564 C85 564 85 219 85 219 C85 98 174 -5 337 -5 C495 -5 580 84 580 189 C580 189 580 554 580 554 C581 604 607 647 639 647 C639 647 649 647 649 647 C649 647 649 660 649 660 L649 660 Z " />
<glyph glyph-name="umacron" unicode="&#x16b;" horiz-adv-x="572" d="M126 601 C126 601 426 601 426 601 C426 601 426 665 426 665 C426 665 126 665 126 665 C126 665 126 601 126 601 L126 601 Z M537 55 C491 65 477 83 477 152 C477 152 477 500 477 500 C477 500 419 500 419 500 C419 500 362 500 362 500 C362 500 301 500 301 500 C301 500 301 487 301 487 C301 487 310 487 310 487 C338 487 362 449 362 404 C362 404 362 121 362 121 C362 121 362 92 362 92 C349 80 325 71 296 71 C233 71 190 115 190 166 C190 166 190 500 190 500 C190 500 132 500 132 500 C132 500 75 500 75 500 C75 500 14 500 14 500 C14 500 14 487 14 487 C14 487 23 487 23 487 C51 487 75 449 75 404 C75 404 75 154 75 154 C75 68 128 -5 206 -5 C261 -5 321 29 362 72 C362 72 362 30 362 30 C362 30 362 0 362 0 C362 0 385 0 385 0 C385 0 537 47 537 47 C537 47 537 55 537 55 L537 55 Z " />
<glyph glyph-name="Ubreve" unicode="&#x16c;" horiz-adv-x="669" d="M200 870 C231 798 292 736 332 736 C373 736 434 798 465 870 C465 870 446 878 446 878 C431 842 379 812 332 812 C286 812 234 842 219 878 C219 878 200 870 200 870 L200 870 Z M649 660 C649 660 580 660 580 660 C580 660 561 660 561 660 C561 660 542 660 542 660 C542 660 469 660 469 660 C469 660 469 647 469 647 C469 647 480 647 480 647 C512 647 539 608 542 562 C542 562 541 202 541 202 C541 113 476 38 356 38 C261 38 209 110 209 195 C209 195 209 564 209 564 C209 609 232 647 260 647 C260 647 269 647 269 647 C269 647 269 660 269 660 C269 660 209 660 209 660 C209 660 147 660 147 660 C147 660 85 660 85 660 C85 660 24 660 24 660 C24 660 24 647 24 647 C24 647 33 647 33 647 C61 647 85 609 85 564 C85 564 85 219 85 219 C85 98 174 -5 337 -5 C495 -5 580 84 580 189 C580 189 580 554 580 554 C581 604 607 647 639 647 C639 647 649 647 649 647 C649 647 649 660 649 660 L649 660 Z " />
<glyph glyph-name="ubreve" unicode="&#x16d;" horiz-adv-x="572" d="M144 710 C175 638 235 576 276 576 C316 576 377 638 408 710 C408 710 389 718 389 718 C374 682 322 652 276 652 C229 652 177 682 162 718 C162 718 144 710 144 710 L144 710 Z M537 55 C491 65 477 83 477 152 C477 152 477 500 477 500 C477 500 419 500 419 500 C419 500 362 500 362 500 C362 500 301 500 301 500 C301 500 301 487 301 487 C301 487 310 487 310 487 C338 487 362 449 362 404 C362 404 362 121 362 121 C362 121 362 92 362 92 C349 80 325 71 296 71 C233 71 190 115 190 166 C190 166 190 500 190 500 C190 500 132 500 132 500 C132 500 75 500 75 500 C75 500 14 500 14 500 C14 500 14 487 14 487 C14 487 23 487 23 487 C51 487 75 449 75 404 C75 404 75 154 75 154 C75 68 128 -5 206 -5 C261 -5 321 29 362 72 C362 72 362 30 362 30 C362 30 362 0 362 0 C362 0 385 0 385 0 C385 0 537 47 537 47 C537 47 537 55 537 55 L537 55 Z " />
<glyph glyph-name="Uring" unicode="&#x16e;" horiz-adv-x="669" d="M332 721 C301 721 268 755 268 788 C268 823 298 854 332 854 C367 854 396 823 396 788 C396 755 363 721 332 721 L332 721 Z M236 788 C236 743 286 695 332 695 C379 695 428 743 428 788 C428 837 384 880 332 880 C280 880 236 837 236 788 L236 788 Z M649 660 C649 660 580 660 580 660 C580 660 561 660 561 660 C561 660 542 660 542 660 C542 660 469 660 469 660 C469 660 469 647 469 647 C469 647 480 647 480 647 C512 647 539 608 542 562 C542 562 541 202 541 202 C541 113 476 38 356 38 C261 38 209 110 209 195 C209 195 209 564 209 564 C209 609 232 647 260 647 C260 647 269 647 269 647 C269 647 269 660 269 660 C269 660 209 660 209 660 C209 660 147 660 147 660 C147 660 85 660 85 660 C85 660 24 660 24 660 C24 660 24 647 24 647 C24 647 33 647 33 647 C61 647 85 609 85 564 C85 564 85 219 85 219 C85 98 174 -5 337 -5 C495 -5 580 84 580 189 C580 189 580 554 580 554 C581 604 607 647 639 647 C639 647 649 647 649 647 C649 647 649 660 649 660 L649 660 Z " />
<glyph glyph-name="uring" unicode="&#x16f;" horiz-adv-x="572" d="M276 561 C245 561 212 595 212 628 C212 663 241 694 276 694 C311 694 340 663 340 628 C340 595 307 561 276 561 L276 561 Z M180 628 C180 583 229 535 276 535 C323 535 372 583 372 628 C372 677 328 720 276 720 C224 720 180 677 180 628 L180 628 Z M537 55 C491 65 477 83 477 152 C477 152 477 500 477 500 C477 500 419 500 419 500 C419 500 362 500 362 500 C362 500 301 500 301 500 C301 500 301 487 301 487 C301 487 310 487 310 487 C338 487 362 449 362 404 C362 404 362 121 362 121 C362 121 362 92 362 92 C349 80 325 71 296 71 C233 71 190 115 190 166 C190 166 190 500 190 500 C190 500 132 500 132 500 C132 500 75 500 75 500 C75 500 14 500 14 500 C14 500 14 487 14 487 C14 487 23 487 23 487 C51 487 75 449 75 404 C75 404 75 154 75 154 C75 68 128 -5 206 -5 C261 -5 321 29 362 72 C362 72 362 30 362 30 C362 30 362 0 362 0 C362 0 385 0 385 0 C385 0 537 47 537 47 C537 47 537 55 537 55 L537 55 Z " />
<glyph glyph-name="Wcircumflex" unicode="&#x174;" horiz-adv-x="987" d="M983 660 C983 660 926 660 926 660 C926 660 907 660 907 660 C907 660 888 660 888 660 C888 660 803 660 803 660 C803 660 803 647 803 647 C803 647 815 647 815 647 C852 647 873 609 859 564 C859 564 859 564 859 564 C859 564 686 -15 686 -15 C686 -15 718 -15 718 -15 C718 -15 899 574 899 574 C915 614 948 647 974 647 C974 647 983 647 983 647 C983 647 983 660 983 660 L983 660 Z M255 660 C255 660 182 660 182 660 C182 660 114 660 114 660 C114 660 46 660 46 660 C46 660 2 660 2 660 C2 660 2 647 2 647 C2 647 9 647 9 647 C32 647 65 609 82 564 C82 564 82 564 82 564 C82 564 301 -15 301 -15 C301 -15 333 -15 333 -15 C333 -15 548 670 548 670 C548 670 516 670 516 670 C516 670 301 -15 301 -15 C301 -15 357 164 357 164 C357 164 216 564 216 564 C216 564 216 564 216 564 C200 609 213 647 245 647 C245 647 255 647 255 647 C255 647 255 660 255 660 L255 660 Z M533 800 C533 800 643 691 643 691 C643 691 654 701 654 701 C654 701 569 872 569 872 C565 881 549 904 532 904 C516 904 500 881 496 872 C496 872 410 701 410 701 C410 701 422 691 422 691 C422 691 533 800 533 800 L533 800 Z M686 -15 C686 -15 743 177 743 177 C743 177 548 670 548 670 C548 670 484 466 484 466 C484 466 686 -15 686 -15 L686 -15 Z " />
<glyph glyph-name="Ycircumflex" unicode="&#x176;" horiz-adv-x="650" d="M445 13 C445 13 436 13 436 13 C408 13 384 51 384 96 C384 96 384 327 384 327 C384 327 547 573 547 573 C577 614 619 647 641 647 C641 647 649 647 649 647 C649 647 649 660 649 660 C649 660 605 660 605 660 C605 660 586 660 586 660 C586 660 566 660 566 660 C566 660 477 660 477 660 C478 660 478 657 477 654 C478 650 478 647 477 647 C477 647 490 647 490 647 C525 647 527 602 493 548 C493 548 369 356 369 356 C369 356 240 573 240 573 C218 614 223 647 251 647 C251 647 261 647 261 647 C261 647 261 660 261 660 C261 660 188 660 188 660 C188 660 114 660 114 660 C114 660 39 660 39 660 C39 660 2 660 2 660 C2 660 2 647 2 647 C2 647 9 647 9 647 C28 647 67 611 93 568 C93 568 260 287 260 287 C260 287 260 96 260 96 C260 51 236 13 208 13 C208 13 199 13 199 13 C199 13 199 0 199 0 C199 0 260 0 260 0 C260 0 322 0 322 0 C322 0 384 0 384 0 C384 0 445 0 445 0 C445 0 445 13 445 13 L445 13 Z M322 799 C322 799 432 691 432 691 C432 691 444 701 444 701 C444 701 359 872 359 872 C354 881 338 904 322 904 C305 904 290 881 285 872 C285 872 200 701 200 701 C200 701 212 691 212 691 C212 691 322 799 322 799 L322 799 Z " />
<glyph glyph-name="Ydieresis" unicode="&#x178;" horiz-adv-x="650" d="M422 730 C460 730 492 762 492 800 C492 838 460 871 422 871 C384 871 352 838 352 800 C352 762 384 730 422 730 L422 730 Z M222 730 C260 730 292 762 292 800 C292 838 260 871 222 871 C183 871 151 838 151 800 C151 762 183 730 222 730 L222 730 Z M445 13 C445 13 436 13 436 13 C408 13 384 51 384 96 C384 96 384 327 384 327 C384 327 547 573 547 573 C577 614 619 647 641 647 C641 647 649 647 649 647 C649 647 649 660 649 660 C649 660 605 660 605 660 C605 660 586 660 586 660 C586 660 566 660 566 660 C566 660 477 660 477 660 C478 660 478 657 477 654 C478 650 478 647 477 647 C477 647 490 647 490 647 C525 647 527 602 493 548 C493 548 369 356 369 356 C369 356 240 573 240 573 C218 614 223 647 251 647 C251 647 261 647 261 647 C261 647 261 660 261 660 C261 660 188 660 188 660 C188 660 114 660 114 660 C114 660 39 660 39 660 C39 660 2 660 2 660 C2 660 2 647 2 647 C2 647 9 647 9 647 C28 647 67 611 93 568 C93 568 260 287 260 287 C260 287 260 96 260 96 C260 51 236 13 208 13 C208 13 199 13 199 13 C199 13 199 0 199 0 C199 0 260 0 260 0 C260 0 322 0 322 0 C322 0 384 0 384 0 C384 0 445 0 445 0 C445 0 445 13 445 13 L445 13 Z " />
<glyph glyph-name="Zacute" unicode="&#x179;" horiz-adv-x="588" d="M322 690 C322 690 438 814 438 814 C457 834 474 855 474 861 C474 874 426 909 408 909 C404 909 392 886 379 859 C379 859 309 699 309 699 C309 699 322 690 322 690 L322 690 Z M510 154 C510 154 502 135 502 135 C478 80 408 32 350 32 C350 32 189 32 189 32 C189 32 530 660 530 660 C530 660 459 660 459 660 C459 660 388 660 388 660 C388 660 179 660 179 660 C179 660 113 660 113 660 C113 660 82 660 82 660 C81 656 79 649 78 644 C70 614 56 562 48 532 C48 532 58 532 58 532 C58 532 68 547 68 547 C99 591 170 629 223 629 C223 629 371 629 371 629 C371 629 33 0 33 0 C33 0 103 0 103 0 C103 0 172 0 172 0 C172 0 402 0 402 0 C402 0 494 0 494 0 C494 0 499 0 499 0 C499 4 501 12 502 16 C508 51 518 112 525 147 C525 149 510 154 510 154 L510 154 Z " />
<glyph glyph-name="zacute" unicode="&#x17a;" horiz-adv-x="483" d="M191 530 C191 530 308 654 308 654 C327 674 343 695 343 701 C343 714 295 749 278 749 C274 749 262 726 249 699 C249 699 179 539 179 539 C179 539 191 530 191 530 L191 530 Z M212 473 C212 473 212 473 212 473 C212 473 286 474 286 474 C286 474 37 0 37 0 C37 0 105 0 105 0 C105 0 173 0 173 0 C173 0 309 0 309 0 C309 0 400 0 400 0 C400 0 406 0 406 0 C406 3 407 9 408 13 C414 48 424 106 431 141 C430 141 429 142 428 142 C421 145 415 147 415 147 C415 147 408 129 408 129 C384 73 314 26 255 26 C255 26 187 26 187 26 C187 26 433 500 433 500 C433 500 367 500 367 500 C367 500 300 500 300 500 C300 500 166 500 166 500 C166 500 101 500 101 500 C101 500 70 500 70 500 C69 496 68 490 67 487 C60 463 50 423 44 400 C44 400 54 400 54 400 C54 400 63 411 63 411 C90 445 159 473 212 473 C212 473 212 473 212 473 L212 473 Z " />
<glyph glyph-name="Zdotaccent" unicode="&#x17b;" horiz-adv-x="588" d="M321 730 C360 730 392 762 392 800 C392 838 360 871 321 871 C283 871 251 838 251 800 C251 762 283 730 321 730 L321 730 Z M510 154 C510 154 502 135 502 135 C478 80 408 32 350 32 C350 32 189 32 189 32 C189 32 530 660 530 660 C530 660 459 660 459 660 C459 660 388 660 388 660 C388 660 179 660 179 660 C179 660 113 660 113 660 C113 660 82 660 82 660 C81 656 79 649 78 644 C70 614 56 562 48 532 C48 532 58 532 58 532 C58 532 68 547 68 547 C99 591 170 629 223 629 C223 629 371 629 371 629 C371 629 33 0 33 0 C33 0 103 0 103 0 C103 0 172 0 172 0 C172 0 402 0 402 0 C402 0 494 0 494 0 C494 0 499 0 499 0 C499 4 501 12 502 16 C508 51 518 112 525 147 C525 149 510 154 510 154 L510 154 Z " />
<glyph glyph-name="zdotaccent" unicode="&#x17c;" horiz-adv-x="483" d="M267 570 C305 570 337 602 337 640 C337 678 305 711 267 711 C229 711 197 678 197 640 C197 602 229 570 267 570 L267 570 Z M212 473 C212 473 212 473 212 473 C212 473 286 474 286 474 C286 474 37 0 37 0 C37 0 105 0 105 0 C105 0 173 0 173 0 C173 0 309 0 309 0 C309 0 400 0 400 0 C400 0 406 0 406 0 C406 3 407 9 408 13 C414 48 424 106 431 141 C430 141 429 142 428 142 C421 145 415 147 415 147 C415 147 408 129 408 129 C384 73 314 26 255 26 C255 26 187 26 187 26 C187 26 433 500 433 500 C433 500 367 500 367 500 C367 500 300 500 300 500 C300 500 166 500 166 500 C166 500 101 500 101 500 C101 500 70 500 70 500 C69 496 68 490 67 487 C60 463 50 423 44 400 C44 400 54 400 54 400 C54 400 63 411 63 411 C90 445 159 473 212 473 C212 473 212 473 212 473 L212 473 Z " />
<glyph glyph-name="Zcaron" unicode="&#x17d;" horiz-adv-x="588" d="M510 154 C510 154 502 135 502 135 C478 80 408 32 350 32 C350 32 189 32 189 32 C189 32 530 660 530 660 C530 660 459 660 459 660 C459 660 388 660 388 660 C388 660 179 660 179 660 C179 660 113 660 113 660 C113 660 82 660 82 660 C81 656 79 649 78 644 C70 614 56 562 48 532 C48 532 58 532 58 532 C58 532 68 547 68 547 C99 591 170 629 223 629 C223 629 371 629 371 629 C371 629 33 0 33 0 C33 0 103 0 103 0 C103 0 172 0 172 0 C172 0 402 0 402 0 C402 0 494 0 494 0 C494 0 499 0 499 0 C499 4 501 12 502 16 C508 51 518 112 525 147 C525 149 510 154 510 154 L510 154 Z M322 820 C322 820 432 929 432 929 C432 929 443 919 443 919 C443 919 358 748 358 748 C354 739 338 716 321 716 C305 716 289 739 285 748 C285 748 199 919 199 919 C199 919 211 929 211 929 C211 929 322 820 322 820 L322 820 Z " />
<glyph glyph-name="zcaron" unicode="&#x17e;" horiz-adv-x="483" d="M212 473 C212 473 212 473 212 473 C212 473 286 474 286 474 C286 474 37 0 37 0 C37 0 105 0 105 0 C105 0 173 0 173 0 C173 0 309 0 309 0 C309 0 400 0 400 0 C400 0 406 0 406 0 C406 3 407 9 408 13 C414 48 424 106 431 141 C430 141 429 142 428 142 C421 145 415 147 415 147 C415 147 408 129 408 129 C384 73 314 26 255 26 C255 26 187 26 187 26 C187 26 433 500 433 500 C433 500 367 500 367 500 C367 500 300 500 300 500 C300 500 166 500 166 500 C166 500 101 500 101 500 C101 500 70 500 70 500 C69 496 68 490 67 487 C60 463 50 423 44 400 C44 400 54 400 54 400 C54 400 63 411 63 411 C90 445 159 473 212 473 C212 473 212 473 212 473 L212 473 Z M267 661 C267 661 377 769 377 769 C377 769 389 759 389 759 C389 759 304 588 304 588 C300 579 284 556 267 556 C251 556 235 579 231 588 C231 588 145 759 145 759 C145 759 157 769 157 769 C157 769 267 661 267 661 L267 661 Z " />
<glyph glyph-name="SmallLetterOwithogon" unicode="&#x1eb;" horiz-adv-x="699" d="M715 -39 C715 -39 704 -31 704 -31 C692 -48 629 -63 569 -63 C483 -63 406 -37 362 -5 C533 3 649 144 649 277 C649 413 527 558 348 558 C168 558 46 413 46 277 C46 147 155 11 319 -4 C396 -77 493 -138 557 -138 C604 -138 677 -92 715 -39 L715 -39 Z M348 23 C241 23 169 153 169 277 C169 400 241 530 348 530 C454 530 526 400 526 277 C526 153 454 23 348 23 L348 23 Z " />
<glyph glyph-name="CapitalLetterAwithdo" unicode="&#x226;" horiz-adv-x="682" d="M317 730 C356 730 388 762 388 800 C388 838 356 871 317 871 C279 871 247 838 247 800 C247 762 279 730 317 730 L317 730 Z M675 13 C675 13 667 13 667 13 C644 13 609 46 589 87 C589 87 333 675 333 675 C333 675 302 675 302 675 C302 675 85 84 85 84 C66 44 32 13 8 13 C8 13 -2 13 -2 13 C-2 13 -2 0 -2 0 C-2 0 54 0 54 0 C54 0 75 0 75 0 C75 0 95 0 95 0 C95 0 184 0 184 0 C184 0 184 13 184 13 C184 13 172 13 172 13 C133 13 116 58 135 111 C135 111 134 111 134 111 C134 111 175 226 175 226 C175 226 397 226 397 226 C397 226 452 96 452 96 C452 96 451 96 451 96 C470 51 456 13 420 13 C420 13 408 13 408 13 C408 13 408 0 408 0 C408 0 492 0 492 0 C492 0 559 0 559 0 C559 0 627 0 627 0 C627 0 675 0 675 0 C675 0 675 13 675 13 L675 13 Z M384 256 C384 256 186 257 186 257 C186 257 276 514 276 514 C276 514 384 256 384 256 L384 256 Z " />
<glyph glyph-name="LETTERSMALLCAPITALG" unicode="&#x262;" horiz-adv-x="738" d="M644 260 C644 260 583 260 583 260 C583 260 533 260 533 260 C533 260 483 260 483 260 C483 260 422 260 422 260 C422 260 422 247 422 247 C422 247 431 247 431 247 C459 248 483 209 483 164 C483 164 483 43 483 43 C442 31 398 23 366 23 C260 23 169 140 169 277 C169 414 260 530 366 530 C372 530 378 530 385 529 C385 529 385 529 385 529 C455 523 534 466 556 405 C559 397 564 383 567 375 C567 375 578 375 578 375 C578 375 578 501 578 501 C521 532 424 558 366 558 C193 558 46 429 46 277 C46 125 193 -5 366 -5 C428 -5 528 22 583 54 C583 54 583 164 583 164 C584 209 607 248 635 247 C635 247 644 247 644 247 C644 247 644 260 644 260 L644 260 Z " />
<glyph glyph-name="LETTERSMALLCAPITALI" unicode="&#x26a;" horiz-adv-x="321" d="M281 553 C250 554 196 554 165 553 C133 554 79 554 48 553 C48 553 48 541 48 541 C48 541 57 541 57 541 C85 541 109 502 109 457 C109 457 109 96 109 96 C109 51 85 13 57 13 C57 13 48 13 48 13 C48 13 48 0 48 0 C48 0 109 0 109 0 C109 0 165 0 165 0 C165 0 220 0 220 0 C220 0 281 0 281 0 C281 0 281 13 281 13 C281 13 272 13 272 13 C244 13 221 51 220 96 C220 96 220 457 220 457 C221 502 244 541 272 541 C272 541 281 541 281 541 C281 541 281 553 281 553 L281 553 Z " />
<glyph glyph-name="LETTERSMALLCAPITALN" unicode="&#x274;" horiz-adv-x="627" d="M590 553 C569 554 533 554 512 553 C492 554 456 554 435 553 C435 553 435 541 435 541 C435 541 444 541 444 541 C472 541 496 502 496 457 C496 457 496 163 496 163 C496 163 198 553 198 553 C198 553 133 553 133 553 C133 553 116 553 116 553 C95 554 59 554 39 553 C39 553 39 541 39 541 C39 541 48 541 48 541 C75 541 99 502 99 457 C99 457 99 96 99 96 C99 51 75 13 48 13 C48 13 39 13 39 13 C39 13 39 0 39 0 C39 0 99 0 99 0 C99 0 116 0 116 0 C116 0 133 0 133 0 C133 0 193 0 193 0 C193 0 193 13 193 13 C193 13 184 13 184 13 C157 13 133 51 133 96 C133 96 133 455 133 455 C133 455 445 48 445 48 C445 48 497 -20 497 -20 C497 -20 529 -20 529 -20 C529 -20 529 89 529 89 C529 89 529 457 529 457 C529 502 553 541 581 541 C581 541 590 541 590 541 C590 541 590 553 590 553 L590 553 Z " />
<glyph glyph-name="LETTERSMALLCAPITALR" unicode="&#x280;" horiz-adv-x="623" d="M37 541 C37 541 46 541 46 541 C74 541 98 502 98 457 C98 457 98 96 98 96 C98 51 74 13 46 13 C46 13 37 13 37 13 C37 13 37 0 37 0 C37 0 98 0 98 0 C98 0 154 0 154 0 C154 0 209 0 209 0 C209 0 270 0 270 0 C270 0 270 13 270 13 C270 13 261 13 261 13 C233 13 210 51 209 96 C209 96 209 254 209 254 C209 254 247 254 247 254 C247 254 369 106 369 106 C444 14 473 0 584 0 C584 0 624 0 624 0 C624 0 624 23 624 23 C624 23 619 23 619 23 C583 23 570 31 526 84 C526 84 372 270 372 270 C448 296 503 349 503 409 C503 487 402 553 283 553 C283 553 209 553 209 553 C209 553 154 553 154 553 C122 554 68 554 37 553 C37 553 37 541 37 541 L37 541 Z M269 282 C269 282 224 282 224 282 C224 282 209 282 209 282 C209 282 209 525 209 525 C209 525 283 525 283 525 C339 525 386 472 386 409 C386 340 332 282 269 282 L269 282 Z " />
<glyph glyph-name="LETTERSMALLCAPITALY" unicode="&#x28f;" horiz-adv-x="577" d="M404 13 C404 13 395 13 395 13 C368 13 345 48 344 91 C344 91 344 96 344 96 C344 96 344 277 344 277 C344 277 344 277 344 277 C344 277 472 464 472 464 C503 506 546 541 569 541 C569 541 576 541 576 541 C576 541 576 553 576 553 C560 554 532 554 515 553 C487 554 438 554 409 553 C409 553 409 541 409 541 C409 541 421 541 421 541 C458 541 458 493 420 437 C420 437 420 437 420 437 C420 437 325 295 325 295 C325 295 228 465 228 465 C207 506 212 541 240 541 C240 541 250 541 250 541 C250 541 250 553 250 553 C212 554 148 554 110 553 C82 554 34 554 6 553 C6 553 6 541 6 541 C6 541 13 541 13 541 C33 541 74 502 101 457 C101 457 102 457 102 457 C102 457 232 243 232 243 C232 243 232 96 232 96 C232 51 208 13 180 13 C180 13 171 13 171 13 C171 13 171 0 171 0 C171 0 232 0 232 0 C232 0 288 0 288 0 C288 0 344 0 344 0 C344 0 404 0 404 0 C404 0 404 13 404 13 L404 13 Z " />
<glyph glyph-name="LETTERSMALLCAPITALB" unicode="&#x299;" horiz-adv-x="573" d="M37 541 C37 541 46 541 46 541 C74 541 98 502 98 457 C98 457 98 96 98 96 C98 51 74 13 46 13 C46 13 37 13 37 13 C37 13 37 0 37 0 C37 0 98 0 98 0 C98 0 154 0 154 0 C154 0 209 0 209 0 C209 0 304 0 304 0 C439 0 553 69 553 151 C553 218 468 277 358 292 C439 313 498 361 498 416 C498 490 399 553 284 553 C284 553 209 553 209 553 C209 553 154 553 154 553 C122 554 68 554 37 553 C37 553 37 541 37 541 L37 541 Z M209 298 C209 298 209 525 209 525 C209 525 284 525 284 525 C339 525 387 475 387 416 C387 352 333 298 269 298 C269 298 209 298 209 298 L209 298 Z M209 273 C209 273 266 273 266 273 C358 273 436 217 436 151 C436 85 370 29 293 29 C293 29 209 29 209 29 C209 29 209 273 209 273 L209 273 Z " />
<glyph glyph-name="LETTERSMALLCAPITALH" unicode="&#x29c;" horiz-adv-x="698" d="M658 553 C627 554 573 554 542 553 C510 554 456 554 425 553 C425 553 425 541 425 541 C425 541 434 541 434 541 C462 541 486 502 486 457 C486 457 486 299 486 299 C486 299 216 299 216 299 C216 299 216 457 216 457 C217 502 240 541 268 541 C268 541 277 541 277 541 C277 541 277 553 277 553 C246 554 192 554 161 553 C129 554 75 554 44 553 C44 553 44 541 44 541 C44 541 53 541 53 541 C81 541 105 502 105 457 C105 457 105 96 105 96 C105 51 81 13 53 13 C53 13 44 13 44 13 C44 13 44 0 44 0 C44 0 105 0 105 0 C105 0 161 0 161 0 C161 0 216 0 216 0 C216 0 277 0 277 0 C277 0 277 13 277 13 C277 13 268 13 268 13 C240 13 217 51 216 96 C216 96 216 271 216 271 C216 271 486 271 486 271 C486 271 486 96 486 96 C486 51 462 13 434 13 C434 13 425 13 425 13 C425 13 425 0 425 0 C425 0 486 0 486 0 C486 0 542 0 542 0 C542 0 598 0 598 0 C598 0 658 0 658 0 C658 0 658 13 658 13 C658 13 649 13 649 13 C622 13 599 48 598 91 C598 91 598 96 598 96 C598 96 598 457 598 457 C598 457 598 462 598 462 C599 505 622 541 649 541 C649 541 658 541 658 541 C658 541 658 553 658 553 L658 553 Z " />
<glyph glyph-name="LETTERSMALLCAPITALL" unicode="&#x29f;" horiz-adv-x="567" d="M277 553 C246 554 192 554 161 553 C129 554 75 554 44 553 C44 553 44 541 44 541 C44 541 53 541 53 541 C81 541 105 502 105 457 C105 457 105 96 105 96 C105 51 81 13 53 13 C53 13 44 13 44 13 C44 13 44 0 44 0 C44 0 105 0 105 0 C105 0 161 0 161 0 C161 0 216 0 216 0 C216 0 374 0 374 0 C374 0 466 0 466 0 C466 0 471 0 471 0 C471 4 472 10 473 14 C479 49 489 108 496 143 C496 143 494 144 493 144 C486 147 481 149 481 149 C481 149 473 131 473 131 C449 75 379 28 321 28 C321 28 216 28 216 28 C216 28 216 457 216 457 C217 502 240 541 268 541 C268 541 277 541 277 541 C277 541 277 553 277 553 L277 553 Z " />
<glyph glyph-name="LETTERSMALLCAPITALA" unicode="&#x1d00;" horiz-adv-x="609" d="M602 13 C602 13 594 13 594 13 C571 13 537 45 516 85 C516 85 298 566 298 566 C298 566 270 566 270 566 C270 566 92 96 92 96 C92 96 92 96 92 96 C75 51 36 13 9 13 C9 13 0 13 0 13 C0 13 0 0 0 0 C0 0 56 0 56 0 C56 0 74 0 74 0 C74 0 92 0 92 0 C92 0 181 0 181 0 C181 0 181 13 181 13 C181 13 169 13 169 13 C130 13 113 58 133 111 C133 111 132 111 132 111 C132 111 161 189 161 189 C161 189 349 189 349 189 C349 189 393 89 393 89 C408 47 394 13 360 13 C360 13 349 13 349 13 C349 13 349 0 349 0 C349 0 432 0 432 0 C432 0 493 0 493 0 C493 0 554 0 554 0 C554 0 602 0 602 0 C602 0 602 13 602 13 L602 13 Z M337 216 C337 216 171 217 171 217 C171 217 246 422 246 422 C246 422 337 216 337 216 L337 216 Z " />
<glyph glyph-name="LETTERSMALLCAPITALC" unicode="&#x1d04;" horiz-adv-x="657" d="M598 375 C598 375 598 501 598 501 C541 532 439 558 376 558 C198 558 46 429 46 277 C46 125 198 -5 376 -5 C448 -5 550 26 599 62 C599 62 590 74 590 74 C590 74 590 74 590 74 C590 74 599 62 599 62 C599 62 599 186 599 186 C599 186 588 186 588 186 C585 178 580 164 577 156 C551 84 459 23 376 23 C264 23 169 140 169 277 C169 414 264 530 376 530 C390 530 405 529 422 526 C488 512 556 459 576 405 C579 397 584 383 587 375 C587 375 598 375 598 375 L598 375 Z " />
<glyph glyph-name="LETTERSMALLCAPITALD" unicode="&#x1d05;" horiz-adv-x="668" d="M37 541 C37 541 46 541 46 541 C74 541 98 502 98 457 C98 457 98 96 98 96 C98 51 74 13 46 13 C46 13 37 13 37 13 C37 13 37 0 37 0 C37 0 98 0 98 0 C98 0 154 0 154 0 C154 0 209 0 209 0 C209 0 309 0 309 0 C476 0 618 127 618 277 C618 426 464 553 284 553 C284 553 209 553 209 553 C209 553 154 553 154 553 C122 554 68 554 37 553 C37 553 37 541 37 541 L37 541 Z M209 29 C209 29 209 525 209 525 C209 525 284 525 284 525 C404 525 507 411 507 277 C507 143 416 29 309 29 C309 29 209 29 209 29 L209 29 Z " />
<glyph glyph-name="LETTERSMALLCAPITALE" unicode="&#x1d07;" horiz-adv-x="567" d="M401 204 C401 204 401 273 401 273 C401 273 401 287 401 287 C401 287 401 301 401 301 C401 301 401 362 401 362 C401 362 391 362 391 362 C391 362 388 352 388 352 C379 325 322 301 263 301 C263 301 216 301 216 301 C216 301 216 525 216 525 C216 525 305 525 305 525 C369 525 438 483 455 433 C455 433 461 416 461 416 C461 416 470 416 470 416 C470 416 470 539 470 539 C470 539 470 553 470 553 C470 554 467 554 464 553 C462 554 459 554 458 553 C435 554 397 554 374 553 C374 553 216 553 216 553 C216 553 161 553 161 553 C129 554 75 554 44 553 C44 553 44 541 44 541 C44 541 53 541 53 541 C81 541 105 502 105 457 C105 457 105 96 105 96 C105 51 81 13 53 13 C53 13 44 13 44 13 C44 13 44 0 44 0 C44 0 105 0 105 0 C105 0 161 0 161 0 C161 0 216 0 216 0 C216 0 374 0 374 0 C374 0 466 0 466 0 C466 0 471 0 471 0 C471 4 472 10 473 14 C479 47 489 104 495 137 C495 137 486 137 486 137 C486 137 477 121 477 121 C451 71 375 28 311 28 C311 28 216 28 216 28 C216 28 216 273 216 273 C216 273 263 273 263 273 C322 273 379 246 388 215 C388 215 391 204 391 204 C391 204 401 204 401 204 L401 204 Z " />
<glyph glyph-name="LETTERSMALLCAPITALJ" unicode="&#x1d0a;" horiz-adv-x="376" d="M337 553 C305 554 252 554 220 553 C189 554 135 554 104 553 C104 553 104 541 104 541 C104 541 113 541 113 541 C141 541 165 502 165 457 C165 457 165 168 165 168 C165 67 154 13 135 13 C118 13 100 33 97 57 C94 83 70 104 46 104 C18 104 -3 83 0 58 C5 21 54 -10 106 -10 C217 -10 277 86 277 262 C277 262 276 466 276 466 C279 507 302 541 328 541 C328 541 337 541 337 541 C337 541 337 553 337 553 L337 553 Z " />
<glyph glyph-name="LETTERSMALLCAPITALK" unicode="&#x1d0b;" horiz-adv-x="598" d="M375 541 C375 541 382 541 382 541 C404 541 391 505 355 462 C355 462 285 384 285 384 C285 384 285 385 285 385 C285 385 209 298 209 298 C209 298 209 457 209 457 C210 502 233 541 261 541 C261 541 270 541 270 541 C270 541 270 553 270 553 C239 554 185 554 154 553 C122 554 68 554 37 553 C37 553 37 541 37 541 C37 541 46 541 46 541 C74 541 98 502 98 457 C98 457 98 96 98 96 C98 51 74 13 46 13 C46 13 37 13 37 13 C37 13 37 0 37 0 C37 0 98 0 98 0 C98 0 154 0 154 0 C154 0 209 0 209 0 C209 0 270 0 270 0 C270 0 270 13 270 13 C270 13 261 13 261 13 C233 13 210 51 209 96 C209 96 209 298 209 298 C209 298 322 123 322 123 C375 40 455 -5 549 -5 C549 -5 589 -5 589 -5 C589 -5 589 18 589 18 C589 18 584 18 584 18 C543 18 477 86 397 210 C397 210 301 360 301 360 C301 360 395 468 395 468 C433 508 484 541 509 541 C509 541 519 541 519 541 C519 541 519 553 519 553 C501 554 470 554 452 553 C431 554 396 554 375 553 C375 553 375 541 375 541 L375 541 Z " />
<glyph glyph-name="LETTERSMALLCAPITALM" unicode="&#x1d0d;" horiz-adv-x="789" d="M781 13 C781 13 771 13 771 13 C747 13 723 44 716 83 C716 83 696 466 696 466 C696 507 716 541 742 541 C742 541 751 541 751 541 C750 541 750 544 751 547 C750 550 750 552 750 553 C720 554 670 554 640 553 C640 553 630 553 630 553 C630 553 590 553 590 553 C590 553 361 -5 361 -5 C361 -5 389 -5 389 -5 C389 -5 593 467 593 467 C593 467 606 89 606 89 C605 47 583 13 557 13 C557 13 548 13 548 13 C548 13 548 0 548 0 C548 0 609 0 609 0 C609 0 665 0 665 0 C665 0 721 0 721 0 C721 0 781 0 781 0 C781 0 781 13 781 13 L781 13 Z M58 541 C58 541 67 541 67 541 C92 541 113 507 114 466 C114 466 97 83 97 83 C91 44 67 13 42 13 C42 13 33 13 33 13 C33 13 33 0 33 0 C33 0 93 0 93 0 C93 0 110 0 110 0 C110 0 127 0 127 0 C127 0 216 0 216 0 C216 0 216 13 216 13 C216 13 202 13 202 13 C163 13 131 56 132 107 C132 107 146 419 146 419 C146 419 334 48 334 48 C334 48 361 -5 361 -5 C361 -5 413 123 413 123 C413 123 410 130 410 130 C410 130 201 553 201 553 C201 553 152 553 152 553 C152 553 135 553 135 553 C114 554 79 554 58 553 C58 553 58 541 58 541 L58 541 Z M750 553 C751 553 751 553 751 553 C751 553 751 553 750 553 C750 553 750 553 750 553 L750 553 Z " />
<glyph glyph-name="LETTERSMALLCAPITALO" unicode="&#x1d0f;" horiz-adv-x="699" d="M348 23 C241 23 169 153 169 277 C169 400 241 530 348 530 C454 530 526 400 526 277 C526 153 454 23 348 23 L348 23 Z M46 277 C46 140 168 -5 348 -5 C527 -5 649 140 649 277 C649 413 527 558 348 558 C168 558 46 413 46 277 L46 277 Z " />
<glyph glyph-name="LETTERSMALLCAPITALP" unicode="&#x1d18;" horiz-adv-x="525" d="M37 541 C37 541 46 541 46 541 C74 541 98 502 98 457 C98 457 98 96 98 96 C98 51 74 13 46 13 C46 13 37 13 37 13 C37 13 37 0 37 0 C37 0 98 0 98 0 C98 0 154 0 154 0 C154 0 209 0 209 0 C209 0 270 0 270 0 C270 0 270 13 270 13 C270 13 261 13 261 13 C233 13 210 51 209 96 C209 96 209 239 209 239 C209 239 269 239 269 239 C397 239 506 312 506 397 C506 481 404 553 284 553 C284 553 209 553 209 553 C209 553 154 553 154 553 C122 554 68 554 37 553 C37 553 37 541 37 541 L37 541 Z M209 268 C209 268 209 525 209 525 C209 525 284 525 284 525 C340 525 388 466 388 397 C388 327 333 268 269 268 C269 268 209 268 209 268 L209 268 Z " />
<glyph glyph-name="LETTERSMALLCAPITALT" unicode="&#x1d1b;" horiz-adv-x="560" d="M561 404 C558 441 552 503 549 539 C549 543 548 550 548 553 C548 554 545 554 541 553 C540 554 537 554 535 553 C513 554 474 554 451 553 C451 553 109 553 109 553 C86 554 47 554 25 553 C23 554 20 554 19 553 C15 554 12 554 12 553 C12 550 11 543 11 539 C8 503 2 441 -1 404 C-1 404 9 404 9 404 C9 404 19 427 19 427 C41 480 105 525 159 525 C159 525 224 525 224 525 C224 525 224 96 224 96 C224 51 200 13 173 13 C173 13 163 13 163 13 C163 13 163 0 163 0 C163 0 224 0 224 0 C224 0 280 0 280 0 C280 0 336 0 336 0 C336 0 397 0 397 0 C397 0 397 13 397 13 C397 13 387 13 387 13 C359 13 336 51 336 96 C336 96 336 525 336 525 C336 525 401 525 401 525 C455 525 519 480 541 427 C541 427 551 404 551 404 C551 404 561 404 561 404 L561 404 Z " />
<glyph glyph-name="LETTERSMALLCAPITALU" unicode="&#x1d1c;" horiz-adv-x="598" d="M579 553 C556 554 516 554 493 553 C469 554 427 554 403 553 C403 553 403 541 403 541 C403 541 414 541 414 541 C445 541 473 503 476 455 C476 455 475 164 475 164 C475 94 420 34 320 34 C242 34 200 90 200 156 C200 156 199 462 199 462 C202 505 224 541 251 541 C251 541 260 541 260 541 C260 541 260 553 260 553 C229 554 175 554 144 553 C112 554 58 554 27 553 C27 553 27 541 27 541 C27 541 36 541 36 541 C64 541 88 502 88 457 C88 457 88 178 88 178 C88 79 164 -5 303 -5 C437 -5 510 67 510 153 C510 153 510 447 510 447 C510 498 537 541 568 541 C568 541 579 541 579 541 C579 541 579 553 579 553 L579 553 Z " />
<glyph glyph-name="LETTERSMALLCAPITALV" unicode="&#x1d20;" horiz-adv-x="599" d="M598 553 C578 554 545 554 525 553 C494 554 441 554 411 553 C411 553 411 541 411 541 C411 541 425 541 425 541 C467 541 485 488 463 427 C463 427 463 427 463 427 C463 427 355 124 355 124 C355 124 203 468 203 468 C189 508 203 541 234 541 C234 541 245 541 245 541 C245 541 245 553 245 553 C207 554 142 554 103 553 C75 554 27 554 -1 553 C-1 553 -1 541 -1 541 C-1 541 6 541 6 541 C29 541 65 502 86 457 C86 457 87 457 87 457 C87 457 306 -15 306 -15 C306 -15 335 -15 335 -15 C335 -15 507 458 507 458 C524 502 561 541 589 541 C589 541 598 541 598 541 C598 541 598 553 598 553 L598 553 Z " />
<glyph glyph-name="LETTERSMALLCAPITALW" unicode="&#x1d21;" horiz-adv-x="852" d="M847 553 C827 554 793 554 773 553 C746 554 699 554 671 553 C671 553 671 541 671 541 C671 541 683 541 683 541 C720 541 741 502 727 457 C727 457 727 457 727 457 C727 457 586 -15 586 -15 C586 -15 615 -15 615 -15 C615 -15 760 457 760 457 C760 457 761 457 761 457 C775 502 810 541 838 541 C838 541 847 541 847 541 C847 541 847 553 847 553 L847 553 Z M241 553 C205 554 143 554 107 553 C79 554 30 554 2 553 C2 553 2 541 2 541 C2 541 9 541 9 541 C31 541 63 505 81 462 C81 462 264 -15 264 -15 C264 -15 293 -15 293 -15 C293 -15 420 391 420 391 C420 391 586 -15 586 -15 C586 -15 634 146 634 146 C634 146 474 563 474 563 C474 563 445 563 445 563 C445 563 264 -15 264 -15 C264 -15 311 136 311 136 C311 136 202 457 202 457 C202 457 202 457 202 457 C186 502 200 541 231 541 C231 541 241 541 241 541 C241 541 241 553 241 553 L241 553 Z " />
<glyph glyph-name="LETTERSMALLCAPITALZ" unicode="&#x1d22;" horiz-adv-x="528" d="M444 15 C451 49 461 109 467 144 C467 144 466 145 464 145 C458 148 452 150 452 150 C452 150 444 132 444 132 C421 76 351 29 292 29 C292 29 178 29 178 29 C178 29 470 553 470 553 C470 553 406 553 406 553 C406 553 342 553 342 553 C342 553 185 553 185 553 C163 554 124 554 102 553 C100 554 97 554 95 553 C92 554 89 554 89 553 C88 550 86 543 85 539 C77 509 63 458 56 428 C56 428 66 428 66 428 C66 428 76 443 76 443 C106 487 177 525 231 525 C231 525 327 525 327 525 C327 525 37 0 37 0 C37 0 99 0 99 0 C99 0 162 0 162 0 C162 0 345 0 345 0 C345 0 438 0 438 0 C438 0 442 0 442 0 C443 4 444 10 444 15 L444 15 Z " />
<glyph glyph-name="Wgrave" unicode="&#x1e80;" horiz-adv-x="987" d="M983 660 C983 660 926 660 926 660 C926 660 907 660 907 660 C907 660 888 660 888 660 C888 660 803 660 803 660 C803 660 803 647 803 647 C803 647 815 647 815 647 C852 647 873 609 859 564 C859 564 859 564 859 564 C859 564 686 -15 686 -15 C686 -15 718 -15 718 -15 C718 -15 899 574 899 574 C915 614 948 647 974 647 C974 647 983 647 983 647 C983 647 983 660 983 660 L983 660 Z M255 660 C255 660 182 660 182 660 C182 660 114 660 114 660 C114 660 46 660 46 660 C46 660 2 660 2 660 C2 660 2 647 2 647 C2 647 9 647 9 647 C32 647 65 609 82 564 C82 564 82 564 82 564 C82 564 301 -15 301 -15 C301 -15 333 -15 333 -15 C333 -15 548 670 548 670 C548 670 516 670 516 670 C516 670 301 -15 301 -15 C301 -15 357 164 357 164 C357 164 216 564 216 564 C216 564 216 564 216 564 C200 609 213 647 245 647 C245 647 255 647 255 647 C255 647 255 660 255 660 L255 660 Z M543 859 C531 886 518 909 514 909 C496 909 448 874 448 861 C448 855 465 834 485 814 C485 814 604 690 604 690 C604 690 617 699 617 699 C617 699 543 859 543 859 L543 859 Z M686 -15 C686 -15 743 177 743 177 C743 177 548 670 548 670 C548 670 484 466 484 466 C484 466 686 -15 686 -15 L686 -15 Z " />
<glyph glyph-name="Wacute" unicode="&#x1e82;" horiz-adv-x="987" d="M472 690 C472 690 588 814 588 814 C608 834 624 855 624 861 C624 874 576 909 558 909 C554 909 542 886 530 859 C530 859 459 699 459 699 C459 699 472 690 472 690 L472 690 Z M983 660 C983 660 926 660 926 660 C926 660 907 660 907 660 C907 660 888 660 888 660 C888 660 803 660 803 660 C803 660 803 647 803 647 C803 647 815 647 815 647 C852 647 873 609 859 564 C859 564 859 564 859 564 C859 564 686 -15 686 -15 C686 -15 718 -15 718 -15 C718 -15 899 574 899 574 C915 614 948 647 974 647 C974 647 983 647 983 647 C983 647 983 660 983 660 L983 660 Z M255 660 C255 660 182 660 182 660 C182 660 114 660 114 660 C114 660 46 660 46 660 C46 660 2 660 2 660 C2 660 2 647 2 647 C2 647 9 647 9 647 C32 647 65 609 82 564 C82 564 82 564 82 564 C82 564 301 -15 301 -15 C301 -15 333 -15 333 -15 C333 -15 548 670 548 670 C548 670 516 670 516 670 C516 670 301 -15 301 -15 C301 -15 357 164 357 164 C357 164 216 564 216 564 C216 564 216 564 216 564 C200 609 213 647 245 647 C245 647 255 647 255 647 C255 647 255 660 255 660 L255 660 Z M686 -15 C686 -15 743 177 743 177 C743 177 548 670 548 670 C548 670 484 466 484 466 C484 466 686 -15 686 -15 L686 -15 Z " />
<glyph glyph-name="Wdieresis" unicode="&#x1e84;" horiz-adv-x="987" d="M633 730 C671 730 703 762 703 800 C703 838 671 871 633 871 C594 871 562 838 562 800 C562 762 594 730 633 730 L633 730 Z M432 730 C470 730 502 762 502 800 C502 838 470 871 432 871 C394 871 362 838 362 800 C362 762 394 730 432 730 L432 730 Z M983 660 C983 660 926 660 926 660 C926 660 907 660 907 660 C907 660 888 660 888 660 C888 660 803 660 803 660 C803 660 803 647 803 647 C803 647 815 647 815 647 C852 647 873 609 859 564 C859 564 859 564 859 564 C859 564 686 -15 686 -15 C686 -15 718 -15 718 -15 C718 -15 899 574 899 574 C915 614 948 647 974 647 C974 647 983 647 983 647 C983 647 983 660 983 660 L983 660 Z M255 660 C255 660 182 660 182 660 C182 660 114 660 114 660 C114 660 46 660 46 660 C46 660 2 660 2 660 C2 660 2 647 2 647 C2 647 9 647 9 647 C32 647 65 609 82 564 C82 564 82 564 82 564 C82 564 301 -15 301 -15 C301 -15 333 -15 333 -15 C333 -15 548 670 548 670 C548 670 516 670 516 670 C516 670 301 -15 301 -15 C301 -15 357 164 357 164 C357 164 216 564 216 564 C216 564 216 564 216 564 C200 609 213 647 245 647 C245 647 255 647 255 647 C255 647 255 660 255 660 L255 660 Z M686 -15 C686 -15 743 177 743 177 C743 177 548 670 548 670 C548 670 484 466 484 466 C484 466 686 -15 686 -15 L686 -15 Z " />
<glyph glyph-name="CapitalLetterEWITHTI" unicode="&#x1ebc;" horiz-adv-x="621" d="M167 755 C167 785 185 811 206 811 C258 811 323 748 375 748 C423 748 464 811 464 885 C464 885 445 885 445 885 C445 853 424 825 400 825 C348 825 283 887 231 887 C186 887 148 826 148 755 C148 755 167 755 167 755 L167 755 Z M456 258 C456 258 456 327 456 327 C456 327 456 342 456 342 C456 342 456 358 456 358 C456 358 456 418 456 418 C456 419 455 419 454 418 C449 419 445 419 445 418 C445 418 443 409 443 409 C434 381 376 358 317 358 C317 358 226 358 226 358 C226 358 226 629 226 629 C226 629 361 629 361 629 C425 629 494 586 511 536 C511 536 517 520 517 520 C517 520 526 520 526 520 C526 520 526 644 526 644 C526 644 526 660 526 660 C526 660 511 660 511 660 C511 660 430 660 430 660 C430 660 226 660 226 660 C226 660 164 660 164 660 C164 660 102 660 102 660 C102 660 41 660 41 660 C41 660 41 647 41 647 C41 647 50 647 50 647 C78 647 102 609 102 564 C102 564 102 96 102 96 C102 51 78 13 50 13 C50 13 41 13 41 13 C41 13 41 0 41 0 C41 0 102 0 102 0 C102 0 164 0 164 0 C164 0 226 0 226 0 C226 0 429 0 429 0 C429 0 521 0 521 0 C521 0 525 0 525 0 C526 4 528 11 528 16 C534 49 544 107 550 140 C550 140 541 140 541 140 C541 140 532 124 532 124 C506 74 430 31 366 31 C366 31 226 31 226 31 C226 31 226 327 226 327 C226 327 317 327 317 327 C376 327 434 300 443 268 C443 268 445 258 445 258 C445 258 456 258 456 258 L456 258 Z " />
<glyph glyph-name="Ygrave" unicode="&#x1ef2;" horiz-adv-x="650" d="M445 13 C445 13 436 13 436 13 C408 13 384 51 384 96 C384 96 384 327 384 327 C384 327 547 573 547 573 C577 614 619 647 641 647 C641 647 649 647 649 647 C649 647 649 660 649 660 C649 660 605 660 605 660 C605 660 586 660 586 660 C586 660 566 660 566 660 C566 660 477 660 477 660 C478 660 478 657 477 654 C478 650 478 647 477 647 C477 647 490 647 490 647 C525 647 527 602 493 548 C493 548 369 356 369 356 C369 356 240 573 240 573 C218 614 223 647 251 647 C251 647 261 647 261 647 C261 647 261 660 261 660 C261 660 188 660 188 660 C188 660 114 660 114 660 C114 660 39 660 39 660 C39 660 2 660 2 660 C2 660 2 647 2 647 C2 647 9 647 9 647 C28 647 67 611 93 568 C93 568 260 287 260 287 C260 287 260 96 260 96 C260 51 236 13 208 13 C208 13 199 13 199 13 C199 13 199 0 199 0 C199 0 260 0 260 0 C260 0 322 0 322 0 C322 0 384 0 384 0 C384 0 445 0 445 0 C445 0 445 13 445 13 L445 13 Z M333 859 C321 886 308 909 303 909 C286 909 238 874 238 861 C238 855 255 834 274 814 C274 814 394 690 394 690 C394 690 407 699 407 699 C407 699 333 859 333 859 L333 859 Z " />
<glyph glyph-name="quoteleft" unicode="&#x2018;" horiz-adv-x="282" d="M139 501 C134 501 128 500 123 499 C116 504 112 505 112 502 C112 566 151 635 196 652 C196 652 189 669 189 669 C112 640 46 538 46 447 C46 451 52 448 62 440 C61 434 60 428 60 421 C60 378 96 342 139 342 C182 342 219 378 219 421 C219 464 182 501 139 501 L139 501 Z " />
<glyph glyph-name="quoteright" unicode="&#x2019;" horiz-adv-x="282" d="M139 506 C144 506 150 507 155 508 C163 503 167 501 167 504 C167 440 128 372 83 355 C83 355 89 337 89 337 C167 366 233 468 233 559 C233 556 227 558 216 566 C218 573 219 579 219 586 C219 628 182 665 139 665 C97 665 60 628 60 586 C60 543 97 506 139 506 L139 506 Z " />
<glyph glyph-name="quotedblleft" unicode="&#x201c;" horiz-adv-x="505" d="M139 501 C134 501 128 500 123 499 C116 504 112 505 112 502 C112 566 151 635 196 652 C196 652 189 669 189 669 C112 640 46 538 46 447 C46 451 52 448 62 440 C61 434 60 428 60 421 C60 378 96 342 139 342 C182 342 219 378 219 421 C219 464 182 501 139 501 L139 501 Z M313 483 C295 468 283 445 283 421 C283 378 319 342 362 342 C400 342 433 370 440 406 C458 390 477 373 496 353 C496 353 557 412 557 412 C437 536 334 577 334 502 C334 566 373 635 419 652 C419 652 412 669 412 669 C335 640 269 538 269 447 C269 477 285 488 313 483 L313 483 Z " />
<glyph glyph-name="quotedblright" unicode="&#x201d;" horiz-adv-x="505" d="M139 506 C144 506 150 507 155 508 C163 503 167 501 167 504 C167 440 128 372 83 355 C83 355 89 337 89 337 C160 363 221 450 231 534 C322 460 390 444 390 504 C390 440 351 372 306 355 C306 355 312 337 312 337 C390 366 456 468 456 559 C456 530 439 519 412 524 C430 539 442 562 442 586 C442 628 405 665 362 665 C324 665 292 636 284 601 C266 616 247 634 228 654 C228 654 204 631 204 631 C190 651 165 665 139 665 C97 665 60 628 60 586 C60 543 97 506 139 506 C139 506 139 506 139 506 L139 506 Z " />
<glyph glyph-name="ellipsis" unicode="&#x2026;" horiz-adv-x="645" d="M538 0 C581 0 618 37 618 80 C618 123 581 160 538 160 C495 160 458 123 458 80 C458 37 495 0 538 0 L538 0 Z M323 0 C366 0 403 37 403 80 C403 123 366 160 323 160 C280 160 243 123 243 80 C243 37 280 0 323 0 L323 0 Z M108 0 C151 0 188 37 188 80 C188 123 151 160 108 160 C65 160 28 123 28 80 C28 37 65 0 108 0 L108 0 Z " />
<glyph glyph-name="guilsinglleft" unicode="&#x2039;" horiz-adv-x="299" d="M134 252 C134 252 251 454 251 454 C251 454 239 466 239 466 C239 466 20 258 20 258 C20 258 20 245 20 245 C20 245 242 37 242 37 C242 37 255 50 255 50 C255 50 134 252 134 252 L134 252 Z " />
</font>
</svg>
