<?xml version="1.0" encoding="UTF-8"?>
<svg xmlns="http://www.w3.org/2000/svg" xmlns:xlink="http://www.w3.org/1999/xlink" version="1.2" >
<font id="Zimra Light">
<font-face  font-family="Zimra" units-per-em="1024" ascent="936" descent="-280" font-style="normal" font-weight="300" font-stretch="normal" cap-height="660" x-height="500" underline-position="0" underline-thickness="0" />
<missing-glyph  horiz-adv-x="472" d="M0 700 C0 700 432 700 432 700 C432 700 432 0 432 0 C432 0 0 0 0 0 C0 0 0 700 0 700 L0 700 Z M50 50 C50 50 382 50 382 50 C382 50 382 650 382 650 C382 650 50 650 50 650 C50 650 50 50 50 50 L50 50 Z " />
<glyph glyph-name="NULL" d="" />
<glyph glyph-name="CR" unicode="&#xd;" horiz-adv-x="256" d="" />
<glyph glyph-name="space" unicode="&#x20;" horiz-adv-x="250" d="" />
<glyph glyph-name="exclam" unicode="&#x21;" horiz-adv-x="183" d="M96 -5 C115 -5 132 12 132 31 C132 50 115 67 96 67 C77 67 60 50 60 31 C60 12 77 -5 96 -5 L96 -5 Z M123 620 C125 644 111 665 93 665 C75 665 60 644 62 620 C62 620 93 142 93 142 C93 142 99 142 99 142 C99 142 123 620 123 620 L123 620 Z " />
<glyph glyph-name="quotedbl" unicode="&#x22;" horiz-adv-x="237" d="M134 660 C134 660 161 471 161 471 C161 471 170 471 170 471 C170 471 197 660 197 660 C197 660 134 660 134 660 L134 660 Z M40 660 C40 660 67 471 67 471 C67 471 76 471 76 471 C76 471 104 660 104 660 C104 660 40 660 40 660 L40 660 Z " />
<glyph glyph-name="numbersign" unicode="&#x23;" horiz-adv-x="534" d="M390 681 C390 681 361 479 361 479 C361 479 215 479 215 479 C215 479 244 681 244 681 C244 681 224 681 224 681 C224 681 195 479 195 479 C195 479 64 479 64 479 C64 479 59 441 59 441 C59 441 190 441 190 441 C190 441 158 219 158 219 C158 219 25 219 25 219 C25 219 19 181 19 181 C19 181 153 181 153 181 C153 181 127 0 127 0 C127 0 147 0 147 0 C147 0 173 181 173 181 C173 181 319 181 319 181 C319 181 293 0 293 0 C293 0 313 0 313 0 C313 0 339 181 339 181 C339 181 464 181 464 181 C464 181 469 219 469 219 C469 219 344 219 344 219 C344 219 376 441 376 441 C376 441 509 441 509 441 C509 441 514 479 514 479 C514 479 381 479 381 479 C381 479 410 681 410 681 C410 681 390 681 390 681 L390 681 Z M210 441 C210 441 356 441 356 441 C356 441 324 219 324 219 C324 219 178 219 178 219 C178 219 210 441 210 441 L210 441 Z " />
<glyph glyph-name="dollar" unicode="&#x24;" horiz-adv-x="503" d="M269 735 C269 735 269 663 269 663 C259 664 249 665 240 665 C228 665 217 664 206 662 C206 662 206 735 206 735 C206 735 189 735 189 735 C189 735 189 658 189 658 C111 636 52 564 52 482 C52 428 112 362 189 325 C189 325 189 21 189 21 C134 42 81 90 64 139 C61 148 56 162 53 170 C53 170 42 170 42 170 C42 170 42 54 42 54 C71 32 130 13 189 2 C189 2 189 -75 189 -75 C189 -75 206 -75 206 -75 C206 -75 206 0 206 0 C228 -3 249 -5 269 -5 C269 -5 269 -75 269 -75 C269 -75 286 -75 286 -75 C286 -75 286 -4 286 -4 C381 3 459 79 459 168 C459 234 381 314 286 347 C286 347 286 645 286 645 C330 636 381 588 398 542 C402 530 409 510 414 498 C414 498 424 498 424 498 C424 498 424 616 424 616 C424 616 420 608 420 608 C420 608 420 608 420 608 C420 608 424 616 424 616 C389 635 333 653 286 661 C286 661 286 735 286 735 C286 735 269 735 269 735 L269 735 Z M206 16 C206 16 206 318 206 318 C214 315 223 312 231 309 C244 305 257 301 269 296 C269 296 269 8 269 8 C257 8 245 9 232 10 C232 10 232 11 232 11 C223 12 215 14 206 16 L206 16 Z M206 378 C206 378 206 648 206 648 C216 651 227 652 238 652 C247 652 257 651 269 649 C269 649 269 352 269 352 C247 359 226 368 206 378 L206 378 Z M189 388 C130 422 89 467 89 503 C89 567 131 623 189 643 C189 643 189 388 189 388 L189 388 Z M286 288 C362 252 420 193 420 146 C420 76 360 16 286 9 C286 9 286 288 286 288 L286 288 Z " />
<glyph glyph-name="ampersand" unicode="&#x26;" horiz-adv-x="704" d="M634 380 C634 380 469 380 469 380 C469 380 469 367 469 367 C469 367 481 367 481 367 C514 367 542 343 542 270 C542 270 542 240 542 240 C542 191 523 145 490 108 C458 138 422 176 382 223 C341 272 302 325 271 373 C372 402 453 476 453 546 C453 610 387 665 310 665 C233 665 167 591 167 504 C167 472 188 422 221 366 C127 327 50 237 50 160 C50 71 146 -5 259 -5 C340 -5 415 25 469 71 C562 -1 639 -11 704 0 C704 0 704 8 704 8 C656 0 592 16 499 100 C533 140 553 189 553 240 C553 240 553 270 553 270 C553 343 584 367 621 367 C621 367 634 367 634 367 C634 367 634 380 634 380 L634 380 Z M267 381 C230 441 206 494 206 527 C206 595 252 654 307 654 C365 654 414 603 414 543 C414 477 349 407 267 381 C267 381 267 381 267 381 L267 381 Z M460 78 C414 41 352 17 286 17 C184 17 97 91 97 179 C97 248 155 325 226 358 C258 305 300 246 346 192 C387 144 424 107 460 78 L460 78 Z " />
<glyph glyph-name="quotesingle" unicode="&#x27;" horiz-adv-x="143" d="M40 660 C40 660 67 471 67 471 C67 471 76 471 76 471 C76 471 104 660 104 660 C104 660 40 660 40 660 L40 660 Z " />
<glyph glyph-name="parenleft" unicode="&#x28;" horiz-adv-x="201" d="M185 690 C118 609 60 460 60 270 C60 80 118 -69 185 -150 C185 -150 192 -145 192 -145 C142 -85 99 57 99 270 C99 483 142 625 192 685 C192 685 185 690 185 690 L185 690 Z " />
<glyph glyph-name="parenright" unicode="&#x29;" horiz-adv-x="201" d="M10 -150 C78 -69 135 80 136 270 C135 460 78 609 10 690 C10 690 4 685 4 685 C54 625 96 483 97 270 C96 57 54 -85 4 -145 C4 -145 10 -150 10 -150 L10 -150 Z " />
<glyph glyph-name="asterisk" unicode="&#x2a;" horiz-adv-x="268" d="M147 540 C147 540 38 493 38 493 C29 489 25 479 29 470 C34 462 46 460 54 467 C54 467 149 537 149 537 C149 537 135 420 135 420 C133 410 140 401 150 401 C160 401 167 410 165 420 C165 420 151 537 151 537 C151 537 246 467 246 467 C254 460 266 462 271 470 C275 479 271 489 262 493 C262 493 153 540 153 540 C153 540 262 587 262 587 C271 591 275 601 271 610 C266 618 254 620 246 613 C246 613 151 543 151 543 C151 543 165 660 165 660 C167 670 160 679 150 679 C140 679 133 670 135 660 C135 660 149 543 149 543 C149 543 54 613 54 613 C46 620 34 618 29 610 C25 601 29 591 38 587 C38 587 147 540 147 540 L147 540 Z " />
<glyph glyph-name="plus" unicode="&#x2b;" horiz-adv-x="555" d="M263 450 C263 450 263 261 263 261 C263 261 75 261 75 261 C75 261 75 239 75 239 C75 239 263 239 263 239 C263 239 263 50 263 50 C263 50 287 50 287 50 C287 50 287 239 287 239 C287 239 475 239 475 239 C475 239 475 261 475 261 C475 261 287 261 287 261 C287 261 287 450 287 450 C287 450 263 450 263 450 L263 450 Z " />
<glyph glyph-name="comma" unicode="&#x2c;" horiz-adv-x="188" d="M118 3 C127 10 132 20 132 31 C132 50 115 67 96 67 C77 67 60 50 60 31 C60 22 64 13 70 6 C70 6 64 0 64 0 C88 -24 109 -39 109 -32 C109 -54 91 -81 70 -90 C70 -90 74 -98 74 -98 C109 -81 139 -39 139 -7 C139 -11 131 -7 118 3 L118 3 Z " />
<glyph glyph-name="hyphen" unicode="&#x2d;" horiz-adv-x="280" d="M20 209 C20 209 260 209 260 209 C260 209 260 248 260 248 C260 248 20 248 20 248 C20 248 20 209 20 209 L20 209 Z " />
<glyph glyph-name="period" unicode="&#x2e;" horiz-adv-x="221" d="M125 -5 C144 -5 161 12 161 31 C161 50 144 67 125 67 C106 67 89 50 89 31 C89 12 106 -5 125 -5 L125 -5 Z " />
<glyph glyph-name="slash" unicode="&#x2f;" horiz-adv-x="332" d="M0 -145 C0 -145 22 -145 22 -145 C22 -145 332 710 332 710 C332 710 310 710 310 710 C310 710 0 -145 0 -145 L0 -145 Z " />
<glyph glyph-name="zero" unicode="0" horiz-adv-x="598" d="M299 6 C195 6 106 118 106 250 C106 382 195 494 299 494 C404 494 493 382 493 250 C493 118 404 6 299 6 L299 6 Z M50 250 C50 112 165 -5 299 -5 C434 -5 549 112 549 250 C549 388 434 505 299 505 C165 505 50 388 50 250 L50 250 Z " />
<glyph glyph-name="one" unicode="1" horiz-adv-x="281" d="M226 500 C226 500 166 500 166 500 C166 500 141 500 141 500 C141 500 116 500 116 500 C116 500 55 500 55 500 C55 500 55 487 55 487 C55 487 64 487 64 487 C92 487 116 449 116 404 C116 404 116 96 116 96 C116 51 92 13 64 13 C64 13 55 13 55 13 C55 13 55 0 55 0 C55 0 116 0 116 0 C116 0 141 0 141 0 C141 0 166 0 166 0 C166 0 226 0 226 0 C226 0 226 13 226 13 C226 13 217 13 217 13 C190 13 167 48 166 91 C166 91 166 96 166 96 C166 96 166 404 166 404 C166 404 166 409 166 409 C167 452 190 487 217 487 C217 487 226 487 226 487 C226 487 226 500 226 500 L226 500 Z " />
<glyph glyph-name="two" unicode="2" horiz-adv-x="481" d="M447 25 C449 48 452 88 455 111 C455 111 442 111 442 111 C442 111 441 102 441 102 C439 74 398 50 353 50 C353 50 103 50 103 50 C283 165 424 255 424 349 C424 433 351 505 265 505 C193 505 104 437 71 358 C71 358 78 354 78 354 C103 416 178 468 240 468 C309 468 368 406 368 332 C368 216 210 132 25 11 C25 11 25 0 25 0 C25 0 445 0 445 0 C445 0 447 25 447 25 L447 25 Z " />
<glyph glyph-name="three" unicode="3" horiz-adv-x="456" d="M26 -215 C231 -204 406 -87 406 41 C406 130 312 207 201 210 C294 257 361 324 361 376 C361 445 296 505 221 505 C154 505 58 446 11 376 C11 376 16 372 16 372 C52 424 134 469 195 469 C258 469 311 419 311 359 C311 303 236 231 141 193 C130 189 118 185 105 180 C105 180 105 171 105 171 C109 172 113 173 116 175 C136 180 163 183 184 183 C276 183 354 116 354 38 C354 -85 203 -197 25 -207 C25 -207 26 -215 26 -215 L26 -215 Z " />
<glyph glyph-name="four" unicode="4" horiz-adv-x="490" d="M47 22 C47 22 321 419 321 419 C321 419 320 417 320 417 C320 417 320 22 320 22 C320 22 47 22 47 22 L47 22 Z M320 0 C320 0 320 -150 320 -150 C320 -150 370 -150 370 -150 C370 -150 370 0 370 0 C370 0 480 0 480 0 C480 0 480 22 480 22 C480 22 370 22 370 22 C370 22 370 490 370 490 C370 490 370 505 370 505 C370 505 362 505 362 505 C362 505 20 9 20 9 C20 9 20 0 20 0 C20 0 30 0 30 0 C30 0 32 0 32 0 C32 0 320 0 320 0 L320 0 Z " />
<glyph glyph-name="five" unicode="5" horiz-adv-x="440" d="M385 500 C385 500 385 500 385 500 C392 521 400 545 405 561 C405 561 392 561 392 561 C392 561 389 552 389 552 C380 524 334 500 289 500 C289 500 103 500 103 500 C103 500 88 500 88 500 C88 500 68 221 68 221 C68 221 81 221 81 221 C81 221 132 221 132 221 C244 221 340 144 340 55 C340 -62 198 -167 31 -173 C31 -173 31 -182 31 -182 C225 -175 391 -59 391 71 C391 178 284 270 157 270 C157 270 85 270 85 270 C85 270 81 221 81 221 C81 221 103 500 103 500 C103 500 99 447 99 447 C99 447 368 447 368 447 C368 447 385 500 385 500 L385 500 Z " />
<glyph glyph-name="six" unicode="6" horiz-adv-x="570" d="M507 715 C272 707 71 516 71 299 C71 135 174 -5 294 -5 C423 -5 527 96 521 216 C521 330 429 427 322 427 C228 427 148 350 127 249 C127 250 127 251 127 252 C127 269 130 298 130 316 C130 519 304 699 508 707 C508 707 507 715 507 715 L507 715 Z M133 190 C133 190 133 190 133 190 C130 311 213 414 313 414 C397 414 468 322 468 213 C474 103 397 9 300 9 C221 9 153 88 133 190 L133 190 Z " />
<glyph glyph-name="seven" unicode="7" horiz-adv-x="438" d="M33 388 C33 388 34 397 34 397 C36 425 77 449 122 449 C122 449 403 449 403 449 C403 449 131 -140 131 -140 C131 -140 187 -140 187 -140 C268 72 348 284 429 495 C429 495 425 500 425 500 C425 500 30 500 30 500 C30 500 28 473 28 473 C25 450 22 411 20 388 C20 388 33 388 33 388 L33 388 Z " />
<glyph glyph-name="eight" unicode="8" horiz-adv-x="539" d="M308 352 C297 355 286 358 275 360 C198 375 132 446 132 515 C132 590 196 654 272 654 C350 654 417 587 417 509 C417 435 369 367 308 352 C308 352 308 352 308 352 L308 352 Z M314 350 C394 368 459 440 459 517 C459 597 374 665 275 665 C175 665 91 587 91 495 C91 425 149 353 225 321 C136 315 64 245 64 163 C64 72 162 -5 277 -5 C392 -5 490 77 490 174 C490 243 413 317 314 350 C314 350 314 350 314 350 L314 350 Z M229 319 C241 315 253 311 265 309 C361 290 443 220 443 157 C443 76 368 6 280 6 C189 6 111 82 111 171 C111 248 164 313 229 319 C229 319 229 319 229 319 L229 319 Z " />
<glyph glyph-name="nine" unicode="9" horiz-adv-x="570" d="M63 -215 C299 -207 499 -16 499 201 C499 365 397 505 277 505 C148 505 44 404 50 284 C50 170 141 73 249 73 C344 73 423 151 444 253 C444 251 444 250 444 248 C444 231 441 202 441 184 C441 -19 267 -199 63 -207 C63 -207 63 -215 63 -215 L63 -215 Z M438 310 C441 189 358 86 257 86 C174 86 103 178 103 287 C97 397 174 491 271 491 C349 491 418 412 438 310 C438 310 438 310 438 310 L438 310 Z " />
<glyph glyph-name="colon" unicode="&#x3a;" horiz-adv-x="221" d="M125 364 C144 364 161 381 161 400 C161 419 144 436 125 436 C106 436 89 419 89 400 C89 381 106 364 125 364 L125 364 Z M125 -5 C144 -5 161 12 161 31 C161 50 144 67 125 67 C106 67 89 50 89 31 C89 12 106 -5 125 -5 L125 -5 Z " />
<glyph glyph-name="semicolon" unicode="&#x3b;" horiz-adv-x="188" d="M96 364 C115 364 132 381 132 400 C132 419 115 436 96 436 C77 436 60 419 60 400 C60 381 77 364 96 364 L96 364 Z M118 3 C127 10 132 20 132 31 C132 50 115 67 96 67 C77 67 60 50 60 31 C60 22 64 13 70 6 C70 6 64 0 64 0 C88 -24 109 -39 109 -32 C109 -54 91 -81 70 -90 C70 -90 74 -98 74 -98 C109 -81 139 -39 139 -7 C139 -11 131 -7 118 3 L118 3 Z " />
<glyph glyph-name="less" unicode="&#x3c;" horiz-adv-x="535" d="M461 500 C461 500 46 290 46 290 C46 290 40 287 40 287 C40 287 40 263 40 263 C40 263 46 260 46 260 C46 260 461 50 461 50 C461 50 461 75 461 75 C461 75 62 275 62 275 C62 275 461 475 461 475 C461 475 461 500 461 500 L461 500 Z " />
<glyph glyph-name="equal" unicode="&#x3d;" horiz-adv-x="527" d="M78 211 C78 211 78 189 78 189 C78 189 458 189 458 189 C458 189 458 211 458 211 C458 211 78 211 78 211 L78 211 Z M78 311 C78 311 78 289 78 289 C78 289 458 289 458 289 C458 289 458 311 458 311 C458 311 78 311 78 311 L78 311 Z " />
<glyph glyph-name="greater" unicode="&#x3e;" horiz-adv-x="530" d="M464 275 C464 275 75 75 75 75 C75 75 75 50 75 50 C75 50 480 260 480 260 C480 260 490 266 490 266 C490 266 490 284 490 284 C490 284 480 290 480 290 C480 290 75 500 75 500 C75 500 75 475 75 475 C75 475 464 275 464 275 L464 275 Z " />
<glyph glyph-name="question" unicode="&#x3f;" horiz-adv-x="366" d="M140 -5 C159 -5 176 12 176 31 C176 50 159 67 140 67 C121 67 104 50 104 31 C104 12 121 -5 140 -5 L140 -5 Z M136 368 C130 368 125 364 126 360 C126 360 137 147 137 147 C137 147 143 147 143 147 C143 147 154 360 154 360 C154 360 153 329 153 329 C153 329 188 329 188 329 C297 329 332 407 332 445 C332 564 237 665 125 665 C80 665 41 634 41 598 C41 591 54 585 69 585 C94 585 115 626 141 626 C238 626 320 545 320 450 C320 424 284 368 171 368 C171 368 136 368 136 368 L136 368 Z " />
<glyph glyph-name="at" unicode="&#x40;" horiz-adv-x="1139" d="M1044 0 C984 -129 770 -239 577 -239 C316 -239 94 -10 94 259 C94 528 313 757 570 757 C827 757 1046 567 1046 343 C1046 160 957 4 852 4 C745 4 676 94 702 200 C702 200 772 480 772 480 C772 480 725 480 725 480 C725 480 701 385 701 385 C689 444 636 490 575 490 C425 490 298 355 298 197 C298 98 377 13 470 13 C539 13 614 70 650 144 C656 55 735 -13 843 -13 C973 -13 1084 151 1084 343 C1084 574 848 770 570 770 C292 770 55 535 55 259 C55 -17 295 -252 577 -252 C775 -252 997 -136 1061 0 C1061 0 1044 0 1044 0 L1044 0 Z M694 355 C694 355 655 200 655 200 C633 114 560 41 496 41 C418 41 352 117 352 207 C352 352 454 476 574 476 C638 476 693 420 693 355 C693 355 694 355 694 355 L694 355 Z " />
<glyph glyph-name="A" unicode="A" horiz-adv-x="657" d="M621 13 C621 13 613 13 613 13 C589 13 554 51 537 96 C537 96 537 96 537 96 C537 96 323 675 323 675 C323 675 309 675 309 675 C309 675 109 85 109 85 C92 45 59 13 33 13 C33 13 24 13 24 13 C24 13 24 0 24 0 C24 0 80 0 80 0 C80 0 89 0 89 0 C89 0 98 0 98 0 C98 0 187 0 187 0 C187 0 187 13 187 13 C187 13 174 13 174 13 C135 13 117 57 134 109 C134 109 135 111 135 111 C135 111 175 230 175 230 C175 230 431 230 431 230 C431 230 481 90 481 90 C493 48 476 13 441 13 C441 13 429 13 429 13 C429 13 429 0 429 0 C429 0 513 0 513 0 C513 0 543 0 543 0 C543 0 572 0 572 0 C572 0 621 0 621 0 C621 0 621 13 621 13 L621 13 Z M426 244 C426 244 179 244 179 244 C179 244 299 602 299 602 C299 602 426 244 426 244 L426 244 Z " />
<glyph glyph-name="B" unicode="B" horiz-adv-x="579" d="M31 647 C31 647 40 647 40 647 C67 647 91 609 91 564 C91 564 91 96 91 96 C91 51 67 13 40 13 C40 13 31 13 31 13 C31 13 31 0 31 0 C31 0 91 0 91 0 C91 0 118 0 118 0 C118 0 145 0 145 0 C145 0 324 0 324 0 C451 0 559 81 559 175 C559 257 459 327 330 344 C430 364 506 430 506 506 C506 589 411 660 299 660 C299 660 145 660 145 660 C145 660 118 660 118 660 C118 660 91 660 91 660 C91 660 31 660 31 660 C31 660 31 647 31 647 L31 647 Z M285 348 C280 348 274 348 269 348 C269 348 228 347 228 347 C228 347 145 347 145 347 C145 347 145 646 145 646 C145 646 299 646 299 646 C381 646 452 582 452 506 C452 425 377 356 285 348 C285 348 285 348 285 348 L285 348 Z M145 337 C145 337 252 337 252 337 C387 337 502 263 502 175 C502 88 417 14 318 14 C318 14 145 14 145 14 C145 14 145 337 145 337 L145 337 Z " />
<glyph glyph-name="C" unicode="C" horiz-adv-x="718" d="M659 491 C659 491 659 605 659 605 C599 637 479 665 398 665 C217 665 62 511 62 330 C62 149 217 -5 398 -5 C488 -5 608 27 659 65 C659 65 655 71 655 71 C655 71 655 71 655 71 C655 71 659 65 659 65 C659 65 659 177 659 177 C659 177 648 177 648 177 C645 169 640 155 637 146 C615 79 519 16 430 10 C430 10 430 9 430 9 C419 8 408 8 398 8 C249 8 122 156 122 330 C122 504 249 652 398 652 C419 652 442 650 466 647 C466 647 466 646 466 646 C538 636 616 579 637 522 C640 514 645 500 648 491 C648 491 659 491 659 491 L659 491 Z " />
<glyph glyph-name="D" unicode="D" horiz-adv-x="676" d="M52 647 C52 647 61 647 61 647 C88 647 112 609 112 564 C112 564 112 96 112 96 C112 51 88 13 61 13 C61 13 52 13 52 13 C52 13 52 0 52 0 C52 0 112 0 112 0 C112 0 139 0 139 0 C139 0 166 0 166 0 C166 0 329 0 329 0 C489 0 626 152 626 330 C626 508 471 660 288 660 C288 660 166 660 166 660 C166 660 139 660 139 660 C139 660 112 660 112 660 C112 660 52 660 52 660 C52 660 52 647 52 647 L52 647 Z M166 14 C166 14 166 646 166 646 C166 646 288 646 288 646 C441 646 572 501 572 330 C572 159 460 14 329 14 C329 14 166 14 166 14 L166 14 Z " />
<glyph glyph-name="E" unicode="E" horiz-adv-x="540" d="M375 267 C375 267 375 336 375 336 C375 336 375 342 375 342 C375 342 375 349 375 349 C375 349 375 410 375 410 C375 410 365 410 365 410 C365 410 362 401 362 401 C353 373 296 349 236 349 C236 349 145 349 145 349 C145 349 145 647 145 647 C145 647 272 647 272 647 C336 647 405 604 422 554 C422 554 427 537 427 537 C427 537 437 537 437 537 C437 537 437 653 437 653 C437 653 437 660 437 660 C437 660 430 660 430 660 C430 660 340 660 340 660 C340 660 145 660 145 660 C145 660 118 660 118 660 C118 660 91 660 91 660 C91 660 30 660 30 660 C30 660 30 647 30 647 C30 647 39 647 39 647 C67 647 91 609 91 564 C91 564 91 96 91 96 C91 51 67 13 39 13 C39 13 30 13 30 13 C30 13 30 0 30 0 C30 0 91 0 91 0 C91 0 118 0 118 0 C118 0 145 0 145 0 C145 0 346 0 346 0 C346 0 440 0 440 0 C440 0 442 0 442 0 C442 2 443 5 443 7 C449 38 458 91 464 123 C464 123 454 123 454 123 C454 123 446 106 446 106 C420 56 344 14 280 13 C280 13 145 13 145 13 C145 13 145 336 145 336 C145 336 236 336 236 336 C296 336 353 309 362 277 C362 277 365 267 365 267 C365 267 375 267 375 267 L375 267 Z " />
<glyph glyph-name="F" unicode="F" horiz-adv-x="480" d="M375 262 C375 262 375 331 375 331 C375 331 375 337 375 337 C375 337 375 344 375 344 C375 344 375 405 375 405 C375 405 365 405 365 405 C365 405 362 396 362 396 C353 368 296 344 236 344 C236 344 155 344 155 344 C155 344 155 647 155 647 C155 647 312 647 312 647 C376 647 445 604 462 554 C462 554 467 537 467 537 C467 537 477 537 477 537 C477 537 477 653 477 653 C477 653 477 660 477 660 C477 660 470 660 470 660 C470 660 380 660 380 660 C380 660 155 660 155 660 C155 660 128 660 128 660 C128 660 101 660 101 660 C101 660 40 660 40 660 C40 660 40 647 40 647 C40 647 49 647 49 647 C77 647 101 609 101 564 C101 564 101 96 101 96 C101 51 77 13 49 13 C49 13 40 13 40 13 C40 13 40 0 40 0 C40 0 101 0 101 0 C101 0 128 0 128 0 C128 0 155 0 155 0 C155 0 226 0 226 0 C226 0 226 13 226 13 C226 13 215 13 215 13 C183 13 155 51 155 96 C155 96 155 331 155 331 C155 331 236 331 236 331 C296 331 353 304 362 272 C362 272 365 262 365 262 C365 262 375 262 375 262 L375 262 Z " />
<glyph glyph-name="G" unicode="G" horiz-adv-x="718" d="M705 310 C705 310 644 310 644 310 C644 310 620 310 620 310 C620 310 596 310 596 310 C596 310 535 310 535 310 C535 310 535 297 535 297 C535 297 544 297 544 297 C572 297 596 259 596 214 C596 214 596 50 596 50 C535 26 449 8 387 8 C244 8 122 156 122 330 C122 504 244 652 387 652 C405 652 425 650 446 648 C446 648 446 647 446 647 C518 637 596 580 617 522 C620 514 625 500 628 491 C628 491 639 491 639 491 C639 491 639 605 639 605 C579 637 463 665 387 665 C211 665 62 511 62 330 C62 149 211 -5 387 -5 C468 -5 586 24 644 57 C644 57 644 214 644 214 C644 259 668 297 696 297 C696 297 705 297 705 297 C705 297 705 310 705 310 L705 310 Z " />
<glyph glyph-name="H" unicode="H" horiz-adv-x="739" d="M681 660 C681 660 621 660 621 660 C621 660 594 660 594 660 C594 660 567 660 567 660 C567 660 506 660 506 660 C506 660 506 647 506 647 C506 647 515 647 515 647 C543 647 567 609 567 564 C567 564 567 319 567 319 C567 319 136 319 136 319 C136 319 136 564 136 564 C136 609 160 647 188 647 C188 647 197 647 197 647 C197 647 197 660 197 660 C197 660 136 660 136 660 C136 660 109 660 109 660 C109 660 82 660 82 660 C82 660 21 660 21 660 C21 660 21 647 21 647 C21 647 30 647 30 647 C58 647 82 609 82 564 C82 564 82 96 82 96 C82 51 58 13 30 13 C30 13 21 13 21 13 C21 13 21 0 21 0 C21 0 82 0 82 0 C82 0 109 0 109 0 C109 0 136 0 136 0 C136 0 197 0 197 0 C197 0 197 13 197 13 C197 13 188 13 188 13 C160 13 136 51 136 96 C136 96 136 305 136 305 C136 305 567 305 567 305 C567 305 567 96 567 96 C567 51 543 13 515 13 C515 13 506 13 506 13 C506 13 506 0 506 0 C506 0 567 0 567 0 C567 0 594 0 594 0 C594 0 621 0 621 0 C621 0 681 0 681 0 C681 0 681 13 681 13 C681 13 672 13 672 13 C645 13 622 48 621 91 C621 91 621 96 621 96 C621 96 621 564 621 564 C621 564 621 569 621 569 C622 612 645 647 672 647 C672 647 681 647 681 647 C681 647 681 660 681 660 L681 660 Z " />
<glyph glyph-name="I" unicode="I" horiz-adv-x="245" d="M205 660 C205 660 144 660 144 660 C144 660 117 660 117 660 C117 660 90 660 90 660 C90 660 30 660 30 660 C30 660 30 647 30 647 C30 647 39 647 39 647 C66 647 90 609 90 564 C90 564 90 96 90 96 C90 51 66 13 39 13 C39 13 30 13 30 13 C30 13 30 0 30 0 C30 0 90 0 90 0 C90 0 117 0 117 0 C117 0 144 0 144 0 C144 0 205 0 205 0 C205 0 205 13 205 13 C205 13 196 13 196 13 C168 13 145 51 144 96 C144 96 144 564 144 564 C145 609 168 647 196 647 C196 647 205 647 205 647 C205 647 205 660 205 660 L205 660 Z " />
<glyph glyph-name="J" unicode="J" horiz-adv-x="341" d="M311 660 C311 660 250 660 250 660 C250 660 223 660 223 660 C223 660 197 660 197 660 C197 660 136 660 136 660 C136 660 136 647 136 647 C136 647 145 647 145 647 C173 647 197 609 197 564 C197 564 197 200 197 200 C197 71 166 1 110 1 C82 1 54 24 47 50 C44 62 33 72 22 72 C7 72 -3 62 0 50 C8 18 52 -10 96 -10 C197 -10 251 80 251 245 C251 245 250 569 250 569 C253 612 275 647 302 647 C302 647 311 647 311 647 C311 647 311 660 311 660 L311 660 Z " />
<glyph glyph-name="K" unicode="K" horiz-adv-x="629" d="M438 647 C438 647 445 647 445 647 C466 647 438 609 385 564 C385 564 385 564 385 564 C385 564 179 391 179 391 C179 391 179 391 179 391 C179 391 137 355 137 355 C137 355 137 564 137 564 C137 609 161 647 189 647 C189 647 198 647 198 647 C198 647 198 660 198 660 C198 660 137 660 137 660 C137 660 110 660 110 660 C110 660 83 660 83 660 C83 660 23 660 23 660 C23 660 23 647 23 647 C23 647 32 647 32 647 C59 647 83 609 83 564 C83 564 83 96 83 96 C83 51 59 13 32 13 C32 13 23 13 23 13 C23 13 23 0 23 0 C23 0 83 0 83 0 C83 0 110 0 110 0 C110 0 137 0 137 0 C137 0 198 0 198 0 C198 0 198 13 198 13 C198 13 189 13 189 13 C161 13 137 51 137 96 C137 96 137 355 137 355 C137 355 146 344 146 344 C146 344 147 345 147 345 C147 345 322 174 322 174 C441 58 538 -5 598 -5 C598 -5 620 -5 620 -5 C620 -5 620 6 620 6 C620 6 615 6 615 6 C588 6 500 78 365 210 C365 210 189 381 189 381 C189 381 405 564 405 564 C405 564 405 564 405 564 C458 609 527 647 555 647 C555 647 564 647 564 647 C564 647 564 660 564 660 C564 660 518 660 518 660 C518 660 508 660 508 660 C508 660 499 660 499 660 C499 660 438 660 438 660 C438 660 438 647 438 647 L438 647 Z " />
<glyph glyph-name="L" unicode="L" horiz-adv-x="530" d="M440 135 C440 135 432 117 432 117 C408 61 338 14 280 13 C280 13 135 13 135 13 C135 13 135 564 135 564 C135 609 159 647 187 647 C187 647 196 647 196 647 C196 647 196 660 196 660 C196 660 135 660 135 660 C135 660 108 660 108 660 C108 660 81 660 81 660 C81 660 20 660 20 660 C20 660 20 647 20 647 C20 647 29 647 29 647 C57 647 81 609 81 564 C81 564 81 96 81 96 C81 51 57 13 29 13 C29 13 20 13 20 13 C20 13 20 0 20 0 C20 0 81 0 81 0 C81 0 108 0 108 0 C108 0 135 0 135 0 C135 0 336 0 336 0 C336 0 430 0 430 0 C430 0 432 0 432 0 C432 2 433 5 433 7 C439 40 449 96 455 129 C449 131 440 135 440 135 L440 135 Z " />
<glyph glyph-name="M" unicode="M" horiz-adv-x="793" d="M754 660 C754 660 694 660 694 660 C694 660 670 660 670 660 C670 660 665 660 665 660 C665 660 646 660 646 660 C646 660 413 61 413 61 C413 61 412 63 412 63 C412 63 163 660 163 660 C163 660 139 660 139 660 C139 660 131 660 131 660 C131 660 123 660 123 660 C123 660 62 660 62 660 C62 660 62 647 62 647 C62 647 71 647 71 647 C99 647 121 609 119 564 C119 564 119 564 119 564 C119 564 102 96 102 96 C102 96 101 96 101 96 C100 51 74 13 47 13 C47 13 37 13 37 13 C37 13 37 0 37 0 C37 0 98 0 98 0 C98 0 106 0 106 0 C106 0 114 0 114 0 C114 0 203 0 203 0 C203 0 203 13 203 13 C203 13 189 13 189 13 C151 13 119 54 118 104 C118 104 136 591 136 591 C136 591 375 23 375 23 C375 23 387 -5 387 -5 C387 -5 401 -5 401 -5 C401 -5 648 616 648 616 C648 616 667 86 667 86 C665 46 644 13 619 13 C619 13 610 13 610 13 C610 13 610 0 610 0 C610 0 670 0 670 0 C670 0 697 0 697 0 C697 0 724 0 724 0 C724 0 784 0 784 0 C784 0 784 13 784 13 C784 13 775 13 775 13 C748 13 722 51 720 96 C720 96 720 96 720 96 C720 96 698 564 698 564 C698 564 699 564 699 564 C696 609 718 647 745 647 C745 647 754 647 754 647 C754 647 754 660 754 660 L754 660 Z " />
<glyph glyph-name="N" unicode="N" horiz-adv-x="650" d="M495 647 C495 647 504 647 504 647 C532 647 556 609 556 564 C556 564 556 80 556 80 C556 80 151 660 151 660 C151 660 120 637 120 637 C120 637 120 637 120 637 C120 637 151 660 151 660 C151 660 120 660 120 660 C120 660 112 660 112 660 C112 660 104 660 104 660 C104 660 43 660 43 660 C43 660 43 647 43 647 C43 647 52 647 52 647 C80 647 104 609 104 564 C104 564 104 96 104 96 C104 51 80 13 52 13 C52 13 43 13 43 13 C43 13 43 0 43 0 C43 0 104 0 104 0 C104 0 112 0 112 0 C112 0 120 0 120 0 C120 0 180 0 180 0 C180 0 180 13 180 13 C180 13 171 13 171 13 C144 13 120 51 120 96 C120 96 120 611 120 611 C120 611 531 23 531 23 C531 23 555 -11 555 -11 C555 -11 572 -11 572 -11 C572 -11 572 43 572 43 C572 43 572 564 572 564 C572 609 595 647 623 647 C623 647 632 647 632 647 C633 647 633 650 632 654 C633 657 633 660 632 660 C632 660 572 660 572 660 C572 660 564 660 564 660 C564 660 556 660 556 660 C556 660 495 660 495 660 C495 660 495 647 495 647 L495 647 Z " />
<glyph glyph-name="O" unicode="O" horiz-adv-x="759" d="M386 8 C229 8 122 173 122 330 C122 487 229 652 386 652 C543 652 650 487 650 330 C650 173 543 8 386 8 L386 8 Z M62 330 C62 167 193 -5 386 -5 C578 -5 709 167 709 330 C709 493 578 665 386 665 C193 665 62 493 62 330 L62 330 Z " />
<glyph glyph-name="P" unicode="P" horiz-adv-x="524" d="M22 647 C22 647 31 647 31 647 C58 647 82 609 82 564 C82 564 82 96 82 96 C82 51 58 13 31 13 C31 13 22 13 22 13 C22 13 22 0 22 0 C22 0 82 0 82 0 C82 0 109 0 109 0 C109 0 136 0 136 0 C136 0 197 0 197 0 C197 0 197 13 197 13 C197 13 188 13 188 13 C160 13 136 51 136 96 C136 96 136 289 136 289 C136 289 261 289 261 289 C393 289 505 374 505 473 C505 574 407 660 292 660 C292 660 136 660 136 660 C136 660 109 660 109 660 C109 660 82 660 82 660 C82 660 22 660 22 660 C22 660 22 647 22 647 L22 647 Z M136 303 C136 303 136 646 136 646 C136 646 292 646 292 646 C376 646 448 567 448 473 C448 381 362 303 261 303 C261 303 136 303 136 303 L136 303 Z " />
<glyph glyph-name="Q" unicode="Q" horiz-adv-x="759" d="M801 -51 C801 -51 796 -47 796 -47 C776 -71 704 -92 640 -92 C540 -92 444 -53 392 -5 C581 -1 709 169 709 330 C709 493 578 665 386 665 C193 665 62 493 62 330 C62 171 187 3 372 -5 C442 -72 547 -128 634 -128 C690 -128 767 -93 801 -51 L801 -51 Z M386 8 C229 8 122 173 122 330 C122 487 229 652 386 652 C543 652 650 487 650 330 C650 173 543 8 386 8 L386 8 Z " />
<glyph glyph-name="R" unicode="R" horiz-adv-x="639" d="M52 647 C52 647 61 647 61 647 C88 647 112 609 112 564 C112 564 112 96 112 96 C112 51 88 13 61 13 C61 13 52 13 52 13 C52 13 52 0 52 0 C52 0 112 0 112 0 C112 0 139 0 139 0 C139 0 166 0 166 0 C166 0 227 0 227 0 C227 0 227 13 227 13 C227 13 218 13 218 13 C190 13 166 51 166 96 C166 96 166 308 166 308 C166 308 266 308 266 308 C266 308 444 106 444 106 C525 14 546 0 599 0 C599 0 620 0 620 0 C620 0 620 11 620 11 C620 11 615 11 615 11 C597 11 584 22 520 95 C520 95 330 312 330 312 C430 330 509 403 509 485 C509 580 417 660 309 660 C309 660 166 660 166 660 C166 660 139 660 139 660 C139 660 112 660 112 660 C112 660 52 660 52 660 C52 660 52 647 52 647 L52 647 Z M281 322 C281 322 254 322 254 322 C254 322 166 322 166 322 C166 322 166 646 166 646 C166 646 309 646 309 646 C386 646 452 572 452 485 C452 397 373 322 281 322 L281 322 Z " />
<glyph glyph-name="S" unicode="S" horiz-adv-x="484" d="M23 170 C23 170 23 54 23 54 C66 22 171 -5 251 -5 C353 -5 440 74 440 168 C440 237 355 321 254 351 C155 381 70 451 70 503 C70 584 138 652 219 652 C232 652 247 650 264 647 C264 647 264 646 264 646 C309 638 362 589 379 542 C383 530 390 510 395 498 C395 498 405 498 405 498 C405 498 405 616 405 616 C405 616 401 608 401 608 C401 608 401 608 401 608 C401 608 405 616 405 616 C357 642 272 665 221 665 C119 665 33 581 33 482 C33 418 116 338 212 309 C314 279 401 204 401 146 C401 71 332 8 251 8 C239 8 226 9 213 10 C213 10 213 11 213 11 C144 18 67 77 45 139 C42 148 37 162 34 170 C34 170 23 170 23 170 L23 170 Z " />
<glyph glyph-name="T" unicode="T" horiz-adv-x="620" d="M605 525 C602 560 597 619 594 653 C594 655 594 658 593 660 C593 660 580 660 580 660 C580 660 497 660 497 660 C497 660 123 660 123 660 C123 660 40 660 40 660 C40 660 27 660 27 660 C26 658 26 655 26 653 C23 619 18 560 15 525 C15 525 25 525 25 525 C25 525 34 548 34 548 C57 601 121 647 174 647 C174 647 283 647 283 647 C283 647 283 96 283 96 C283 51 259 13 231 13 C231 13 222 13 222 13 C222 13 222 0 222 0 C222 0 283 0 283 0 C283 0 310 0 310 0 C310 0 337 0 337 0 C337 0 398 0 398 0 C398 0 398 13 398 13 C398 13 389 13 389 13 C361 13 337 51 337 96 C337 96 337 647 337 647 C337 647 446 647 446 647 C499 647 563 601 586 548 C586 548 595 525 595 525 C595 525 605 525 605 525 L605 525 Z " />
<glyph glyph-name="U" unicode="U" horiz-adv-x="686" d="M637 660 C637 660 568 660 568 660 C568 660 560 660 560 660 C560 660 552 660 552 660 C552 660 479 660 479 660 C479 660 479 647 479 647 C479 647 490 647 490 647 C521 647 549 608 552 561 C552 561 551 184 551 184 C551 92 480 14 348 14 C224 14 156 99 156 198 C156 198 156 564 156 564 C156 609 180 647 208 647 C208 647 217 647 217 647 C217 647 217 660 217 660 C217 660 156 660 156 660 C156 660 129 660 129 660 C129 660 102 660 102 660 C102 660 42 660 42 660 C42 660 42 647 42 647 C42 647 51 647 51 647 C78 647 102 609 102 564 C102 564 102 208 102 208 C102 93 186 -5 340 -5 C488 -5 568 79 568 178 C568 178 568 554 568 554 C568 604 595 647 627 647 C627 647 637 647 637 647 C637 647 637 660 637 660 L637 660 Z " />
<glyph glyph-name="V" unicode="V" horiz-adv-x="655" d="M217 660 C217 660 136 660 136 660 C136 660 106 660 106 660 C106 660 77 660 77 660 C77 660 33 660 33 660 C33 660 33 647 33 647 C33 647 40 647 40 647 C62 647 96 609 114 564 C114 564 114 564 114 564 C114 564 340 -15 340 -15 C340 -15 354 -15 354 -15 C354 -15 541 573 541 573 C558 614 591 647 617 647 C617 647 626 647 626 647 C625 647 625 650 626 654 C625 657 625 660 626 660 C626 660 569 660 569 660 C569 660 561 660 561 660 C561 660 552 660 552 660 C552 660 455 660 455 660 C456 660 456 657 455 654 C456 650 456 647 455 647 C455 647 469 647 469 647 C509 647 529 602 516 547 C516 547 364 61 364 61 C364 61 173 564 173 564 C173 564 173 564 173 564 C156 609 171 647 205 647 C205 647 217 647 217 647 C217 647 217 660 217 660 L217 660 Z " />
<glyph glyph-name="W" unicode="W" horiz-adv-x="948" d="M756 647 C756 647 768 647 768 647 C803 647 824 612 815 570 C815 570 649 -15 649 -15 C649 -15 663 -15 663 -15 C663 -15 833 572 833 572 C847 614 880 647 906 647 C906 647 915 647 915 647 C914 647 914 650 915 654 C914 657 914 660 915 660 C915 660 858 660 858 660 C858 660 849 660 849 660 C849 660 841 660 841 660 C841 660 756 660 756 660 C756 660 756 647 756 647 L756 647 Z M197 660 C197 660 124 660 124 660 C124 660 94 660 94 660 C94 660 65 660 65 660 C65 660 20 660 20 660 C20 660 20 647 20 647 C20 647 27 647 27 647 C48 647 79 612 94 569 C94 569 282 -15 282 -15 C282 -15 296 -15 296 -15 C296 -15 485 670 485 670 C485 670 472 670 472 670 C472 670 282 -15 282 -15 C282 -15 305 68 305 68 C305 68 151 571 151 571 C142 613 157 647 186 647 C186 647 197 647 197 647 C197 647 197 660 197 660 L197 660 Z M649 -15 C649 -15 674 73 674 73 C674 73 485 670 485 670 C485 670 460 577 460 577 C460 577 649 -15 649 -15 L649 -15 Z " />
<glyph glyph-name="X" unicode="X" horiz-adv-x="638" d="M592 660 C592 660 539 660 539 660 C539 660 529 660 529 660 C529 660 518 660 518 660 C518 660 429 660 429 660 C429 660 429 647 429 647 C429 647 441 647 441 647 C478 647 486 611 460 568 C460 568 332 367 332 367 C332 367 204 564 204 564 C204 564 204 564 204 564 C175 609 178 647 211 647 C211 647 222 647 222 647 C222 647 222 660 222 660 C222 660 141 660 141 660 C141 660 111 660 111 660 C111 660 80 660 80 660 C80 660 44 660 44 660 C44 660 44 647 44 647 C44 647 50 647 50 647 C69 647 106 616 135 576 C135 576 300 322 300 322 C300 322 157 89 157 89 C129 47 86 13 59 13 C59 13 50 13 50 13 C50 13 50 0 50 0 C50 0 103 0 103 0 C103 0 113 0 113 0 C113 0 123 0 123 0 C123 0 212 0 212 0 C212 0 212 13 212 13 C212 13 200 13 200 13 C163 13 158 58 190 111 C190 111 190 111 190 111 C190 111 308 309 308 309 C308 309 452 87 452 87 C475 46 471 13 439 13 C439 13 428 13 428 13 C428 13 428 0 428 0 C428 0 509 0 509 0 C509 0 540 0 540 0 C540 0 571 0 571 0 C571 0 607 0 607 0 C607 0 607 13 607 13 C607 13 600 13 600 13 C582 13 544 45 515 86 C515 86 340 355 340 355 C340 355 340 355 340 355 C340 355 482 572 482 572 C512 613 557 647 583 647 C583 647 592 647 592 647 C592 647 592 660 592 660 L592 660 Z " />
<glyph glyph-name="Y" unicode="Y" horiz-adv-x="591" d="M396 13 C396 13 387 13 387 13 C359 13 335 51 335 96 C335 96 335 282 335 282 C335 282 498 573 498 573 C524 614 562 647 584 647 C584 647 592 647 592 647 C591 647 591 650 592 654 C591 657 591 660 592 660 C592 660 546 660 546 660 C546 660 538 660 538 660 C538 660 529 660 529 660 C529 660 441 660 441 660 C441 660 441 647 441 647 C441 647 453 647 453 647 C491 647 496 600 465 544 C465 544 465 544 465 544 C465 544 327 293 327 293 C327 293 182 570 182 570 C163 612 169 647 198 647 C198 647 208 647 208 647 C208 647 208 660 208 660 C208 660 135 660 135 660 C135 660 103 660 103 660 C103 660 70 660 70 660 C70 660 32 660 32 660 C32 660 32 647 32 647 C32 647 39 647 39 647 C58 647 93 613 117 571 C117 571 281 261 281 261 C281 261 281 96 281 96 C281 51 257 13 230 13 C230 13 221 13 221 13 C221 13 221 0 221 0 C221 0 281 0 281 0 C281 0 308 0 308 0 C308 0 335 0 335 0 C335 0 396 0 396 0 C396 0 396 13 396 13 L396 13 Z " />
<glyph glyph-name="Z" unicode="Z" horiz-adv-x="587" d="M517 7 C523 40 533 96 539 129 C539 129 537 130 536 130 C529 133 524 135 524 135 C524 135 516 117 516 117 C492 61 422 14 363 14 C363 14 122 14 122 14 C122 14 529 660 529 660 C529 660 499 660 499 660 C499 660 468 660 468 660 C468 660 216 660 216 660 C216 660 133 660 133 660 C133 660 119 660 119 660 C119 658 118 655 118 653 C110 625 97 577 90 549 C90 549 100 549 100 549 C100 549 110 564 110 564 C141 609 212 647 265 647 C265 647 460 647 460 647 C460 647 53 0 53 0 C53 0 83 0 83 0 C83 0 113 0 113 0 C113 0 420 0 420 0 C420 0 514 0 514 0 C514 0 516 0 516 0 C516 2 517 5 517 7 L517 7 Z " />
<glyph glyph-name="bracketleft" unicode="&#x5b;" horiz-adv-x="231" d="M116 649 C116 649 221 649 221 649 C221 649 221 660 221 660 C221 660 116 660 116 660 C116 660 77 660 77 660 C77 660 77 -120 77 -120 C77 -120 116 -120 116 -120 C116 -120 221 -120 221 -120 C221 -120 221 -109 221 -109 C221 -109 116 -109 116 -109 C116 -109 116 649 116 649 L116 649 Z " />
<glyph glyph-name="backslash" unicode="&#x5c;" horiz-adv-x="224" d="M207 -145 C207 -145 225 -145 225 -145 C225 -145 -43 710 -43 710 C-43 710 -60 710 -60 710 C-60 710 207 -145 207 -145 L207 -145 Z " />
<glyph glyph-name="bracketright" unicode="&#x5d;" horiz-adv-x="218" d="M110 649 C110 649 110 -109 110 -109 C110 -109 5 -109 5 -109 C5 -109 5 -120 5 -120 C5 -120 110 -120 110 -120 C110 -120 149 -120 149 -120 C149 -120 149 660 149 660 C149 660 110 660 110 660 C110 660 5 660 5 660 C5 660 5 649 5 649 C5 649 110 649 110 649 L110 649 Z " />
<glyph glyph-name="underscore" unicode="&#x5f;" horiz-adv-x="455" d="M5 -50 C5 -50 5 -78 5 -78 C5 -78 450 -78 450 -78 C450 -78 450 -50 450 -50 C450 -50 5 -50 5 -50 L5 -50 Z " />
<glyph glyph-name="a" unicode="a" horiz-adv-x="482" d="M461 37 C448 25 429 14 409 14 C382 14 370 41 370 73 C370 73 370 359 370 359 C370 438 314 505 248 505 C161 505 77 461 65 409 C65 409 115 409 115 409 C125 453 181 491 237 491 C280 491 317 436 317 371 C317 371 317 245 317 245 C317 245 201 234 201 234 C112 226 36 165 36 102 C36 44 88 -5 150 -5 C202 -5 271 26 317 67 C317 25 334 -10 375 -10 C411 -10 445 9 466 30 C466 30 461 37 461 37 L461 37 Z M317 233 C317 233 317 78 317 78 C279 49 221 28 175 28 C126 28 85 68 85 116 C85 164 138 211 201 218 C201 218 317 233 317 233 L317 233 Z " />
<glyph glyph-name="b" unicode="b" horiz-adv-x="569" d="M140 450 C175 468 238 483 277 483 C386 483 478 365 478 225 C478 109 392 9 292 9 C210 9 140 66 140 133 C140 133 140 450 140 450 L140 450 Z M140 458 C140 458 140 599 140 599 C140 599 140 707 140 707 C140 707 140 720 140 720 C140 720 130 720 130 720 C130 720 29 690 29 690 C30 686 30 683 29 683 C75 674 90 654 90 585 C90 585 90 0 90 0 C90 0 96 0 96 0 C96 0 96 1 96 1 C96 1 96 1 96 1 C101 14 115 24 128 24 C174 24 231 -5 292 -5 C421 -5 530 111 530 248 C530 387 431 505 316 505 C270 505 189 484 140 458 C140 458 140 458 140 458 L140 458 Z " />
<glyph glyph-name="c" unicode="c" horiz-adv-x="475" d="M424 61 C424 61 419 66 419 66 C397 44 332 25 279 25 C184 25 103 130 103 254 C103 382 189 491 290 491 C334 491 374 451 378 404 C380 390 391 379 403 379 C416 379 426 389 426 401 C420 457 361 505 296 505 C163 505 50 381 50 235 C50 105 136 -5 237 -5 C302 -5 388 25 424 61 L424 61 Z " />
<glyph glyph-name="d" unicode="d" horiz-adv-x="579" d="M469 599 C469 599 469 707 469 707 C469 707 469 720 469 720 C469 720 459 720 459 720 C459 720 359 690 359 690 C359 690 359 683 359 683 C404 673 419 654 419 585 C419 585 419 435 419 435 C385 473 319 505 259 505 C140 505 39 376 39 225 C39 101 131 -5 239 -5 C306 -5 385 22 419 54 C419 54 419 13 419 13 C419 13 419 0 419 0 C419 0 429 0 429 0 C429 0 530 30 530 30 C530 30 530 37 530 37 C484 47 469 66 469 135 C469 135 469 599 469 599 L469 599 Z M419 121 C419 121 419 62 419 62 C398 42 330 26 266 26 C172 26 91 126 91 244 C91 378 167 491 256 491 C321 491 393 453 419 413 C419 413 419 121 419 121 L419 121 Z " />
<glyph glyph-name="e" unicode="e" horiz-adv-x="482" d="M430 61 C430 61 425 66 425 66 C403 44 337 25 282 25 C185 25 103 130 103 254 C103 276 105 297 109 317 C109 317 432 317 432 317 C432 419 355 505 264 505 C148 505 50 381 50 235 C50 105 137 -5 240 -5 C307 -5 395 25 430 61 L430 61 Z M111 327 C132 421 193 491 261 491 C328 491 385 430 385 359 C385 346 374 335 362 335 C362 335 385 335 385 335 C385 335 111 327 111 327 L111 327 Z " />
<glyph glyph-name="f" unicode="f" horiz-adv-x="367" d="M140 0 C140 0 165 0 165 0 C165 0 226 0 226 0 C225 0 225 3 226 6 C225 10 225 13 226 13 C226 13 217 13 217 13 C189 13 165 51 165 96 C165 96 165 481 165 481 C165 481 300 481 300 481 C300 481 300 500 300 500 C300 500 165 500 165 500 C165 500 165 533 165 533 C165 628 214 709 272 709 C301 709 327 687 329 660 C330 648 342 638 354 638 C367 638 377 648 377 660 C374 693 332 720 286 720 C201 720 124 639 118 544 C118 544 115 500 115 500 C115 500 31 500 31 500 C31 500 31 481 31 481 C31 481 115 481 115 481 C115 481 115 96 115 96 C115 51 91 13 64 13 C64 13 54 13 54 13 C55 13 55 10 54 6 C55 3 55 0 54 0 C54 0 115 0 115 0 C115 0 140 0 140 0 L140 0 Z " />
<glyph glyph-name="g" unicode="g" horiz-adv-x="466" d="M467 500 C467 500 327 487 327 487 C303 499 275 505 246 505 C150 505 69 434 69 350 C69 283 121 224 191 203 C116 203 52 161 52 112 C52 66 98 29 159 21 C86 -5 27 -62 27 -111 C27 -180 95 -238 175 -238 C322 -238 447 -151 447 -49 C447 15 365 70 269 70 C269 70 191 67 191 67 C134 64 85 93 85 131 C85 166 134 195 191 195 C191 195 246 195 246 195 C342 195 423 266 423 350 C423 397 397 440 358 469 C358 469 467 472 467 472 C467 472 467 500 467 500 L467 500 Z M116 350 C116 428 176 494 246 494 C316 494 376 428 376 350 C376 272 316 206 246 206 C176 206 116 272 116 350 L116 350 Z M175 20 C181 20 188 20 194 20 C194 20 255 22 255 22 C339 22 411 -22 411 -74 C411 -156 305 -225 180 -225 C115 -225 60 -170 60 -105 C60 -56 113 -1 175 20 C175 20 175 20 175 20 L175 20 Z " />
<glyph glyph-name="h" unicode="h" horiz-adv-x="591" d="M380 0 C380 0 441 0 441 0 C441 0 466 0 466 0 C466 0 491 0 491 0 C491 0 551 0 551 0 C552 0 552 3 551 6 C552 10 552 13 551 13 C551 13 542 13 542 13 C514 13 491 51 491 96 C491 96 491 336 491 336 C491 427 447 505 365 505 C322 505 227 474 155 439 C155 439 155 599 155 599 C155 599 155 707 155 707 C155 707 155 720 155 720 C155 720 145 720 145 720 C145 720 45 690 45 690 C45 690 45 683 45 683 C91 673 105 655 105 585 C105 585 105 96 105 96 C105 51 81 13 54 13 C54 13 45 13 45 13 C45 13 45 0 45 0 C45 0 105 0 105 0 C105 0 130 0 130 0 C130 0 155 0 155 0 C155 0 216 0 216 0 C216 0 216 13 216 13 C216 13 207 13 207 13 C179 13 156 51 155 96 C155 96 155 433 155 433 C199 454 276 471 326 471 C401 471 441 407 441 331 C441 331 441 96 441 96 C441 51 417 13 389 13 C389 13 380 13 380 13 C380 13 380 0 380 0 L380 0 Z " />
<glyph glyph-name="i" unicode="i" horiz-adv-x="261" d="M216 13 C216 13 207 13 207 13 C180 13 157 48 156 91 C156 91 156 96 156 96 C156 96 156 379 156 379 C156 379 156 487 156 487 C156 487 156 500 156 500 C156 500 146 500 146 500 C146 500 45 470 45 470 C45 470 45 463 45 463 C91 453 106 434 106 365 C106 365 106 96 106 96 C106 51 82 13 54 13 C54 13 45 13 45 13 C45 13 45 0 45 0 C45 0 106 0 106 0 C106 0 131 0 131 0 C131 0 156 0 156 0 C156 0 216 0 216 0 C216 0 216 13 216 13 L216 13 Z M128 570 C146 570 161 585 161 603 C161 622 146 637 128 637 C110 637 95 622 95 603 C95 585 110 570 128 570 L128 570 Z " />
<glyph glyph-name="j" unicode="j" horiz-adv-x="261" d="M128 570 C146 570 161 585 161 603 C161 622 146 637 128 637 C110 637 95 622 95 603 C95 585 110 570 128 570 L128 570 Z M106 379 C106 379 105 8 105 8 C105 -117 70 -179 -4 -225 C-4 -225 1 -232 1 -232 C106 -167 156 -97 156 22 C156 22 156 379 156 379 C156 379 156 487 156 487 C156 487 156 500 156 500 C156 500 146 500 146 500 C146 500 45 470 45 470 C45 470 45 463 45 463 C88 454 104 437 106 379 L106 379 Z " />
<glyph glyph-name="k" unicode="k" horiz-adv-x="514" d="M542 13 C542 13 533 13 533 13 C509 13 456 44 415 84 C415 84 208 301 208 301 C208 301 342 413 342 413 C394 454 457 487 483 487 C483 487 492 487 492 487 C492 487 492 500 492 500 C492 500 446 500 446 500 C446 500 435 500 435 500 C435 500 424 500 424 500 C424 500 363 500 363 500 C363 500 363 487 363 487 C363 487 370 487 370 487 C391 487 365 449 313 404 C313 404 313 404 313 404 C313 404 164 275 164 275 C164 275 164 599 164 599 C164 599 164 707 164 707 C164 707 164 720 164 720 C164 720 154 720 154 720 C154 720 53 690 53 690 C54 686 54 683 53 683 C99 674 114 654 114 585 C114 585 114 96 114 96 C114 51 90 13 63 13 C63 13 53 13 53 13 C54 13 54 10 53 6 C54 3 54 0 53 0 C53 0 114 0 114 0 C114 0 139 0 139 0 C139 0 164 0 164 0 C164 0 225 0 225 0 C224 0 224 3 225 6 C224 10 224 13 225 13 C225 13 216 13 216 13 C188 13 164 51 164 96 C164 96 164 275 164 275 C164 275 169 268 169 268 C169 268 170 269 170 269 C170 269 338 96 338 96 C338 96 338 96 338 96 C382 51 400 13 378 13 C378 13 371 13 371 13 C371 13 371 0 371 0 C371 0 432 0 432 0 C432 0 463 0 463 0 C463 0 494 0 494 0 C494 0 542 0 542 0 C542 0 542 13 542 13 L542 13 Z " />
<glyph glyph-name="l" unicode="l" horiz-adv-x="261" d="M216 13 C216 13 207 13 207 13 C180 13 157 48 156 91 C156 91 156 96 156 96 C156 96 156 599 156 599 C156 599 156 707 156 707 C156 707 156 720 156 720 C156 720 146 720 146 720 C146 720 45 690 45 690 C45 690 45 683 45 683 C91 673 106 654 106 585 C106 585 106 96 106 96 C106 51 82 13 54 13 C54 13 45 13 45 13 C45 13 45 0 45 0 C45 0 106 0 106 0 C106 0 131 0 131 0 C131 0 156 0 156 0 C156 0 216 0 216 0 C216 0 216 13 216 13 L216 13 Z " />
<glyph glyph-name="m" unicode="m" horiz-adv-x="946" d="M907 13 C907 13 898 13 898 13 C870 13 846 51 846 96 C846 96 846 336 846 336 C846 427 780 505 711 505 C680 505 579 464 484 416 C461 468 417 505 371 505 C320 505 226 474 155 439 C155 439 155 500 155 500 C155 500 145 500 145 500 C145 500 45 470 45 470 C45 470 45 463 45 463 C91 453 105 434 105 365 C105 365 105 96 105 96 C105 51 81 13 54 13 C54 13 45 13 45 13 C45 13 45 0 45 0 C45 0 105 0 105 0 C105 0 130 0 130 0 C130 0 155 0 155 0 C155 0 216 0 216 0 C216 0 216 13 216 13 C216 13 207 13 207 13 C179 13 156 51 155 96 C155 96 155 379 155 379 C155 379 155 391 155 391 C155 391 155 434 155 434 C201 456 276 475 332 475 C393 475 451 409 451 331 C451 331 451 96 451 96 C451 51 427 13 399 13 C399 13 390 13 390 13 C390 13 390 0 390 0 C390 0 451 0 451 0 C451 0 476 0 476 0 C476 0 501 0 501 0 C501 0 561 0 561 0 C562 0 562 3 561 6 C562 10 562 13 561 13 C561 13 552 13 552 13 C524 13 501 51 501 96 C501 96 501 336 501 336 C501 362 496 386 487 409 C555 443 636 471 673 471 C736 471 796 407 796 331 C796 331 796 96 796 96 C796 51 772 13 745 13 C745 13 736 13 736 13 C736 13 736 0 736 0 C736 0 796 0 796 0 C796 0 821 0 821 0 C821 0 846 0 846 0 C846 0 907 0 907 0 C907 0 907 13 907 13 L907 13 Z " />
<glyph glyph-name="n" unicode="n" horiz-adv-x="591" d="M380 0 C380 0 441 0 441 0 C441 0 466 0 466 0 C466 0 491 0 491 0 C491 0 551 0 551 0 C552 0 552 3 551 6 C552 10 552 13 551 13 C551 13 542 13 542 13 C514 13 491 51 491 96 C491 96 491 336 491 336 C491 427 447 505 365 505 C322 505 227 474 155 439 C155 439 155 500 155 500 C155 500 145 500 145 500 C145 500 45 470 45 470 C45 470 45 463 45 463 C91 453 105 434 105 365 C105 365 105 96 105 96 C105 51 81 13 54 13 C54 13 45 13 45 13 C45 13 45 0 45 0 C45 0 105 0 105 0 C105 0 130 0 130 0 C130 0 155 0 155 0 C155 0 216 0 216 0 C216 0 216 13 216 13 C216 13 207 13 207 13 C179 13 156 51 155 96 C155 96 155 379 155 379 C155 379 155 391 155 391 C155 391 155 433 155 433 C199 454 276 471 326 471 C401 471 441 407 441 331 C441 331 441 96 441 96 C441 51 417 13 389 13 C389 13 380 13 380 13 C380 13 380 0 380 0 L380 0 Z " />
<glyph glyph-name="o" unicode="o" horiz-adv-x="588" d="M294 6 C193 6 106 118 106 250 C106 382 193 494 294 494 C396 494 483 382 483 250 C483 118 396 6 294 6 L294 6 Z M50 250 C50 112 162 -5 294 -5 C427 -5 539 112 539 250 C539 388 427 505 294 505 C162 505 50 388 50 250 L50 250 Z " />
<glyph glyph-name="p" unicode="p" horiz-adv-x="618" d="M216 -217 C216 -217 207 -217 207 -217 C179 -217 156 -179 155 -134 C155 -134 155 59 155 59 C190 21 249 -5 314 -5 C449 -5 564 116 564 258 C564 391 469 505 357 505 C288 505 196 467 153 420 C153 420 148 500 148 500 C148 500 138 500 138 500 C138 500 45 470 45 470 C45 470 45 463 45 463 C91 453 105 434 105 365 C105 365 105 -134 105 -134 C105 -179 81 -217 54 -217 C54 -217 45 -217 45 -217 C45 -217 45 -230 45 -230 C45 -230 105 -230 105 -230 C105 -230 130 -230 130 -230 C130 -230 155 -230 155 -230 C155 -230 216 -230 216 -230 C216 -230 216 -217 216 -217 L216 -217 Z M153 412 C185 444 259 471 318 471 C424 471 514 355 514 219 C514 106 422 9 314 9 C228 9 155 69 155 140 C155 140 155 379 155 379 C155 379 155 391 155 391 C155 391 154 391 154 391 C154 391 153 412 153 412 L153 412 Z " />
<glyph glyph-name="q" unicode="q" horiz-adv-x="600" d="M555 -217 C555 -217 546 -217 546 -217 C518 -217 495 -179 494 -134 C494 -134 494 500 494 500 C494 500 489 500 489 500 C489 500 489 499 489 499 C484 486 468 476 453 476 C408 476 351 505 291 505 C169 505 65 376 65 225 C65 101 154 -5 259 -5 C327 -5 409 23 444 56 C444 56 444 -134 444 -134 C444 -179 421 -217 393 -217 C393 -217 384 -217 384 -217 C384 -217 384 -230 384 -230 C384 -230 444 -230 444 -230 C444 -230 469 -230 469 -230 C469 -230 494 -230 494 -230 C494 -230 555 -230 555 -230 C555 -230 555 -217 555 -217 L555 -217 Z M444 66 C422 44 352 26 286 26 C195 26 117 126 117 244 C117 378 197 491 291 491 C373 491 444 435 444 368 C444 368 444 66 444 66 L444 66 Z " />
<glyph glyph-name="r" unicode="r" horiz-adv-x="400" d="M216 13 C216 13 207 13 207 13 C179 13 156 51 155 96 C155 96 155 379 155 379 C155 379 155 391 155 391 C155 391 154 391 154 391 C154 391 153 415 153 415 C179 444 228 468 264 468 C292 468 338 446 366 446 C379 446 390 457 390 470 C390 489 360 505 303 505 C260 505 191 467 153 422 C153 422 148 500 148 500 C148 500 138 500 138 500 C138 500 45 470 45 470 C45 470 45 463 45 463 C91 453 105 434 105 365 C105 365 105 96 105 96 C105 51 81 13 54 13 C54 13 45 13 45 13 C45 13 45 0 45 0 C45 0 105 0 105 0 C105 0 130 0 130 0 C130 0 155 0 155 0 C155 0 216 0 216 0 C216 0 216 13 216 13 L216 13 Z " />
<glyph glyph-name="s" unicode="s" horiz-adv-x="422" d="M47 124 C47 124 47 41 47 41 C81 16 159 -5 218 -5 C301 -5 372 60 372 136 C372 180 314 240 245 268 C169 299 103 357 103 395 C103 449 153 494 213 494 C220 494 229 492 241 489 C288 473 329 432 338 386 C338 386 348 386 348 386 C348 386 348 462 348 462 C306 485 244 505 213 505 C133 505 65 447 65 378 C65 331 132 264 210 232 C275 206 331 153 331 117 C331 57 280 6 221 6 C213 6 205 7 196 7 C144 15 85 57 66 102 C63 108 59 118 57 124 C57 124 47 124 47 124 L47 124 Z " />
<glyph glyph-name="t" unicode="t" horiz-adv-x="350" d="M320 500 C320 500 155 500 155 500 C155 500 155 640 155 640 C155 640 146 640 146 640 C146 640 109 495 109 495 C109 495 109 495 109 495 C109 495 128 572 128 572 C117 530 70 491 25 486 C25 486 25 481 25 481 C25 481 105 481 105 481 C105 481 105 111 105 111 C105 30 132 -5 195 -5 C247 -5 297 19 331 47 C331 47 327 51 327 51 C306 33 267 17 219 17 C174 17 154 42 154 102 C154 102 155 481 155 481 C155 481 320 481 320 481 C320 481 320 500 320 500 L320 500 Z " />
<glyph glyph-name="u" unicode="u" horiz-adv-x="556" d="M350 487 C350 487 359 487 359 487 C387 487 411 449 411 404 C411 404 411 121 411 121 C411 121 411 66 411 66 C392 45 338 28 267 28 C182 28 125 89 125 161 C125 161 125 500 125 500 C125 500 100 500 100 500 C100 500 75 500 75 500 C75 500 15 500 15 500 C15 500 15 487 15 487 C15 487 24 487 24 487 C51 487 75 449 75 404 C75 404 75 156 75 156 C75 69 137 -5 227 -5 C309 -5 378 23 411 57 C411 57 411 13 411 13 C411 13 411 0 411 0 C411 0 421 0 421 0 C421 0 521 30 521 30 C522 34 522 38 521 37 C475 47 461 65 461 135 C461 135 461 500 461 500 C461 500 436 500 436 500 C436 500 411 500 411 500 C411 500 350 500 350 500 C350 500 350 487 350 487 L350 487 Z " />
<glyph glyph-name="v" unicode="v" horiz-adv-x="550" d="M504 500 C504 500 448 500 448 500 C448 500 439 500 439 500 C439 500 431 500 431 500 C431 500 370 500 370 500 C370 500 370 487 370 487 C370 487 379 487 379 487 C404 487 412 449 396 404 C396 404 397 404 397 404 C397 404 271 53 271 53 C271 53 144 416 144 416 C134 455 143 487 167 487 C167 487 175 487 175 487 C175 487 175 500 175 500 C175 500 115 500 115 500 C115 500 86 500 86 500 C86 500 57 500 57 500 C57 500 1 500 1 500 C2 500 2 497 1 494 C2 490 2 487 1 487 C1 487 10 487 10 487 C37 487 74 451 92 407 C92 407 248 -10 248 -10 C248 -10 256 -10 256 -10 C256 -10 412 404 412 404 C412 404 412 404 412 404 C429 449 467 487 495 487 C495 487 504 487 504 487 C504 487 504 500 504 500 L504 500 Z " />
<glyph glyph-name="w" unicode="w" horiz-adv-x="805" d="M755 500 C755 500 711 500 711 500 C711 500 694 500 694 500 C694 500 609 500 609 500 C609 500 609 487 609 487 C609 487 623 487 623 487 C656 487 677 464 656 393 C656 393 534 53 534 53 C534 53 409 410 409 410 C392 468 411 487 442 487 C442 487 455 487 455 487 C455 487 455 500 455 500 C455 500 378 500 378 500 C378 500 321 500 321 500 C321 500 281 500 281 500 C281 500 281 487 281 487 C281 487 292 487 292 487 C310 487 334 463 361 392 C361 392 383 333 383 333 C383 333 383 333 383 333 C383 333 281 53 281 53 C281 53 154 416 154 416 C139 469 155 487 182 487 C182 487 195 487 195 487 C195 487 195 500 195 500 C195 500 125 500 125 500 C125 500 67 500 67 500 C67 500 24 500 24 500 C24 500 24 487 24 487 C24 487 35 487 35 487 C55 487 81 463 108 390 C108 390 108 390 108 390 C108 390 258 -10 258 -10 C258 -10 266 -10 266 -10 C266 -10 389 319 389 319 C389 319 511 -10 511 -10 C511 -10 519 -10 519 -10 C519 -10 673 399 673 399 C699 465 724 487 743 487 C743 487 755 487 755 487 C755 487 755 500 755 500 L755 500 Z " />
<glyph glyph-name="x" unicode="x" horiz-adv-x="555" d="M486 500 C486 500 435 500 435 500 C435 500 426 500 426 500 C426 500 418 500 418 500 C418 500 337 500 337 500 C337 500 337 487 337 487 C337 487 348 487 348 487 C381 487 382 449 351 404 C351 404 351 404 351 404 C351 404 275 294 275 294 C275 294 194 404 194 404 C194 404 195 404 195 404 C162 449 159 487 188 487 C188 487 197 487 197 487 C197 487 197 500 197 500 C197 500 124 500 124 500 C124 500 94 500 94 500 C94 500 63 500 63 500 C63 500 24 500 24 500 C24 500 24 487 24 487 C24 487 31 487 31 487 C51 487 91 457 122 419 C122 419 244 253 244 253 C244 253 138 96 138 96 C138 96 138 96 138 96 C109 51 56 13 24 13 C24 13 14 13 14 13 C14 13 14 0 14 0 C14 0 74 0 74 0 C74 0 83 0 83 0 C83 0 91 0 91 0 C91 0 188 0 188 0 C188 0 188 13 188 13 C188 13 175 13 175 13 C135 13 125 49 151 92 C151 92 251 243 251 243 C251 243 366 87 366 87 C393 46 398 13 376 13 C376 13 368 13 368 13 C368 13 368 0 368 0 C368 0 429 0 429 0 C429 0 459 0 459 0 C459 0 490 0 490 0 C490 0 521 0 521 0 C521 0 521 13 521 13 C521 13 515 13 515 13 C497 13 453 51 420 96 C420 96 420 96 420 96 C420 96 281 286 281 286 C281 286 376 419 376 419 C408 457 452 487 477 487 C477 487 486 487 486 487 C486 487 486 500 486 500 L486 500 Z " />
<glyph glyph-name="y" unicode="y" horiz-adv-x="560" d="M535 500 C535 500 479 500 479 500 C479 500 470 500 470 500 C470 500 462 500 462 500 C462 500 401 500 401 500 C401 500 401 487 401 487 C401 487 410 487 410 487 C435 487 443 449 427 404 C427 404 428 404 428 404 C428 404 302 53 302 53 C302 53 175 416 175 416 C165 455 174 487 198 487 C198 487 206 487 206 487 C206 487 206 500 206 500 C206 500 146 500 146 500 C146 500 117 500 117 500 C117 500 88 500 88 500 C88 500 32 500 32 500 C33 500 33 497 32 494 C33 490 33 487 32 487 C32 487 41 487 41 487 C68 487 105 451 123 407 C123 407 276 -3 276 -3 C276 -3 250 -67 250 -67 C219 -151 185 -197 154 -197 C133 -197 108 -173 88 -173 C74 -173 63 -183 63 -194 C63 -214 91 -230 123 -230 C175 -230 225 -174 264 -72 C264 -72 287 -10 287 -10 C287 -10 443 404 443 404 C443 404 443 404 443 404 C460 449 498 487 526 487 C526 487 535 487 535 487 C535 487 535 500 535 500 L535 500 Z " />
<glyph glyph-name="z" unicode="z" horiz-adv-x="483" d="M429 133 C429 133 421 114 421 114 C398 59 328 11 269 11 C269 11 122 11 122 11 C122 11 434 500 434 500 C434 500 405 500 405 500 C405 500 376 500 376 500 C376 500 167 500 167 500 C167 500 84 500 84 500 C84 500 71 500 71 500 C70 498 70 496 69 494 C63 473 54 437 48 416 C48 416 58 416 58 416 C58 416 67 426 67 426 C94 460 163 488 217 488 C217 488 217 488 217 488 C217 488 369 489 369 489 C369 489 56 0 56 0 C56 0 86 0 86 0 C86 0 115 0 115 0 C115 0 325 0 325 0 C325 0 419 0 419 0 C419 0 422 0 422 0 C422 2 422 4 423 6 C428 38 438 94 444 126 C444 128 429 133 429 133 L429 133 Z " />
<glyph glyph-name="braceleft" unicode="&#x7b;" horiz-adv-x="241" d="M227 -120 C227 -120 227 -112 227 -112 C227 -112 198 -112 198 -112 C144 -112 99 -58 99 5 C99 5 99 175 99 175 C99 222 69 263 32 270 C69 277 99 318 99 366 C99 366 99 535 99 535 C99 598 144 652 198 652 C198 652 227 652 227 652 C227 652 227 660 227 660 C227 660 187 660 187 660 C118 660 60 602 60 535 C60 535 60 338 60 338 C60 303 37 274 10 274 C10 274 5 274 5 274 C5 274 5 266 5 266 C5 266 10 266 10 266 C37 266 60 237 60 203 C60 203 60 5 60 5 C60 -62 118 -120 187 -120 C187 -120 227 -120 227 -120 L227 -120 Z " />
<glyph glyph-name="bar" unicode="&#x7c;" horiz-adv-x="158" d="M60 770 C60 770 60 -234 60 -234 C60 -234 99 -234 99 -234 C99 -234 99 770 99 770 C99 770 60 770 60 770 L60 770 Z " />
<glyph glyph-name="braceright" unicode="&#x7d;" horiz-adv-x="241" d="M5 660 C5 660 5 652 5 652 C5 652 34 652 34 652 C87 652 133 598 133 535 C133 535 133 365 133 365 C133 318 163 277 200 270 C163 263 133 222 133 174 C133 174 133 5 133 5 C133 -58 87 -112 34 -112 C34 -112 5 -112 5 -112 C5 -112 5 -120 5 -120 C5 -120 45 -120 45 -120 C114 -120 172 -62 172 5 C172 5 172 202 172 202 C172 237 195 266 222 266 C222 266 227 266 227 266 C227 266 227 274 227 274 C227 274 222 274 222 274 C195 274 172 303 172 337 C172 337 172 535 172 535 C172 602 114 660 45 660 C45 660 5 660 5 660 L5 660 Z " />
<glyph glyph-name="[namenotfound]" unicode="&#xa0;" horiz-adv-x="220" d="" />
<glyph glyph-name="exclamdown" unicode="&#xa1;" horiz-adv-x="183" d="M87 505 C68 505 51 488 51 469 C51 450 68 433 87 433 C107 433 123 450 123 469 C123 488 107 505 87 505 L87 505 Z M60 -120 C59 -144 73 -165 91 -165 C109 -165 123 -144 121 -120 C121 -120 91 358 91 358 C91 358 84 358 84 358 C84 358 60 -120 60 -120 L60 -120 Z " />
<glyph glyph-name="cent" unicode="&#xa2;" horiz-adv-x="475" d="M272 575 C272 575 272 504 272 504 C150 490 50 372 50 235 C50 105 136 -5 237 -5 C248 -5 260 -4 272 -2 C272 -2 272 -75 272 -75 C272 -75 289 -75 289 -75 C289 -75 289 0 289 0 C342 10 397 34 424 61 C424 61 419 66 419 66 C398 45 340 27 289 25 C289 25 289 491 289 491 C289 491 290 491 290 491 C334 491 374 451 378 404 C380 390 391 379 403 379 C416 379 426 389 426 401 C420 457 361 505 296 505 C294 505 291 505 289 505 C289 505 289 575 289 575 C289 575 272 575 272 575 L272 575 Z M272 25 C180 30 103 133 103 254 C103 374 179 478 272 490 C272 490 272 25 272 25 L272 25 Z " />
<glyph glyph-name="guillemotleft" unicode="&#xab;" horiz-adv-x="457" d="M239 250 C239 250 411 459 411 459 C411 459 406 464 406 464 C406 464 186 253 186 253 C186 253 186 247 186 247 C186 247 407 36 407 36 C407 36 412 41 412 41 C412 41 239 250 239 250 L239 250 Z M73 250 C73 250 245 459 245 459 C245 459 239 464 239 464 C239 464 20 253 20 253 C20 253 20 247 20 247 C20 247 241 36 241 36 C241 36 246 41 246 41 C246 41 73 250 73 250 L73 250 Z " />
<glyph glyph-name="guillemotright" unicode="&#xbb;" horiz-adv-x="457" d="M218 250 C218 250 46 459 46 459 C46 459 52 464 52 464 C52 464 271 253 271 253 C271 253 271 247 271 247 C271 247 50 36 50 36 C50 36 45 41 45 41 C45 41 218 250 218 250 L218 250 Z M384 250 C384 250 213 459 213 459 C213 459 218 464 218 464 C218 464 437 253 437 253 C437 253 437 247 437 247 C437 247 217 36 217 36 C217 36 211 41 211 41 C211 41 384 250 384 250 L384 250 Z " />
<glyph glyph-name="questiondown" unicode="&#xbf;" horiz-adv-x="366" d="M227 505 C207 505 191 488 191 469 C191 450 207 433 227 433 C246 433 263 450 263 469 C263 488 246 505 227 505 L227 505 Z M241 140 C241 140 230 353 230 353 C230 353 223 353 223 353 C223 353 214 171 214 171 C214 171 179 171 179 171 C70 171 35 93 35 55 C35 -64 130 -165 242 -165 C287 -165 326 -134 326 -98 C326 -91 313 -85 298 -85 C272 -85 252 -126 226 -126 C129 -126 47 -45 46 50 C47 76 83 132 196 132 C196 132 231 132 231 132 C237 132 241 136 241 140 L241 140 Z " />
<glyph glyph-name="Agrave" unicode="&#xc0;" horiz-adv-x="607" d="M601 13 C601 13 593 13 593 13 C569 13 534 51 517 96 C517 96 517 96 517 96 C517 96 303 675 303 675 C303 675 289 675 289 675 C289 675 89 85 89 85 C72 45 39 13 13 13 C13 13 4 13 4 13 C4 13 4 0 4 0 C4 0 60 0 60 0 C60 0 69 0 69 0 C69 0 78 0 78 0 C78 0 167 0 167 0 C167 0 167 13 167 13 C167 13 154 13 154 13 C115 13 97 57 114 109 C114 109 115 111 115 111 C115 111 155 230 155 230 C155 230 411 230 411 230 C411 230 461 90 461 90 C473 48 456 13 421 13 C421 13 409 13 409 13 C409 13 409 0 409 0 C409 0 493 0 493 0 C493 0 523 0 523 0 C523 0 552 0 552 0 C552 0 601 0 601 0 C601 0 601 13 601 13 L601 13 Z M282 840 C263 870 245 895 242 895 C235 895 214 880 214 875 C214 870 234 846 257 820 C257 820 370 691 370 691 C370 691 375 695 375 695 C375 695 282 840 282 840 L282 840 Z M406 244 C406 244 159 244 159 244 C159 244 279 602 279 602 C279 602 406 244 406 244 L406 244 Z " />
<glyph glyph-name="Aacute" unicode="&#xc1;" horiz-adv-x="607" d="M234 691 C234 691 344 820 344 820 C366 847 385 872 386 875 C385 880 365 895 357 895 C355 895 337 870 318 840 C318 840 228 695 228 695 C228 695 234 691 234 691 L234 691 Z M601 13 C601 13 593 13 593 13 C569 13 534 51 517 96 C517 96 517 96 517 96 C517 96 303 675 303 675 C303 675 289 675 289 675 C289 675 89 85 89 85 C72 45 39 13 13 13 C13 13 4 13 4 13 C4 13 4 0 4 0 C4 0 60 0 60 0 C60 0 69 0 69 0 C69 0 78 0 78 0 C78 0 167 0 167 0 C167 0 167 13 167 13 C167 13 154 13 154 13 C115 13 97 57 114 109 C114 109 115 111 115 111 C115 111 155 230 155 230 C155 230 411 230 411 230 C411 230 461 90 461 90 C473 48 456 13 421 13 C421 13 409 13 409 13 C409 13 409 0 409 0 C409 0 493 0 493 0 C493 0 523 0 523 0 C523 0 552 0 552 0 C552 0 601 0 601 0 C601 0 601 13 601 13 L601 13 Z M406 244 C406 244 159 244 159 244 C159 244 279 602 279 602 C279 602 406 244 406 244 L406 244 Z " />
<glyph glyph-name="Acircumflex" unicode="&#xc2;" horiz-adv-x="607" d="M601 13 C601 13 593 13 593 13 C569 13 534 51 517 96 C517 96 517 96 517 96 C517 96 303 675 303 675 C303 675 289 675 289 675 C289 675 89 85 89 85 C72 45 39 13 13 13 C13 13 4 13 4 13 C4 13 4 0 4 0 C4 0 60 0 60 0 C60 0 69 0 69 0 C69 0 78 0 78 0 C78 0 167 0 167 0 C167 0 167 13 167 13 C167 13 154 13 154 13 C115 13 97 57 114 109 C114 109 115 111 115 111 C115 111 155 230 155 230 C155 230 411 230 411 230 C411 230 461 90 461 90 C473 48 456 13 421 13 C421 13 409 13 409 13 C409 13 409 0 409 0 C409 0 493 0 493 0 C493 0 523 0 523 0 C523 0 552 0 552 0 C552 0 601 0 601 0 C601 0 601 13 601 13 L601 13 Z M296 852 C296 852 409 693 409 693 C409 693 414 698 414 698 C414 698 312 891 312 891 C310 894 303 905 296 905 C290 905 282 895 280 891 C280 891 178 698 178 698 C178 698 183 693 183 693 C183 693 296 852 296 852 L296 852 Z M406 244 C406 244 159 244 159 244 C159 244 279 602 279 602 C279 602 406 244 406 244 L406 244 Z " />
<glyph glyph-name="Atilde" unicode="&#xc3;" horiz-adv-x="607" d="M154 755 C154 791 175 822 199 822 C254 822 325 759 379 759 C415 759 446 802 446 852 C446 852 438 852 438 852 C438 820 416 792 390 792 C336 792 265 855 210 855 C176 855 146 809 146 755 C146 755 154 755 154 755 L154 755 Z M601 13 C601 13 593 13 593 13 C569 13 534 51 517 96 C517 96 517 96 517 96 C517 96 303 675 303 675 C303 675 289 675 289 675 C289 675 89 85 89 85 C72 45 39 13 13 13 C13 13 4 13 4 13 C4 13 4 0 4 0 C4 0 60 0 60 0 C60 0 69 0 69 0 C69 0 78 0 78 0 C78 0 167 0 167 0 C167 0 167 13 167 13 C167 13 154 13 154 13 C115 13 97 57 114 109 C114 109 115 111 115 111 C115 111 155 230 155 230 C155 230 411 230 411 230 C411 230 461 90 461 90 C473 48 456 13 421 13 C421 13 409 13 409 13 C409 13 409 0 409 0 C409 0 493 0 493 0 C493 0 523 0 523 0 C523 0 552 0 552 0 C552 0 601 0 601 0 C601 0 601 13 601 13 L601 13 Z M406 244 C406 244 159 244 159 244 C159 244 279 602 279 602 C279 602 406 244 406 244 L406 244 Z " />
<glyph glyph-name="Adieresis" unicode="&#xc4;" horiz-adv-x="607" d="M385 730 C402 730 416 744 416 761 C416 777 402 791 385 791 C368 791 354 777 354 761 C354 744 368 730 385 730 L385 730 Z M207 730 C224 730 238 744 238 761 C238 777 224 791 207 791 C191 791 177 777 177 761 C177 744 191 730 207 730 L207 730 Z M601 13 C601 13 593 13 593 13 C569 13 534 51 517 96 C517 96 517 96 517 96 C517 96 303 675 303 675 C303 675 289 675 289 675 C289 675 89 85 89 85 C72 45 39 13 13 13 C13 13 4 13 4 13 C4 13 4 0 4 0 C4 0 60 0 60 0 C60 0 69 0 69 0 C69 0 78 0 78 0 C78 0 167 0 167 0 C167 0 167 13 167 13 C167 13 154 13 154 13 C115 13 97 57 114 109 C114 109 115 111 115 111 C115 111 155 230 155 230 C155 230 411 230 411 230 C411 230 461 90 461 90 C473 48 456 13 421 13 C421 13 409 13 409 13 C409 13 409 0 409 0 C409 0 493 0 493 0 C493 0 523 0 523 0 C523 0 552 0 552 0 C552 0 601 0 601 0 C601 0 601 13 601 13 L601 13 Z M406 244 C406 244 159 244 159 244 C159 244 279 602 279 602 C279 602 406 244 406 244 L406 244 Z " />
<glyph glyph-name="Aring" unicode="&#xc5;" horiz-adv-x="607" d="M296 706 C257 706 216 748 216 788 C216 832 253 869 296 869 C339 869 376 832 376 788 C376 748 335 706 296 706 L296 706 Z M202 788 C202 743 250 695 296 695 C342 695 390 743 390 788 C390 837 347 880 296 880 C245 880 202 837 202 788 L202 788 Z M601 13 C601 13 593 13 593 13 C569 13 534 51 517 96 C517 96 517 96 517 96 C517 96 303 675 303 675 C303 675 289 675 289 675 C289 675 89 85 89 85 C72 45 39 13 13 13 C13 13 4 13 4 13 C4 13 4 0 4 0 C4 0 60 0 60 0 C60 0 69 0 69 0 C69 0 78 0 78 0 C78 0 167 0 167 0 C167 0 167 13 167 13 C167 13 154 13 154 13 C115 13 97 57 114 109 C114 109 115 111 115 111 C115 111 155 230 155 230 C155 230 411 230 411 230 C411 230 461 90 461 90 C473 48 456 13 421 13 C421 13 409 13 409 13 C409 13 409 0 409 0 C409 0 493 0 493 0 C493 0 523 0 523 0 C523 0 552 0 552 0 C552 0 601 0 601 0 C601 0 601 13 601 13 L601 13 Z M406 244 C406 244 159 244 159 244 C159 244 279 602 279 602 C279 602 406 244 406 244 L406 244 Z " />
<glyph glyph-name="Ccedilla" unicode="&#xc7;" horiz-adv-x="718" d="M659 491 C659 491 659 605 659 605 C599 637 479 665 398 665 C217 665 62 511 62 330 C62 149 217 -5 398 -5 C488 -5 608 27 659 65 C659 65 655 71 655 71 C655 71 655 71 655 71 C655 71 659 65 659 65 C659 65 659 177 659 177 C659 177 648 177 648 177 C645 169 640 155 637 146 C615 79 519 16 430 10 C430 10 430 9 430 9 C419 8 408 8 398 8 C249 8 122 156 122 330 C122 504 249 652 398 652 C419 652 442 650 466 647 C466 647 466 646 466 646 C538 636 616 579 637 522 C640 514 645 500 648 491 C648 491 659 491 659 491 L659 491 Z " />
<glyph glyph-name="Egrave" unicode="&#xc8;" horiz-adv-x="550" d="M385 267 C385 267 385 336 385 336 C385 336 385 342 385 342 C385 342 385 349 385 349 C385 349 385 410 385 410 C385 410 375 410 375 410 C375 410 372 401 372 401 C363 373 306 349 246 349 C246 349 155 349 155 349 C155 349 155 647 155 647 C155 647 282 647 282 647 C346 647 415 604 432 554 C432 554 437 537 437 537 C437 537 447 537 447 537 C447 537 447 653 447 653 C447 653 447 660 447 660 C447 660 440 660 440 660 C440 660 350 660 350 660 C350 660 155 660 155 660 C155 660 128 660 128 660 C128 660 101 660 101 660 C101 660 40 660 40 660 C40 660 40 647 40 647 C40 647 49 647 49 647 C77 647 101 609 101 564 C101 564 101 96 101 96 C101 51 77 13 49 13 C49 13 40 13 40 13 C40 13 40 0 40 0 C40 0 101 0 101 0 C101 0 128 0 128 0 C128 0 155 0 155 0 C155 0 356 0 356 0 C356 0 450 0 450 0 C450 0 452 0 452 0 C452 2 453 5 453 7 C459 38 468 91 474 123 C474 123 464 123 464 123 C464 123 456 106 456 106 C430 56 354 14 290 13 C290 13 155 13 155 13 C155 13 155 336 155 336 C155 336 246 336 246 336 C306 336 363 309 372 277 C372 277 375 267 375 267 C375 267 385 267 385 267 L385 267 Z M241 840 C222 870 205 895 201 895 C193 895 173 880 173 875 C172 870 192 846 216 820 C216 820 328 691 328 691 C328 691 334 695 334 695 C334 695 241 840 241 840 L241 840 Z " />
<glyph glyph-name="Eacute" unicode="&#xc9;" horiz-adv-x="550" d="M239 691 C239 691 349 820 349 820 C371 847 391 872 390 875 C390 880 370 895 362 895 C360 895 342 870 323 840 C323 840 233 695 233 695 C233 695 239 691 239 691 L239 691 Z M385 267 C385 267 385 336 385 336 C385 336 385 342 385 342 C385 342 385 349 385 349 C385 349 385 410 385 410 C385 410 375 410 375 410 C375 410 372 401 372 401 C363 373 306 349 246 349 C246 349 155 349 155 349 C155 349 155 647 155 647 C155 647 282 647 282 647 C346 647 415 604 432 554 C432 554 437 537 437 537 C437 537 447 537 447 537 C447 537 447 653 447 653 C447 653 447 660 447 660 C447 660 440 660 440 660 C440 660 350 660 350 660 C350 660 155 660 155 660 C155 660 128 660 128 660 C128 660 101 660 101 660 C101 660 40 660 40 660 C40 660 40 647 40 647 C40 647 49 647 49 647 C77 647 101 609 101 564 C101 564 101 96 101 96 C101 51 77 13 49 13 C49 13 40 13 40 13 C40 13 40 0 40 0 C40 0 101 0 101 0 C101 0 128 0 128 0 C128 0 155 0 155 0 C155 0 356 0 356 0 C356 0 450 0 450 0 C450 0 452 0 452 0 C452 2 453 5 453 7 C459 38 468 91 474 123 C474 123 464 123 464 123 C464 123 456 106 456 106 C430 56 354 14 290 13 C290 13 155 13 155 13 C155 13 155 336 155 336 C155 336 246 336 246 336 C306 336 363 309 372 277 C372 277 375 267 375 267 C375 267 385 267 385 267 L385 267 Z " />
<glyph glyph-name="Ecircumflex" unicode="&#xca;" horiz-adv-x="550" d="M385 267 C385 267 385 336 385 336 C385 336 385 342 385 342 C385 342 385 349 385 349 C385 349 385 410 385 410 C385 410 375 410 375 410 C375 410 372 401 372 401 C363 373 306 349 246 349 C246 349 155 349 155 349 C155 349 155 647 155 647 C155 647 282 647 282 647 C346 647 415 604 432 554 C432 554 437 537 437 537 C437 537 447 537 447 537 C447 537 447 653 447 653 C447 653 447 660 447 660 C447 660 440 660 440 660 C440 660 350 660 350 660 C350 660 155 660 155 660 C155 660 128 660 128 660 C128 660 101 660 101 660 C101 660 40 660 40 660 C40 660 40 647 40 647 C40 647 49 647 49 647 C77 647 101 609 101 564 C101 564 101 96 101 96 C101 51 77 13 49 13 C49 13 40 13 40 13 C40 13 40 0 40 0 C40 0 101 0 101 0 C101 0 128 0 128 0 C128 0 155 0 155 0 C155 0 356 0 356 0 C356 0 450 0 450 0 C450 0 452 0 452 0 C452 2 453 5 453 7 C459 38 468 91 474 123 C474 123 464 123 464 123 C464 123 456 106 456 106 C430 56 354 14 290 13 C290 13 155 13 155 13 C155 13 155 336 155 336 C155 336 246 336 246 336 C306 336 363 309 372 277 C372 277 375 267 375 267 C375 267 385 267 385 267 L385 267 Z M271 853 C271 853 383 693 383 693 C383 693 389 698 389 698 C389 698 286 891 286 891 C284 894 277 905 271 905 C264 905 257 895 255 891 C255 891 152 698 152 698 C152 698 158 693 158 693 C158 693 271 853 271 853 L271 853 Z " />
<glyph glyph-name="Edieresis" unicode="&#xcb;" horiz-adv-x="550" d="M359 730 C376 730 390 744 390 761 C390 777 376 791 359 791 C343 791 329 777 329 761 C329 744 343 730 359 730 L359 730 Z M182 730 C198 730 212 744 212 761 C212 777 198 791 182 791 C165 791 151 777 151 761 C151 744 165 730 182 730 L182 730 Z M385 267 C385 267 385 336 385 336 C385 336 385 342 385 342 C385 342 385 349 385 349 C385 349 385 410 385 410 C385 410 375 410 375 410 C375 410 372 401 372 401 C363 373 306 349 246 349 C246 349 155 349 155 349 C155 349 155 647 155 647 C155 647 282 647 282 647 C346 647 415 604 432 554 C432 554 437 537 437 537 C437 537 447 537 447 537 C447 537 447 653 447 653 C447 653 447 660 447 660 C447 660 440 660 440 660 C440 660 350 660 350 660 C350 660 155 660 155 660 C155 660 128 660 128 660 C128 660 101 660 101 660 C101 660 40 660 40 660 C40 660 40 647 40 647 C40 647 49 647 49 647 C77 647 101 609 101 564 C101 564 101 96 101 96 C101 51 77 13 49 13 C49 13 40 13 40 13 C40 13 40 0 40 0 C40 0 101 0 101 0 C101 0 128 0 128 0 C128 0 155 0 155 0 C155 0 356 0 356 0 C356 0 450 0 450 0 C450 0 452 0 452 0 C452 2 453 5 453 7 C459 38 468 91 474 123 C474 123 464 123 464 123 C464 123 456 106 456 106 C430 56 354 14 290 13 C290 13 155 13 155 13 C155 13 155 336 155 336 C155 336 246 336 246 336 C306 336 363 309 372 277 C372 277 375 267 375 267 C375 267 385 267 385 267 L385 267 Z " />
<glyph glyph-name="Igrave" unicode="&#xcc;" horiz-adv-x="256" d="M216 660 C216 660 155 660 155 660 C155 660 128 660 128 660 C128 660 101 660 101 660 C101 660 41 660 41 660 C41 660 41 647 41 647 C41 647 50 647 50 647 C77 647 101 609 101 564 C101 564 101 96 101 96 C101 51 77 13 50 13 C50 13 41 13 41 13 C41 13 41 0 41 0 C41 0 101 0 101 0 C101 0 128 0 128 0 C128 0 155 0 155 0 C155 0 216 0 216 0 C216 0 216 13 216 13 C216 13 207 13 207 13 C179 13 156 51 155 96 C155 96 155 564 155 564 C156 609 179 647 207 647 C207 647 216 647 216 647 C216 647 216 660 216 660 L216 660 Z M114 840 C96 870 78 895 75 895 C67 895 46 880 46 875 C46 870 66 846 89 820 C89 820 202 691 202 691 C202 691 208 695 208 695 C208 695 114 840 114 840 L114 840 Z " />
<glyph glyph-name="Iacute" unicode="&#xcd;" horiz-adv-x="256" d="M66 691 C66 691 176 820 176 820 C199 847 218 872 218 875 C218 880 197 895 189 895 C187 895 170 870 151 840 C151 840 61 695 61 695 C61 695 66 691 66 691 L66 691 Z M216 660 C216 660 155 660 155 660 C155 660 128 660 128 660 C128 660 101 660 101 660 C101 660 41 660 41 660 C41 660 41 647 41 647 C41 647 50 647 50 647 C77 647 101 609 101 564 C101 564 101 96 101 96 C101 51 77 13 50 13 C50 13 41 13 41 13 C41 13 41 0 41 0 C41 0 101 0 101 0 C101 0 128 0 128 0 C128 0 155 0 155 0 C155 0 216 0 216 0 C216 0 216 13 216 13 C216 13 207 13 207 13 C179 13 156 51 155 96 C155 96 155 564 155 564 C156 609 179 647 207 647 C207 647 216 647 216 647 C216 647 216 660 216 660 L216 660 Z " />
<glyph glyph-name="Icircumflex" unicode="&#xce;" horiz-adv-x="256" d="M216 660 C216 660 155 660 155 660 C155 660 128 660 128 660 C128 660 101 660 101 660 C101 660 41 660 41 660 C41 660 41 647 41 647 C41 647 50 647 50 647 C77 647 101 609 101 564 C101 564 101 96 101 96 C101 51 77 13 50 13 C50 13 41 13 41 13 C41 13 41 0 41 0 C41 0 101 0 101 0 C101 0 128 0 128 0 C128 0 155 0 155 0 C155 0 216 0 216 0 C216 0 216 13 216 13 C216 13 207 13 207 13 C179 13 156 51 155 96 C155 96 155 564 155 564 C156 609 179 647 207 647 C207 647 216 647 216 647 C216 647 216 660 216 660 L216 660 Z M128 852 C128 852 241 693 241 693 C241 693 246 698 246 698 C246 698 144 891 144 891 C142 894 135 905 128 905 C122 905 115 895 113 891 C113 891 10 698 10 698 C10 698 15 693 15 693 C15 693 128 852 128 852 L128 852 Z " />
<glyph glyph-name="Idieresis" unicode="&#xcf;" horiz-adv-x="256" d="M217 730 C234 730 248 744 248 761 C248 777 234 791 217 791 C201 791 187 777 187 761 C187 744 201 730 217 730 L217 730 Z M40 730 C56 730 70 744 70 761 C70 777 56 791 40 791 C23 791 9 777 9 761 C9 744 23 730 40 730 L40 730 Z M216 660 C216 660 155 660 155 660 C155 660 128 660 128 660 C128 660 101 660 101 660 C101 660 41 660 41 660 C41 660 41 647 41 647 C41 647 50 647 50 647 C77 647 101 609 101 564 C101 564 101 96 101 96 C101 51 77 13 50 13 C50 13 41 13 41 13 C41 13 41 0 41 0 C41 0 101 0 101 0 C101 0 128 0 128 0 C128 0 155 0 155 0 C155 0 216 0 216 0 C216 0 216 13 216 13 C216 13 207 13 207 13 C179 13 156 51 155 96 C155 96 155 564 155 564 C156 609 179 647 207 647 C207 647 216 647 216 647 C216 647 216 660 216 660 L216 660 Z " />
<glyph glyph-name="Ntilde" unicode="&#xd1;" horiz-adv-x="670" d="M196 755 C196 791 217 822 241 822 C296 822 366 759 421 759 C457 759 488 802 488 852 C488 852 480 852 480 852 C480 820 458 792 432 792 C377 792 306 855 252 855 C217 855 187 809 187 755 C187 755 196 755 196 755 L196 755 Z M495 647 C495 647 504 647 504 647 C532 647 556 609 556 564 C556 564 556 80 556 80 C556 80 151 660 151 660 C151 660 120 637 120 637 C120 637 120 637 120 637 C120 637 151 660 151 660 C151 660 120 660 120 660 C120 660 112 660 112 660 C112 660 104 660 104 660 C104 660 43 660 43 660 C43 660 43 647 43 647 C43 647 52 647 52 647 C80 647 104 609 104 564 C104 564 104 96 104 96 C104 51 80 13 52 13 C52 13 43 13 43 13 C43 13 43 0 43 0 C43 0 104 0 104 0 C104 0 112 0 112 0 C112 0 120 0 120 0 C120 0 180 0 180 0 C180 0 180 13 180 13 C180 13 171 13 171 13 C144 13 120 51 120 96 C120 96 120 611 120 611 C120 611 531 23 531 23 C531 23 555 -11 555 -11 C555 -11 572 -11 572 -11 C572 -11 572 43 572 43 C572 43 572 564 572 564 C572 609 595 647 623 647 C623 647 632 647 632 647 C633 647 633 650 632 654 C633 657 633 660 632 660 C632 660 572 660 572 660 C572 660 564 660 564 660 C564 660 556 660 556 660 C556 660 495 660 495 660 C495 660 495 647 495 647 L495 647 Z " />
<glyph glyph-name="Ograve" unicode="&#xd2;" horiz-adv-x="759" d="M386 8 C229 8 122 173 122 330 C122 487 229 652 386 652 C543 652 650 487 650 330 C650 173 543 8 386 8 L386 8 Z M62 330 C62 167 193 -5 386 -5 C578 -5 709 167 709 330 C709 493 578 665 386 665 C193 665 62 493 62 330 L62 330 Z M372 840 C353 870 335 895 332 895 C324 895 303 880 303 875 C303 870 323 846 346 820 C346 820 459 691 459 691 C459 691 465 695 465 695 C465 695 372 840 372 840 L372 840 Z " />
<glyph glyph-name="Oacute" unicode="&#xd3;" horiz-adv-x="759" d="M361 691 C361 691 471 820 471 820 C494 847 513 872 513 875 C513 880 492 895 484 895 C482 895 465 870 446 840 C446 840 356 695 356 695 C356 695 361 691 361 691 L361 691 Z M386 8 C229 8 122 173 122 330 C122 487 229 652 386 652 C543 652 650 487 650 330 C650 173 543 8 386 8 L386 8 Z M62 330 C62 167 193 -5 386 -5 C578 -5 709 167 709 330 C709 493 578 665 386 665 C193 665 62 493 62 330 L62 330 Z " />
<glyph glyph-name="Ocircumflex" unicode="&#xd4;" horiz-adv-x="759" d="M386 8 C229 8 122 173 122 330 C122 487 229 652 386 652 C543 652 650 487 650 330 C650 173 543 8 386 8 L386 8 Z M62 330 C62 167 193 -5 386 -5 C578 -5 709 167 709 330 C709 493 578 665 386 665 C193 665 62 493 62 330 L62 330 Z M386 853 C386 853 499 693 499 693 C499 693 504 698 504 698 C504 698 402 891 402 891 C400 894 392 905 386 905 C379 905 372 895 370 891 C370 891 268 698 268 698 C268 698 273 693 273 693 C273 693 386 853 386 853 L386 853 Z " />
<glyph glyph-name="Otilde" unicode="&#xd5;" horiz-adv-x="759" d="M244 755 C244 791 265 822 289 822 C343 822 414 759 469 759 C505 759 536 802 536 852 C536 852 527 852 527 852 C527 820 505 792 480 792 C425 792 354 855 300 855 C265 855 235 809 235 755 C235 755 244 755 244 755 L244 755 Z M386 8 C229 8 122 173 122 330 C122 487 229 652 386 652 C543 652 650 487 650 330 C650 173 543 8 386 8 L386 8 Z M62 330 C62 167 193 -5 386 -5 C578 -5 709 167 709 330 C709 493 578 665 386 665 C193 665 62 493 62 330 L62 330 Z " />
<glyph glyph-name="Odieresis" unicode="&#xd6;" horiz-adv-x="759" d="M474 730 C491 730 505 744 505 761 C505 777 491 791 474 791 C458 791 444 777 444 761 C444 744 458 730 474 730 L474 730 Z M297 730 C313 730 327 744 327 761 C327 777 313 791 297 791 C280 791 266 777 266 761 C266 744 280 730 297 730 L297 730 Z M386 8 C229 8 122 173 122 330 C122 487 229 652 386 652 C543 652 650 487 650 330 C650 173 543 8 386 8 L386 8 Z M62 330 C62 167 193 -5 386 -5 C578 -5 709 167 709 330 C709 493 578 665 386 665 C193 665 62 493 62 330 L62 330 Z " />
<glyph glyph-name="Oslash" unicode="&#xd8;" horiz-adv-x="759" d="M71 -13 C71 -13 166 86 166 86 C222 31 298 -5 386 -5 C578 -5 709 167 709 330 C709 411 677 494 621 557 C621 557 718 657 718 657 C718 657 700 673 700 673 C700 673 605 574 605 574 C549 629 474 665 386 665 C193 665 62 493 62 330 C62 249 94 166 150 103 C150 103 53 3 53 3 C53 3 71 -13 71 -13 L71 -13 Z M386 8 C306 8 239 51 193 113 C193 113 593 527 593 527 C629 470 650 399 650 330 C650 173 543 8 386 8 C386 8 386 8 386 8 L386 8 Z M179 133 C143 191 122 261 122 330 C122 487 229 652 386 652 C466 652 532 610 579 547 C579 547 179 133 179 133 L179 133 Z " />
<glyph glyph-name="Ugrave" unicode="&#xd9;" horiz-adv-x="657" d="M637 660 C637 660 568 660 568 660 C568 660 560 660 560 660 C560 660 552 660 552 660 C552 660 479 660 479 660 C479 660 479 647 479 647 C479 647 490 647 490 647 C521 647 549 608 552 561 C552 561 551 184 551 184 C551 92 480 14 348 14 C224 14 156 99 156 198 C156 198 156 564 156 564 C156 609 180 647 208 647 C208 647 217 647 217 647 C217 647 217 660 217 660 C217 660 156 660 156 660 C156 660 129 660 129 660 C129 660 102 660 102 660 C102 660 42 660 42 660 C42 660 42 647 42 647 C42 647 51 647 51 647 C78 647 102 609 102 564 C102 564 102 208 102 208 C102 93 186 -5 340 -5 C488 -5 568 79 568 178 C568 178 568 554 568 554 C568 604 595 647 627 647 C627 647 637 647 637 647 C637 647 637 660 637 660 L637 660 Z M321 840 C302 870 284 895 281 895 C274 895 253 880 253 875 C253 870 273 846 296 820 C296 820 409 691 409 691 C409 691 414 695 414 695 C414 695 321 840 321 840 L321 840 Z " />
<glyph glyph-name="Uacute" unicode="&#xda;" horiz-adv-x="657" d="M334 691 C334 691 444 820 444 820 C466 847 485 872 485 875 C485 880 464 895 457 895 C454 895 437 870 418 840 C418 840 328 695 328 695 C328 695 334 691 334 691 L334 691 Z M637 660 C637 660 568 660 568 660 C568 660 560 660 560 660 C560 660 552 660 552 660 C552 660 479 660 479 660 C479 660 479 647 479 647 C479 647 490 647 490 647 C521 647 549 608 552 561 C552 561 551 184 551 184 C551 92 480 14 348 14 C224 14 156 99 156 198 C156 198 156 564 156 564 C156 609 180 647 208 647 C208 647 217 647 217 647 C217 647 217 660 217 660 C217 660 156 660 156 660 C156 660 129 660 129 660 C129 660 102 660 102 660 C102 660 42 660 42 660 C42 660 42 647 42 647 C42 647 51 647 51 647 C78 647 102 609 102 564 C102 564 102 208 102 208 C102 93 186 -5 340 -5 C488 -5 568 79 568 178 C568 178 568 554 568 554 C568 604 595 647 627 647 C627 647 637 647 637 647 C637 647 637 660 637 660 L637 660 Z " />
<glyph glyph-name="Ucircumflex" unicode="&#xdb;" horiz-adv-x="657" d="M637 660 C637 660 568 660 568 660 C568 660 560 660 560 660 C560 660 552 660 552 660 C552 660 479 660 479 660 C479 660 479 647 479 647 C479 647 490 647 490 647 C521 647 549 608 552 561 C552 561 551 184 551 184 C551 92 480 14 348 14 C224 14 156 99 156 198 C156 198 156 564 156 564 C156 609 180 647 208 647 C208 647 217 647 217 647 C217 647 217 660 217 660 C217 660 156 660 156 660 C156 660 129 660 129 660 C129 660 102 660 102 660 C102 660 42 660 42 660 C42 660 42 647 42 647 C42 647 51 647 51 647 C78 647 102 609 102 564 C102 564 102 208 102 208 C102 93 186 -5 340 -5 C488 -5 568 79 568 178 C568 178 568 554 568 554 C568 604 595 647 627 647 C627 647 637 647 637 647 C637 647 637 660 637 660 L637 660 Z M335 852 C335 852 448 693 448 693 C448 693 453 698 453 698 C453 698 351 891 351 891 C349 894 342 905 335 905 C329 905 321 895 319 891 C319 891 217 698 217 698 C217 698 222 693 222 693 C222 693 335 852 335 852 L335 852 Z " />
<glyph glyph-name="Udieresis" unicode="&#xdc;" horiz-adv-x="657" d="M424 730 C441 730 455 744 455 761 C455 777 441 791 424 791 C407 791 393 777 393 761 C393 744 407 730 424 730 L424 730 Z M246 730 C263 730 277 744 277 761 C277 777 263 791 246 791 C230 791 216 777 216 761 C216 744 230 730 246 730 L246 730 Z M637 660 C637 660 568 660 568 660 C568 660 560 660 560 660 C560 660 552 660 552 660 C552 660 479 660 479 660 C479 660 479 647 479 647 C479 647 490 647 490 647 C521 647 549 608 552 561 C552 561 551 184 551 184 C551 92 480 14 348 14 C224 14 156 99 156 198 C156 198 156 564 156 564 C156 609 180 647 208 647 C208 647 217 647 217 647 C217 647 217 660 217 660 C217 660 156 660 156 660 C156 660 129 660 129 660 C129 660 102 660 102 660 C102 660 42 660 42 660 C42 660 42 647 42 647 C42 647 51 647 51 647 C78 647 102 609 102 564 C102 564 102 208 102 208 C102 93 186 -5 340 -5 C488 -5 568 79 568 178 C568 178 568 554 568 554 C568 604 595 647 627 647 C627 647 637 647 637 647 C637 647 637 660 637 660 L637 660 Z " />
<glyph glyph-name="Yacute" unicode="&#xdd;" horiz-adv-x="581" d="M297 691 C297 691 407 820 407 820 C429 847 448 872 448 875 C448 880 427 895 420 895 C417 895 400 870 381 840 C381 840 291 695 291 695 C291 695 297 691 297 691 L297 691 Z M386 13 C386 13 377 13 377 13 C349 13 325 51 325 96 C325 96 325 282 325 282 C325 282 488 573 488 573 C514 614 552 647 574 647 C574 647 582 647 582 647 C581 647 581 650 582 654 C581 657 581 660 582 660 C582 660 536 660 536 660 C536 660 528 660 528 660 C528 660 519 660 519 660 C519 660 431 660 431 660 C431 660 431 647 431 647 C431 647 443 647 443 647 C481 647 486 600 455 544 C455 544 455 544 455 544 C455 544 317 293 317 293 C317 293 172 570 172 570 C153 612 159 647 188 647 C188 647 198 647 198 647 C198 647 198 660 198 660 C198 660 125 660 125 660 C125 660 93 660 93 660 C93 660 60 660 60 660 C60 660 22 660 22 660 C22 660 22 647 22 647 C22 647 29 647 29 647 C48 647 83 613 107 571 C107 571 271 261 271 261 C271 261 271 96 271 96 C271 51 247 13 220 13 C220 13 211 13 211 13 C211 13 211 0 211 0 C211 0 271 0 271 0 C271 0 298 0 298 0 C298 0 325 0 325 0 C325 0 386 0 386 0 C386 0 386 13 386 13 L386 13 Z " />
<glyph glyph-name="agrave" unicode="&#xe0;" horiz-adv-x="573" d="M227 680 C208 710 190 735 187 735 C179 735 158 720 158 715 C158 710 178 686 201 660 C201 660 314 531 314 531 C314 531 320 535 320 535 C320 535 227 680 227 680 L227 680 Z M455 10 C455 10 524 30 524 30 C524 30 524 37 524 37 C478 47 463 66 463 135 C463 135 463 500 463 500 C463 500 449 500 449 500 C449 500 420 421 420 421 C394 464 323 505 260 505 C149 505 55 376 55 225 C55 101 140 -5 240 -5 C303 -5 379 47 413 111 C413 111 413 0 413 0 C413 0 413 -5 413 -5 C413 -5 422 -5 422 -5 C422 -5 455 10 455 10 L455 10 Z M413 123 C388 70 323 26 268 26 C181 26 107 126 107 244 C107 378 176 491 258 491 C323 491 397 446 413 403 C413 403 413 123 413 123 L413 123 Z " />
<glyph glyph-name="aacute" unicode="&#xe1;" horiz-adv-x="482" d="M185 531 C185 531 295 660 295 660 C318 687 337 712 337 715 C337 720 316 735 308 735 C306 735 289 710 270 680 C270 680 180 535 180 535 C180 535 185 531 185 531 L185 531 Z M461 37 C448 25 429 14 409 14 C382 14 370 41 370 73 C370 73 370 359 370 359 C370 438 314 505 248 505 C161 505 77 461 65 409 C65 409 115 409 115 409 C125 453 181 491 237 491 C280 491 317 436 317 371 C317 371 317 245 317 245 C317 245 201 234 201 234 C112 226 36 165 36 102 C36 44 88 -5 150 -5 C202 -5 271 26 317 67 C317 25 334 -10 375 -10 C411 -10 445 9 466 30 C466 30 461 37 461 37 L461 37 Z M317 233 C317 233 317 78 317 78 C279 49 221 28 175 28 C126 28 85 68 85 116 C85 164 138 211 201 218 C201 218 317 233 317 233 L317 233 Z " />
<glyph glyph-name="acircumflex" unicode="&#xe2;" horiz-adv-x="573" d="M240 692 C240 692 353 533 353 533 C353 533 359 538 359 538 C359 538 256 731 256 731 C254 734 247 745 240 745 C234 745 227 735 225 731 C225 731 122 538 122 538 C122 538 127 533 127 533 C127 533 240 692 240 692 L240 692 Z M455 10 C455 10 524 30 524 30 C524 30 524 37 524 37 C478 47 463 66 463 135 C463 135 463 500 463 500 C463 500 449 500 449 500 C449 500 420 421 420 421 C394 464 323 505 260 505 C149 505 55 376 55 225 C55 101 140 -5 240 -5 C303 -5 379 47 413 111 C413 111 413 0 413 0 C413 0 413 -5 413 -5 C413 -5 422 -5 422 -5 C422 -5 455 10 455 10 L455 10 Z M413 123 C388 70 323 26 268 26 C181 26 107 126 107 244 C107 378 176 491 258 491 C323 491 397 446 413 403 C413 403 413 123 413 123 L413 123 Z " />
<glyph glyph-name="atilde" unicode="&#xe3;" horiz-adv-x="573" d="M99 595 C99 631 120 662 144 662 C198 662 269 599 324 599 C360 599 391 642 391 692 C391 692 382 692 382 692 C382 660 360 632 334 632 C280 632 209 695 155 695 C120 695 90 649 90 595 C90 595 99 595 99 595 L99 595 Z M455 10 C455 10 524 30 524 30 C524 30 524 37 524 37 C478 47 463 66 463 135 C463 135 463 500 463 500 C463 500 449 500 449 500 C449 500 420 421 420 421 C394 464 323 505 260 505 C149 505 55 376 55 225 C55 101 140 -5 240 -5 C303 -5 379 47 413 111 C413 111 413 0 413 0 C413 0 413 -5 413 -5 C413 -5 422 -5 422 -5 C422 -5 455 10 455 10 L455 10 Z M413 123 C388 70 323 26 268 26 C181 26 107 126 107 244 C107 378 176 491 258 491 C323 491 397 446 413 403 C413 403 413 123 413 123 L413 123 Z " />
<glyph glyph-name="adieresis" unicode="&#xe4;" horiz-adv-x="573" d="M329 570 C346 570 360 584 360 601 C360 617 346 631 329 631 C313 631 299 617 299 601 C299 584 313 570 329 570 L329 570 Z M152 570 C168 570 182 584 182 601 C182 617 168 631 152 631 C135 631 121 617 121 601 C121 584 135 570 152 570 L152 570 Z M455 10 C455 10 524 30 524 30 C524 30 524 37 524 37 C478 47 463 66 463 135 C463 135 463 500 463 500 C463 500 449 500 449 500 C449 500 420 421 420 421 C394 464 323 505 260 505 C149 505 55 376 55 225 C55 101 140 -5 240 -5 C303 -5 379 47 413 111 C413 111 413 0 413 0 C413 0 413 -5 413 -5 C413 -5 422 -5 422 -5 C422 -5 455 10 455 10 L455 10 Z M413 123 C388 70 323 26 268 26 C181 26 107 126 107 244 C107 378 176 491 258 491 C323 491 397 446 413 403 C413 403 413 123 413 123 L413 123 Z " />
<glyph glyph-name="aring" unicode="&#xe5;" horiz-adv-x="573" d="M240 546 C201 546 160 588 160 628 C160 672 197 709 240 709 C284 709 321 672 321 628 C321 588 280 546 240 546 L240 546 Z M146 628 C146 583 195 535 240 535 C286 535 334 583 334 628 C334 677 291 720 240 720 C189 720 146 677 146 628 L146 628 Z M455 10 C455 10 524 30 524 30 C524 30 524 37 524 37 C478 47 463 66 463 135 C463 135 463 500 463 500 C463 500 449 500 449 500 C449 500 420 421 420 421 C394 464 323 505 260 505 C149 505 55 376 55 225 C55 101 140 -5 240 -5 C303 -5 379 47 413 111 C413 111 413 0 413 0 C413 0 413 -5 413 -5 C413 -5 422 -5 422 -5 C422 -5 455 10 455 10 L455 10 Z M413 123 C388 70 323 26 268 26 C181 26 107 126 107 244 C107 378 176 491 258 491 C323 491 397 446 413 403 C413 403 413 123 413 123 L413 123 Z " />
<glyph glyph-name="ccedilla" unicode="&#xe7;" horiz-adv-x="475" d="M424 61 C424 61 419 66 419 66 C397 44 332 25 279 25 C184 25 103 130 103 254 C103 382 189 491 290 491 C334 491 374 451 378 404 C380 390 391 379 403 379 C416 379 426 389 426 401 C420 457 361 505 296 505 C163 505 50 381 50 235 C50 105 136 -5 237 -5 C302 -5 388 25 424 61 L424 61 Z " />
<glyph glyph-name="egrave" unicode="&#xe8;" horiz-adv-x="482" d="M430 61 C430 61 425 66 425 66 C403 44 337 25 282 25 C185 25 103 130 103 254 C103 276 105 297 109 317 C109 317 432 317 432 317 C432 419 355 505 264 505 C148 505 50 381 50 235 C50 105 137 -5 240 -5 C307 -5 395 25 430 61 L430 61 Z M250 680 C231 710 213 735 210 735 C203 735 182 720 182 715 C182 710 202 686 225 660 C225 660 338 531 338 531 C338 531 343 535 343 535 C343 535 250 680 250 680 L250 680 Z M111 327 C132 421 193 491 261 491 C328 491 385 430 385 359 C385 346 374 335 362 335 C362 335 385 335 385 335 C385 335 111 327 111 327 L111 327 Z " />
<glyph glyph-name="eacute" unicode="&#xe9;" horiz-adv-x="482" d="M232 531 C232 531 342 660 342 660 C365 687 384 712 384 715 C384 720 363 735 355 735 C353 735 335 710 317 680 C317 680 226 535 226 535 C226 535 232 531 232 531 L232 531 Z M430 61 C430 61 425 66 425 66 C403 44 337 25 282 25 C185 25 103 130 103 254 C103 276 105 297 109 317 C109 317 432 317 432 317 C432 419 355 505 264 505 C148 505 50 381 50 235 C50 105 137 -5 240 -5 C307 -5 395 25 430 61 L430 61 Z M111 327 C132 421 193 491 261 491 C328 491 385 430 385 359 C385 346 374 335 362 335 C362 335 385 335 385 335 C385 335 111 327 111 327 L111 327 Z " />
<glyph glyph-name="ecircumflex" unicode="&#xea;" horiz-adv-x="482" d="M430 61 C430 61 425 66 425 66 C403 44 337 25 282 25 C185 25 103 130 103 254 C103 276 105 297 109 317 C109 317 432 317 432 317 C432 419 355 505 264 505 C148 505 50 381 50 235 C50 105 137 -5 240 -5 C307 -5 395 25 430 61 L430 61 Z M264 692 C264 692 377 533 377 533 C377 533 382 538 382 538 C382 538 280 731 280 731 C278 734 270 745 264 745 C257 745 250 735 248 731 C248 731 146 538 146 538 C146 538 151 533 151 533 C151 533 264 692 264 692 L264 692 Z M111 327 C132 421 193 491 261 491 C328 491 385 430 385 359 C385 346 374 335 362 335 C362 335 385 335 385 335 C385 335 111 327 111 327 L111 327 Z " />
<glyph glyph-name="edieresis" unicode="&#xeb;" horiz-adv-x="482" d="M353 570 C369 570 383 584 383 601 C383 617 369 631 353 631 C336 631 322 617 322 601 C322 584 336 570 353 570 L353 570 Z M175 570 C192 570 206 584 206 601 C206 617 192 631 175 631 C159 631 145 617 145 601 C145 584 159 570 175 570 L175 570 Z M430 61 C430 61 425 66 425 66 C403 44 337 25 282 25 C185 25 103 130 103 254 C103 276 105 297 109 317 C109 317 432 317 432 317 C432 419 355 505 264 505 C148 505 50 381 50 235 C50 105 137 -5 240 -5 C307 -5 395 25 430 61 L430 61 Z M111 327 C132 421 193 491 261 491 C328 491 385 430 385 359 C385 346 374 335 362 335 C362 335 385 335 385 335 C385 335 111 327 111 327 L111 327 Z " />
<glyph glyph-name="igrave" unicode="&#xec;" horiz-adv-x="261" d="M156 0 C156 0 216 0 216 0 C216 0 216 13 216 13 C216 13 204 13 204 13 C178 13 156 10 156 0 C156 0 156 404 156 404 C156 404 156 505 156 505 C156 505 153 505 153 505 C153 505 55 475 55 475 C55 475 55 466 55 466 C55 466 91 452 91 452 C99 449 106 433 106 389 C106 389 106 404 106 404 C106 404 156 404 156 404 C156 404 156 0 156 0 L156 0 Z M106 389 C106 389 106 0 106 0 C106 10 84 13 57 13 C57 13 45 13 45 13 C45 13 45 0 45 0 C45 0 106 0 106 0 C106 0 106 389 106 389 L106 389 Z M117 680 C98 710 80 735 77 735 C69 735 48 720 48 715 C48 710 68 686 91 660 C91 660 204 531 204 531 C204 531 210 535 210 535 C210 535 117 680 117 680 L117 680 Z " />
<glyph glyph-name="iacute" unicode="&#xed;" horiz-adv-x="261" d="M53 531 C53 531 163 660 163 660 C186 687 205 712 205 715 C205 720 184 735 176 735 C174 735 157 710 138 680 C138 680 48 535 48 535 C48 535 53 531 53 531 L53 531 Z M156 0 C156 0 216 0 216 0 C216 0 216 13 216 13 C216 13 204 13 204 13 C178 13 156 10 156 0 C156 0 156 404 156 404 C156 404 156 505 156 505 C156 505 153 505 153 505 C153 505 55 475 55 475 C55 475 55 466 55 466 C55 466 91 452 91 452 C99 449 106 433 106 389 C106 389 106 404 106 404 C106 404 156 404 156 404 C156 404 156 0 156 0 L156 0 Z M106 389 C106 389 106 0 106 0 C106 10 84 13 57 13 C57 13 45 13 45 13 C45 13 45 0 45 0 C45 0 106 0 106 0 C106 0 106 389 106 389 L106 389 Z " />
<glyph glyph-name="icircumflex" unicode="&#xee;" horiz-adv-x="261" d="M156 0 C156 0 216 0 216 0 C216 0 216 13 216 13 C216 13 204 13 204 13 C178 13 156 10 156 0 C156 0 156 404 156 404 C156 404 156 505 156 505 C156 505 153 505 153 505 C153 505 55 475 55 475 C55 475 55 466 55 466 C55 466 91 452 91 452 C99 449 106 433 106 389 C106 389 106 404 106 404 C106 404 156 404 156 404 C156 404 156 0 156 0 L156 0 Z M106 389 C106 389 106 0 106 0 C106 10 84 13 57 13 C57 13 45 13 45 13 C45 13 45 0 45 0 C45 0 106 0 106 0 C106 0 106 389 106 389 L106 389 Z M131 723 C131 723 115 731 115 731 C117 735 124 745 131 745 C137 745 145 734 147 731 C147 731 249 538 249 538 C249 538 244 533 244 533 C244 533 131 693 131 693 C131 693 18 533 18 533 C18 533 13 538 13 538 C13 538 115 731 115 731 C115 731 131 723 131 723 L131 723 Z M115 715 C115 715 131 693 131 693 C131 693 115 715 115 715 L115 715 Z " />
<glyph glyph-name="idieresis" unicode="&#xef;" horiz-adv-x="261" d="M219 570 C236 570 250 584 250 601 C250 617 236 631 219 631 C203 631 189 617 189 601 C189 584 203 570 219 570 L219 570 Z M42 570 C58 570 72 584 72 601 C72 617 58 631 42 631 C25 631 11 617 11 601 C11 584 25 570 42 570 L42 570 Z M156 0 C156 0 216 0 216 0 C216 0 216 13 216 13 C216 13 204 13 204 13 C178 13 156 10 156 0 C156 0 156 404 156 404 C156 404 156 505 156 505 C156 505 153 505 153 505 C153 505 55 475 55 475 C55 475 55 466 55 466 C55 466 91 452 91 452 C99 449 106 433 106 389 C106 389 106 404 106 404 C106 404 156 404 156 404 C156 404 156 0 156 0 L156 0 Z M106 389 C106 389 106 0 106 0 C106 10 84 13 57 13 C57 13 45 13 45 13 C45 13 45 0 45 0 C45 0 106 0 106 0 C106 0 106 389 106 389 L106 389 Z " />
<glyph glyph-name="ntilde" unicode="&#xf1;" horiz-adv-x="591" d="M156 595 C156 631 177 662 201 662 C256 662 327 599 381 599 C417 599 448 642 448 692 C448 692 440 692 440 692 C440 660 418 632 392 632 C337 632 267 695 212 695 C178 695 148 649 148 595 C148 595 156 595 156 595 L156 595 Z M380 0 C380 0 441 0 441 0 C441 0 466 0 466 0 C466 0 491 0 491 0 C491 0 551 0 551 0 C552 0 552 3 551 6 C552 10 552 13 551 13 C551 13 542 13 542 13 C514 13 491 51 491 96 C491 96 491 336 491 336 C491 427 447 505 365 505 C322 505 227 474 155 439 C155 439 155 500 155 500 C155 500 145 500 145 500 C145 500 45 470 45 470 C45 470 45 463 45 463 C91 453 105 434 105 365 C105 365 105 96 105 96 C105 51 81 13 54 13 C54 13 45 13 45 13 C45 13 45 0 45 0 C45 0 105 0 105 0 C105 0 130 0 130 0 C130 0 155 0 155 0 C155 0 216 0 216 0 C216 0 216 13 216 13 C216 13 207 13 207 13 C179 13 156 51 155 96 C155 96 155 379 155 379 C155 379 155 391 155 391 C155 391 155 433 155 433 C199 454 276 471 326 471 C401 471 441 407 441 331 C441 331 441 96 441 96 C441 51 417 13 389 13 C389 13 380 13 380 13 C380 13 380 0 380 0 L380 0 Z " />
<glyph glyph-name="ograve" unicode="&#xf2;" horiz-adv-x="588" d="M294 6 C193 6 106 118 106 250 C106 382 193 494 294 494 C396 494 483 382 483 250 C483 118 396 6 294 6 L294 6 Z M50 250 C50 112 162 -5 294 -5 C427 -5 539 112 539 250 C539 388 427 505 294 505 C162 505 50 388 50 250 L50 250 Z M281 680 C262 710 244 735 241 735 C233 735 212 720 212 715 C212 710 232 686 255 660 C255 660 368 531 368 531 C368 531 374 535 374 535 C374 535 281 680 281 680 L281 680 Z " />
<glyph glyph-name="oacute" unicode="&#xf3;" horiz-adv-x="588" d="M262 531 C262 531 372 660 372 660 C395 687 414 712 414 715 C414 720 393 735 386 735 C384 735 366 710 347 680 C347 680 257 535 257 535 C257 535 262 531 262 531 L262 531 Z M294 6 C193 6 106 118 106 250 C106 382 193 494 294 494 C396 494 483 382 483 250 C483 118 396 6 294 6 L294 6 Z M50 250 C50 112 162 -5 294 -5 C427 -5 539 112 539 250 C539 388 427 505 294 505 C162 505 50 388 50 250 L50 250 Z " />
<glyph glyph-name="ocircumflex" unicode="&#xf4;" horiz-adv-x="588" d="M294 6 C193 6 106 118 106 250 C106 382 193 494 294 494 C396 494 483 382 483 250 C483 118 396 6 294 6 L294 6 Z M50 250 C50 112 162 -5 294 -5 C427 -5 539 112 539 250 C539 388 427 505 294 505 C162 505 50 388 50 250 L50 250 Z M294 692 C294 692 407 533 407 533 C407 533 413 538 413 538 C413 538 310 731 310 731 C308 734 301 745 294 745 C288 745 281 735 279 731 C279 731 176 538 176 538 C176 538 181 533 181 533 C181 533 294 692 294 692 L294 692 Z " />
<glyph glyph-name="otilde" unicode="&#xf5;" horiz-adv-x="588" d="M153 595 C153 631 174 662 198 662 C252 662 323 599 378 599 C414 599 445 642 445 692 C445 692 436 692 436 692 C436 660 414 632 388 632 C334 632 263 695 209 695 C174 695 144 649 144 595 C144 595 153 595 153 595 L153 595 Z M294 6 C193 6 106 118 106 250 C106 382 193 494 294 494 C396 494 483 382 483 250 C483 118 396 6 294 6 L294 6 Z M50 250 C50 112 162 -5 294 -5 C427 -5 539 112 539 250 C539 388 427 505 294 505 C162 505 50 388 50 250 L50 250 Z " />
<glyph glyph-name="odieresis" unicode="&#xf6;" horiz-adv-x="588" d="M383 570 C400 570 414 584 414 601 C414 617 400 631 383 631 C367 631 353 617 353 601 C353 584 367 570 383 570 L383 570 Z M206 570 C222 570 236 584 236 601 C236 617 222 631 206 631 C189 631 175 617 175 601 C175 584 189 570 206 570 L206 570 Z M294 6 C193 6 106 118 106 250 C106 382 193 494 294 494 C396 494 483 382 483 250 C483 118 396 6 294 6 L294 6 Z M50 250 C50 112 162 -5 294 -5 C427 -5 539 112 539 250 C539 388 427 505 294 505 C162 505 50 388 50 250 L50 250 Z " />
<glyph glyph-name="oslash" unicode="&#xf8;" horiz-adv-x="588" d="M56 -11 C56 -11 129 65 129 65 C172 22 231 -5 294 -5 C427 -5 539 112 539 250 C539 316 513 377 472 423 C472 423 545 499 545 499 C545 499 533 511 533 511 C533 511 460 435 460 435 C416 478 358 505 294 505 C162 505 50 388 50 250 C50 184 76 123 117 77 C117 77 44 1 44 1 C44 1 56 -11 56 -11 L56 -11 Z M294 6 C239 6 188 39 153 91 C153 91 445 395 445 395 C469 354 483 304 483 250 C483 118 396 6 294 6 L294 6 Z M144 105 C120 146 106 196 106 250 C106 382 193 494 294 494 C349 494 401 461 436 409 C436 409 144 105 144 105 L144 105 Z " />
<glyph glyph-name="ugrave" unicode="&#xf9;" horiz-adv-x="556" d="M350 487 C350 487 359 487 359 487 C387 487 411 449 411 404 C411 404 411 121 411 121 C411 121 411 66 411 66 C392 45 338 28 267 28 C182 28 125 89 125 161 C125 161 125 500 125 500 C125 500 100 500 100 500 C100 500 75 500 75 500 C75 500 15 500 15 500 C15 500 15 487 15 487 C15 487 24 487 24 487 C51 487 75 449 75 404 C75 404 75 156 75 156 C75 69 137 -5 227 -5 C309 -5 378 23 411 57 C411 57 411 13 411 13 C411 13 411 0 411 0 C411 0 421 0 421 0 C421 0 521 30 521 30 C522 34 522 38 521 37 C475 47 461 65 461 135 C461 135 461 500 461 500 C461 500 436 500 436 500 C436 500 411 500 411 500 C411 500 350 500 350 500 C350 500 350 487 350 487 L350 487 Z M254 680 C235 710 217 735 214 735 C207 735 186 720 186 715 C186 710 206 686 229 660 C229 660 342 531 342 531 C342 531 347 535 347 535 C347 535 254 680 254 680 L254 680 Z " />
<glyph glyph-name="uacute" unicode="&#xfa;" horiz-adv-x="556" d="M236 531 C236 531 346 660 346 660 C369 687 388 712 388 715 C388 720 367 735 359 735 C357 735 340 710 321 680 C321 680 231 535 231 535 C231 535 236 531 236 531 L236 531 Z M350 487 C350 487 359 487 359 487 C387 487 411 449 411 404 C411 404 411 121 411 121 C411 121 411 66 411 66 C392 45 338 28 267 28 C182 28 125 89 125 161 C125 161 125 500 125 500 C125 500 100 500 100 500 C100 500 75 500 75 500 C75 500 15 500 15 500 C15 500 15 487 15 487 C15 487 24 487 24 487 C51 487 75 449 75 404 C75 404 75 156 75 156 C75 69 137 -5 227 -5 C309 -5 378 23 411 57 C411 57 411 13 411 13 C411 13 411 0 411 0 C411 0 421 0 421 0 C421 0 521 30 521 30 C522 34 522 38 521 37 C475 47 461 65 461 135 C461 135 461 500 461 500 C461 500 436 500 436 500 C436 500 411 500 411 500 C411 500 350 500 350 500 C350 500 350 487 350 487 L350 487 Z " />
<glyph glyph-name="ucircumflex" unicode="&#xfb;" horiz-adv-x="556" d="M350 487 C350 487 359 487 359 487 C387 487 411 449 411 404 C411 404 411 121 411 121 C411 121 411 66 411 66 C392 45 338 28 267 28 C182 28 125 89 125 161 C125 161 125 500 125 500 C125 500 100 500 100 500 C100 500 75 500 75 500 C75 500 15 500 15 500 C15 500 15 487 15 487 C15 487 24 487 24 487 C51 487 75 449 75 404 C75 404 75 156 75 156 C75 69 137 -5 227 -5 C309 -5 378 23 411 57 C411 57 411 13 411 13 C411 13 411 0 411 0 C411 0 421 0 421 0 C421 0 521 30 521 30 C522 34 522 38 521 37 C475 47 461 65 461 135 C461 135 461 500 461 500 C461 500 436 500 436 500 C436 500 411 500 411 500 C411 500 350 500 350 500 C350 500 350 487 350 487 L350 487 Z M268 692 C268 692 381 533 381 533 C381 533 386 538 386 538 C386 538 284 731 284 731 C282 734 275 745 268 745 C262 745 254 735 252 731 C252 731 150 538 150 538 C150 538 155 533 155 533 C155 533 268 692 268 692 L268 692 Z " />
<glyph glyph-name="udieresis" unicode="&#xfc;" horiz-adv-x="556" d="M357 570 C373 570 387 584 387 601 C387 617 373 631 357 631 C340 631 326 617 326 601 C326 584 340 570 357 570 L357 570 Z M179 570 C196 570 210 584 210 601 C210 617 196 631 179 631 C163 631 149 617 149 601 C149 584 163 570 179 570 L179 570 Z M350 487 C350 487 359 487 359 487 C387 487 411 449 411 404 C411 404 411 121 411 121 C411 121 411 66 411 66 C392 45 338 28 267 28 C182 28 125 89 125 161 C125 161 125 500 125 500 C125 500 100 500 100 500 C100 500 75 500 75 500 C75 500 15 500 15 500 C15 500 15 487 15 487 C15 487 24 487 24 487 C51 487 75 449 75 404 C75 404 75 156 75 156 C75 69 137 -5 227 -5 C309 -5 378 23 411 57 C411 57 411 13 411 13 C411 13 411 0 411 0 C411 0 421 0 421 0 C421 0 521 30 521 30 C522 34 522 38 521 37 C475 47 461 65 461 135 C461 135 461 500 461 500 C461 500 436 500 436 500 C436 500 411 500 411 500 C411 500 350 500 350 500 C350 500 350 487 350 487 L350 487 Z " />
<glyph glyph-name="ydieresis" unicode="&#xff;" horiz-adv-x="446" d="M341 570 C358 570 372 584 372 601 C372 617 358 631 341 631 C325 631 311 617 311 601 C311 584 325 570 341 570 L341 570 Z M164 570 C180 570 194 584 194 601 C194 617 180 631 164 631 C147 631 133 617 133 601 C133 584 147 570 164 570 L164 570 Z M504 500 C504 500 448 500 448 500 C448 500 439 500 439 500 C439 500 431 500 431 500 C431 500 370 500 370 500 C370 500 370 487 370 487 C370 487 379 487 379 487 C404 487 412 449 396 404 C396 404 397 404 397 404 C397 404 271 53 271 53 C271 53 144 416 144 416 C134 455 143 487 167 487 C167 487 175 487 175 487 C175 487 175 500 175 500 C175 500 115 500 115 500 C115 500 86 500 86 500 C86 500 57 500 57 500 C57 500 1 500 1 500 C2 500 2 497 1 494 C2 490 2 487 1 487 C1 487 10 487 10 487 C37 487 74 451 92 407 C92 407 245 -3 245 -3 C245 -3 219 -67 219 -67 C188 -151 154 -197 123 -197 C102 -197 77 -173 57 -173 C43 -173 32 -183 32 -194 C32 -214 60 -230 92 -230 C144 -230 194 -174 233 -72 C233 -72 256 -10 256 -10 C256 -10 412 404 412 404 C412 404 412 404 412 404 C429 449 467 487 495 487 C495 487 504 487 504 487 C504 487 504 500 504 500 L504 500 Z " />
<glyph glyph-name="Amacron" unicode="&#x100;" horiz-adv-x="607" d="M146 770 C146 770 446 770 446 770 C446 770 446 798 446 798 C446 798 146 798 146 798 C146 798 146 770 146 770 L146 770 Z M601 13 C601 13 593 13 593 13 C569 13 534 51 517 96 C517 96 517 96 517 96 C517 96 303 675 303 675 C303 675 289 675 289 675 C289 675 89 85 89 85 C72 45 39 13 13 13 C13 13 4 13 4 13 C4 13 4 0 4 0 C4 0 60 0 60 0 C60 0 69 0 69 0 C69 0 78 0 78 0 C78 0 167 0 167 0 C167 0 167 13 167 13 C167 13 154 13 154 13 C115 13 97 57 114 109 C114 109 115 111 115 111 C115 111 155 230 155 230 C155 230 411 230 411 230 C411 230 461 90 461 90 C473 48 456 13 421 13 C421 13 409 13 409 13 C409 13 409 0 409 0 C409 0 493 0 493 0 C493 0 523 0 523 0 C523 0 552 0 552 0 C552 0 601 0 601 0 C601 0 601 13 601 13 L601 13 Z M406 244 C406 244 159 244 159 244 C159 244 279 602 279 602 C279 602 406 244 406 244 L406 244 Z " />
<glyph glyph-name="amacron" unicode="&#x101;" horiz-adv-x="573" d="M90 610 C90 610 390 610 390 610 C390 610 390 638 390 638 C390 638 90 638 90 638 C90 638 90 610 90 610 L90 610 Z M455 10 C455 10 524 30 524 30 C524 30 524 37 524 37 C478 47 463 66 463 135 C463 135 463 500 463 500 C463 500 449 500 449 500 C449 500 420 421 420 421 C394 464 323 505 260 505 C149 505 55 376 55 225 C55 101 140 -5 240 -5 C303 -5 379 47 413 111 C413 111 413 0 413 0 C413 0 413 -5 413 -5 C413 -5 422 -5 422 -5 C422 -5 455 10 455 10 L455 10 Z M413 123 C388 70 323 26 268 26 C181 26 107 126 107 244 C107 378 176 491 258 491 C323 491 397 446 413 403 C413 403 413 123 413 123 L413 123 Z " />
<glyph glyph-name="Abreve" unicode="&#x102;" horiz-adv-x="607" d="M181 872 C191 816 244 768 296 768 C348 768 401 816 411 872 C411 872 403 873 403 873 C396 834 347 801 296 801 C245 801 196 834 190 873 C190 873 181 872 181 872 L181 872 Z M601 13 C601 13 593 13 593 13 C569 13 534 51 517 96 C517 96 517 96 517 96 C517 96 303 675 303 675 C303 675 289 675 289 675 C289 675 89 85 89 85 C72 45 39 13 13 13 C13 13 4 13 4 13 C4 13 4 0 4 0 C4 0 60 0 60 0 C60 0 69 0 69 0 C69 0 78 0 78 0 C78 0 167 0 167 0 C167 0 167 13 167 13 C167 13 154 13 154 13 C115 13 97 57 114 109 C114 109 115 111 115 111 C115 111 155 230 155 230 C155 230 411 230 411 230 C411 230 461 90 461 90 C473 48 456 13 421 13 C421 13 409 13 409 13 C409 13 409 0 409 0 C409 0 493 0 493 0 C493 0 523 0 523 0 C523 0 552 0 552 0 C552 0 601 0 601 0 C601 0 601 13 601 13 L601 13 Z M406 244 C406 244 159 244 159 244 C159 244 279 602 279 602 C279 602 406 244 406 244 L406 244 Z " />
<glyph glyph-name="abreve" unicode="&#x103;" horiz-adv-x="573" d="M125 682 C135 626 188 578 240 578 C293 578 346 626 356 682 C356 682 347 683 347 683 C340 644 291 611 240 611 C190 611 141 644 134 683 C134 683 125 682 125 682 L125 682 Z M455 10 C455 10 524 30 524 30 C524 30 524 37 524 37 C478 47 463 66 463 135 C463 135 463 500 463 500 C463 500 449 500 449 500 C449 500 420 421 420 421 C394 464 323 505 260 505 C149 505 55 376 55 225 C55 101 140 -5 240 -5 C303 -5 379 47 413 111 C413 111 413 0 413 0 C413 0 413 -5 413 -5 C413 -5 422 -5 422 -5 C422 -5 455 10 455 10 L455 10 Z M413 123 C388 70 323 26 268 26 C181 26 107 126 107 244 C107 378 176 491 258 491 C323 491 397 446 413 403 C413 403 413 123 413 123 L413 123 Z " />
<glyph glyph-name="Aogonek" unicode="&#x104;" horiz-adv-x="607" d="M601 13 C601 13 593 13 593 13 C569 13 534 51 517 96 C517 96 517 96 517 96 C517 96 303 675 303 675 C303 675 289 675 289 675 C289 675 89 85 89 85 C72 45 39 13 13 13 C13 13 4 13 4 13 C4 13 4 0 4 0 C4 0 60 0 60 0 C60 0 69 0 69 0 C69 0 78 0 78 0 C78 0 167 0 167 0 C167 0 167 13 167 13 C167 13 154 13 154 13 C115 13 97 57 114 109 C114 109 115 111 115 111 C115 111 155 230 155 230 C155 230 411 230 411 230 C411 230 461 90 461 90 C473 48 456 13 421 13 C421 13 409 13 409 13 C409 13 409 0 409 0 C409 0 472 0 472 0 C426 -29 350 -102 350 -155 C350 -197 398 -233 454 -233 C481 -233 518 -217 534 -197 C534 -197 530 -193 530 -193 C519 -207 489 -219 464 -219 C419 -219 381 -187 381 -149 C381 -91 463 -11 493 0 C493 0 523 0 523 0 C523 0 552 0 552 0 C552 0 601 0 601 0 C601 0 601 13 601 13 L601 13 Z M406 244 C406 244 159 244 159 244 C159 244 279 602 279 602 C279 602 406 244 406 244 L406 244 Z " />
<glyph glyph-name="aogonek" unicode="&#x105;" horiz-adv-x="482" d="M461 37 C452 28 440 20 426 17 C435 24 443 29 449 31 C449 31 449 42 449 42 C438 38 423 28 406 14 C381 16 370 42 370 73 C370 73 370 359 370 359 C370 438 314 505 248 505 C161 505 77 461 65 409 C65 409 115 409 115 409 C125 453 181 491 237 491 C280 491 317 436 317 371 C317 371 317 245 317 245 C317 245 201 234 201 234 C112 226 36 165 36 102 C36 44 88 -5 150 -5 C202 -5 271 26 317 67 C317 25 334 -10 375 -10 C376 -10 378 -10 379 -10 C342 -46 306 -95 306 -133 C306 -187 354 -233 409 -233 C437 -233 474 -217 490 -197 C490 -197 486 -193 486 -193 C475 -207 444 -219 420 -219 C375 -219 337 -177 337 -128 C337 -88 369 -40 401 -7 C427 -1 450 14 466 30 C466 30 461 37 461 37 L461 37 Z M317 233 C317 233 317 78 317 78 C279 49 221 28 175 28 C126 28 85 68 85 116 C85 164 138 211 201 218 C201 218 317 233 317 233 L317 233 Z " />
<glyph glyph-name="Cacute" unicode="&#x106;" horiz-adv-x="718" d="M351 691 C351 691 461 820 461 820 C483 847 503 872 503 875 C503 880 482 895 474 895 C472 895 454 870 436 840 C436 840 346 695 346 695 C346 695 351 691 351 691 L351 691 Z M659 491 C659 491 659 605 659 605 C599 637 479 665 398 665 C217 665 62 511 62 330 C62 149 217 -5 398 -5 C488 -5 608 27 659 65 C659 65 655 71 655 71 C655 71 655 71 655 71 C655 71 659 65 659 65 C659 65 659 177 659 177 C659 177 648 177 648 177 C645 169 640 155 637 146 C615 79 519 16 430 10 C430 10 430 9 430 9 C419 8 408 8 398 8 C249 8 122 156 122 330 C122 504 249 652 398 652 C419 652 442 650 466 647 C466 647 466 646 466 646 C538 636 616 579 637 522 C640 514 645 500 648 491 C648 491 659 491 659 491 L659 491 Z " />
<glyph glyph-name="cacute" unicode="&#x107;" horiz-adv-x="475" d="M218 531 C218 531 328 660 328 660 C351 687 370 712 370 715 C370 720 349 735 341 735 C339 735 322 710 303 680 C303 680 213 535 213 535 C213 535 218 531 218 531 L218 531 Z M424 61 C424 61 419 66 419 66 C397 44 332 25 279 25 C184 25 103 130 103 254 C103 382 189 491 290 491 C334 491 374 451 378 404 C380 390 391 379 403 379 C416 379 426 389 426 401 C420 457 361 505 296 505 C163 505 50 381 50 235 C50 105 136 -5 237 -5 C302 -5 388 25 424 61 L424 61 Z " />
<glyph glyph-name="Ccircumflex" unicode="&#x108;" horiz-adv-x="718" d="M659 491 C659 491 659 605 659 605 C599 637 479 665 398 665 C217 665 62 511 62 330 C62 149 217 -5 398 -5 C488 -5 608 27 659 65 C659 65 655 71 655 71 C655 71 655 71 655 71 C655 71 659 65 659 65 C659 65 659 177 659 177 C659 177 648 177 648 177 C645 169 640 155 637 146 C615 79 519 16 430 10 C430 10 430 9 430 9 C419 8 408 8 398 8 C249 8 122 156 122 330 C122 504 249 652 398 652 C419 652 442 650 466 647 C466 647 466 646 466 646 C538 636 616 579 637 522 C640 514 645 500 648 491 C648 491 659 491 659 491 L659 491 Z M398 852 C398 852 511 693 511 693 C511 693 516 698 516 698 C516 698 414 891 414 891 C412 894 405 905 398 905 C392 905 385 895 382 891 C382 891 280 698 280 698 C280 698 285 693 285 693 C285 693 398 852 398 852 L398 852 Z " />
<glyph glyph-name="Cdotaccent" unicode="&#x10a;" horiz-adv-x="718" d="M398 730 C415 730 429 744 429 761 C429 777 415 791 398 791 C382 791 368 777 368 761 C368 744 382 730 398 730 L398 730 Z M659 491 C659 491 659 605 659 605 C599 637 479 665 398 665 C217 665 62 511 62 330 C62 149 217 -5 398 -5 C488 -5 608 27 659 65 C659 65 655 71 655 71 C655 71 655 71 655 71 C655 71 659 65 659 65 C659 65 659 177 659 177 C659 177 648 177 648 177 C645 169 640 155 637 146 C615 79 519 16 430 10 C430 10 430 9 430 9 C419 8 408 8 398 8 C249 8 122 156 122 330 C122 504 249 652 398 652 C419 652 442 650 466 647 C466 647 466 646 466 646 C538 636 616 579 637 522 C640 514 645 500 648 491 C648 491 659 491 659 491 L659 491 Z " />
<glyph glyph-name="cdotaccent" unicode="&#x10b;" horiz-adv-x="475" d="M296 570 C312 570 326 584 326 601 C326 617 312 631 296 631 C279 631 265 617 265 601 C265 584 279 570 296 570 L296 570 Z M424 61 C424 61 419 66 419 66 C397 44 332 25 279 25 C184 25 103 130 103 254 C103 382 189 491 290 491 C334 491 374 451 378 404 C380 390 391 379 403 379 C416 379 426 389 426 401 C420 457 361 505 296 505 C163 505 50 381 50 235 C50 105 136 -5 237 -5 C302 -5 388 25 424 61 L424 61 Z " />
<glyph glyph-name="Ccaron" unicode="&#x10c;" horiz-adv-x="718" d="M659 491 C659 491 659 605 659 605 C599 637 479 665 398 665 C217 665 62 511 62 330 C62 149 217 -5 398 -5 C488 -5 608 27 659 65 C659 65 655 71 655 71 C655 71 655 71 655 71 C655 71 659 65 659 65 C659 65 659 177 659 177 C659 177 648 177 648 177 C645 169 640 155 637 146 C615 79 519 16 430 10 C430 10 430 9 430 9 C419 8 408 8 398 8 C249 8 122 156 122 330 C122 504 249 652 398 652 C419 652 442 650 466 647 C466 647 466 646 466 646 C538 636 616 579 637 522 C640 514 645 500 648 491 C648 491 659 491 659 491 L659 491 Z M398 768 C398 768 511 927 511 927 C511 927 516 922 516 922 C516 922 414 729 414 729 C412 726 405 715 398 715 C392 715 385 725 382 729 C382 729 280 922 280 922 C280 922 285 927 285 927 C285 927 398 768 398 768 L398 768 Z " />
<glyph glyph-name="ccaron" unicode="&#x10d;" horiz-adv-x="475" d="M424 61 C424 61 419 66 419 66 C397 44 332 25 279 25 C184 25 103 130 103 254 C103 382 189 491 290 491 C334 491 374 451 378 404 C380 390 391 379 403 379 C416 379 426 389 426 401 C420 457 361 505 296 505 C163 505 50 381 50 235 C50 105 136 -5 237 -5 C302 -5 388 25 424 61 L424 61 Z M296 608 C296 608 409 767 409 767 C409 767 414 762 414 762 C414 762 312 569 312 569 C310 566 302 555 296 555 C289 555 282 565 280 569 C280 569 178 762 178 762 C178 762 183 767 183 767 C183 767 296 608 296 608 L296 608 Z " />
<glyph glyph-name="Dcaron" unicode="&#x10e;" horiz-adv-x="676" d="M52 647 C52 647 61 647 61 647 C88 647 112 609 112 564 C112 564 112 96 112 96 C112 51 88 13 61 13 C61 13 52 13 52 13 C52 13 52 0 52 0 C52 0 112 0 112 0 C112 0 139 0 139 0 C139 0 166 0 166 0 C166 0 329 0 329 0 C489 0 626 152 626 330 C626 508 471 660 288 660 C288 660 166 660 166 660 C166 660 139 660 139 660 C139 660 112 660 112 660 C112 660 52 660 52 660 C52 660 52 647 52 647 L52 647 Z M342 768 C342 768 455 927 455 927 C455 927 460 922 460 922 C460 922 358 729 358 729 C356 726 349 715 342 715 C336 715 328 725 326 729 C326 729 224 922 224 922 C224 922 229 927 229 927 C229 927 342 768 342 768 L342 768 Z M166 14 C166 14 166 646 166 646 C166 646 288 646 288 646 C441 646 572 501 572 330 C572 159 460 14 329 14 C329 14 166 14 166 14 L166 14 Z " />
<glyph glyph-name="dcaron" unicode="&#x10f;" horiz-adv-x="595" d="M599 635 C617 683 633 737 633 742 C633 750 610 754 602 753 C592 754 575 687 567 647 C567 647 534 484 534 484 C534 484 540 482 540 482 C540 482 599 635 599 635 L599 635 Z M485 599 C485 599 485 707 485 707 C485 707 485 720 485 720 C485 720 475 720 475 720 C475 720 375 690 375 690 C375 690 375 683 375 683 C420 673 435 654 435 585 C435 585 435 435 435 435 C401 473 335 505 275 505 C156 505 55 376 55 225 C55 101 147 -5 255 -5 C322 -5 401 22 435 54 C435 54 435 13 435 13 C435 13 435 0 435 0 C435 0 445 0 445 0 C445 0 546 30 546 30 C546 30 546 37 546 37 C500 47 485 66 485 135 C485 135 485 599 485 599 L485 599 Z M435 121 C435 121 435 62 435 62 C414 42 346 26 282 26 C188 26 107 126 107 244 C107 378 183 491 272 491 C337 491 409 453 435 413 C435 413 435 121 435 121 L435 121 Z " />
<glyph glyph-name="Emacron" unicode="&#x112;" horiz-adv-x="550" d="M121 770 C121 770 421 770 421 770 C421 770 421 798 421 798 C421 798 121 798 121 798 C121 798 121 770 121 770 L121 770 Z M385 267 C385 267 385 336 385 336 C385 336 385 342 385 342 C385 342 385 349 385 349 C385 349 385 410 385 410 C385 410 375 410 375 410 C375 410 372 401 372 401 C363 373 306 349 246 349 C246 349 155 349 155 349 C155 349 155 647 155 647 C155 647 282 647 282 647 C346 647 415 604 432 554 C432 554 437 537 437 537 C437 537 447 537 447 537 C447 537 447 653 447 653 C447 653 447 660 447 660 C447 660 440 660 440 660 C440 660 350 660 350 660 C350 660 155 660 155 660 C155 660 128 660 128 660 C128 660 101 660 101 660 C101 660 40 660 40 660 C40 660 40 647 40 647 C40 647 49 647 49 647 C77 647 101 609 101 564 C101 564 101 96 101 96 C101 51 77 13 49 13 C49 13 40 13 40 13 C40 13 40 0 40 0 C40 0 101 0 101 0 C101 0 128 0 128 0 C128 0 155 0 155 0 C155 0 356 0 356 0 C356 0 450 0 450 0 C450 0 452 0 452 0 C452 2 453 5 453 7 C459 38 468 91 474 123 C474 123 464 123 464 123 C464 123 456 106 456 106 C430 56 354 14 290 13 C290 13 155 13 155 13 C155 13 155 336 155 336 C155 336 246 336 246 336 C306 336 363 309 372 277 C372 277 375 267 375 267 C375 267 385 267 385 267 L385 267 Z " />
<glyph glyph-name="emacron" unicode="&#x113;" horiz-adv-x="482" d="M114 610 C114 610 414 610 414 610 C414 610 414 638 414 638 C414 638 114 638 114 638 C114 638 114 610 114 610 L114 610 Z M430 61 C430 61 425 66 425 66 C403 44 337 25 282 25 C185 25 103 130 103 254 C103 276 105 297 109 317 C109 317 432 317 432 317 C432 419 355 505 264 505 C148 505 50 381 50 235 C50 105 137 -5 240 -5 C307 -5 395 25 430 61 L430 61 Z M111 327 C132 421 193 491 261 491 C328 491 385 430 385 359 C385 346 374 335 362 335 C362 335 385 335 385 335 C385 335 111 327 111 327 L111 327 Z " />
<glyph glyph-name="Ebreve" unicode="&#x114;" horiz-adv-x="550" d="M155 872 C165 816 218 768 271 768 C323 768 376 816 386 872 C386 872 377 873 377 873 C370 834 321 801 271 801 C220 801 171 834 164 873 C164 873 155 872 155 872 L155 872 Z M385 267 C385 267 385 336 385 336 C385 336 385 342 385 342 C385 342 385 349 385 349 C385 349 385 410 385 410 C385 410 375 410 375 410 C375 410 372 401 372 401 C363 373 306 349 246 349 C246 349 155 349 155 349 C155 349 155 647 155 647 C155 647 282 647 282 647 C346 647 415 604 432 554 C432 554 437 537 437 537 C437 537 447 537 447 537 C447 537 447 653 447 653 C447 653 447 660 447 660 C447 660 440 660 440 660 C440 660 350 660 350 660 C350 660 155 660 155 660 C155 660 128 660 128 660 C128 660 101 660 101 660 C101 660 40 660 40 660 C40 660 40 647 40 647 C40 647 49 647 49 647 C77 647 101 609 101 564 C101 564 101 96 101 96 C101 51 77 13 49 13 C49 13 40 13 40 13 C40 13 40 0 40 0 C40 0 101 0 101 0 C101 0 128 0 128 0 C128 0 155 0 155 0 C155 0 356 0 356 0 C356 0 450 0 450 0 C450 0 452 0 452 0 C452 2 453 5 453 7 C459 38 468 91 474 123 C474 123 464 123 464 123 C464 123 456 106 456 106 C430 56 354 14 290 13 C290 13 155 13 155 13 C155 13 155 336 155 336 C155 336 246 336 246 336 C306 336 363 309 372 277 C372 277 375 267 375 267 C375 267 385 267 385 267 L385 267 Z " />
<glyph glyph-name="ebreve" unicode="&#x115;" horiz-adv-x="482" d="M149 712 C159 656 212 608 264 608 C316 608 369 656 379 712 C379 712 371 713 371 713 C364 674 315 641 264 641 C213 641 164 674 157 713 C157 713 149 712 149 712 L149 712 Z M430 61 C430 61 425 66 425 66 C403 44 337 25 282 25 C185 25 103 130 103 254 C103 276 105 297 109 317 C109 317 432 317 432 317 C432 419 355 505 264 505 C148 505 50 381 50 235 C50 105 137 -5 240 -5 C307 -5 395 25 430 61 L430 61 Z M111 327 C132 421 193 491 261 491 C328 491 385 430 385 359 C385 346 374 335 362 335 C362 335 385 335 385 335 C385 335 111 327 111 327 L111 327 Z " />
<glyph glyph-name="Edotaccent" unicode="&#x116;" horiz-adv-x="550" d="M271 730 C287 730 301 744 301 761 C301 777 287 791 271 791 C254 791 240 777 240 761 C240 744 254 730 271 730 L271 730 Z M385 267 C385 267 385 336 385 336 C385 336 385 342 385 342 C385 342 385 349 385 349 C385 349 385 410 385 410 C385 410 375 410 375 410 C375 410 372 401 372 401 C363 373 306 349 246 349 C246 349 155 349 155 349 C155 349 155 647 155 647 C155 647 282 647 282 647 C346 647 415 604 432 554 C432 554 437 537 437 537 C437 537 447 537 447 537 C447 537 447 653 447 653 C447 653 447 660 447 660 C447 660 440 660 440 660 C440 660 350 660 350 660 C350 660 155 660 155 660 C155 660 128 660 128 660 C128 660 101 660 101 660 C101 660 40 660 40 660 C40 660 40 647 40 647 C40 647 49 647 49 647 C77 647 101 609 101 564 C101 564 101 96 101 96 C101 51 77 13 49 13 C49 13 40 13 40 13 C40 13 40 0 40 0 C40 0 101 0 101 0 C101 0 128 0 128 0 C128 0 155 0 155 0 C155 0 356 0 356 0 C356 0 450 0 450 0 C450 0 452 0 452 0 C452 2 453 5 453 7 C459 38 468 91 474 123 C474 123 464 123 464 123 C464 123 456 106 456 106 C430 56 354 14 290 13 C290 13 155 13 155 13 C155 13 155 336 155 336 C155 336 246 336 246 336 C306 336 363 309 372 277 C372 277 375 267 375 267 C375 267 385 267 385 267 L385 267 Z " />
<glyph glyph-name="edotaccent" unicode="&#x117;" horiz-adv-x="482" d="M264 570 C281 570 295 584 295 601 C295 617 281 631 264 631 C247 631 233 617 233 601 C233 584 247 570 264 570 L264 570 Z M430 61 C430 61 425 66 425 66 C403 44 337 25 282 25 C185 25 103 130 103 254 C103 276 105 297 109 317 C109 317 432 317 432 317 C432 419 355 505 264 505 C148 505 50 381 50 235 C50 105 137 -5 240 -5 C307 -5 395 25 430 61 L430 61 Z M111 327 C132 421 193 491 261 491 C328 491 385 430 385 359 C385 346 374 335 362 335 C362 335 385 335 385 335 C385 335 111 327 111 327 L111 327 Z " />
<glyph glyph-name="Eogonek" unicode="&#x118;" horiz-adv-x="550" d="M385 267 C385 267 385 336 385 336 C385 336 385 342 385 342 C385 342 385 349 385 349 C385 349 385 410 385 410 C385 410 375 410 375 410 C375 410 372 401 372 401 C363 373 306 349 246 349 C246 349 155 349 155 349 C155 349 155 647 155 647 C155 647 282 647 282 647 C346 647 415 604 432 554 C432 554 437 537 437 537 C437 537 447 537 447 537 C447 537 447 653 447 653 C447 653 447 660 447 660 C447 660 440 660 440 660 C440 660 350 660 350 660 C350 660 155 660 155 660 C155 660 128 660 128 660 C128 660 101 660 101 660 C101 660 40 660 40 660 C40 660 40 647 40 647 C40 647 49 647 49 647 C77 647 101 609 101 564 C101 564 101 96 101 96 C101 51 77 13 49 13 C49 13 40 13 40 13 C40 13 40 0 40 0 C40 0 101 0 101 0 C101 0 128 0 128 0 C128 0 155 0 155 0 C155 0 356 0 356 0 C356 0 429 0 429 0 C382 -29 307 -102 307 -155 C307 -197 354 -233 410 -233 C438 -233 475 -217 491 -197 C491 -197 487 -193 487 -193 C476 -207 445 -219 421 -219 C376 -219 338 -187 338 -149 C338 -91 420 -11 450 0 C450 0 452 0 452 0 C452 2 453 5 453 7 C459 38 468 91 474 123 C474 123 464 123 464 123 C464 123 456 106 456 106 C430 56 354 14 290 13 C290 13 155 13 155 13 C155 13 155 336 155 336 C155 336 246 336 246 336 C306 336 363 309 372 277 C372 277 375 267 375 267 C375 267 385 267 385 267 L385 267 Z " />
<glyph glyph-name="eogonek" unicode="&#x119;" horiz-adv-x="482" d="M111 327 C132 421 193 491 261 491 C328 491 385 430 385 359 C385 346 374 335 362 335 C362 335 385 335 385 335 C385 335 111 327 111 327 L111 327 Z M109 317 C109 317 432 317 432 317 C432 419 355 505 264 505 C148 505 50 381 50 235 C50 106 135 -3 237 -5 C191 -35 117 -107 117 -157 C117 -198 164 -233 220 -233 C248 -233 284 -217 300 -197 C300 -197 297 -193 297 -193 C285 -207 255 -219 231 -219 C186 -219 147 -188 147 -152 C147 -94 228 -16 259 -4 C323 1 398 28 430 61 C430 61 425 66 425 66 C403 44 337 25 282 25 C185 25 103 130 103 254 C103 276 105 297 109 317 L109 317 Z " />
<glyph glyph-name="Ecaron" unicode="&#x11a;" horiz-adv-x="550" d="M385 267 C385 267 385 336 385 336 C385 336 385 342 385 342 C385 342 385 349 385 349 C385 349 385 410 385 410 C385 410 375 410 375 410 C375 410 372 401 372 401 C363 373 306 349 246 349 C246 349 155 349 155 349 C155 349 155 647 155 647 C155 647 282 647 282 647 C346 647 415 604 432 554 C432 554 437 537 437 537 C437 537 447 537 447 537 C447 537 447 653 447 653 C447 653 447 660 447 660 C447 660 440 660 440 660 C440 660 350 660 350 660 C350 660 155 660 155 660 C155 660 128 660 128 660 C128 660 101 660 101 660 C101 660 40 660 40 660 C40 660 40 647 40 647 C40 647 49 647 49 647 C77 647 101 609 101 564 C101 564 101 96 101 96 C101 51 77 13 49 13 C49 13 40 13 40 13 C40 13 40 0 40 0 C40 0 101 0 101 0 C101 0 128 0 128 0 C128 0 155 0 155 0 C155 0 356 0 356 0 C356 0 450 0 450 0 C450 0 452 0 452 0 C452 2 453 5 453 7 C459 38 468 91 474 123 C474 123 464 123 464 123 C464 123 456 106 456 106 C430 56 354 14 290 13 C290 13 155 13 155 13 C155 13 155 336 155 336 C155 336 246 336 246 336 C306 336 363 309 372 277 C372 277 375 267 375 267 C375 267 385 267 385 267 L385 267 Z M271 767 C271 767 383 927 383 927 C383 927 389 922 389 922 C389 922 286 729 286 729 C284 726 277 715 271 715 C264 715 257 725 255 729 C255 729 152 922 152 922 C152 922 158 927 158 927 C158 927 271 767 271 767 L271 767 Z " />
<glyph glyph-name="ecaron" unicode="&#x11b;" horiz-adv-x="482" d="M430 61 C430 61 425 66 425 66 C403 44 337 25 282 25 C185 25 103 130 103 254 C103 276 105 297 109 317 C109 317 432 317 432 317 C432 419 355 505 264 505 C148 505 50 381 50 235 C50 105 137 -5 240 -5 C307 -5 395 25 430 61 L430 61 Z M264 608 C264 608 377 767 377 767 C377 767 382 762 382 762 C382 762 280 569 280 569 C278 566 270 555 264 555 C257 555 250 565 248 569 C248 569 146 762 146 762 C146 762 151 767 151 767 C151 767 264 608 264 608 L264 608 Z M111 327 C132 421 193 491 261 491 C328 491 385 430 385 359 C385 346 374 335 362 335 C362 335 385 335 385 335 C385 335 111 327 111 327 L111 327 Z " />
<glyph glyph-name="Gcircumflex" unicode="&#x11c;" horiz-adv-x="798" d="M705 310 C705 310 644 310 644 310 C644 310 620 310 620 310 C620 310 596 310 596 310 C596 310 535 310 535 310 C535 310 535 297 535 297 C535 297 544 297 544 297 C572 297 596 259 596 214 C596 214 596 50 596 50 C535 26 449 8 387 8 C244 8 122 156 122 330 C122 504 244 652 387 652 C405 652 425 650 446 648 C446 648 446 647 446 647 C518 637 596 580 617 522 C620 514 625 500 628 491 C628 491 639 491 639 491 C639 491 639 605 639 605 C579 637 463 665 387 665 C211 665 62 511 62 330 C62 149 211 -5 387 -5 C468 -5 586 24 644 57 C644 57 644 214 644 214 C644 259 668 297 696 297 C696 297 705 297 705 297 C705 297 705 310 705 310 L705 310 Z M387 852 C387 852 500 693 500 693 C500 693 505 698 505 698 C505 698 403 891 403 891 C401 894 394 905 387 905 C381 905 373 895 371 891 C371 891 269 698 269 698 C269 698 274 693 274 693 C274 693 387 852 387 852 L387 852 Z " />
<glyph glyph-name="Gbreve" unicode="&#x11e;" horiz-adv-x="798" d="M272 872 C282 816 335 768 387 768 C439 768 492 816 502 872 C502 872 494 873 494 873 C487 834 438 801 387 801 C336 801 287 834 281 873 C281 873 272 872 272 872 L272 872 Z M705 310 C705 310 644 310 644 310 C644 310 620 310 620 310 C620 310 596 310 596 310 C596 310 535 310 535 310 C535 310 535 297 535 297 C535 297 544 297 544 297 C572 297 596 259 596 214 C596 214 596 50 596 50 C535 26 449 8 387 8 C244 8 122 156 122 330 C122 504 244 652 387 652 C405 652 425 650 446 648 C446 648 446 647 446 647 C518 637 596 580 617 522 C620 514 625 500 628 491 C628 491 639 491 639 491 C639 491 639 605 639 605 C579 637 463 665 387 665 C211 665 62 511 62 330 C62 149 211 -5 387 -5 C468 -5 586 24 644 57 C644 57 644 214 644 214 C644 259 668 297 696 297 C696 297 705 297 705 297 C705 297 705 310 705 310 L705 310 Z " />
<glyph glyph-name="gbreve" unicode="&#x11f;" horiz-adv-x="466" d="M131 712 C141 656 194 608 246 608 C298 608 351 656 361 712 C361 712 353 713 353 713 C346 674 297 641 246 641 C195 641 146 674 139 713 C139 713 131 712 131 712 L131 712 Z M467 500 C467 500 327 487 327 487 C303 499 275 505 246 505 C150 505 69 434 69 350 C69 283 121 224 191 203 C116 203 52 161 52 112 C52 73 86 39 135 26 C73 -6 27 -61 27 -111 C27 -180 95 -238 175 -238 C322 -238 447 -151 447 -49 C447 15 365 70 269 70 C269 70 191 67 191 67 C134 64 85 93 85 131 C85 166 134 195 191 195 C191 195 246 195 246 195 C342 195 423 266 423 350 C423 397 397 440 358 469 C358 469 467 472 467 472 C467 472 467 500 467 500 L467 500 Z M116 350 C116 428 176 494 246 494 C316 494 376 428 376 350 C376 272 316 206 246 206 C176 206 116 272 116 350 L116 350 Z M148 23 C162 20 178 19 194 20 C194 20 255 22 255 22 C339 22 411 -22 411 -74 C411 -156 305 -225 180 -225 C115 -225 60 -170 60 -105 C60 -58 97 -6 148 23 C148 23 148 23 148 23 L148 23 Z " />
<glyph glyph-name="Gdotaccent" unicode="&#x120;" horiz-adv-x="798" d="M387 730 C404 730 418 744 418 761 C418 777 404 791 387 791 C371 791 357 777 357 761 C357 744 371 730 387 730 L387 730 Z M705 310 C705 310 644 310 644 310 C644 310 620 310 620 310 C620 310 596 310 596 310 C596 310 535 310 535 310 C535 310 535 297 535 297 C535 297 544 297 544 297 C572 297 596 259 596 214 C596 214 596 50 596 50 C535 26 449 8 387 8 C244 8 122 156 122 330 C122 504 244 652 387 652 C405 652 425 650 446 648 C446 648 446 647 446 647 C518 637 596 580 617 522 C620 514 625 500 628 491 C628 491 639 491 639 491 C639 491 639 605 639 605 C579 637 463 665 387 665 C211 665 62 511 62 330 C62 149 211 -5 387 -5 C468 -5 586 24 644 57 C644 57 644 214 644 214 C644 259 668 297 696 297 C696 297 705 297 705 297 C705 297 705 310 705 310 L705 310 Z " />
<glyph glyph-name="gdotaccent" unicode="&#x121;" horiz-adv-x="466" d="M246 570 C263 570 277 584 277 601 C277 617 263 631 246 631 C229 631 215 617 215 601 C215 584 229 570 246 570 L246 570 Z M467 500 C467 500 327 487 327 487 C303 499 275 505 246 505 C150 505 69 434 69 350 C69 283 121 224 191 203 C116 203 52 161 52 112 C52 73 86 39 135 26 C73 -6 27 -61 27 -111 C27 -180 95 -238 175 -238 C322 -238 447 -151 447 -49 C447 15 365 70 269 70 C269 70 191 67 191 67 C134 64 85 93 85 131 C85 166 134 195 191 195 C191 195 246 195 246 195 C342 195 423 266 423 350 C423 397 397 440 358 469 C358 469 467 472 467 472 C467 472 467 500 467 500 L467 500 Z M116 350 C116 428 176 494 246 494 C316 494 376 428 376 350 C376 272 316 206 246 206 C176 206 116 272 116 350 L116 350 Z M148 23 C162 20 178 19 194 20 C194 20 255 22 255 22 C339 22 411 -22 411 -74 C411 -156 305 -225 180 -225 C115 -225 60 -170 60 -105 C60 -58 97 -6 148 23 C148 23 148 23 148 23 L148 23 Z " />
<glyph glyph-name="Hcircumflex" unicode="&#x124;" horiz-adv-x="740" d="M700 660 C700 660 640 660 640 660 C640 660 613 660 613 660 C613 660 586 660 586 660 C586 660 525 660 525 660 C525 660 525 647 525 647 C525 647 534 647 534 647 C562 647 586 609 586 564 C586 564 586 345 586 345 C586 345 155 345 155 345 C155 345 155 564 155 564 C155 609 179 647 207 647 C207 647 216 647 216 647 C216 647 216 660 216 660 C216 660 155 660 155 660 C155 660 128 660 128 660 C128 660 101 660 101 660 C101 660 40 660 40 660 C40 660 40 647 40 647 C40 647 49 647 49 647 C77 647 101 609 101 564 C101 564 101 96 101 96 C101 51 77 13 49 13 C49 13 40 13 40 13 C40 13 40 0 40 0 C40 0 101 0 101 0 C101 0 128 0 128 0 C128 0 155 0 155 0 C155 0 216 0 216 0 C216 0 216 13 216 13 C216 13 207 13 207 13 C179 13 155 51 155 96 C155 96 155 331 155 331 C155 331 586 331 586 331 C586 331 586 96 586 96 C586 51 562 13 534 13 C534 13 525 13 525 13 C525 13 525 0 525 0 C525 0 586 0 586 0 C586 0 613 0 613 0 C613 0 640 0 640 0 C640 0 700 0 700 0 C700 0 700 13 700 13 C700 13 691 13 691 13 C664 13 641 48 640 91 C640 91 640 96 640 96 C640 96 640 564 640 564 C640 564 640 569 640 569 C641 612 664 647 691 647 C691 647 700 647 700 647 C700 647 700 660 700 660 L700 660 Z M370 852 C370 852 483 693 483 693 C483 693 488 698 488 698 C488 698 386 891 386 891 C384 894 377 905 370 905 C364 905 356 895 354 891 C354 891 252 698 252 698 C252 698 257 693 257 693 C257 693 370 852 370 852 L370 852 Z " />
<glyph glyph-name="Itilde" unicode="&#x128;" horiz-adv-x="256" d="M-14 755 C-14 791 7 822 32 822 C86 822 157 759 212 759 C248 759 279 802 279 852 C279 852 270 852 270 852 C270 820 248 792 222 792 C168 792 97 855 43 855 C8 855 -22 809 -22 755 C-22 755 -14 755 -14 755 L-14 755 Z M216 660 C216 660 155 660 155 660 C155 660 128 660 128 660 C128 660 101 660 101 660 C101 660 41 660 41 660 C41 660 41 647 41 647 C41 647 50 647 50 647 C77 647 101 609 101 564 C101 564 101 96 101 96 C101 51 77 13 50 13 C50 13 41 13 41 13 C41 13 41 0 41 0 C41 0 101 0 101 0 C101 0 128 0 128 0 C128 0 155 0 155 0 C155 0 216 0 216 0 C216 0 216 13 216 13 C216 13 207 13 207 13 C179 13 156 51 155 96 C155 96 155 564 155 564 C156 609 179 647 207 647 C207 647 216 647 216 647 C216 647 216 660 216 660 L216 660 Z " />
<glyph glyph-name="itilde" unicode="&#x129;" horiz-adv-x="261" d="M-11 595 C-11 631 10 662 34 662 C89 662 159 599 214 599 C250 599 281 642 281 692 C281 692 273 692 273 692 C273 660 251 632 225 632 C170 632 99 695 45 695 C10 695 -20 649 -20 595 C-20 595 -11 595 -11 595 L-11 595 Z M156 0 C156 0 216 0 216 0 C216 0 216 13 216 13 C216 13 204 13 204 13 C178 13 156 10 156 0 C156 0 156 404 156 404 C156 404 156 505 156 505 C156 505 153 505 153 505 C153 505 55 475 55 475 C55 475 55 466 55 466 C55 466 91 452 91 452 C99 449 106 433 106 389 C106 389 106 404 106 404 C106 404 156 404 156 404 C156 404 156 0 156 0 L156 0 Z M106 389 C106 389 106 0 106 0 C106 10 84 13 57 13 C57 13 45 13 45 13 C45 13 45 0 45 0 C45 0 106 0 106 0 C106 0 106 389 106 389 L106 389 Z " />
<glyph glyph-name="Imacron" unicode="&#x12a;" horiz-adv-x="256" d="M-22 770 C-22 770 278 770 278 770 C278 770 278 798 278 798 C278 798 -22 798 -22 798 C-22 798 -22 770 -22 770 L-22 770 Z M216 660 C216 660 155 660 155 660 C155 660 128 660 128 660 C128 660 101 660 101 660 C101 660 41 660 41 660 C41 660 41 647 41 647 C41 647 50 647 50 647 C77 647 101 609 101 564 C101 564 101 96 101 96 C101 51 77 13 50 13 C50 13 41 13 41 13 C41 13 41 0 41 0 C41 0 101 0 101 0 C101 0 128 0 128 0 C128 0 155 0 155 0 C155 0 216 0 216 0 C216 0 216 13 216 13 C216 13 207 13 207 13 C179 13 156 51 155 96 C155 96 155 564 155 564 C156 609 179 647 207 647 C207 647 216 647 216 647 C216 647 216 660 216 660 L216 660 Z " />
<glyph glyph-name="imacron" unicode="&#x12b;" horiz-adv-x="261" d="M-19 610 C-19 610 281 610 281 610 C281 610 281 638 281 638 C281 638 -19 638 -19 638 C-19 638 -19 610 -19 610 L-19 610 Z M156 0 C156 0 216 0 216 0 C216 0 216 13 216 13 C216 13 204 13 204 13 C178 13 156 10 156 0 C156 0 156 404 156 404 C156 404 156 505 156 505 C156 505 153 505 153 505 C153 505 55 475 55 475 C55 475 55 466 55 466 C55 466 91 452 91 452 C99 449 106 433 106 389 C106 389 106 404 106 404 C106 404 156 404 156 404 C156 404 156 0 156 0 L156 0 Z M106 389 C106 389 106 0 106 0 C106 10 84 13 57 13 C57 13 45 13 45 13 C45 13 45 0 45 0 C45 0 106 0 106 0 C106 0 106 389 106 389 L106 389 Z " />
<glyph glyph-name="Ibreve" unicode="&#x12c;" horiz-adv-x="256" d="M13 872 C23 816 76 768 128 768 C181 768 234 816 244 872 C244 872 235 873 235 873 C228 834 179 801 128 801 C78 801 29 834 22 873 C22 873 13 872 13 872 L13 872 Z M216 660 C216 660 155 660 155 660 C155 660 128 660 128 660 C128 660 101 660 101 660 C101 660 41 660 41 660 C41 660 41 647 41 647 C41 647 50 647 50 647 C77 647 101 609 101 564 C101 564 101 96 101 96 C101 51 77 13 50 13 C50 13 41 13 41 13 C41 13 41 0 41 0 C41 0 101 0 101 0 C101 0 128 0 128 0 C128 0 155 0 155 0 C155 0 216 0 216 0 C216 0 216 13 216 13 C216 13 207 13 207 13 C179 13 156 51 155 96 C155 96 155 564 155 564 C156 609 179 647 207 647 C207 647 216 647 216 647 C216 647 216 660 216 660 L216 660 Z " />
<glyph glyph-name="ibreve" unicode="&#x12d;" horiz-adv-x="261" d="M15 712 C25 656 78 608 131 608 C183 608 236 656 246 712 C246 712 237 713 237 713 C231 674 182 641 131 641 C80 641 31 674 24 713 C24 713 15 712 15 712 L15 712 Z M156 0 C156 0 216 0 216 0 C216 0 216 13 216 13 C216 13 204 13 204 13 C178 13 156 10 156 0 C156 0 156 404 156 404 C156 404 156 505 156 505 C156 505 153 505 153 505 C153 505 55 475 55 475 C55 475 55 466 55 466 C55 466 91 452 91 452 C99 449 106 433 106 389 C106 389 106 404 106 404 C106 404 156 404 156 404 C156 404 156 0 156 0 L156 0 Z M106 389 C106 389 106 0 106 0 C106 10 84 13 57 13 C57 13 45 13 45 13 C45 13 45 0 45 0 C45 0 106 0 106 0 C106 0 106 389 106 389 L106 389 Z " />
<glyph glyph-name="Idotaccent" unicode="&#x130;" horiz-adv-x="256" d="M128 730 C145 730 159 744 159 761 C159 777 145 791 128 791 C112 791 98 777 98 761 C98 744 112 730 128 730 L128 730 Z M216 660 C216 660 155 660 155 660 C155 660 128 660 128 660 C128 660 101 660 101 660 C101 660 41 660 41 660 C41 660 41 647 41 647 C41 647 50 647 50 647 C77 647 101 609 101 564 C101 564 101 96 101 96 C101 51 77 13 50 13 C50 13 41 13 41 13 C41 13 41 0 41 0 C41 0 101 0 101 0 C101 0 128 0 128 0 C128 0 155 0 155 0 C155 0 216 0 216 0 C216 0 216 13 216 13 C216 13 207 13 207 13 C179 13 156 51 155 96 C155 96 155 564 155 564 C156 609 179 647 207 647 C207 647 216 647 216 647 C216 647 216 660 216 660 L216 660 Z " />
<glyph glyph-name="dotlessi" unicode="&#x131;" horiz-adv-x="261" d="M156 0 C156 0 216 0 216 0 C216 0 216 13 216 13 C216 13 204 13 204 13 C178 13 156 10 156 0 C156 0 156 404 156 404 C156 404 156 505 156 505 C156 505 153 505 153 505 C153 505 55 475 55 475 C55 475 55 466 55 466 C55 466 91 452 91 452 C99 449 106 433 106 389 C106 389 106 404 106 404 C106 404 156 404 156 404 C156 404 156 0 156 0 L156 0 Z M106 389 C106 389 106 0 106 0 C106 10 84 13 57 13 C57 13 45 13 45 13 C45 13 45 0 45 0 C45 0 106 0 106 0 C106 0 106 389 106 389 L106 389 Z " />
<glyph glyph-name="Jcircumflex" unicode="&#x134;" horiz-adv-x="351" d="M311 660 C311 660 250 660 250 660 C250 660 223 660 223 660 C223 660 197 660 197 660 C197 660 136 660 136 660 C136 660 136 647 136 647 C136 647 145 647 145 647 C173 647 197 609 197 564 C197 564 197 200 197 200 C197 71 166 1 110 1 C82 1 54 24 47 50 C44 62 33 72 22 72 C7 72 -3 62 0 50 C8 18 52 -10 96 -10 C197 -10 251 80 251 245 C251 245 250 569 250 569 C253 612 275 647 302 647 C302 647 311 647 311 647 C311 647 311 660 311 660 L311 660 Z M224 853 C224 853 336 693 336 693 C336 693 342 698 342 698 C342 698 239 891 239 891 C237 894 230 905 223 905 C217 905 210 895 208 891 C208 891 105 698 105 698 C105 698 111 693 111 693 C111 693 224 853 224 853 L224 853 Z " />
<glyph glyph-name="Lacute" unicode="&#x139;" horiz-adv-x="550" d="M104 691 C104 691 214 820 214 820 C236 847 255 872 255 875 C255 880 234 895 227 895 C224 895 207 870 188 840 C188 840 98 695 98 695 C98 695 104 691 104 691 L104 691 Z M460 135 C460 135 452 117 452 117 C428 61 358 14 300 13 C300 13 155 13 155 13 C155 13 155 564 155 564 C155 609 179 647 207 647 C207 647 216 647 216 647 C216 647 216 660 216 660 C216 660 155 660 155 660 C155 660 128 660 128 660 C128 660 101 660 101 660 C101 660 40 660 40 660 C40 660 40 647 40 647 C40 647 49 647 49 647 C77 647 101 609 101 564 C101 564 101 96 101 96 C101 51 77 13 49 13 C49 13 40 13 40 13 C40 13 40 0 40 0 C40 0 101 0 101 0 C101 0 128 0 128 0 C128 0 155 0 155 0 C155 0 356 0 356 0 C356 0 450 0 450 0 C450 0 452 0 452 0 C452 2 453 5 453 7 C459 40 469 96 475 129 C469 131 460 135 460 135 L460 135 Z " />
<glyph glyph-name="Lcaron" unicode="&#x13d;" horiz-adv-x="550" d="M460 135 C460 135 452 117 452 117 C428 61 358 14 300 13 C300 13 155 13 155 13 C155 13 155 564 155 564 C155 609 179 647 207 647 C207 647 216 647 216 647 C216 647 216 660 216 660 C216 660 155 660 155 660 C155 660 128 660 128 660 C128 660 101 660 101 660 C101 660 40 660 40 660 C40 660 40 647 40 647 C40 647 49 647 49 647 C77 647 101 609 101 564 C101 564 101 96 101 96 C101 51 77 13 49 13 C49 13 40 13 40 13 C40 13 40 0 40 0 C40 0 101 0 101 0 C101 0 128 0 128 0 C128 0 155 0 155 0 C155 0 356 0 356 0 C356 0 450 0 450 0 C450 0 452 0 452 0 C452 2 453 5 453 7 C459 40 469 96 475 129 C469 131 460 135 460 135 L460 135 Z M329 575 C348 623 364 677 364 682 C364 690 341 694 333 693 C323 694 306 627 298 587 C298 587 264 424 264 424 C264 424 270 422 270 422 C270 422 329 575 329 575 L329 575 Z " />
<glyph glyph-name="lcaron" unicode="&#x13e;" horiz-adv-x="261" d="M216 13 C216 13 207 13 207 13 C180 13 157 48 156 91 C156 91 156 96 156 96 C156 96 156 599 156 599 C156 599 156 707 156 707 C156 707 156 720 156 720 C156 720 146 720 146 720 C146 720 45 690 45 690 C45 690 45 683 45 683 C91 673 106 654 106 585 C106 585 106 96 106 96 C106 51 82 13 54 13 C54 13 45 13 45 13 C45 13 45 0 45 0 C45 0 106 0 106 0 C106 0 131 0 131 0 C131 0 156 0 156 0 C156 0 216 0 216 0 C216 0 216 13 216 13 L216 13 Z M269 605 C288 653 304 707 304 712 C304 720 281 724 273 723 C263 724 246 657 238 617 C238 617 204 454 204 454 C204 454 210 452 210 452 C210 452 269 605 269 605 L269 605 Z " />
<glyph glyph-name="Lslash" unicode="&#x141;" horiz-adv-x="550" d="M51 272 C51 272 101 292 101 292 C101 292 101 96 101 96 C101 51 77 13 49 13 C49 13 40 13 40 13 C40 13 40 0 40 0 C40 0 101 0 101 0 C101 0 128 0 128 0 C128 0 155 0 155 0 C155 0 356 0 356 0 C356 0 450 0 450 0 C450 0 452 0 452 0 C452 2 453 5 453 7 C459 40 469 96 475 129 C469 131 460 135 460 135 C460 135 452 117 452 117 C428 61 358 14 300 13 C300 13 155 13 155 13 C155 13 155 313 155 313 C155 313 303 372 303 372 C303 372 303 388 303 388 C303 388 155 329 155 329 C155 329 155 564 155 564 C155 609 179 647 207 647 C207 647 216 647 216 647 C216 647 216 660 216 660 C216 660 155 660 155 660 C155 660 128 660 128 660 C128 660 101 660 101 660 C101 660 40 660 40 660 C40 660 40 647 40 647 C40 647 49 647 49 647 C77 647 101 609 101 564 C101 564 101 308 101 308 C101 308 51 288 51 288 C51 288 51 272 51 272 L51 272 Z " />
<glyph glyph-name="lslash" unicode="&#x142;" horiz-adv-x="261" d="M6 302 C6 302 106 342 106 342 C106 342 106 96 106 96 C106 51 82 13 54 13 C54 13 45 13 45 13 C45 13 45 0 45 0 C45 0 106 0 106 0 C106 0 131 0 131 0 C131 0 156 0 156 0 C156 0 216 0 216 0 C216 0 216 13 216 13 C216 13 207 13 207 13 C180 13 157 48 156 91 C156 91 156 96 156 96 C156 96 156 362 156 362 C156 362 256 402 256 402 C256 402 256 418 256 418 C256 418 156 378 156 378 C156 378 156 599 156 599 C156 599 156 707 156 707 C156 707 156 720 156 720 C156 720 146 720 146 720 C146 720 45 690 45 690 C45 690 45 683 45 683 C91 673 106 654 106 585 C106 585 106 358 106 358 C106 358 6 318 6 318 C6 318 6 302 6 302 L6 302 Z " />
<glyph glyph-name="Nacute" unicode="&#x143;" horiz-adv-x="670" d="M306 691 C306 691 416 820 416 820 C438 847 458 872 457 875 C458 880 437 895 429 895 C427 895 409 870 390 840 C390 840 300 695 300 695 C300 695 306 691 306 691 L306 691 Z M495 647 C495 647 504 647 504 647 C532 647 556 609 556 564 C556 564 556 80 556 80 C556 80 151 660 151 660 C151 660 120 637 120 637 C120 637 120 637 120 637 C120 637 151 660 151 660 C151 660 120 660 120 660 C120 660 112 660 112 660 C112 660 104 660 104 660 C104 660 43 660 43 660 C43 660 43 647 43 647 C43 647 52 647 52 647 C80 647 104 609 104 564 C104 564 104 96 104 96 C104 51 80 13 52 13 C52 13 43 13 43 13 C43 13 43 0 43 0 C43 0 104 0 104 0 C104 0 112 0 112 0 C112 0 120 0 120 0 C120 0 180 0 180 0 C180 0 180 13 180 13 C180 13 171 13 171 13 C144 13 120 51 120 96 C120 96 120 611 120 611 C120 611 531 23 531 23 C531 23 555 -11 555 -11 C555 -11 572 -11 572 -11 C572 -11 572 43 572 43 C572 43 572 564 572 564 C572 609 595 647 623 647 C623 647 632 647 632 647 C633 647 633 650 632 654 C633 657 633 660 632 660 C632 660 572 660 572 660 C572 660 564 660 564 660 C564 660 556 660 556 660 C556 660 495 660 495 660 C495 660 495 647 495 647 L495 647 Z " />
<glyph glyph-name="nacute" unicode="&#x144;" horiz-adv-x="591" d="M221 531 C221 531 331 660 331 660 C353 687 372 712 372 715 C372 720 351 735 344 735 C341 735 324 710 305 680 C305 680 215 535 215 535 C215 535 221 531 221 531 L221 531 Z M380 0 C380 0 441 0 441 0 C441 0 466 0 466 0 C466 0 491 0 491 0 C491 0 551 0 551 0 C552 0 552 3 551 6 C552 10 552 13 551 13 C551 13 542 13 542 13 C514 13 491 51 491 96 C491 96 491 336 491 336 C491 427 447 505 365 505 C322 505 227 474 155 439 C155 439 155 500 155 500 C155 500 145 500 145 500 C145 500 45 470 45 470 C45 470 45 463 45 463 C91 453 105 434 105 365 C105 365 105 96 105 96 C105 51 81 13 54 13 C54 13 45 13 45 13 C45 13 45 0 45 0 C45 0 105 0 105 0 C105 0 130 0 130 0 C130 0 155 0 155 0 C155 0 216 0 216 0 C216 0 216 13 216 13 C216 13 207 13 207 13 C179 13 156 51 155 96 C155 96 155 379 155 379 C155 379 155 391 155 391 C155 391 155 433 155 433 C199 454 276 471 326 471 C401 471 441 407 441 331 C441 331 441 96 441 96 C441 51 417 13 389 13 C389 13 380 13 380 13 C380 13 380 0 380 0 L380 0 Z " />
<glyph glyph-name="Ncaron" unicode="&#x147;" horiz-adv-x="670" d="M495 647 C495 647 504 647 504 647 C532 647 556 609 556 564 C556 564 556 80 556 80 C556 80 151 660 151 660 C151 660 120 637 120 637 C120 637 120 637 120 637 C120 637 151 660 151 660 C151 660 120 660 120 660 C120 660 112 660 112 660 C112 660 104 660 104 660 C104 660 43 660 43 660 C43 660 43 647 43 647 C43 647 52 647 52 647 C80 647 104 609 104 564 C104 564 104 96 104 96 C104 51 80 13 52 13 C52 13 43 13 43 13 C43 13 43 0 43 0 C43 0 104 0 104 0 C104 0 112 0 112 0 C112 0 120 0 120 0 C120 0 180 0 180 0 C180 0 180 13 180 13 C180 13 171 13 171 13 C144 13 120 51 120 96 C120 96 120 611 120 611 C120 611 531 23 531 23 C531 23 555 -11 555 -11 C555 -11 572 -11 572 -11 C572 -11 572 43 572 43 C572 43 572 564 572 564 C572 609 595 647 623 647 C623 647 632 647 632 647 C633 647 633 650 632 654 C633 657 633 660 632 660 C632 660 572 660 572 660 C572 660 564 660 564 660 C564 660 556 660 556 660 C556 660 495 660 495 660 C495 660 495 647 495 647 L495 647 Z M338 768 C338 768 451 927 451 927 C451 927 456 922 456 922 C456 922 354 729 354 729 C352 726 344 715 338 715 C331 715 324 725 322 729 C322 729 220 922 220 922 C220 922 225 927 225 927 C225 927 338 768 338 768 L338 768 Z " />
<glyph glyph-name="ncaron" unicode="&#x148;" horiz-adv-x="591" d="M380 0 C380 0 441 0 441 0 C441 0 466 0 466 0 C466 0 491 0 491 0 C491 0 551 0 551 0 C552 0 552 3 551 6 C552 10 552 13 551 13 C551 13 542 13 542 13 C514 13 491 51 491 96 C491 96 491 336 491 336 C491 427 447 505 365 505 C322 505 227 474 155 439 C155 439 155 500 155 500 C155 500 145 500 145 500 C145 500 45 470 45 470 C45 470 45 463 45 463 C91 453 105 434 105 365 C105 365 105 96 105 96 C105 51 81 13 54 13 C54 13 45 13 45 13 C45 13 45 0 45 0 C45 0 105 0 105 0 C105 0 130 0 130 0 C130 0 155 0 155 0 C155 0 216 0 216 0 C216 0 216 13 216 13 C216 13 207 13 207 13 C179 13 156 51 155 96 C155 96 155 379 155 379 C155 379 155 391 155 391 C155 391 155 433 155 433 C199 454 276 471 326 471 C401 471 441 407 441 331 C441 331 441 96 441 96 C441 51 417 13 389 13 C389 13 380 13 380 13 C380 13 380 0 380 0 L380 0 Z M298 608 C298 608 411 767 411 767 C411 767 416 762 416 762 C416 762 314 569 314 569 C312 566 305 555 298 555 C292 555 284 565 282 569 C282 569 180 762 180 762 C180 762 185 767 185 767 C185 767 298 608 298 608 L298 608 Z " />
<glyph glyph-name="Omacron" unicode="&#x14c;" horiz-adv-x="759" d="M236 770 C236 770 536 770 536 770 C536 770 536 798 536 798 C536 798 236 798 236 798 C236 798 236 770 236 770 L236 770 Z M386 8 C229 8 122 173 122 330 C122 487 229 652 386 652 C543 652 650 487 650 330 C650 173 543 8 386 8 L386 8 Z M62 330 C62 167 193 -5 386 -5 C578 -5 709 167 709 330 C709 493 578 665 386 665 C193 665 62 493 62 330 L62 330 Z " />
<glyph glyph-name="omacron" unicode="&#x14d;" horiz-adv-x="588" d="M144 610 C144 610 444 610 444 610 C444 610 444 638 444 638 C444 638 144 638 144 638 C144 638 144 610 144 610 L144 610 Z M294 6 C193 6 106 118 106 250 C106 382 193 494 294 494 C396 494 483 382 483 250 C483 118 396 6 294 6 L294 6 Z M50 250 C50 112 162 -5 294 -5 C427 -5 539 112 539 250 C539 388 427 505 294 505 C162 505 50 388 50 250 L50 250 Z " />
<glyph glyph-name="Obreve" unicode="&#x14e;" horiz-adv-x="759" d="M270 872 C280 816 333 768 386 768 C438 768 491 816 501 872 C501 872 492 873 492 873 C485 834 436 801 386 801 C335 801 286 834 279 873 C279 873 270 872 270 872 L270 872 Z M386 8 C229 8 122 173 122 330 C122 487 229 652 386 652 C543 652 650 487 650 330 C650 173 543 8 386 8 L386 8 Z M62 330 C62 167 193 -5 386 -5 C578 -5 709 167 709 330 C709 493 578 665 386 665 C193 665 62 493 62 330 L62 330 Z " />
<glyph glyph-name="obreve" unicode="&#x14f;" horiz-adv-x="588" d="M179 712 C189 656 242 608 294 608 C347 608 400 656 410 712 C410 712 401 713 401 713 C394 674 345 641 294 641 C244 641 195 674 188 713 C188 713 179 712 179 712 L179 712 Z M294 6 C193 6 106 118 106 250 C106 382 193 494 294 494 C396 494 483 382 483 250 C483 118 396 6 294 6 L294 6 Z M50 250 C50 112 162 -5 294 -5 C427 -5 539 112 539 250 C539 388 427 505 294 505 C162 505 50 388 50 250 L50 250 Z " />
<glyph glyph-name="Racute" unicode="&#x154;" horiz-adv-x="620" d="M233 691 C233 691 343 820 343 820 C366 847 385 872 385 875 C385 880 364 895 356 895 C354 895 337 870 318 840 C318 840 228 695 228 695 C228 695 233 691 233 691 L233 691 Z M52 647 C52 647 61 647 61 647 C88 647 112 609 112 564 C112 564 112 96 112 96 C112 51 88 13 61 13 C61 13 52 13 52 13 C52 13 52 0 52 0 C52 0 112 0 112 0 C112 0 139 0 139 0 C139 0 166 0 166 0 C166 0 227 0 227 0 C227 0 227 13 227 13 C227 13 218 13 218 13 C190 13 166 51 166 96 C166 96 166 308 166 308 C166 308 266 308 266 308 C266 308 444 106 444 106 C525 14 546 0 599 0 C599 0 620 0 620 0 C620 0 620 11 620 11 C620 11 615 11 615 11 C597 11 584 22 520 95 C520 95 330 312 330 312 C430 330 509 403 509 485 C509 580 417 660 309 660 C309 660 166 660 166 660 C166 660 139 660 139 660 C139 660 112 660 112 660 C112 660 52 660 52 660 C52 660 52 647 52 647 L52 647 Z M281 322 C281 322 254 322 254 322 C254 322 166 322 166 322 C166 322 166 646 166 646 C166 646 309 646 309 646 C386 646 452 572 452 485 C452 397 373 322 281 322 L281 322 Z " />
<glyph glyph-name="Rcaron" unicode="&#x158;" horiz-adv-x="545" d="M52 647 C52 647 61 647 61 647 C88 647 112 609 112 564 C112 564 112 96 112 96 C112 51 88 13 61 13 C61 13 52 13 52 13 C52 13 52 0 52 0 C52 0 112 0 112 0 C112 0 139 0 139 0 C139 0 166 0 166 0 C166 0 227 0 227 0 C227 0 227 13 227 13 C227 13 218 13 218 13 C190 13 166 51 166 96 C166 96 166 308 166 308 C166 308 281 308 281 308 C327 181 449 20 546 -43 C546 -43 551 -35 551 -35 C489 5 391 165 337 314 C434 334 509 405 509 485 C509 580 417 660 309 660 C309 660 166 660 166 660 C166 660 139 660 139 660 C139 660 112 660 112 660 C112 660 52 660 52 660 C52 660 52 647 52 647 L52 647 Z M311 767 C311 767 424 927 424 927 C424 927 429 922 429 922 C429 922 327 729 327 729 C325 726 317 715 311 715 C304 715 297 725 295 729 C295 729 193 922 193 922 C193 922 198 927 198 927 C198 927 311 767 311 767 L311 767 Z M166 322 C166 322 166 646 166 646 C166 646 309 646 309 646 C386 646 452 572 452 485 C452 397 373 322 281 322 C281 322 166 322 166 322 L166 322 Z " />
<glyph glyph-name="rcaron" unicode="&#x159;" horiz-adv-x="400" d="M216 13 C216 13 207 13 207 13 C179 13 156 51 155 96 C155 96 155 379 155 379 C155 379 155 391 155 391 C155 391 154 391 154 391 C154 391 153 415 153 415 C179 444 228 468 264 468 C292 468 338 446 366 446 C379 446 390 457 390 470 C390 489 360 505 303 505 C260 505 191 467 153 422 C153 422 148 500 148 500 C148 500 138 500 138 500 C138 500 45 470 45 470 C45 470 45 463 45 463 C91 453 105 434 105 365 C105 365 105 96 105 96 C105 51 81 13 54 13 C54 13 45 13 45 13 C45 13 45 0 45 0 C45 0 105 0 105 0 C105 0 130 0 130 0 C130 0 155 0 155 0 C155 0 216 0 216 0 C216 0 216 13 216 13 L216 13 Z M204 608 C204 608 317 767 317 767 C317 767 322 762 322 762 C322 762 220 569 220 569 C218 566 211 555 204 555 C198 555 191 565 189 569 C189 569 86 762 86 762 C86 762 91 767 91 767 C91 767 204 608 204 608 L204 608 Z " />
<glyph glyph-name="Sacute" unicode="&#x15a;" horiz-adv-x="503" d="M191 691 C191 691 301 820 301 820 C323 847 342 872 342 875 C342 880 321 895 314 895 C312 895 294 870 275 840 C275 840 185 695 185 695 C185 695 191 691 191 691 L191 691 Z M42 170 C42 170 42 54 42 54 C85 22 190 -5 270 -5 C372 -5 459 74 459 168 C459 237 374 321 273 351 C174 381 89 451 89 503 C89 584 157 652 238 652 C251 652 266 650 283 647 C283 647 283 646 283 646 C328 638 381 589 398 542 C402 530 409 510 414 498 C414 498 424 498 424 498 C424 498 424 616 424 616 C424 616 420 608 420 608 C420 608 420 608 420 608 C420 608 424 616 424 616 C376 642 291 665 240 665 C138 665 52 581 52 482 C52 418 135 338 231 309 C333 279 420 204 420 146 C420 71 351 8 270 8 C258 8 245 9 232 10 C232 10 232 11 232 11 C163 18 86 77 64 139 C61 148 56 162 53 170 C53 170 42 170 42 170 L42 170 Z " />
<glyph glyph-name="sacute" unicode="&#x15b;" horiz-adv-x="422" d="M135 531 C135 531 245 660 245 660 C268 687 287 712 287 715 C287 720 266 735 258 735 C256 735 239 710 220 680 C220 680 130 535 130 535 C130 535 135 531 135 531 L135 531 Z M47 124 C47 124 47 41 47 41 C81 16 159 -5 218 -5 C301 -5 372 60 372 136 C372 180 314 240 245 268 C169 299 103 357 103 395 C103 449 153 494 213 494 C220 494 229 492 241 489 C288 473 329 432 338 386 C338 386 348 386 348 386 C348 386 348 462 348 462 C306 485 244 505 213 505 C133 505 65 447 65 378 C65 331 132 264 210 232 C275 206 331 153 331 117 C331 57 280 6 221 6 C213 6 205 7 196 7 C144 15 85 57 66 102 C63 108 59 118 57 124 C57 124 47 124 47 124 L47 124 Z " />
<glyph glyph-name="Scircumflex" unicode="&#x15c;" horiz-adv-x="503" d="M42 170 C42 170 42 54 42 54 C85 22 190 -5 270 -5 C372 -5 459 74 459 168 C459 237 374 321 273 351 C174 381 89 451 89 503 C89 584 157 652 238 652 C251 652 266 650 283 647 C283 647 283 646 283 646 C328 638 381 589 398 542 C402 530 409 510 414 498 C414 498 424 498 424 498 C424 498 424 616 424 616 C424 616 420 608 420 608 C420 608 420 608 420 608 C420 608 424 616 424 616 C376 642 291 665 240 665 C138 665 52 581 52 482 C52 418 135 338 231 309 C333 279 420 204 420 146 C420 71 351 8 270 8 C258 8 245 9 232 10 C232 10 232 11 232 11 C163 18 86 77 64 139 C61 148 56 162 53 170 C53 170 42 170 42 170 L42 170 Z M238 852 C238 852 351 693 351 693 C351 693 356 698 356 698 C356 698 254 891 254 891 C252 894 244 905 238 905 C231 905 224 895 222 891 C222 891 120 698 120 698 C120 698 125 693 125 693 C125 693 238 852 238 852 L238 852 Z " />
<glyph glyph-name="Scedilla" unicode="&#x15e;" horiz-adv-x="503" d="M42 170 C42 170 42 54 42 54 C85 22 190 -5 270 -5 C372 -5 459 74 459 168 C459 237 374 321 273 351 C174 381 89 451 89 503 C89 584 157 652 238 652 C251 652 266 650 283 647 C283 647 283 646 283 646 C328 638 381 589 398 542 C402 530 409 510 414 498 C414 498 424 498 424 498 C424 498 424 616 424 616 C424 616 420 608 420 608 C420 608 420 608 420 608 C420 608 424 616 424 616 C376 642 291 665 240 665 C138 665 52 581 52 482 C52 418 135 338 231 309 C333 279 420 204 420 146 C420 71 351 8 270 8 C258 8 245 9 232 10 C232 10 232 11 232 11 C163 18 86 77 64 139 C61 148 56 162 53 170 C53 170 42 170 42 170 L42 170 Z " />
<glyph glyph-name="scedilla" unicode="&#x15f;" horiz-adv-x="422" d="M47 124 C47 124 47 41 47 41 C81 16 159 -5 218 -5 C301 -5 372 60 372 136 C372 180 314 240 245 268 C169 299 103 357 103 395 C103 449 153 494 213 494 C220 494 229 492 241 489 C288 473 329 432 338 386 C338 386 348 386 348 386 C348 386 348 462 348 462 C306 485 244 505 213 505 C133 505 65 447 65 378 C65 331 132 264 210 232 C275 206 331 153 331 117 C331 57 280 6 221 6 C213 6 205 7 196 7 C144 15 85 57 66 102 C63 108 59 118 57 124 C57 124 47 124 47 124 L47 124 Z " />
<glyph glyph-name="Scaron" unicode="&#x160;" horiz-adv-x="503" d="M42 170 C42 170 42 54 42 54 C85 22 190 -5 270 -5 C372 -5 459 74 459 168 C459 237 374 321 273 351 C174 381 89 451 89 503 C89 584 157 652 238 652 C251 652 266 650 283 647 C283 647 283 646 283 646 C328 638 381 589 398 542 C402 530 409 510 414 498 C414 498 424 498 424 498 C424 498 424 616 424 616 C424 616 420 608 420 608 C420 608 420 608 420 608 C420 608 424 616 424 616 C376 642 291 665 240 665 C138 665 52 581 52 482 C52 418 135 338 231 309 C333 279 420 204 420 146 C420 71 351 8 270 8 C258 8 245 9 232 10 C232 10 232 11 232 11 C163 18 86 77 64 139 C61 148 56 162 53 170 C53 170 42 170 42 170 L42 170 Z M238 768 C238 768 351 927 351 927 C351 927 356 922 356 922 C356 922 254 729 254 729 C252 726 244 715 238 715 C231 715 224 725 222 729 C222 729 120 922 120 922 C120 922 125 927 125 927 C125 927 238 768 238 768 L238 768 Z " />
<glyph glyph-name="scaron" unicode="&#x161;" horiz-adv-x="422" d="M47 124 C47 124 47 41 47 41 C81 16 159 -5 218 -5 C301 -5 372 60 372 136 C372 180 314 240 245 268 C169 299 103 357 103 395 C103 449 153 494 213 494 C220 494 229 492 241 489 C288 473 329 432 338 386 C338 386 348 386 348 386 C348 386 348 462 348 462 C306 485 244 505 213 505 C133 505 65 447 65 378 C65 331 132 264 210 232 C275 206 331 153 331 117 C331 57 280 6 221 6 C213 6 205 7 196 7 C144 15 85 57 66 102 C63 108 59 118 57 124 C57 124 47 124 47 124 L47 124 Z M213 608 C213 608 326 767 326 767 C326 767 331 762 331 762 C331 762 229 569 229 569 C227 566 219 555 213 555 C206 555 199 565 197 569 C197 569 95 762 95 762 C95 762 100 767 100 767 C100 767 213 608 213 608 L213 608 Z " />
<glyph glyph-name="Tcaron" unicode="&#x164;" horiz-adv-x="620" d="M605 525 C602 560 597 619 594 653 C594 655 594 658 593 660 C593 660 580 660 580 660 C580 660 497 660 497 660 C497 660 123 660 123 660 C123 660 40 660 40 660 C40 660 27 660 27 660 C26 658 26 655 26 653 C23 619 18 560 15 525 C15 525 25 525 25 525 C25 525 34 548 34 548 C57 601 121 647 174 647 C174 647 283 647 283 647 C283 647 283 96 283 96 C283 51 259 13 231 13 C231 13 222 13 222 13 C222 13 222 0 222 0 C222 0 283 0 283 0 C283 0 310 0 310 0 C310 0 337 0 337 0 C337 0 398 0 398 0 C398 0 398 13 398 13 C398 13 389 13 389 13 C361 13 337 51 337 96 C337 96 337 647 337 647 C337 647 446 647 446 647 C499 647 563 601 586 548 C586 548 595 525 595 525 C595 525 605 525 605 525 L605 525 Z M310 768 C310 768 423 927 423 927 C423 927 428 922 428 922 C428 922 326 729 326 729 C324 726 316 715 310 715 C304 715 296 725 294 729 C294 729 192 922 192 922 C192 922 197 927 197 927 C197 927 310 768 310 768 L310 768 Z " />
<glyph glyph-name="tcaron" unicode="&#x165;" horiz-adv-x="350" d="M320 500 C320 500 155 500 155 500 C155 500 155 640 155 640 C155 640 146 640 146 640 C146 640 109 495 109 495 C109 495 109 495 109 495 C109 495 128 572 128 572 C117 530 70 491 25 486 C25 486 25 481 25 481 C25 481 105 481 105 481 C105 481 105 111 105 111 C105 30 132 -5 195 -5 C247 -5 297 19 331 47 C331 47 327 51 327 51 C306 33 267 17 219 17 C174 17 154 42 154 102 C154 102 155 481 155 481 C155 481 320 481 320 481 C320 481 320 500 320 500 L320 500 Z M433 605 C452 653 468 707 468 712 C468 720 445 724 437 723 C427 724 410 657 402 617 C402 617 368 454 368 454 C368 454 375 452 375 452 C375 452 433 605 433 605 L433 605 Z " />
<glyph glyph-name="Utilde" unicode="&#x168;" horiz-adv-x="657" d="M193 755 C193 791 214 822 239 822 C293 822 364 759 418 759 C454 759 485 802 485 852 C485 852 477 852 477 852 C477 820 455 792 429 792 C375 792 304 855 249 855 C215 855 185 809 185 755 C185 755 193 755 193 755 L193 755 Z M637 660 C637 660 568 660 568 660 C568 660 560 660 560 660 C560 660 552 660 552 660 C552 660 479 660 479 660 C479 660 479 647 479 647 C479 647 490 647 490 647 C521 647 549 608 552 561 C552 561 551 184 551 184 C551 92 480 14 348 14 C224 14 156 99 156 198 C156 198 156 564 156 564 C156 609 180 647 208 647 C208 647 217 647 217 647 C217 647 217 660 217 660 C217 660 156 660 156 660 C156 660 129 660 129 660 C129 660 102 660 102 660 C102 660 42 660 42 660 C42 660 42 647 42 647 C42 647 51 647 51 647 C78 647 102 609 102 564 C102 564 102 208 102 208 C102 93 186 -5 340 -5 C488 -5 568 79 568 178 C568 178 568 554 568 554 C568 604 595 647 627 647 C627 647 637 647 637 647 C637 647 637 660 637 660 L637 660 Z " />
<glyph glyph-name="utilde" unicode="&#x169;" horiz-adv-x="556" d="M126 595 C126 631 147 662 171 662 C226 662 297 599 351 599 C387 599 418 642 418 692 C418 692 410 692 410 692 C410 660 388 632 362 632 C307 632 237 695 182 695 C148 695 118 649 118 595 C118 595 126 595 126 595 L126 595 Z M350 487 C350 487 359 487 359 487 C387 487 411 449 411 404 C411 404 411 121 411 121 C411 121 411 66 411 66 C392 45 338 28 267 28 C182 28 125 89 125 161 C125 161 125 500 125 500 C125 500 100 500 100 500 C100 500 75 500 75 500 C75 500 15 500 15 500 C15 500 15 487 15 487 C15 487 24 487 24 487 C51 487 75 449 75 404 C75 404 75 156 75 156 C75 69 137 -5 227 -5 C309 -5 378 23 411 57 C411 57 411 13 411 13 C411 13 411 0 411 0 C411 0 421 0 421 0 C421 0 521 30 521 30 C522 34 522 38 521 37 C475 47 461 65 461 135 C461 135 461 500 461 500 C461 500 436 500 436 500 C436 500 411 500 411 500 C411 500 350 500 350 500 C350 500 350 487 350 487 L350 487 Z " />
<glyph glyph-name="Umacron" unicode="&#x16a;" horiz-adv-x="657" d="M185 770 C185 770 485 770 485 770 C485 770 485 798 485 798 C485 798 185 798 185 798 C185 798 185 770 185 770 L185 770 Z M637 660 C637 660 568 660 568 660 C568 660 560 660 560 660 C560 660 552 660 552 660 C552 660 479 660 479 660 C479 660 479 647 479 647 C479 647 490 647 490 647 C521 647 549 608 552 561 C552 561 551 184 551 184 C551 92 480 14 348 14 C224 14 156 99 156 198 C156 198 156 564 156 564 C156 609 180 647 208 647 C208 647 217 647 217 647 C217 647 217 660 217 660 C217 660 156 660 156 660 C156 660 129 660 129 660 C129 660 102 660 102 660 C102 660 42 660 42 660 C42 660 42 647 42 647 C42 647 51 647 51 647 C78 647 102 609 102 564 C102 564 102 208 102 208 C102 93 186 -5 340 -5 C488 -5 568 79 568 178 C568 178 568 554 568 554 C568 604 595 647 627 647 C627 647 637 647 637 647 C637 647 637 660 637 660 L637 660 Z " />
<glyph glyph-name="umacron" unicode="&#x16b;" horiz-adv-x="556" d="M118 610 C118 610 418 610 418 610 C418 610 418 638 418 638 C418 638 118 638 118 638 C118 638 118 610 118 610 L118 610 Z M350 487 C350 487 359 487 359 487 C387 487 411 449 411 404 C411 404 411 121 411 121 C411 121 411 66 411 66 C392 45 338 28 267 28 C182 28 125 89 125 161 C125 161 125 500 125 500 C125 500 100 500 100 500 C100 500 75 500 75 500 C75 500 15 500 15 500 C15 500 15 487 15 487 C15 487 24 487 24 487 C51 487 75 449 75 404 C75 404 75 156 75 156 C75 69 137 -5 227 -5 C309 -5 378 23 411 57 C411 57 411 13 411 13 C411 13 411 0 411 0 C411 0 421 0 421 0 C421 0 521 30 521 30 C522 34 522 38 521 37 C475 47 461 65 461 135 C461 135 461 500 461 500 C461 500 436 500 436 500 C436 500 411 500 411 500 C411 500 350 500 350 500 C350 500 350 487 350 487 L350 487 Z " />
<glyph glyph-name="Ubreve" unicode="&#x16c;" horiz-adv-x="657" d="M220 872 C230 816 283 768 335 768 C387 768 441 816 451 872 C451 872 442 873 442 873 C435 834 386 801 335 801 C284 801 235 834 229 873 C229 873 220 872 220 872 L220 872 Z M637 660 C637 660 568 660 568 660 C568 660 560 660 560 660 C560 660 552 660 552 660 C552 660 479 660 479 660 C479 660 479 647 479 647 C479 647 490 647 490 647 C521 647 549 608 552 561 C552 561 551 184 551 184 C551 92 480 14 348 14 C224 14 156 99 156 198 C156 198 156 564 156 564 C156 609 180 647 208 647 C208 647 217 647 217 647 C217 647 217 660 217 660 C217 660 156 660 156 660 C156 660 129 660 129 660 C129 660 102 660 102 660 C102 660 42 660 42 660 C42 660 42 647 42 647 C42 647 51 647 51 647 C78 647 102 609 102 564 C102 564 102 208 102 208 C102 93 186 -5 340 -5 C488 -5 568 79 568 178 C568 178 568 554 568 554 C568 604 595 647 627 647 C627 647 637 647 637 647 C637 647 637 660 637 660 L637 660 Z " />
<glyph glyph-name="ubreve" unicode="&#x16d;" horiz-adv-x="556" d="M153 712 C163 656 216 608 268 608 C320 608 373 656 383 712 C383 712 375 713 375 713 C368 674 319 641 268 641 C217 641 168 674 162 713 C162 713 153 712 153 712 L153 712 Z M350 487 C350 487 359 487 359 487 C387 487 411 449 411 404 C411 404 411 121 411 121 C411 121 411 66 411 66 C392 45 338 28 267 28 C182 28 125 89 125 161 C125 161 125 500 125 500 C125 500 100 500 100 500 C100 500 75 500 75 500 C75 500 15 500 15 500 C15 500 15 487 15 487 C15 487 24 487 24 487 C51 487 75 449 75 404 C75 404 75 156 75 156 C75 69 137 -5 227 -5 C309 -5 378 23 411 57 C411 57 411 13 411 13 C411 13 411 0 411 0 C411 0 421 0 421 0 C421 0 521 30 521 30 C522 34 522 38 521 37 C475 47 461 65 461 135 C461 135 461 500 461 500 C461 500 436 500 436 500 C436 500 411 500 411 500 C411 500 350 500 350 500 C350 500 350 487 350 487 L350 487 Z " />
<glyph glyph-name="Uring" unicode="&#x16e;" horiz-adv-x="657" d="M335 706 C296 706 255 748 255 788 C255 832 292 869 335 869 C378 869 415 832 415 788 C415 748 374 706 335 706 L335 706 Z M241 788 C241 743 289 695 335 695 C381 695 429 743 429 788 C429 837 386 880 335 880 C284 880 241 837 241 788 L241 788 Z M637 660 C637 660 568 660 568 660 C568 660 560 660 560 660 C560 660 552 660 552 660 C552 660 479 660 479 660 C479 660 479 647 479 647 C479 647 490 647 490 647 C521 647 549 608 552 561 C552 561 551 184 551 184 C551 92 480 14 348 14 C224 14 156 99 156 198 C156 198 156 564 156 564 C156 609 180 647 208 647 C208 647 217 647 217 647 C217 647 217 660 217 660 C217 660 156 660 156 660 C156 660 129 660 129 660 C129 660 102 660 102 660 C102 660 42 660 42 660 C42 660 42 647 42 647 C42 647 51 647 51 647 C78 647 102 609 102 564 C102 564 102 208 102 208 C102 93 186 -5 340 -5 C488 -5 568 79 568 178 C568 178 568 554 568 554 C568 604 595 647 627 647 C627 647 637 647 637 647 C637 647 637 660 637 660 L637 660 Z " />
<glyph glyph-name="uring" unicode="&#x16f;" horiz-adv-x="556" d="M268 546 C229 546 188 588 188 628 C188 672 225 709 268 709 C311 709 348 672 348 628 C348 588 307 546 268 546 L268 546 Z M174 628 C174 583 222 535 268 535 C314 535 362 583 362 628 C362 677 319 720 268 720 C217 720 174 677 174 628 L174 628 Z M350 487 C350 487 359 487 359 487 C387 487 411 449 411 404 C411 404 411 121 411 121 C411 121 411 66 411 66 C392 45 338 28 267 28 C182 28 125 89 125 161 C125 161 125 500 125 500 C125 500 100 500 100 500 C100 500 75 500 75 500 C75 500 15 500 15 500 C15 500 15 487 15 487 C15 487 24 487 24 487 C51 487 75 449 75 404 C75 404 75 156 75 156 C75 69 137 -5 227 -5 C309 -5 378 23 411 57 C411 57 411 13 411 13 C411 13 411 0 411 0 C411 0 421 0 421 0 C421 0 521 30 521 30 C522 34 522 38 521 37 C475 47 461 65 461 135 C461 135 461 500 461 500 C461 500 436 500 436 500 C436 500 411 500 411 500 C411 500 350 500 350 500 C350 500 350 487 350 487 L350 487 Z " />
<glyph glyph-name="Wcircumflex" unicode="&#x174;" horiz-adv-x="900" d="M737 647 C737 647 749 647 749 647 C784 647 805 612 796 570 C796 570 630 -15 630 -15 C630 -15 644 -15 644 -15 C644 -15 814 572 814 572 C828 614 861 647 887 647 C887 647 896 647 896 647 C895 647 895 650 896 654 C895 657 895 660 896 660 C896 660 839 660 839 660 C839 660 830 660 830 660 C830 660 822 660 822 660 C822 660 737 660 737 660 C737 660 737 647 737 647 L737 647 Z M178 660 C178 660 105 660 105 660 C105 660 75 660 75 660 C75 660 46 660 46 660 C46 660 1 660 1 660 C1 660 1 647 1 647 C1 647 8 647 8 647 C29 647 60 612 75 569 C75 569 263 -15 263 -15 C263 -15 277 -15 277 -15 C277 -15 466 670 466 670 C466 670 453 670 453 670 C453 670 263 -15 263 -15 C263 -15 286 68 286 68 C286 68 132 571 132 571 C123 613 138 647 167 647 C167 647 178 647 178 647 C178 647 178 660 178 660 L178 660 Z M459 853 C459 853 572 693 572 693 C572 693 578 698 578 698 C578 698 475 891 475 891 C473 894 466 905 459 905 C453 905 446 895 444 891 C444 891 341 698 341 698 C341 698 347 693 347 693 C347 693 459 853 459 853 L459 853 Z M630 -15 C630 -15 655 73 655 73 C655 73 466 670 466 670 C466 670 441 577 441 577 C441 577 630 -15 630 -15 L630 -15 Z " />
<glyph glyph-name="Ycircumflex" unicode="&#x176;" horiz-adv-x="581" d="M386 13 C386 13 377 13 377 13 C349 13 325 51 325 96 C325 96 325 282 325 282 C325 282 488 573 488 573 C514 614 552 647 574 647 C574 647 582 647 582 647 C581 647 581 650 582 654 C581 657 581 660 582 660 C582 660 536 660 536 660 C536 660 528 660 528 660 C528 660 519 660 519 660 C519 660 431 660 431 660 C431 660 431 647 431 647 C431 647 443 647 443 647 C481 647 486 600 455 544 C455 544 455 544 455 544 C455 544 317 293 317 293 C317 293 172 570 172 570 C153 612 159 647 188 647 C188 647 198 647 198 647 C198 647 198 660 198 660 C198 660 125 660 125 660 C125 660 93 660 93 660 C93 660 60 660 60 660 C60 660 22 660 22 660 C22 660 22 647 22 647 C22 647 29 647 29 647 C48 647 83 613 107 571 C107 571 271 261 271 261 C271 261 271 96 271 96 C271 51 247 13 220 13 C220 13 211 13 211 13 C211 13 211 0 211 0 C211 0 271 0 271 0 C271 0 298 0 298 0 C298 0 325 0 325 0 C325 0 386 0 386 0 C386 0 386 13 386 13 L386 13 Z M298 852 C298 852 411 693 411 693 C411 693 416 698 416 698 C416 698 314 891 314 891 C312 894 305 905 298 905 C292 905 284 895 282 891 C282 891 180 698 180 698 C180 698 185 693 185 693 C185 693 298 852 298 852 L298 852 Z " />
<glyph glyph-name="Ydieresis" unicode="&#x178;" horiz-adv-x="581" d="M387 730 C404 730 418 744 418 761 C418 777 404 791 387 791 C370 791 356 777 356 761 C356 744 370 730 387 730 L387 730 Z M209 730 C226 730 240 744 240 761 C240 777 226 791 209 791 C193 791 179 777 179 761 C179 744 193 730 209 730 L209 730 Z M386 13 C386 13 377 13 377 13 C349 13 325 51 325 96 C325 96 325 282 325 282 C325 282 488 573 488 573 C514 614 552 647 574 647 C574 647 582 647 582 647 C581 647 581 650 582 654 C581 657 581 660 582 660 C582 660 536 660 536 660 C536 660 528 660 528 660 C528 660 519 660 519 660 C519 660 431 660 431 660 C431 660 431 647 431 647 C431 647 443 647 443 647 C481 647 486 600 455 544 C455 544 455 544 455 544 C455 544 317 293 317 293 C317 293 172 570 172 570 C153 612 159 647 188 647 C188 647 198 647 198 647 C198 647 198 660 198 660 C198 660 125 660 125 660 C125 660 93 660 93 660 C93 660 60 660 60 660 C60 660 22 660 22 660 C22 660 22 647 22 647 C22 647 29 647 29 647 C48 647 83 613 107 571 C107 571 271 261 271 261 C271 261 271 96 271 96 C271 51 247 13 220 13 C220 13 211 13 211 13 C211 13 211 0 211 0 C211 0 271 0 271 0 C271 0 298 0 298 0 C298 0 325 0 325 0 C325 0 386 0 386 0 C386 0 386 13 386 13 L386 13 Z " />
<glyph glyph-name="Zacute" unicode="&#x179;" horiz-adv-x="587" d="M329 691 C329 691 439 820 439 820 C462 847 481 872 481 875 C481 880 460 895 453 895 C450 895 433 870 414 840 C414 840 324 695 324 695 C324 695 329 691 329 691 L329 691 Z M517 7 C523 40 533 96 539 129 C539 129 537 130 536 130 C529 133 524 135 524 135 C524 135 516 117 516 117 C492 61 422 14 363 14 C363 14 122 14 122 14 C122 14 529 660 529 660 C529 660 499 660 499 660 C499 660 468 660 468 660 C468 660 216 660 216 660 C216 660 133 660 133 660 C133 660 119 660 119 660 C119 658 118 655 118 653 C110 625 97 577 90 549 C90 549 100 549 100 549 C100 549 110 564 110 564 C141 609 212 647 265 647 C265 647 460 647 460 647 C460 647 53 0 53 0 C53 0 83 0 83 0 C83 0 113 0 113 0 C113 0 420 0 420 0 C420 0 514 0 514 0 C514 0 516 0 516 0 C516 2 517 5 517 7 L517 7 Z " />
<glyph glyph-name="zacute" unicode="&#x17a;" horiz-adv-x="483" d="M181 531 C181 531 291 660 291 660 C314 687 333 712 333 715 C333 720 312 735 305 735 C302 735 285 710 266 680 C266 680 176 535 176 535 C176 535 181 531 181 531 L181 531 Z M429 133 C429 133 421 114 421 114 C398 59 328 11 269 11 C269 11 122 11 122 11 C122 11 434 500 434 500 C434 500 405 500 405 500 C405 500 376 500 376 500 C376 500 167 500 167 500 C167 500 84 500 84 500 C84 500 71 500 71 500 C70 498 70 496 69 494 C63 473 54 437 48 416 C48 416 58 416 58 416 C58 416 67 426 67 426 C94 460 163 488 217 488 C217 488 217 488 217 488 C217 488 369 489 369 489 C369 489 56 0 56 0 C56 0 86 0 86 0 C86 0 115 0 115 0 C115 0 325 0 325 0 C325 0 419 0 419 0 C419 0 422 0 422 0 C422 2 422 4 423 6 C428 38 438 94 444 126 C444 128 429 133 429 133 L429 133 Z " />
<glyph glyph-name="Zdotaccent" unicode="&#x17b;" horiz-adv-x="587" d="M331 730 C348 730 362 744 362 761 C362 777 348 791 331 791 C315 791 301 777 301 761 C301 744 315 730 331 730 L331 730 Z M517 7 C523 40 533 96 539 129 C539 129 537 130 536 130 C529 133 524 135 524 135 C524 135 516 117 516 117 C492 61 422 14 363 14 C363 14 122 14 122 14 C122 14 529 660 529 660 C529 660 499 660 499 660 C499 660 468 660 468 660 C468 660 216 660 216 660 C216 660 133 660 133 660 C133 660 119 660 119 660 C119 658 118 655 118 653 C110 625 97 577 90 549 C90 549 100 549 100 549 C100 549 110 564 110 564 C141 609 212 647 265 647 C265 647 460 647 460 647 C460 647 53 0 53 0 C53 0 83 0 83 0 C83 0 113 0 113 0 C113 0 420 0 420 0 C420 0 514 0 514 0 C514 0 516 0 516 0 C516 2 517 5 517 7 L517 7 Z " />
<glyph glyph-name="zdotaccent" unicode="&#x17c;" horiz-adv-x="483" d="M259 570 C275 570 289 584 289 601 C289 617 275 631 259 631 C242 631 228 617 228 601 C228 584 242 570 259 570 L259 570 Z M429 133 C429 133 421 114 421 114 C398 59 328 11 269 11 C269 11 122 11 122 11 C122 11 434 500 434 500 C434 500 405 500 405 500 C405 500 376 500 376 500 C376 500 167 500 167 500 C167 500 84 500 84 500 C84 500 71 500 71 500 C70 498 70 496 69 494 C63 473 54 437 48 416 C48 416 58 416 58 416 C58 416 67 426 67 426 C94 460 163 488 217 488 C217 488 217 488 217 488 C217 488 369 489 369 489 C369 489 56 0 56 0 C56 0 86 0 86 0 C86 0 115 0 115 0 C115 0 325 0 325 0 C325 0 419 0 419 0 C419 0 422 0 422 0 C422 2 422 4 423 6 C428 38 438 94 444 126 C444 128 429 133 429 133 L429 133 Z " />
<glyph glyph-name="Zcaron" unicode="&#x17d;" horiz-adv-x="587" d="M331 768 C331 768 444 927 444 927 C444 927 449 922 449 922 C449 922 347 729 347 729 C345 726 338 715 331 715 C325 715 317 725 315 729 C315 729 213 922 213 922 C213 922 218 927 218 927 C218 927 331 768 331 768 L331 768 Z M517 7 C523 40 533 96 539 129 C539 129 537 130 536 130 C529 133 524 135 524 135 C524 135 516 117 516 117 C492 61 422 14 363 14 C363 14 122 14 122 14 C122 14 529 660 529 660 C529 660 499 660 499 660 C499 660 468 660 468 660 C468 660 216 660 216 660 C216 660 133 660 133 660 C133 660 119 660 119 660 C119 658 118 655 118 653 C110 625 97 577 90 549 C90 549 100 549 100 549 C100 549 110 564 110 564 C141 609 212 647 265 647 C265 647 460 647 460 647 C460 647 53 0 53 0 C53 0 83 0 83 0 C83 0 113 0 113 0 C113 0 420 0 420 0 C420 0 514 0 514 0 C514 0 516 0 516 0 C516 2 517 5 517 7 L517 7 Z " />
<glyph glyph-name="zcaron" unicode="&#x17e;" horiz-adv-x="483" d="M429 133 C429 133 421 114 421 114 C398 59 328 11 269 11 C269 11 122 11 122 11 C122 11 434 500 434 500 C434 500 405 500 405 500 C405 500 376 500 376 500 C376 500 167 500 167 500 C167 500 84 500 84 500 C84 500 71 500 71 500 C70 498 70 496 69 494 C63 473 54 437 48 416 C48 416 58 416 58 416 C58 416 67 426 67 426 C94 460 163 488 217 488 C217 488 217 488 217 488 C217 488 369 489 369 489 C369 489 56 0 56 0 C56 0 86 0 86 0 C86 0 115 0 115 0 C115 0 325 0 325 0 C325 0 419 0 419 0 C419 0 422 0 422 0 C422 2 422 4 423 6 C428 38 438 94 444 126 C444 128 429 133 429 133 L429 133 Z M259 608 C259 608 372 767 372 767 C372 767 377 762 377 762 C377 762 275 569 275 569 C273 566 265 555 259 555 C252 555 245 565 243 569 C243 569 141 762 141 762 C141 762 146 767 146 767 C146 767 259 608 259 608 L259 608 Z " />
<glyph glyph-name="SmallLetterOwithogon" unicode="&#x1eb;" horiz-adv-x="699" d="M714 -51 C714 -51 709 -47 709 -47 C687 -73 626 -95 575 -95 C498 -95 414 -54 362 -5 C533 -2 649 142 649 277 C649 413 530 558 356 558 C183 558 64 413 64 277 C64 143 177 2 344 -5 C412 -71 504 -127 570 -127 C613 -127 679 -92 714 -51 L714 -51 Z M356 7 C214 7 117 146 117 277 C117 408 214 546 356 546 C499 546 596 408 596 277 C596 146 499 7 356 7 L356 7 Z " />
<glyph glyph-name="CapitalLetterAwithdo" unicode="&#x226;" horiz-adv-x="607" d="M296 730 C313 730 327 744 327 761 C327 777 313 791 296 791 C280 791 266 777 266 761 C266 744 280 730 296 730 L296 730 Z M601 13 C601 13 593 13 593 13 C569 13 534 51 517 96 C517 96 517 96 517 96 C517 96 303 675 303 675 C303 675 289 675 289 675 C289 675 89 85 89 85 C72 45 39 13 13 13 C13 13 4 13 4 13 C4 13 4 0 4 0 C4 0 60 0 60 0 C60 0 69 0 69 0 C69 0 78 0 78 0 C78 0 167 0 167 0 C167 0 167 13 167 13 C167 13 154 13 154 13 C115 13 97 57 114 109 C114 109 115 111 115 111 C115 111 155 230 155 230 C155 230 411 230 411 230 C411 230 461 90 461 90 C473 48 456 13 421 13 C421 13 409 13 409 13 C409 13 409 0 409 0 C409 0 493 0 493 0 C493 0 523 0 523 0 C523 0 552 0 552 0 C552 0 601 0 601 0 C601 0 601 13 601 13 L601 13 Z M406 244 C406 244 159 244 159 244 C159 244 279 602 279 602 C279 602 406 244 406 244 L406 244 Z " />
<glyph glyph-name="LETTERSMALLCAPITALG" unicode="&#x262;" horiz-adv-x="740" d="M646 260 C646 260 585 260 585 260 C585 260 564 260 564 260 C564 260 542 260 542 260 C542 260 481 260 481 260 C481 260 481 247 481 247 C481 247 490 247 490 247 C518 248 542 209 542 164 C542 164 542 50 542 50 C484 26 407 7 355 7 C226 7 117 131 117 277 C117 422 226 546 355 546 C364 546 375 545 386 544 C386 544 386 544 386 544 C457 536 537 477 558 416 C561 408 566 394 569 386 C569 386 580 386 580 386 C580 386 580 498 580 498 C580 498 577 492 577 492 C577 492 577 492 577 492 C577 492 580 498 580 498 C520 530 417 558 355 558 C198 558 64 429 64 277 C64 125 198 -5 355 -5 C421 -5 527 24 585 57 C585 57 585 164 585 164 C586 209 609 248 637 247 C637 247 646 247 646 247 C646 247 646 260 646 260 L646 260 Z " />
<glyph glyph-name="LETTERSMALLCAPITALI" unicode="&#x26a;" horiz-adv-x="253" d="M213 553 C190 554 151 554 128 553 C106 554 66 554 43 553 C43 553 43 541 43 541 C43 541 53 541 53 541 C80 541 104 502 104 457 C104 457 104 96 104 96 C104 51 80 13 53 13 C53 13 43 13 43 13 C43 13 43 0 43 0 C43 0 104 0 104 0 C104 0 128 0 128 0 C128 0 153 0 153 0 C153 0 213 0 213 0 C213 0 213 13 213 13 C213 13 204 13 204 13 C176 13 153 51 153 96 C153 96 153 457 153 457 C153 502 176 541 204 541 C204 541 213 541 213 541 C213 541 213 553 213 553 L213 553 Z " />
<glyph glyph-name="LETTERSMALLCAPITALN" unicode="&#x274;" horiz-adv-x="608" d="M571 553 C552 554 521 554 503 553 C485 552 453 554 435 553 C435 553 435 541 435 541 C435 541 444 541 444 541 C472 541 496 502 496 457 C496 457 496 72 496 72 C496 72 147 553 147 553 C147 553 119 533 119 533 C119 533 119 533 119 533 C119 533 147 553 147 553 C147 553 119 553 119 553 C119 553 111 553 111 553 C93 554 62 554 43 553 C43 553 43 541 43 541 C43 541 52 541 52 541 C80 541 104 502 104 457 C104 457 104 96 104 96 C104 51 80 13 52 13 C52 13 43 13 43 13 C43 13 43 0 43 0 C43 0 104 0 104 0 C104 0 111 0 111 0 C111 0 119 0 119 0 C119 0 179 0 179 0 C179 0 179 13 179 13 C179 13 170 13 170 13 C142 13 119 51 119 96 C119 96 119 510 119 510 C119 510 473 21 473 21 C473 21 496 -10 496 -10 C496 -10 510 -10 510 -10 C510 -10 510 39 510 39 C510 39 510 457 510 457 C510 502 534 541 562 541 C562 541 571 541 571 541 C571 541 571 553 571 553 L571 553 Z " />
<glyph glyph-name="LETTERSMALLCAPITALR" unicode="&#x280;" horiz-adv-x="569" d="M53 541 C53 541 62 541 62 541 C90 541 113 502 113 457 C113 457 113 96 113 96 C113 51 90 13 62 13 C62 13 53 13 53 13 C53 13 53 0 53 0 C53 0 113 0 113 0 C113 0 138 0 138 0 C138 0 162 0 162 0 C162 0 223 0 223 0 C223 0 223 13 223 13 C223 13 214 13 214 13 C186 13 162 51 162 96 C162 96 162 258 162 258 C162 258 228 258 228 258 C228 258 386 106 386 106 C482 14 504 0 550 0 C550 0 570 0 570 0 C570 0 570 10 570 10 C570 10 565 10 565 10 C547 10 532 22 455 96 C455 96 284 262 284 262 C375 277 445 338 445 409 C445 487 359 553 259 553 C259 553 162 553 162 553 C162 553 138 553 138 553 C115 554 76 554 53 553 C53 553 53 541 53 541 L53 541 Z M240 270 C240 270 215 270 215 270 C215 270 162 270 162 270 C162 270 162 541 162 541 C162 541 259 541 259 541 C332 541 394 480 394 409 C394 334 323 270 240 270 L240 270 Z " />
<glyph glyph-name="LETTERSMALLCAPITALY" unicode="&#x28f;" horiz-adv-x="516" d="M351 13 C351 13 342 13 342 13 C315 13 292 48 291 91 C291 91 291 96 291 96 C291 96 291 239 291 239 C291 239 416 457 416 457 C416 457 416 457 416 457 C442 502 484 541 508 541 C508 541 516 541 516 541 C516 541 516 553 516 553 C502 554 478 554 463 553 C437 554 393 554 367 553 C367 553 367 541 367 541 C367 541 379 541 379 541 C417 541 422 493 390 437 C390 437 390 437 390 437 C390 437 281 244 281 244 C281 244 170 457 170 457 C170 457 170 457 170 457 C146 502 152 541 183 541 C183 541 193 541 193 541 C193 541 193 553 193 553 C165 554 119 554 91 553 C73 554 42 554 24 553 C24 553 24 541 24 541 C24 541 31 541 31 541 C50 541 85 506 110 464 C110 464 242 219 242 219 C242 219 242 96 242 96 C242 51 218 13 191 13 C191 13 181 13 181 13 C181 13 181 0 181 0 C181 0 242 0 242 0 C242 0 266 0 266 0 C266 0 291 0 291 0 C291 0 351 0 351 0 C351 0 351 13 351 13 L351 13 Z " />
<glyph glyph-name="LETTERSMALLCAPITALB" unicode="&#x299;" horiz-adv-x="514" d="M53 541 C53 541 62 541 62 541 C90 541 113 502 113 457 C113 457 113 96 113 96 C113 51 90 13 62 13 C62 13 53 13 53 13 C53 13 53 0 53 0 C53 0 113 0 113 0 C113 0 138 0 138 0 C138 0 162 0 162 0 C162 0 280 0 280 0 C396 0 495 68 495 148 C495 216 409 275 300 290 C381 308 442 362 442 424 C442 494 358 553 259 553 C259 553 162 553 162 553 C162 553 138 553 138 553 C115 554 76 554 53 553 C53 553 53 541 53 541 L53 541 Z M264 293 C258 293 253 293 248 293 C248 293 191 291 191 291 C191 291 162 291 162 291 C162 291 162 541 162 541 C162 541 259 541 259 541 C331 541 393 487 393 424 C393 359 335 303 264 293 C264 293 264 293 264 293 L264 293 Z M233 283 C347 283 444 221 444 148 C444 75 366 13 275 13 C275 13 162 13 162 13 C162 13 162 283 162 283 C162 283 233 283 233 283 L233 283 Z " />
<glyph glyph-name="LETTERSMALLCAPITALH" unicode="&#x29c;" horiz-adv-x="680" d="M640 553 C617 554 578 554 555 553 C532 552 493 554 470 553 C470 553 470 541 470 541 C470 541 479 541 479 541 C507 541 531 502 531 457 C531 457 531 291 531 291 C531 291 151 291 151 291 C151 291 151 457 151 457 C151 502 175 541 202 541 C202 541 212 541 212 541 C212 541 212 553 212 553 C189 554 149 554 127 553 C104 554 65 554 42 553 C42 553 42 541 42 541 C42 541 51 541 51 541 C78 541 102 502 102 457 C102 457 102 96 102 96 C102 51 78 13 51 13 C51 13 42 13 42 13 C42 13 42 0 42 0 C42 0 102 0 102 0 C102 0 127 0 127 0 C127 0 151 0 151 0 C151 0 212 0 212 0 C212 0 212 13 212 13 C212 13 202 13 202 13 C175 13 151 51 151 96 C151 96 151 279 151 279 C151 279 531 279 531 279 C531 279 531 96 531 96 C531 51 507 13 479 13 C479 13 470 13 470 13 C470 13 470 0 470 0 C470 0 531 0 531 0 C531 0 555 0 555 0 C555 0 580 0 580 0 C580 0 640 0 640 0 C640 0 640 13 640 13 C640 13 631 13 631 13 C604 13 581 48 580 91 C580 91 580 96 580 96 C580 96 580 457 580 457 C580 457 580 462 580 462 C581 505 604 541 631 541 C631 541 640 541 640 541 C640 541 640 553 640 553 L640 553 Z " />
<glyph glyph-name="LETTERSMALLCAPITALL" unicode="&#x29f;" horiz-adv-x="501" d="M212 553 C189 554 149 554 127 553 C104 554 65 554 42 553 C42 553 42 541 42 541 C42 541 51 541 51 541 C78 541 102 502 102 457 C102 457 102 96 102 96 C102 51 78 13 51 13 C51 13 42 13 42 13 C42 13 42 0 42 0 C42 0 102 0 102 0 C102 0 127 0 127 0 C127 0 151 0 151 0 C151 0 307 0 307 0 C307 0 401 0 401 0 C401 0 403 0 403 0 C403 2 404 4 404 6 C410 39 419 94 425 127 C425 127 424 128 422 128 C416 131 410 133 410 133 C410 133 402 115 402 115 C379 60 309 12 250 12 C250 12 151 12 151 12 C151 12 151 457 151 457 C151 502 175 541 202 541 C202 541 212 541 212 541 C212 541 212 553 212 553 L212 553 Z " />
<glyph glyph-name="LETTERSMALLCAPITALA" unicode="&#x1d00;" horiz-adv-x="541" d="M535 13 C535 13 527 13 527 13 C503 13 467 51 450 96 C450 96 450 96 450 96 C450 96 271 566 271 566 C271 566 258 566 258 566 C258 566 94 96 94 96 C94 96 94 96 94 96 C78 51 41 13 14 13 C14 13 5 13 5 13 C5 13 5 0 5 0 C5 0 61 0 61 0 C61 0 69 0 69 0 C69 0 77 0 77 0 C77 0 166 0 166 0 C166 0 166 13 166 13 C166 13 153 13 153 13 C115 13 98 56 114 108 C114 108 143 193 143 193 C143 193 362 193 362 193 C362 193 398 96 398 96 C398 96 398 96 398 96 C415 51 398 13 361 13 C361 13 349 13 349 13 C349 13 349 0 349 0 C349 0 434 0 434 0 C434 0 460 0 460 0 C460 0 486 0 486 0 C486 0 535 0 535 0 C535 0 535 13 535 13 L535 13 Z M358 205 C358 205 147 205 147 205 C147 205 248 500 248 500 C248 500 358 205 358 205 L358 205 Z " />
<glyph glyph-name="LETTERSMALLCAPITALC" unicode="&#x1d04;" horiz-adv-x="660" d="M600 386 C600 386 600 498 600 498 C600 498 597 492 597 492 C597 492 597 492 597 492 C597 492 600 498 600 498 C540 530 432 558 366 558 C203 558 64 429 64 277 C64 125 203 -5 366 -5 C442 -5 549 27 601 65 C601 65 601 177 601 177 C601 177 590 177 590 177 C587 168 582 154 579 145 C555 75 466 14 382 7 C376 7 371 7 366 7 C232 7 117 131 117 277 C117 422 232 546 366 546 C378 546 392 545 406 543 C406 543 406 543 406 543 C478 535 557 476 578 416 C581 408 586 394 589 386 C589 386 600 386 600 386 L600 386 Z " />
<glyph glyph-name="LETTERSMALLCAPITALD" unicode="&#x1d05;" horiz-adv-x="612" d="M53 541 C53 541 62 541 62 541 C90 541 113 502 113 457 C113 457 113 96 113 96 C113 51 90 13 62 13 C62 13 53 13 53 13 C53 13 53 0 53 0 C53 0 113 0 113 0 C113 0 138 0 138 0 C138 0 162 0 162 0 C162 0 280 0 280 0 C432 0 562 127 562 277 C562 426 419 553 250 553 C250 553 162 553 162 553 C162 553 138 553 138 553 C115 554 76 554 53 553 C53 553 53 541 53 541 L53 541 Z M162 13 C162 13 162 541 162 541 C162 541 250 541 250 541 C392 541 513 419 513 277 C513 134 406 13 280 13 C280 13 162 13 162 13 L162 13 Z " />
<glyph glyph-name="LETTERSMALLCAPITALE" unicode="&#x1d07;" horiz-adv-x="501" d="M336 212 C336 212 336 281 336 281 C336 281 336 287 336 287 C336 287 336 293 336 293 C336 293 336 354 336 354 C336 354 326 354 326 354 C326 354 323 345 323 345 C314 317 256 293 197 293 C197 293 151 293 151 293 C151 293 151 541 151 541 C151 541 232 541 232 541 C296 541 365 498 382 448 C382 448 388 432 388 432 C388 432 397 432 397 432 C397 432 397 547 397 547 C397 547 397 553 397 553 C397 554 394 554 391 553 C389 554 386 554 384 553 C362 554 324 554 301 553 C301 553 151 553 151 553 C151 553 127 553 127 553 C104 554 65 554 42 553 C42 553 42 541 42 541 C42 541 51 541 51 541 C78 541 102 502 102 457 C102 457 102 96 102 96 C102 51 78 13 51 13 C51 13 42 13 42 13 C42 13 42 0 42 0 C42 0 102 0 102 0 C102 0 127 0 127 0 C127 0 151 0 151 0 C151 0 307 0 307 0 C307 0 401 0 401 0 C401 0 403 0 403 0 C403 2 404 4 404 6 C409 37 419 90 424 121 C424 121 415 121 415 121 C415 121 406 105 406 105 C381 55 304 12 240 12 C240 12 151 12 151 12 C151 12 151 281 151 281 C151 281 197 281 197 281 C256 281 314 254 323 222 C323 222 326 212 326 212 C326 212 336 212 336 212 L336 212 Z " />
<glyph glyph-name="LETTERSMALLCAPITALJ" unicode="&#x1d0a;" horiz-adv-x="291" d="M252 553 C229 554 189 554 167 553 C144 554 105 554 82 553 C82 553 82 541 82 541 C82 541 91 541 91 541 C118 541 142 502 142 457 C142 457 142 168 142 168 C142 59 122 0 85 0 C69 0 49 23 42 50 C39 61 29 70 20 70 C6 70 -3 61 0 50 C8 18 41 -10 72 -10 C149 -10 191 67 191 209 C191 209 191 457 191 457 C191 502 215 541 242 541 C242 541 252 541 252 541 C252 541 252 553 252 553 L252 553 Z " />
<glyph glyph-name="LETTERSMALLCAPITALK" unicode="&#x1d0b;" horiz-adv-x="564" d="M379 541 C379 541 386 541 386 541 C408 541 384 502 335 457 C335 457 335 457 335 457 C335 457 199 332 199 332 C199 332 199 332 199 332 C199 332 162 298 162 298 C162 298 162 457 162 457 C162 502 186 541 214 541 C214 541 223 541 223 541 C223 541 223 553 223 553 C200 554 161 554 138 553 C115 552 76 554 53 553 C53 553 53 541 53 541 C53 541 62 541 62 541 C90 541 113 502 113 457 C113 457 113 96 113 96 C113 51 90 13 62 13 C62 13 53 13 53 13 C53 13 53 0 53 0 C53 0 113 0 113 0 C113 0 138 0 138 0 C138 0 162 0 162 0 C162 0 223 0 223 0 C223 0 223 13 223 13 C223 13 214 13 214 13 C186 13 162 51 162 96 C162 96 162 298 162 298 C162 298 170 288 170 288 C170 288 171 289 171 289 C171 289 278 176 278 176 C389 59 479 -5 535 -5 C535 -5 555 -5 555 -5 C555 -5 555 5 555 5 C555 5 550 5 550 5 C523 5 440 77 314 210 C314 210 208 323 208 323 C208 323 365 470 365 470 C412 509 468 541 493 541 C493 541 502 541 502 541 C502 541 502 553 502 553 C487 554 462 554 447 553 C429 554 397 554 379 553 C379 553 379 541 379 541 L379 541 Z " />
<glyph glyph-name="LETTERSMALLCAPITALM" unicode="&#x1d0d;" horiz-adv-x="727" d="M689 553 C667 554 629 554 607 553 C607 553 603 553 603 553 C603 553 585 553 585 553 C585 553 382 53 382 53 C382 53 380 57 380 57 C380 57 159 553 159 553 C159 553 138 553 138 553 C138 553 130 553 130 553 C112 554 81 554 62 553 C62 553 62 541 62 541 C62 541 71 541 71 541 C97 541 118 507 119 466 C119 466 102 96 102 96 C102 96 102 96 102 96 C101 51 75 13 47 13 C47 13 38 13 38 13 C38 13 38 0 38 0 C38 0 98 0 98 0 C98 0 105 0 105 0 C105 0 113 0 113 0 C113 0 202 0 202 0 C202 0 202 13 202 13 C202 13 188 13 188 13 C149 13 117 56 118 107 C118 107 135 493 135 493 C135 493 347 21 347 21 C347 21 358 -5 358 -5 C358 -5 370 -5 370 -5 C370 -5 587 514 587 514 C587 514 606 87 606 87 C605 46 584 13 559 13 C559 13 550 13 550 13 C550 13 550 0 550 0 C550 0 610 0 610 0 C610 0 635 0 635 0 C635 0 659 0 659 0 C659 0 719 0 719 0 C719 0 719 13 719 13 C719 13 710 13 710 13 C682 13 656 51 654 96 C654 96 654 96 654 96 C654 96 634 463 634 463 C634 506 654 541 680 541 C680 541 689 541 689 541 C689 541 689 553 689 553 L689 553 Z " />
<glyph glyph-name="LETTERSMALLCAPITALO" unicode="&#x1d0f;" horiz-adv-x="699" d="M356 7 C214 7 117 146 117 277 C117 408 214 546 356 546 C499 546 596 408 596 277 C596 146 499 7 356 7 L356 7 Z M64 277 C64 140 183 -5 356 -5 C530 -5 649 140 649 277 C649 413 530 558 356 558 C183 558 64 413 64 277 L64 277 Z " />
<glyph glyph-name="LETTERSMALLCAPITALP" unicode="&#x1d18;" horiz-adv-x="491" d="M53 541 C53 541 62 541 62 541 C90 541 113 502 113 457 C113 457 113 96 113 96 C113 51 90 13 62 13 C62 13 53 13 53 13 C53 13 53 0 53 0 C53 0 113 0 113 0 C113 0 138 0 138 0 C138 0 162 0 162 0 C162 0 223 0 223 0 C223 0 223 13 223 13 C223 13 214 13 214 13 C186 13 162 51 162 96 C162 96 162 243 162 243 C162 243 249 243 249 243 C369 243 472 314 472 397 C472 481 379 553 270 553 C270 553 162 553 162 553 C162 553 138 553 138 553 C115 554 76 554 53 553 C53 553 53 541 53 541 L53 541 Z M162 256 C162 256 162 541 162 541 C162 541 270 541 270 541 C352 541 421 475 421 397 C421 321 342 256 249 256 C249 256 162 256 162 256 L162 256 Z " />
<glyph glyph-name="LETTERSMALLCAPITALT" unicode="&#x1d1b;" horiz-adv-x="560" d="M544 420 C541 455 536 513 533 547 C532 549 532 552 532 553 C532 554 529 554 526 553 C524 554 521 554 519 553 C497 554 459 554 436 553 C436 553 124 553 124 553 C101 554 63 554 41 553 C39 554 36 554 34 553 C31 554 28 554 28 553 C28 552 28 549 27 547 C24 513 19 455 16 420 C16 420 26 420 26 420 C26 420 36 443 36 443 C58 496 122 541 176 541 C176 541 256 541 256 541 C256 541 256 96 256 96 C256 51 232 13 204 13 C204 13 195 13 195 13 C195 13 195 0 195 0 C195 0 256 0 256 0 C256 0 280 0 280 0 C280 0 304 0 304 0 C304 0 365 0 365 0 C365 0 365 13 365 13 C365 13 356 13 356 13 C328 13 304 51 304 96 C304 96 304 541 304 541 C304 541 384 541 384 541 C438 541 502 496 524 443 C524 443 534 420 534 420 C534 420 544 420 544 420 L544 420 Z " />
<glyph glyph-name="LETTERSMALLCAPITALU" unicode="&#x1d1c;" horiz-adv-x="597" d="M578 553 C557 554 522 554 502 553 C480 554 443 554 421 553 C421 553 421 541 421 541 C421 541 432 541 432 541 C466 541 494 498 494 447 C494 447 494 152 494 152 C494 76 432 12 318 12 C210 12 152 81 152 163 C152 163 152 457 152 457 C152 502 176 541 204 541 C204 541 213 541 213 541 C213 541 213 553 213 553 C190 554 151 554 128 553 C105 552 66 554 43 553 C43 553 43 541 43 541 C43 541 52 541 52 541 C80 541 103 502 103 457 C103 457 103 172 103 172 C103 76 176 -5 310 -5 C439 -5 509 65 509 147 C509 147 509 447 509 447 C509 498 536 541 568 541 C568 541 578 541 578 541 C578 541 578 553 578 553 L578 553 Z " />
<glyph glyph-name="LETTERSMALLCAPITALV" unicode="&#x1d20;" horiz-adv-x="542" d="M542 553 C524 554 495 554 478 553 C450 554 401 554 373 553 C373 553 373 541 373 541 C373 541 387 541 387 541 C430 541 450 488 430 427 C430 427 430 427 430 427 C430 427 310 48 310 48 C310 48 146 467 146 467 C134 508 150 541 182 541 C182 541 193 541 193 541 C193 541 193 553 193 553 C165 554 115 554 86 553 C67 554 35 554 16 553 C16 553 16 541 16 541 C16 541 23 541 23 541 C45 541 80 502 98 457 C98 457 98 457 98 457 C98 457 290 -15 290 -15 C290 -15 302 -15 302 -15 C302 -15 455 460 455 460 C471 504 506 541 533 541 C533 541 542 541 542 541 C542 541 542 553 542 553 L542 553 Z " />
<glyph glyph-name="LETTERSMALLCAPITALW" unicode="&#x1d21;" horiz-adv-x="773" d="M769 553 C752 554 722 554 704 553 C679 554 637 554 612 553 C612 553 612 541 612 541 C612 541 624 541 624 541 C660 541 681 506 672 464 C672 464 536 -15 536 -15 C536 -15 549 -15 549 -15 C549 -15 687 467 687 467 C702 508 734 541 760 541 C760 541 769 541 769 541 C769 541 769 553 769 553 L769 553 Z M172 553 C145 554 99 554 72 553 C53 554 21 554 1 553 C1 553 1 541 1 541 C1 541 8 541 8 541 C31 541 62 502 77 457 C77 457 77 457 77 457 C77 457 230 -15 230 -15 C230 -15 243 -15 243 -15 C243 -15 379 486 379 486 C379 486 536 -15 536 -15 C536 -15 556 57 556 57 C556 57 400 563 400 563 C400 563 388 563 388 563 C388 563 249 54 249 54 C249 54 128 457 128 457 C128 457 128 457 128 457 C114 502 130 541 161 541 C161 541 172 541 172 541 C172 541 172 553 172 553 L172 553 Z " />
<glyph glyph-name="LETTERSMALLCAPITALZ" unicode="&#x1d22;" horiz-adv-x="527" d="M458 6 C464 39 474 95 480 128 C480 128 478 129 477 129 C470 132 465 134 465 134 C465 134 457 116 457 116 C433 61 366 14 309 13 C309 13 305 13 305 13 C305 13 117 13 117 13 C117 13 469 553 469 553 C469 553 442 553 442 553 C442 553 414 553 414 553 C414 553 219 553 219 553 C196 554 158 554 135 553 C133 554 130 554 129 553 C125 554 123 554 122 553 C122 552 121 549 121 547 C114 520 101 472 93 444 C93 444 103 444 103 444 C103 444 113 459 113 459 C144 503 215 541 268 541 C268 541 406 541 406 541 C406 541 54 0 54 0 C54 0 82 0 82 0 C82 0 109 0 109 0 C109 0 361 0 361 0 C361 0 455 0 455 0 C455 0 457 0 457 0 C457 2 458 5 458 6 L458 6 Z " />
<glyph glyph-name="Wgrave" unicode="&#x1e80;" horiz-adv-x="900" d="M737 647 C737 647 749 647 749 647 C784 647 805 612 796 570 C796 570 630 -15 630 -15 C630 -15 644 -15 644 -15 C644 -15 814 572 814 572 C828 614 861 647 887 647 C887 647 896 647 896 647 C895 647 895 650 896 654 C895 657 895 660 896 660 C896 660 839 660 839 660 C839 660 830 660 830 660 C830 660 822 660 822 660 C822 660 737 660 737 660 C737 660 737 647 737 647 L737 647 Z M178 660 C178 660 105 660 105 660 C105 660 75 660 75 660 C75 660 46 660 46 660 C46 660 1 660 1 660 C1 660 1 647 1 647 C1 647 8 647 8 647 C29 647 60 612 75 569 C75 569 263 -15 263 -15 C263 -15 277 -15 277 -15 C277 -15 466 670 466 670 C466 670 453 670 453 670 C453 670 263 -15 263 -15 C263 -15 286 68 286 68 C286 68 132 571 132 571 C123 613 138 647 167 647 C167 647 178 647 178 647 C178 647 178 660 178 660 L178 660 Z M446 840 C427 870 409 895 406 895 C398 895 377 880 377 875 C377 870 397 846 420 820 C420 820 533 691 533 691 C533 691 539 695 539 695 C539 695 446 840 446 840 L446 840 Z M630 -15 C630 -15 655 73 655 73 C655 73 466 670 466 670 C466 670 441 577 441 577 C441 577 630 -15 630 -15 L630 -15 Z " />
<glyph glyph-name="Wacute" unicode="&#x1e82;" horiz-adv-x="900" d="M397 691 C397 691 507 820 507 820 C530 847 549 872 549 875 C549 880 528 895 520 895 C518 895 501 870 482 840 C482 840 392 695 392 695 C392 695 397 691 397 691 L397 691 Z M737 647 C737 647 749 647 749 647 C784 647 805 612 796 570 C796 570 630 -15 630 -15 C630 -15 644 -15 644 -15 C644 -15 814 572 814 572 C828 614 861 647 887 647 C887 647 896 647 896 647 C895 647 895 650 896 654 C895 657 895 660 896 660 C896 660 839 660 839 660 C839 660 830 660 830 660 C830 660 822 660 822 660 C822 660 737 660 737 660 C737 660 737 647 737 647 L737 647 Z M178 660 C178 660 105 660 105 660 C105 660 75 660 75 660 C75 660 46 660 46 660 C46 660 1 660 1 660 C1 660 1 647 1 647 C1 647 8 647 8 647 C29 647 60 612 75 569 C75 569 263 -15 263 -15 C263 -15 277 -15 277 -15 C277 -15 466 670 466 670 C466 670 453 670 453 670 C453 670 263 -15 263 -15 C263 -15 286 68 286 68 C286 68 132 571 132 571 C123 613 138 647 167 647 C167 647 178 647 178 647 C178 647 178 660 178 660 L178 660 Z M630 -15 C630 -15 655 73 655 73 C655 73 466 670 466 670 C466 670 441 577 441 577 C441 577 630 -15 630 -15 L630 -15 Z " />
<glyph glyph-name="Wdieresis" unicode="&#x1e84;" horiz-adv-x="900" d="M548 730 C565 730 579 744 579 761 C579 777 565 791 548 791 C532 791 518 777 518 761 C518 744 532 730 548 730 L548 730 Z M371 730 C387 730 401 744 401 761 C401 777 387 791 371 791 C354 791 340 777 340 761 C340 744 354 730 371 730 L371 730 Z M737 647 C737 647 749 647 749 647 C784 647 805 612 796 570 C796 570 630 -15 630 -15 C630 -15 644 -15 644 -15 C644 -15 814 572 814 572 C828 614 861 647 887 647 C887 647 896 647 896 647 C895 647 895 650 896 654 C895 657 895 660 896 660 C896 660 839 660 839 660 C839 660 830 660 830 660 C830 660 822 660 822 660 C822 660 737 660 737 660 C737 660 737 647 737 647 L737 647 Z M178 660 C178 660 105 660 105 660 C105 660 75 660 75 660 C75 660 46 660 46 660 C46 660 1 660 1 660 C1 660 1 647 1 647 C1 647 8 647 8 647 C29 647 60 612 75 569 C75 569 263 -15 263 -15 C263 -15 277 -15 277 -15 C277 -15 466 670 466 670 C466 670 453 670 453 670 C453 670 263 -15 263 -15 C263 -15 286 68 286 68 C286 68 132 571 132 571 C123 613 138 647 167 647 C167 647 178 647 178 647 C178 647 178 660 178 660 L178 660 Z M630 -15 C630 -15 655 73 655 73 C655 73 466 670 466 670 C466 670 441 577 441 577 C441 577 630 -15 630 -15 L630 -15 Z " />
<glyph glyph-name="CapitalLetterEWITHTI" unicode="&#x1ebc;" horiz-adv-x="550" d="M129 755 C129 791 150 822 174 822 C228 822 299 759 354 759 C390 759 421 802 421 852 C421 852 412 852 412 852 C412 820 390 792 365 792 C310 792 239 855 185 855 C150 855 120 809 120 755 C120 755 129 755 129 755 L129 755 Z M385 267 C385 267 385 336 385 336 C385 336 385 342 385 342 C385 342 385 349 385 349 C385 349 385 410 385 410 C385 410 375 410 375 410 C375 410 372 401 372 401 C363 373 306 349 246 349 C246 349 155 349 155 349 C155 349 155 647 155 647 C155 647 282 647 282 647 C346 647 415 604 432 554 C432 554 437 537 437 537 C437 537 447 537 447 537 C447 537 447 653 447 653 C447 653 447 660 447 660 C447 660 440 660 440 660 C440 660 350 660 350 660 C350 660 155 660 155 660 C155 660 128 660 128 660 C128 660 101 660 101 660 C101 660 40 660 40 660 C40 660 40 647 40 647 C40 647 49 647 49 647 C77 647 101 609 101 564 C101 564 101 96 101 96 C101 51 77 13 49 13 C49 13 40 13 40 13 C40 13 40 0 40 0 C40 0 101 0 101 0 C101 0 128 0 128 0 C128 0 155 0 155 0 C155 0 356 0 356 0 C356 0 450 0 450 0 C450 0 452 0 452 0 C452 2 453 5 453 7 C459 38 468 91 474 123 C474 123 464 123 464 123 C464 123 456 106 456 106 C430 56 354 14 290 13 C290 13 155 13 155 13 C155 13 155 336 155 336 C155 336 246 336 246 336 C306 336 363 309 372 277 C372 277 375 267 375 267 C375 267 385 267 385 267 L385 267 Z " />
<glyph glyph-name="Ygrave" unicode="&#x1ef2;" horiz-adv-x="581" d="M386 13 C386 13 377 13 377 13 C349 13 325 51 325 96 C325 96 325 282 325 282 C325 282 488 573 488 573 C514 614 552 647 574 647 C574 647 582 647 582 647 C581 647 581 650 582 654 C581 657 581 660 582 660 C582 660 536 660 536 660 C536 660 528 660 528 660 C528 660 519 660 519 660 C519 660 431 660 431 660 C431 660 431 647 431 647 C431 647 443 647 443 647 C481 647 486 600 455 544 C455 544 455 544 455 544 C455 544 317 293 317 293 C317 293 172 570 172 570 C153 612 159 647 188 647 C188 647 198 647 198 647 C198 647 198 660 198 660 C198 660 125 660 125 660 C125 660 93 660 93 660 C93 660 60 660 60 660 C60 660 22 660 22 660 C22 660 22 647 22 647 C22 647 29 647 29 647 C48 647 83 613 107 571 C107 571 271 261 271 261 C271 261 271 96 271 96 C271 51 247 13 220 13 C220 13 211 13 211 13 C211 13 211 0 211 0 C211 0 271 0 271 0 C271 0 298 0 298 0 C298 0 325 0 325 0 C325 0 386 0 386 0 C386 0 386 13 386 13 L386 13 Z M284 840 C265 870 247 895 244 895 C237 895 216 880 216 875 C216 870 236 846 259 820 C259 820 372 691 372 691 C372 691 377 695 377 695 C377 695 284 840 284 840 L284 840 Z " />
<glyph glyph-name="quoteleft" unicode="&#x2018;" horiz-adv-x="188" d="M96 574 C94 574 92 574 91 574 C86 579 83 582 83 583 C83 614 101 649 122 659 C122 659 119 667 119 667 C83 650 53 600 54 558 C54 557 56 554 62 548 C61 545 60 541 60 538 C60 518 77 502 96 502 C116 502 132 518 132 538 C132 557 116 574 96 574 L96 574 Z " />
<glyph glyph-name="quoteright" unicode="&#x2019;" horiz-adv-x="188" d="M96 593 C98 593 99 593 101 593 C106 588 109 584 109 583 C109 552 91 517 70 507 C70 507 74 500 74 500 C109 517 139 567 139 608 C139 609 136 613 130 619 C131 622 132 626 132 629 C132 648 115 665 96 665 C77 665 60 648 60 629 C60 610 77 593 96 593 L96 593 Z " />
<glyph glyph-name="quotedblleft" unicode="&#x201c;" horiz-adv-x="294" d="M96 574 C94 574 92 574 91 574 C86 579 83 582 83 583 C83 614 101 649 122 659 C122 659 119 667 119 667 C83 650 53 600 54 558 C54 557 56 554 62 548 C61 545 60 541 60 538 C60 518 77 502 96 502 C116 502 132 518 132 538 C132 557 116 574 96 574 L96 574 Z M181 567 C172 560 166 549 166 538 C166 518 183 502 202 502 C218 502 232 512 237 527 C244 521 250 514 257 507 C257 507 285 535 285 535 C234 588 190 610 190 583 C190 614 208 649 229 659 C229 659 225 667 225 667 C190 650 160 600 160 558 C160 569 168 572 181 567 C181 567 181 567 181 567 L181 567 Z " />
<glyph glyph-name="quotedblright" unicode="&#x201d;" horiz-adv-x="294" d="M96 593 C98 593 99 593 101 593 C106 588 109 584 109 583 C109 552 91 517 70 507 C70 507 74 500 74 500 C109 517 139 567 139 608 C139 609 136 613 130 619 C131 620 131 620 131 621 C177 576 215 559 215 583 C215 552 197 517 176 507 C176 507 180 500 180 500 C215 517 245 567 245 608 C245 597 237 595 223 600 C233 607 239 618 239 629 C239 648 222 665 202 665 C187 665 173 654 168 640 C161 646 155 652 148 659 C148 659 130 641 130 641 C124 655 111 665 96 665 C77 665 60 648 60 629 C60 610 77 593 96 593 C96 593 96 593 96 593 L96 593 Z " />
<glyph glyph-name="ellipsis" unicode="&#x2026;" horiz-adv-x="450" d="M375 0 C394 0 411 17 411 36 C411 55 394 72 375 72 C356 72 339 55 339 36 C339 17 356 0 375 0 L375 0 Z M225 0 C244 0 261 17 261 36 C261 55 244 72 225 72 C206 72 189 55 189 36 C189 17 206 0 225 0 L225 0 Z M75 0 C94 0 111 17 111 36 C111 55 94 72 75 72 C56 72 39 55 39 36 C39 17 56 0 75 0 L75 0 Z " />
<glyph glyph-name="guilsinglleft" unicode="&#x2039;" horiz-adv-x="292" d="M73 251 C73 251 246 459 246 459 C246 459 241 464 241 464 C241 464 20 253 20 253 C20 253 20 248 20 248 C20 248 242 37 242 37 C242 37 247 42 247 42 C247 42 73 251 73 251 L73 251 Z " />
<glyph glyph-name="guilsinglright" unicode="&#x203a;" horiz-adv-x="292" d="M219 251 C219 251 46 459 46 459 C46 459 52 464 52 464 C52 464 272 253 272 253 C272 253 272 248 272 248 C272 248 50 37 50 37 C50 37 45 42 45 42 C45 42 219 251 219 251 L219 251 Z " />
</font>
</svg>
