<?xml version="1.0" encoding="UTF-8"?>
<svg xmlns="http://www.w3.org/2000/svg" xmlns:xlink="http://www.w3.org/1999/xlink" version="1.2" >
<font id="Zimra Regular">
<font-face  font-family="Zimra" units-per-em="1024" ascent="936" descent="-280" font-style="normal" font-weight="400" font-stretch="normal" cap-height="660" x-height="500" underline-position="0" underline-thickness="0" />
<missing-glyph  horiz-adv-x="472" d="M0 700 C0 700 432 700 432 700 C432 700 432 0 432 0 C432 0 0 0 0 0 C0 0 0 700 0 700 L0 700 Z M50 50 C50 50 382 50 382 50 C382 50 382 650 382 650 C382 650 50 650 50 650 C50 650 50 50 50 50 L50 50 Z " />
<glyph glyph-name="NULL" d="" />
<glyph glyph-name="CR" unicode="&#xd;" horiz-adv-x="256" d="" />
<glyph glyph-name="space" unicode="&#x20;" horiz-adv-x="250" d="" />
<glyph glyph-name="exclam" unicode="&#x21;" horiz-adv-x="234" d="M125 -5 C160 -5 190 25 190 60 C190 95 160 125 125 125 C90 125 60 95 60 60 C60 25 90 -5 125 -5 L125 -5 Z M174 600 C178 635 152 665 119 665 C84 665 59 635 64 600 C64 600 119 200 119 200 C119 200 131 200 131 200 C131 200 174 600 174 600 L174 600 Z " />
<glyph glyph-name="quotedbl" unicode="&#x22;" horiz-adv-x="339" d="M185 660 C185 660 235 400 235 400 C235 400 250 400 250 400 C250 400 300 660 300 660 C300 660 185 660 185 660 L185 660 Z M40 660 C40 660 90 400 90 400 C90 400 105 400 105 400 C105 400 155 660 155 660 C155 660 40 660 40 660 L40 660 Z " />
<glyph glyph-name="numbersign" unicode="&#x23;" horiz-adv-x="546" d="M390 665 C390 665 365 495 365 495 C365 495 229 495 229 495 C229 495 254 665 254 665 C254 665 219 665 219 665 C219 665 194 495 194 495 C194 495 68 495 68 495 C68 495 59 425 59 425 C59 425 183 425 183 425 C183 425 155 235 155 235 C155 235 27 235 27 235 C27 235 17 165 17 165 C17 165 145 165 145 165 C145 165 120 0 120 0 C120 0 155 0 155 0 C155 0 180 165 180 165 C180 165 316 165 316 165 C316 165 291 0 291 0 C291 0 326 0 326 0 C326 0 351 165 351 165 C351 165 470 165 470 165 C470 165 479 235 479 235 C479 235 361 235 361 235 C361 235 389 425 389 425 C389 425 517 425 517 425 C517 425 526 495 526 495 C526 495 400 495 400 495 C400 495 425 665 425 665 C425 665 390 665 390 665 L390 665 Z M218 425 C218 425 354 425 354 425 C354 425 326 235 326 235 C326 235 190 235 190 235 C190 235 218 425 218 425 L218 425 Z " />
<glyph glyph-name="dollar" unicode="&#x24;" horiz-adv-x="509" d="M273 735 C273 735 273 664 273 664 C266 665 258 665 252 665 C242 665 233 664 223 663 C223 663 223 735 223 735 C223 735 193 735 193 735 C193 735 193 657 193 657 C108 632 44 556 44 469 C44 407 111 333 193 299 C193 299 193 28 193 28 C136 48 81 97 62 149 C59 157 54 171 51 179 C51 179 40 179 40 179 C40 179 40 51 40 51 C40 51 50 65 50 65 C50 65 50 65 50 65 C50 65 40 51 40 51 C70 29 133 9 193 0 C193 0 193 -75 193 -75 C193 -75 223 -75 223 -75 C223 -75 223 -4 223 -4 C234 -5 244 -5 254 -5 C260 -5 267 -5 273 -4 C273 -4 273 -75 273 -75 C273 -75 303 -75 303 -75 C303 -75 303 0 303 0 C394 20 464 95 464 180 C464 248 392 330 303 363 C303 363 303 630 303 630 C343 612 384 570 398 529 C402 518 409 499 413 488 C413 488 424 488 424 488 C424 488 424 619 424 619 C393 636 345 652 303 660 C303 660 303 735 303 735 C303 735 273 735 273 735 L273 735 Z M223 395 C223 395 223 639 223 639 C231 640 239 641 248 641 C255 641 263 640 273 638 C273 638 273 373 273 373 C256 380 239 387 223 395 L223 395 Z M193 412 C144 442 111 479 111 508 C111 561 145 608 193 629 C193 629 193 412 193 412 L193 412 Z M223 289 C240 283 257 276 273 268 C273 268 273 20 273 20 C267 19 260 19 254 19 C244 19 234 20 223 21 C223 21 223 289 223 289 L223 289 Z M303 251 C358 217 395 174 395 140 C395 90 356 45 303 27 C303 27 303 251 303 251 L303 251 Z " />
<glyph glyph-name="ampersand" unicode="&#x26;" horiz-adv-x="720" d="M636 380 C636 380 462 380 462 380 C462 380 462 367 462 367 C462 367 474 367 474 367 C507 367 535 343 535 270 C535 270 535 240 535 240 C535 202 523 166 501 135 C472 163 440 199 405 241 C365 288 328 338 298 385 C389 414 460 484 460 550 C460 612 391 665 310 665 C229 665 160 589 160 500 C160 468 180 420 212 365 C122 322 50 234 50 158 C50 70 145 -5 256 -5 C336 -5 410 23 464 67 C561 -3 645 -13 720 0 C720 0 720 15 720 15 C676 7 614 27 515 121 C541 156 555 197 555 240 C555 240 555 270 555 270 C555 343 587 367 624 367 C624 367 636 367 636 367 C636 367 636 380 636 380 L636 380 Z M289 399 C252 458 229 509 229 540 C229 597 264 646 304 646 C351 646 391 599 391 545 C391 486 347 427 289 399 L289 399 Z M447 80 C408 52 359 35 306 35 C213 35 135 107 135 193 C135 252 172 316 222 348 C254 296 296 239 340 186 C377 142 413 107 447 80 C447 80 447 80 447 80 L447 80 Z " />
<glyph glyph-name="quotesingle" unicode="&#x27;" horiz-adv-x="194" d="M40 660 C40 660 90 400 90 400 C90 400 105 400 105 400 C105 400 155 660 155 660 C155 660 40 660 40 660 L40 660 Z " />
<glyph glyph-name="parenleft" unicode="&#x28;" horiz-adv-x="250" d="M230 690 C138 580 60 422 60 270 C60 118 138 -40 230 -150 C230 -150 241 -140 241 -140 C181 -68 130 75 130 270 C130 465 181 608 241 680 C241 680 230 690 230 690 L230 690 Z " />
<glyph glyph-name="parenright" unicode="&#x29;" horiz-adv-x="250" d="M10 -150 C102 -40 180 118 180 270 C180 422 102 580 10 690 C10 690 -1 680 -1 680 C58 608 110 465 110 270 C110 75 58 -68 -1 -140 C-1 -140 10 -150 10 -150 L10 -150 Z " />
<glyph glyph-name="asterisk" unicode="&#x2a;" horiz-adv-x="300" d="M143 540 C143 540 32 504 32 504 C14 498 6 479 16 462 C25 446 45 443 60 456 C60 456 147 534 147 534 C147 534 123 420 123 420 C118 401 131 385 150 385 C169 385 182 401 178 420 C178 420 154 533 154 533 C154 533 240 456 240 456 C255 443 275 446 284 462 C294 479 286 498 268 504 C268 504 157 540 157 540 C157 540 268 576 268 576 C286 582 294 601 284 617 C275 634 255 637 240 624 C240 624 154 547 154 547 C154 547 178 660 178 660 C182 679 169 695 150 695 C131 695 118 679 123 660 C123 660 147 546 147 546 C147 546 60 624 60 624 C45 637 25 634 16 617 C6 601 14 582 32 576 C32 576 143 540 143 540 L143 540 Z " />
<glyph glyph-name="plus" unicode="&#x2b;" horiz-adv-x="555" d="M253 450 C253 450 253 270 253 270 C253 270 75 270 75 270 C75 270 75 230 75 230 C75 230 253 230 253 230 C253 230 253 50 253 50 C253 50 297 50 297 50 C297 50 297 230 297 230 C297 230 475 230 475 230 C475 230 475 270 475 270 C475 270 297 270 297 270 C297 270 297 450 297 450 C297 450 253 450 253 450 L253 450 Z " />
<glyph glyph-name="comma" unicode="&#x2c;" horiz-adv-x="251" d="M125 -5 C133 -5 140 -4 147 -1 C148 -6 148 -11 148 -15 C148 -61 116 -117 78 -135 C78 -135 84 -148 84 -148 C147 -117 201 -35 201 30 C201 47 194 70 183 88 C173 109 150 125 125 125 C90 125 60 95 60 60 C60 25 90 -5 125 -5 L125 -5 Z " />
<glyph glyph-name="hyphen" unicode="&#x2d;" horiz-adv-x="280" d="M20 194 C20 194 260 194 260 194 C260 194 260 264 260 264 C260 264 20 264 20 264 C20 264 20 194 20 194 L20 194 Z " />
<glyph glyph-name="period" unicode="&#x2e;" horiz-adv-x="250" d="M125 -5 C160 -5 190 25 190 60 C190 95 160 125 125 125 C90 125 60 95 60 60 C60 25 90 -5 125 -5 L125 -5 Z " />
<glyph glyph-name="slash" unicode="&#x2f;" horiz-adv-x="350" d="M0 -145 C0 -145 40 -145 40 -145 C40 -145 350 710 350 710 C350 710 310 710 310 710 C310 710 0 -145 0 -145 L0 -145 Z " />
<glyph glyph-name="zero" unicode="0" horiz-adv-x="610" d="M305 15 C221 15 150 123 150 250 C150 377 221 485 305 485 C389 485 460 377 460 250 C460 123 389 15 305 15 L305 15 Z M50 250 C50 112 167 -5 305 -5 C443 -5 560 112 560 250 C560 388 443 505 305 505 C167 505 50 388 50 250 L50 250 Z " />
<glyph glyph-name="one" unicode="1" horiz-adv-x="321" d="M266 500 C266 500 206 500 206 500 C206 500 161 500 161 500 C161 500 116 500 116 500 C116 500 55 500 55 500 C55 500 55 487 55 487 C55 487 64 487 64 487 C92 487 116 449 116 404 C116 404 116 96 116 96 C116 51 92 13 64 13 C64 13 55 13 55 13 C55 13 55 0 55 0 C55 0 116 0 116 0 C116 0 161 0 161 0 C161 0 206 0 206 0 C206 0 266 0 266 0 C266 0 266 13 266 13 C266 13 257 13 257 13 C230 13 207 48 206 91 C206 91 206 96 206 96 C206 96 206 404 206 404 C206 404 206 409 206 409 C207 452 230 487 257 487 C257 487 266 487 266 487 C266 487 266 500 266 500 L266 500 Z " />
<glyph glyph-name="two" unicode="2" horiz-adv-x="484" d="M446 151 C446 151 445 142 445 142 C442 114 402 90 357 90 C357 90 165 90 165 90 C320 191 435 273 435 353 C435 435 360 505 271 505 C194 505 102 438 70 359 C70 359 81 352 81 352 C100 399 167 439 226 439 C285 439 335 385 335 322 C335 202 192 129 25 20 C25 20 25 0 25 0 C25 0 445 0 445 0 C445 0 449 45 449 45 C452 74 456 122 458 151 C458 151 446 151 446 151 L446 151 Z " />
<glyph glyph-name="three" unicode="3" horiz-adv-x="465" d="M24 -215 C235 -204 415 -86 415 41 C415 121 336 191 235 207 C320 256 380 320 380 370 C380 443 312 505 232 505 C158 505 56 446 9 377 C9 377 20 370 20 370 C45 407 122 439 186 439 C242 439 289 394 289 341 C289 298 251 248 196 210 C195 210 195 210 194 210 C195 210 195 210 196 210 C180 199 162 189 144 180 C132 175 119 170 104 165 C104 165 104 150 104 150 C107 151 110 152 113 153 C131 158 156 162 173 162 C252 162 320 104 320 36 C320 -83 184 -191 24 -200 C24 -200 24 -215 24 -215 L24 -215 Z " />
<glyph glyph-name="four" unicode="4" horiz-adv-x="490" d="M60 40 C60 40 280 351 280 351 C280 351 280 40 280 40 C280 40 60 40 60 40 L60 40 Z M280 0 C280 0 280 -150 280 -150 C280 -150 370 -150 370 -150 C370 -150 370 0 370 0 C370 0 480 0 480 0 C480 0 480 40 480 40 C480 40 370 40 370 40 C370 40 370 478 370 478 C370 478 370 505 370 505 C370 505 355 505 355 505 C355 505 10 15 10 15 C10 15 10 0 10 0 C10 0 29 0 29 0 C29 0 32 0 32 0 C32 0 280 0 280 0 L280 0 Z " />
<glyph glyph-name="five" unicode="5" horiz-adv-x="450" d="M391 500 C391 500 391 500 391 500 C398 522 405 545 410 561 C410 561 398 561 398 561 C398 561 395 552 395 552 C386 524 340 500 294 500 C294 500 112 500 112 500 C112 500 85 500 85 500 C85 500 65 191 65 191 C65 191 88 191 88 191 C88 191 117 191 117 191 C221 191 310 126 310 50 C310 -61 181 -160 30 -165 C30 -165 31 -182 31 -182 C231 -175 401 -55 401 80 C401 188 291 280 162 280 C162 280 95 280 95 280 C95 280 88 191 88 191 C88 191 112 500 112 500 C112 500 105 405 105 405 C105 405 360 405 360 405 C360 405 391 500 391 500 L391 500 Z " />
<glyph glyph-name="six" unicode="6" horiz-adv-x="569" d="M496 715 C260 707 60 514 60 295 C60 133 166 -5 291 -5 C420 -5 526 97 520 216 C520 332 428 430 319 430 C255 430 196 381 165 312 C165 317 165 322 165 326 C165 521 317 694 496 700 C496 700 496 715 496 715 L496 715 Z M162 210 C165 315 230 405 304 405 C369 405 425 316 425 211 C430 108 373 20 301 20 C226 20 162 107 162 210 L162 210 Z " />
<glyph glyph-name="seven" unicode="7" horiz-adv-x="441" d="M29 347 C29 347 30 356 30 356 C33 384 73 408 118 408 C118 408 389 408 389 408 C389 408 120 -140 120 -140 C120 -140 220 -140 220 -140 C291 70 361 281 432 491 C432 491 425 500 425 500 C425 500 30 500 30 500 C30 500 26 454 26 454 C23 425 19 376 17 347 C17 347 29 347 29 347 L29 347 Z " />
<glyph glyph-name="eight" unicode="8" horiz-adv-x="539" d="M324 360 C310 367 296 373 282 378 C214 402 157 471 157 526 C157 591 207 646 265 646 C329 646 383 581 383 504 C383 443 358 385 324 360 C324 360 324 360 324 360 L324 360 Z M336 354 C405 383 457 451 457 519 C457 598 371 665 270 665 C169 665 82 585 82 491 C82 434 127 367 189 323 C113 307 55 239 55 161 C55 71 155 -5 272 -5 C390 -5 490 79 490 178 C490 234 423 307 336 354 C336 354 336 354 336 354 L336 354 Z M199 316 C216 306 232 297 250 291 C334 260 405 194 405 147 C405 75 346 14 277 14 C203 14 140 89 140 176 C140 240 165 296 199 316 C199 316 199 316 199 316 L199 316 Z " />
<glyph glyph-name="nine" unicode="9" horiz-adv-x="569" d="M74 -215 C309 -207 510 -14 510 205 C510 367 404 505 279 505 C149 505 44 403 50 284 C50 168 142 70 251 70 C315 70 374 119 405 188 C405 183 405 178 405 174 C405 -21 252 -194 73 -200 C73 -200 74 -215 74 -215 L74 -215 Z M408 290 C405 185 340 95 266 95 C200 95 145 184 145 289 C139 392 196 480 269 480 C344 480 408 393 408 290 L408 290 Z " />
<glyph glyph-name="colon" unicode="&#x3a;" horiz-adv-x="250" d="M125 395 C160 395 190 425 190 460 C190 495 160 525 125 525 C90 525 60 495 60 460 C60 425 90 395 125 395 L125 395 Z M125 -5 C160 -5 190 25 190 60 C190 95 160 125 125 125 C90 125 60 95 60 60 C60 25 90 -5 125 -5 L125 -5 Z " />
<glyph glyph-name="semicolon" unicode="&#x3b;" horiz-adv-x="251" d="M125 395 C160 395 190 425 190 460 C190 495 160 525 125 525 C90 525 60 495 60 460 C60 425 90 395 125 395 L125 395 Z M125 -5 C133 -5 140 -4 147 -1 C148 -6 148 -11 148 -15 C148 -61 116 -117 78 -135 C78 -135 84 -148 84 -148 C147 -117 201 -35 201 30 C201 47 194 70 183 88 C173 109 150 125 125 125 C90 125 60 95 60 60 C60 25 90 -5 125 -5 L125 -5 Z " />
<glyph glyph-name="less" unicode="&#x3c;" horiz-adv-x="540" d="M465 500 C465 500 50 301 50 301 C50 301 40 297 40 297 C40 297 40 253 40 253 C40 253 50 249 50 249 C50 249 465 50 465 50 C465 50 465 95 465 95 C465 95 80 275 80 275 C80 275 465 455 465 455 C465 455 465 500 465 500 L465 500 Z " />
<glyph glyph-name="equal" unicode="&#x3d;" horiz-adv-x="534" d="M84 220 C84 220 84 180 84 180 C84 180 464 180 464 180 C464 180 464 220 464 220 C464 220 84 220 84 220 L84 220 Z M84 320 C84 320 84 280 84 280 C84 280 464 280 464 280 C464 280 464 320 464 320 C464 320 84 320 84 320 L84 320 Z " />
<glyph glyph-name="greater" unicode="&#x3e;" horiz-adv-x="530" d="M451 275 C451 275 75 95 75 95 C75 95 75 50 75 50 C75 50 480 249 480 249 C480 249 490 254 490 254 C490 254 490 296 490 296 C490 296 480 301 480 301 C480 301 75 500 75 500 C75 500 75 455 75 455 C75 455 451 275 451 275 L451 275 Z " />
<glyph glyph-name="question" unicode="&#x3f;" horiz-adv-x="370" d="M140 -5 C175 -5 205 25 205 60 C205 95 175 125 140 125 C105 125 75 95 75 60 C75 25 105 -5 140 -5 L140 -5 Z M128 374 C119 374 113 368 114 360 C114 360 134 205 134 205 C134 205 146 205 146 205 C146 205 159 305 159 305 C159 305 194 305 194 305 C301 305 336 387 336 427 C336 556 237 665 121 665 C76 665 38 637 38 605 C38 584 56 566 77 566 C100 566 127 595 150 595 C239 595 315 522 315 437 C315 417 278 374 163 374 C163 374 128 374 128 374 L128 374 Z " />
<glyph glyph-name="at" unicode="&#x40;" horiz-adv-x="1163" d="M1041 0 C982 -127 778 -236 598 -236 C343 -236 126 -8 126 259 C126 526 336 754 582 754 C828 754 1038 565 1038 343 C1038 162 954 8 856 8 C774 8 725 96 752 200 C752 200 822 480 822 480 C822 480 737 480 737 480 C737 480 717 401 717 401 C698 452 646 490 587 490 C425 490 288 353 288 191 C288 92 370 8 466 8 C542 8 622 57 663 123 C675 39 744 -23 840 -23 C985 -23 1108 145 1108 343 C1108 579 866 779 582 779 C298 779 56 540 56 259 C56 -22 305 -261 598 -261 C788 -261 1005 -141 1071 0 C1071 0 1041 0 1041 0 L1041 0 Z M706 355 C706 355 667 200 667 200 C647 123 576 57 512 57 C444 57 386 127 386 209 C386 347 477 465 585 465 C650 465 705 414 705 355 C705 355 706 355 706 355 L706 355 Z " />
<glyph glyph-name="A" unicode="A" horiz-adv-x="703" d="M667 13 C667 13 659 13 659 13 C634 13 597 51 579 96 C579 96 579 96 579 96 C579 96 341 675 341 675 C341 675 317 675 317 675 C317 675 111 96 111 96 C111 96 111 96 111 96 C95 51 57 13 30 13 C30 13 21 13 21 13 C21 13 21 0 21 0 C21 0 77 0 77 0 C77 0 93 0 93 0 C93 0 109 0 109 0 C109 0 198 0 198 0 C198 0 198 13 198 13 C198 13 185 13 185 13 C147 13 130 55 145 105 C145 105 187 227 187 227 C187 227 423 227 423 227 C423 227 474 96 474 96 C474 96 474 96 474 96 C492 51 476 13 440 13 C440 13 428 13 428 13 C428 13 428 0 428 0 C428 0 512 0 512 0 C512 0 565 0 565 0 C565 0 618 0 618 0 C618 0 667 0 667 0 C667 0 667 13 667 13 L667 13 Z M413 252 C413 252 196 252 196 252 C196 252 297 547 297 547 C297 547 413 252 413 252 L413 252 Z " />
<glyph glyph-name="B" unicode="B" horiz-adv-x="613" d="M20 647 C20 647 29 647 29 647 C56 647 80 609 80 564 C80 564 80 96 80 96 C80 51 56 13 29 13 C29 13 20 13 20 13 C20 13 20 0 20 0 C20 0 80 0 80 0 C80 0 129 0 129 0 C129 0 178 0 178 0 C178 0 334 0 334 0 C474 0 593 82 593 178 C593 258 493 328 364 346 C464 368 539 430 539 501 C539 587 433 660 309 660 C309 660 178 660 178 660 C178 660 129 660 129 660 C129 660 80 660 80 660 C80 660 20 660 20 660 C20 660 20 647 20 647 L20 647 Z M178 352 C178 352 178 635 178 635 C178 635 309 635 309 635 C380 635 441 573 441 501 C441 421 368 352 283 352 C283 352 178 352 178 352 L178 352 Z M178 330 C178 330 272 330 272 330 C390 330 491 260 491 178 C491 95 414 25 324 25 C324 25 178 25 178 25 C178 25 178 330 178 330 L178 330 Z " />
<glyph glyph-name="C" unicode="C" horiz-adv-x="708" d="M648 484 C648 484 648 607 648 607 C591 638 475 665 397 665 C209 665 50 511 50 330 C50 149 209 -5 397 -5 C484 -5 600 26 649 63 C649 63 642 73 642 73 C642 73 642 73 642 73 C642 73 649 63 649 63 C649 63 649 184 649 184 C649 184 638 184 638 184 C635 176 630 162 627 153 C603 87 508 25 420 20 C420 20 420 20 420 20 C412 19 404 19 397 19 C267 19 157 162 157 330 C157 498 267 641 397 641 C419 641 443 639 469 635 C536 621 607 568 626 514 C629 506 634 492 637 484 C637 484 648 484 648 484 L648 484 Z " />
<glyph glyph-name="D" unicode="D" horiz-adv-x="708" d="M41 647 C41 647 50 647 50 647 C77 647 101 609 101 564 C101 564 101 96 101 96 C101 51 77 13 50 13 C50 13 41 13 41 13 C41 13 41 0 41 0 C41 0 101 0 101 0 C101 0 150 0 150 0 C150 0 199 0 199 0 C199 0 344 0 344 0 C514 0 659 152 659 330 C659 508 497 660 307 660 C307 660 199 660 199 660 C199 660 150 660 150 660 C150 660 101 660 101 660 C101 660 41 660 41 660 C41 660 41 647 41 647 L41 647 Z M199 25 C199 25 199 635 199 635 C199 635 307 635 307 635 C444 635 561 495 561 330 C561 165 461 25 344 25 C344 25 199 25 199 25 L199 25 Z " />
<glyph glyph-name="E" unicode="E" horiz-adv-x="584" d="M419 261 C419 261 419 330 419 330 C419 330 419 342 419 342 C419 342 419 354 419 354 C419 354 419 415 419 415 C419 415 408 415 408 415 C408 415 405 406 405 406 C397 378 339 355 280 354 C280 354 189 354 189 354 C189 354 189 636 189 636 C189 636 321 636 321 636 C385 636 454 593 471 543 C471 543 476 527 476 527 C476 527 486 527 486 527 C486 527 486 648 486 648 C486 648 486 660 486 660 C486 660 474 660 474 660 C474 660 389 660 389 660 C389 660 189 660 189 660 C189 660 140 660 140 660 C140 660 91 660 91 660 C91 660 31 660 31 660 C31 660 31 647 31 647 C31 647 40 647 40 647 C67 647 91 609 91 564 C91 564 91 96 91 96 C91 51 67 13 40 13 C40 13 31 13 31 13 C31 13 31 0 31 0 C31 0 91 0 91 0 C91 0 140 0 140 0 C140 0 189 0 189 0 C189 0 391 0 391 0 C391 0 484 0 484 0 C484 0 487 0 487 0 C488 3 489 9 489 12 C495 45 505 101 511 133 C511 134 511 134 510 133 C505 134 501 134 501 133 C501 133 493 117 493 117 C467 67 391 24 327 24 C327 24 189 24 189 24 C189 24 189 330 189 330 C189 330 280 330 280 330 C339 330 397 303 405 272 C405 272 408 261 408 261 C408 261 419 261 419 261 L419 261 Z " />
<glyph glyph-name="F" unicode="F" horiz-adv-x="523" d="M419 257 C419 257 419 325 419 325 C419 325 419 337 419 337 C419 337 419 350 419 350 C419 350 419 410 419 410 C419 410 408 410 408 410 C408 410 405 401 405 401 C397 374 344 351 287 350 C287 350 280 350 280 350 C280 350 199 350 199 350 C199 350 199 636 199 636 C199 636 361 636 361 636 C425 636 494 593 511 543 C511 543 516 527 516 527 C516 527 526 527 526 527 C526 527 526 648 526 648 C526 648 526 660 526 660 C526 660 514 660 514 660 C514 660 429 660 429 660 C429 660 199 660 199 660 C199 660 150 660 150 660 C150 660 101 660 101 660 C101 660 41 660 41 660 C41 660 41 647 41 647 C41 647 50 647 50 647 C77 647 101 609 101 564 C101 564 101 96 101 96 C101 51 77 13 50 13 C50 13 41 13 41 13 C41 13 41 0 41 0 C41 0 101 0 101 0 C101 0 150 0 150 0 C150 0 199 0 199 0 C199 0 269 0 269 0 C269 0 269 13 269 13 C269 13 259 13 259 13 C227 13 200 48 199 91 C199 91 199 96 199 96 C199 96 199 325 199 325 C199 325 280 325 280 325 C339 325 397 298 405 267 C405 267 408 257 408 257 C408 257 419 257 419 257 L419 257 Z " />
<glyph glyph-name="G" unicode="G" horiz-adv-x="708" d="M695 310 C695 310 634 310 634 310 C634 310 590 310 590 310 C590 310 546 310 546 310 C546 310 486 310 486 310 C486 310 486 297 486 297 C486 297 495 297 495 297 C523 297 546 259 546 214 C546 214 546 46 546 46 C495 30 434 19 387 19 C263 19 157 162 157 330 C157 498 263 641 387 641 C402 641 418 640 435 638 C435 638 435 637 435 637 C506 629 585 572 606 514 C609 506 614 492 617 484 C617 484 628 484 628 484 C628 484 628 607 628 607 C571 638 460 665 387 665 C205 665 50 511 50 330 C50 149 205 -5 387 -5 C464 -5 578 23 634 55 C634 55 634 214 634 214 C634 259 658 297 685 297 C685 297 695 297 695 297 C695 297 695 310 695 310 L695 310 Z " />
<glyph glyph-name="H" unicode="H" horiz-adv-x="750" d="M692 660 C692 660 632 660 632 660 C632 660 583 660 583 660 C583 660 534 660 534 660 C534 660 474 660 474 660 C474 660 474 647 474 647 C474 647 483 647 483 647 C511 647 534 609 534 564 C534 564 534 324 534 324 C534 324 180 324 180 324 C180 324 180 564 180 564 C180 564 180 569 180 569 C181 612 204 647 231 647 C231 647 240 647 240 647 C240 647 240 660 240 660 C240 660 180 660 180 660 C180 660 131 660 131 660 C131 660 82 660 82 660 C82 660 22 660 22 660 C22 660 22 647 22 647 C22 647 31 647 31 647 C58 647 82 609 82 564 C82 564 82 96 82 96 C82 51 58 13 31 13 C31 13 22 13 22 13 C22 13 22 0 22 0 C22 0 82 0 82 0 C82 0 131 0 131 0 C131 0 180 0 180 0 C180 0 240 0 240 0 C240 0 240 13 240 13 C240 13 231 13 231 13 C204 13 181 48 180 91 C180 91 180 96 180 96 C180 96 180 300 180 300 C180 300 534 300 534 300 C534 300 534 96 534 96 C534 51 511 13 483 13 C483 13 474 13 474 13 C474 13 474 0 474 0 C474 0 534 0 534 0 C534 0 583 0 583 0 C583 0 632 0 632 0 C632 0 692 0 692 0 C692 0 692 13 692 13 C692 13 683 13 683 13 C656 13 633 48 632 91 C632 91 632 96 632 96 C632 96 632 564 632 564 C632 564 632 569 632 569 C633 612 656 647 683 647 C683 647 692 647 692 647 C692 647 692 660 692 660 L692 660 Z " />
<glyph glyph-name="I" unicode="I" horiz-adv-x="288" d="M249 660 C249 660 188 660 188 660 C188 660 140 660 140 660 C140 660 91 660 91 660 C91 660 30 660 30 660 C30 660 30 647 30 647 C30 647 40 647 40 647 C67 647 91 609 91 564 C91 564 91 96 91 96 C91 51 67 13 40 13 C40 13 30 13 30 13 C30 13 30 0 30 0 C30 0 91 0 91 0 C91 0 140 0 140 0 C140 0 188 0 188 0 C188 0 249 0 249 0 C249 0 249 13 249 13 C249 13 240 13 240 13 C212 13 188 51 188 96 C188 96 188 564 188 564 C188 609 212 647 240 647 C240 647 249 647 249 647 C249 647 249 660 249 660 L249 660 Z " />
<glyph glyph-name="J" unicode="J" horiz-adv-x="373" d="M344 660 C344 660 283 660 283 660 C283 660 234 660 234 660 C234 660 186 660 186 660 C186 660 125 660 125 660 C125 660 125 647 125 647 C125 647 134 647 134 647 C162 647 186 609 186 564 C186 564 186 200 186 200 C186 77 168 10 134 10 C113 10 90 28 85 50 C79 72 59 90 40 90 C13 90 -6 72 0 50 C8 18 58 -10 109 -10 C222 -10 283 93 283 282 C283 282 283 564 283 564 C283 609 307 647 334 647 C334 647 344 647 344 647 C344 647 344 660 344 660 L344 660 Z " />
<glyph glyph-name="K" unicode="K" horiz-adv-x="655" d="M434 647 C434 647 441 647 441 647 C463 647 441 609 392 564 C392 564 393 564 393 564 C393 564 243 423 243 423 C243 423 242 424 242 424 C242 424 170 355 170 355 C170 355 170 564 170 564 C170 564 170 569 170 569 C171 612 194 647 221 647 C221 647 230 647 230 647 C230 647 230 660 230 660 C230 660 170 660 170 660 C170 660 121 660 121 660 C121 660 72 660 72 660 C72 660 12 660 12 660 C12 660 12 647 12 647 C12 647 21 647 21 647 C48 647 72 609 72 564 C72 564 72 96 72 96 C72 51 48 13 21 13 C21 13 12 13 12 13 C12 13 12 0 12 0 C12 0 72 0 72 0 C72 0 121 0 121 0 C121 0 170 0 170 0 C170 0 230 0 230 0 C230 0 230 13 230 13 C230 13 221 13 221 13 C194 13 171 48 170 91 C170 91 170 96 170 96 C170 96 170 355 170 355 C170 355 185 335 185 335 C185 335 186 336 186 336 C186 336 347 141 347 141 C425 47 518 -5 610 -5 C610 -5 645 -5 645 -5 C645 -5 645 15 645 15 C645 15 640 15 640 15 C602 15 525 84 419 210 C419 210 258 404 258 404 C258 404 433 568 433 568 C480 611 541 647 568 647 C568 647 577 647 577 647 C577 647 577 660 577 660 C577 660 530 660 530 660 C530 660 512 660 512 660 C512 660 495 660 495 660 C495 660 434 660 434 660 C434 660 434 647 434 647 L434 647 Z " />
<glyph glyph-name="L" unicode="L" horiz-adv-x="574" d="M487 146 C487 146 479 127 479 127 C455 72 385 24 327 24 C327 24 179 24 179 24 C179 24 179 564 179 564 C179 564 179 569 179 569 C180 612 203 647 230 647 C230 647 239 647 239 647 C239 647 239 660 239 660 C239 660 179 660 179 660 C179 660 130 660 130 660 C130 660 81 660 81 660 C81 660 21 660 21 660 C21 660 21 647 21 647 C21 647 30 647 30 647 C57 647 81 609 81 564 C81 564 81 96 81 96 C81 51 57 13 30 13 C30 13 21 13 21 13 C21 13 21 0 21 0 C21 0 81 0 81 0 C81 0 130 0 130 0 C130 0 179 0 179 0 C179 0 381 0 381 0 C381 0 474 0 474 0 C474 0 477 0 477 0 C478 3 479 9 479 12 C486 46 496 105 502 139 C502 141 487 146 487 146 L487 146 Z " />
<glyph glyph-name="M" unicode="M" horiz-adv-x="835" d="M826 13 C826 13 817 13 817 13 C790 13 764 51 762 96 C762 96 762 96 762 96 C762 96 740 564 740 564 C740 564 741 564 741 564 C739 609 760 647 788 647 C788 647 796 647 796 647 C797 647 797 650 796 654 C797 657 797 660 796 660 C796 660 736 660 736 660 C736 660 693 660 693 660 C693 660 684 660 684 660 C684 660 649 660 649 660 C649 660 388 -5 388 -5 C388 -5 412 -5 412 -5 C412 -5 651 580 651 580 C651 580 666 96 666 96 C666 96 666 96 666 96 C668 51 645 13 618 13 C618 13 609 13 609 13 C609 13 609 0 609 0 C609 0 669 0 669 0 C669 0 718 0 718 0 C718 0 766 0 766 0 C766 0 826 0 826 0 C826 0 826 13 826 13 L826 13 Z M59 647 C59 647 68 647 68 647 C93 647 113 615 116 575 C116 575 97 87 97 87 C93 46 69 13 43 13 C43 13 34 13 34 13 C34 13 34 0 34 0 C34 0 94 0 94 0 C94 0 109 0 109 0 C109 0 124 0 124 0 C124 0 212 0 212 0 C212 0 212 13 212 13 C212 13 199 13 199 13 C161 13 129 54 128 104 C128 104 144 537 144 537 C144 537 367 42 367 42 C367 42 388 -5 388 -5 C388 -5 433 112 433 112 C433 112 433 113 433 113 C433 113 191 660 191 660 C191 660 149 660 149 660 C149 660 134 660 134 660 C134 660 119 660 119 660 C119 660 59 660 59 660 C59 660 59 647 59 647 L59 647 Z " />
<glyph glyph-name="N" unicode="N" horiz-adv-x="663" d="M645 660 C645 660 585 660 585 660 C585 660 570 660 570 660 C570 660 556 660 556 660 C556 660 495 660 495 660 C495 660 495 647 495 647 C495 647 504 647 504 647 C532 647 556 609 556 564 C556 564 556 142 556 142 C556 142 186 660 186 660 C186 660 129 618 129 618 C129 618 129 619 129 619 C129 619 186 660 186 660 C186 660 129 660 129 660 C129 660 115 660 115 660 C115 660 100 660 100 660 C100 660 40 660 40 660 C40 660 40 647 40 647 C40 647 49 647 49 647 C76 647 100 609 100 564 C100 564 100 96 100 96 C100 51 76 13 49 13 C49 13 40 13 40 13 C40 13 40 0 40 0 C40 0 100 0 100 0 C100 0 115 0 115 0 C115 0 129 0 129 0 C129 0 190 0 190 0 C190 0 190 13 190 13 C190 13 181 13 181 13 C153 13 129 51 129 96 C129 96 129 574 129 574 C129 574 511 42 511 42 C511 42 556 -20 556 -20 C556 -20 585 -20 585 -20 C585 -20 585 77 585 77 C585 77 585 564 585 564 C585 609 608 647 636 647 C636 647 645 647 645 647 C645 647 645 660 645 660 L645 660 Z " />
<glyph glyph-name="O" unicode="O" horiz-adv-x="759" d="M380 19 C247 19 157 179 157 330 C157 481 247 641 380 641 C512 641 602 481 602 330 C602 179 512 19 380 19 L380 19 Z M50 330 C50 167 184 -5 380 -5 C575 -5 709 167 709 330 C709 493 575 665 380 665 C184 665 50 493 50 330 L50 330 Z " />
<glyph glyph-name="P" unicode="P" horiz-adv-x="547" d="M11 647 C11 647 20 647 20 647 C47 647 71 609 71 564 C71 564 71 96 71 96 C71 51 47 13 20 13 C20 13 11 13 11 13 C11 13 11 0 11 0 C11 0 71 0 71 0 C71 0 120 0 120 0 C120 0 169 0 169 0 C169 0 229 0 229 0 C229 0 229 13 229 13 C229 13 220 13 220 13 C193 13 170 48 169 91 C169 91 169 96 169 96 C169 96 169 287 169 287 C169 287 271 287 271 287 C410 287 528 373 528 473 C528 574 422 660 297 660 C297 660 169 660 169 660 C169 660 120 660 120 660 C120 660 71 660 71 660 C71 660 11 660 11 660 C11 660 11 647 11 647 L11 647 Z M169 312 C169 312 169 635 169 635 C169 635 297 635 297 635 C367 635 426 561 426 473 C426 386 355 312 271 312 C271 312 169 312 169 312 L169 312 Z " />
<glyph glyph-name="Q" unicode="Q" horiz-adv-x="759" d="M802 -52 C802 -52 793 -44 793 -44 C781 -58 709 -70 636 -70 C530 -70 439 -41 392 -5 C580 2 709 170 709 330 C709 493 575 665 380 665 C184 665 50 493 50 330 C50 174 172 10 354 -4 C431 -76 539 -135 625 -135 C683 -135 764 -97 802 -52 L802 -52 Z M380 19 C247 19 157 179 157 330 C157 481 247 641 380 641 C512 641 602 481 602 330 C602 179 512 19 380 19 L380 19 Z " />
<glyph glyph-name="R" unicode="R" horiz-adv-x="673" d="M41 647 C41 647 50 647 50 647 C77 647 101 609 101 564 C101 564 101 96 101 96 C101 51 77 13 50 13 C50 13 41 13 41 13 C41 13 41 0 41 0 C41 0 101 0 101 0 C101 0 150 0 150 0 C150 0 199 0 199 0 C199 0 259 0 259 0 C259 0 259 13 259 13 C259 13 250 13 250 13 C223 13 200 48 199 91 C199 91 199 96 199 96 C199 96 199 305 199 305 C199 305 275 305 275 305 C275 305 426 106 426 106 C496 14 522 0 620 0 C620 0 655 0 655 0 C655 0 655 20 655 20 C655 20 650 20 650 20 C620 20 608 29 563 87 C563 87 385 318 385 318 C476 345 543 411 543 485 C543 580 440 660 320 660 C320 660 199 660 199 660 C199 660 150 660 150 660 C150 660 101 660 101 660 C101 660 41 660 41 660 C41 660 41 647 41 647 L41 647 Z M296 330 C296 330 256 330 256 330 C256 330 199 330 199 330 C199 330 199 635 199 635 C199 635 320 635 320 635 C385 635 441 566 441 485 C441 401 374 330 296 330 L296 330 Z " />
<glyph glyph-name="S" unicode="S" horiz-adv-x="490" d="M21 179 C21 179 21 51 21 51 C21 51 31 65 31 65 C31 65 31 65 31 65 C31 65 21 51 21 51 C62 21 161 -5 235 -5 C349 -5 445 80 445 180 C445 252 365 338 270 368 C174 398 92 462 92 508 C92 580 155 641 229 641 C240 641 256 638 273 634 C316 620 363 573 379 529 C383 518 390 499 394 488 C394 488 405 488 405 488 C405 488 405 619 405 619 C360 644 281 665 233 665 C121 665 25 575 25 469 C25 402 103 321 194 292 C293 261 376 191 376 140 C376 75 311 19 235 19 C225 19 214 20 202 21 C137 32 65 89 43 149 C40 157 35 171 32 179 C32 179 21 179 21 179 L21 179 Z " />
<glyph glyph-name="T" unicode="T" horiz-adv-x="620" d="M617 514 C614 550 608 612 605 648 C605 651 604 657 604 660 C604 660 580 660 580 660 C580 660 508 660 508 660 C508 660 112 660 112 660 C112 660 40 660 40 660 C40 660 16 660 16 660 C16 657 15 651 15 648 C12 612 6 550 3 514 C3 514 13 514 13 514 C13 514 23 537 23 537 C45 590 109 636 163 636 C163 636 261 636 261 636 C261 636 261 96 261 96 C261 51 237 13 210 13 C210 13 201 13 201 13 C201 13 201 0 201 0 C201 0 261 0 261 0 C261 0 310 0 310 0 C310 0 359 0 359 0 C359 0 419 0 419 0 C419 0 419 13 419 13 C419 13 410 13 410 13 C383 13 360 48 359 91 C359 91 359 96 359 96 C359 96 359 636 359 636 C359 636 457 636 457 636 C511 636 575 590 597 537 C597 537 607 514 607 514 C607 514 617 514 617 514 L617 514 Z " />
<glyph glyph-name="U" unicode="U" horiz-adv-x="678" d="M630 660 C630 660 561 660 561 660 C561 660 546 660 546 660 C546 660 531 660 531 660 C531 660 458 660 458 660 C458 660 458 647 458 647 C458 647 469 647 469 647 C500 647 528 608 531 561 C531 561 530 195 530 195 C530 105 465 29 345 29 C244 29 189 106 189 196 C189 196 189 564 189 564 C189 564 189 569 189 569 C190 612 213 647 240 647 C240 647 249 647 249 647 C249 647 249 660 249 660 C249 660 189 660 189 660 C189 660 140 660 140 660 C140 660 91 660 91 660 C91 660 31 660 31 660 C31 660 31 647 31 647 C31 647 40 647 40 647 C67 647 91 609 91 564 C91 564 91 215 91 215 C91 96 175 -5 331 -5 C480 -5 561 82 561 185 C561 185 561 554 561 554 C561 604 588 647 619 647 C619 647 630 647 630 647 C630 647 630 660 630 660 L630 660 Z " />
<glyph glyph-name="V" unicode="V" horiz-adv-x="694" d="M664 660 C664 660 608 660 608 660 C608 660 593 660 593 660 C593 660 578 660 578 660 C578 660 481 660 481 660 C481 660 481 647 481 647 C481 647 495 647 495 647 C536 647 554 600 539 544 C539 544 396 119 396 119 C396 119 212 564 212 564 C212 564 212 564 212 564 C193 609 207 647 241 647 C241 647 252 647 252 647 C252 647 252 660 252 660 C252 660 172 660 172 660 C172 660 118 660 118 660 C118 660 65 660 65 660 C65 660 22 660 22 660 C21 660 21 657 22 654 C21 650 21 647 22 647 C22 647 29 647 29 647 C49 647 82 615 101 574 C101 574 351 -15 351 -15 C351 -15 376 -15 376 -15 C376 -15 575 564 575 564 C591 609 628 647 655 647 C655 647 664 647 664 647 C664 647 664 660 664 660 L664 660 Z " />
<glyph glyph-name="W" unicode="W" horiz-adv-x="1001" d="M968 660 C968 660 911 660 911 660 C911 660 896 660 896 660 C896 660 881 660 881 660 C881 660 796 660 796 660 C797 660 797 657 796 654 C797 650 797 647 796 647 C796 647 809 647 809 647 C846 647 866 610 853 566 C853 566 729 139 729 139 C729 139 536 670 536 670 C536 670 511 670 511 670 C511 670 305 -15 305 -15 C305 -15 330 -15 330 -15 C330 -15 536 670 536 670 C536 670 487 507 487 507 C487 507 684 -15 684 -15 C684 -15 709 -15 709 -15 C709 -15 884 571 884 571 C900 613 932 647 959 647 C959 647 968 647 968 647 C968 647 968 660 968 660 L968 660 Z M244 660 C244 660 172 660 172 660 C172 660 118 660 118 660 C118 660 65 660 65 660 C65 660 21 660 21 660 C21 660 21 647 21 647 C21 647 28 647 28 647 C50 647 83 609 99 564 C99 564 99 564 99 564 C99 564 305 -15 305 -15 C305 -15 348 129 348 129 C348 129 204 564 204 564 C204 564 204 564 204 564 C189 609 203 647 234 647 C234 647 244 647 244 647 C244 647 244 660 244 660 L244 660 Z " />
<glyph glyph-name="X" unicode="X" horiz-adv-x="663" d="M412 647 C412 647 424 647 424 647 C462 647 470 609 443 564 C443 564 443 564 443 564 C443 564 343 399 343 399 C343 399 239 564 239 564 C239 564 239 564 239 564 C211 609 215 647 248 647 C248 647 259 647 259 647 C259 647 259 660 259 660 C259 660 178 660 178 660 C178 660 123 660 123 660 C123 660 68 660 68 660 C68 660 31 660 31 660 C31 660 31 647 31 647 C31 647 38 647 38 647 C58 647 100 609 128 564 C128 564 129 564 129 564 C129 564 286 315 286 315 C286 315 148 96 148 96 C148 96 147 96 147 96 C119 51 71 13 43 13 C43 13 34 13 34 13 C34 13 34 0 34 0 C34 0 87 0 87 0 C87 0 105 0 105 0 C105 0 123 0 123 0 C123 0 212 0 212 0 C212 0 212 13 212 13 C212 13 199 13 199 13 C165 13 159 51 183 98 C183 98 301 292 301 292 C301 292 424 96 424 96 C424 96 424 96 424 96 C453 51 448 13 415 13 C415 13 404 13 404 13 C404 13 404 0 404 0 C404 0 485 0 485 0 C485 0 540 0 540 0 C540 0 595 0 595 0 C595 0 632 0 632 0 C632 0 632 13 632 13 C632 13 625 13 625 13 C605 13 563 51 535 96 C535 96 534 96 534 96 C534 96 358 375 358 375 C358 375 481 569 481 569 C509 612 555 647 582 647 C582 647 591 647 591 647 C592 647 592 650 591 654 C592 657 592 660 591 660 C591 660 539 660 539 660 C539 660 520 660 520 660 C520 660 501 660 501 660 C501 660 412 660 412 660 C412 660 412 647 412 647 L412 647 Z " />
<glyph glyph-name="Y" unicode="Y" horiz-adv-x="633" d="M432 13 C432 13 423 13 423 13 C395 13 372 51 371 96 C371 96 371 312 371 312 C371 312 531 568 531 568 C560 611 602 647 625 647 C625 647 633 647 633 647 C633 647 633 660 633 660 C633 660 588 660 588 660 C588 660 573 660 573 660 C573 660 558 660 558 660 C558 660 469 660 469 660 C470 660 470 657 469 654 C470 650 470 647 469 647 C469 647 482 647 482 647 C519 647 521 600 487 544 C487 544 487 544 487 544 C487 544 358 334 358 334 C358 334 224 572 224 572 C203 613 208 647 237 647 C237 647 247 647 247 647 C247 647 247 660 247 660 C247 660 174 660 174 660 C174 660 116 660 116 660 C116 660 57 660 57 660 C57 660 20 660 20 660 C20 660 20 647 20 647 C20 647 27 647 27 647 C45 647 79 616 104 576 C104 576 274 277 274 277 C274 277 274 96 274 96 C274 51 250 13 223 13 C223 13 214 13 214 13 C214 13 214 0 214 0 C214 0 274 0 274 0 C274 0 323 0 323 0 C323 0 371 0 371 0 C371 0 432 0 432 0 C432 0 432 13 432 13 L432 13 Z " />
<glyph glyph-name="Z" unicode="Z" horiz-adv-x="588" d="M515 147 C515 147 507 128 507 128 C484 73 414 25 355 25 C355 25 164 25 164 25 C164 25 529 660 529 660 C529 660 474 660 474 660 C474 660 419 660 419 660 C419 660 193 660 193 660 C193 660 121 660 121 660 C121 660 97 660 97 660 C97 660 93 648 93 648 C85 618 72 568 64 539 C64 539 74 539 74 539 C74 539 84 553 84 553 C115 598 186 636 239 636 C239 636 405 636 405 636 C405 636 41 0 41 0 C41 0 95 0 95 0 C95 0 150 0 150 0 C150 0 409 0 409 0 C409 0 502 0 502 0 C502 0 505 0 505 0 C506 3 507 9 508 13 C514 47 524 106 530 140 C526 141 515 147 515 147 L515 147 Z " />
<glyph glyph-name="bracketleft" unicode="&#x5b;" horiz-adv-x="254" d="M140 640 C140 640 245 640 245 640 C245 640 245 660 245 660 C245 660 140 660 140 660 C140 660 70 660 70 660 C70 660 70 -120 70 -120 C70 -120 140 -120 140 -120 C140 -120 245 -120 245 -120 C245 -120 245 -100 245 -100 C245 -100 140 -100 140 -100 C140 -100 140 640 140 640 L140 640 Z " />
<glyph glyph-name="backslash" unicode="&#x5c;" horiz-adv-x="252" d="M221 -145 C221 -145 253 -145 253 -145 C253 -145 -29 710 -29 710 C-29 710 -60 710 -60 710 C-60 710 221 -145 221 -145 L221 -145 Z " />
<glyph glyph-name="bracketright" unicode="&#x5d;" horiz-adv-x="249" d="M110 640 C110 640 110 -100 110 -100 C110 -100 5 -100 5 -100 C5 -100 5 -120 5 -120 C5 -120 110 -120 110 -120 C110 -120 180 -120 180 -120 C180 -120 180 660 180 660 C180 660 110 660 110 660 C110 660 5 660 5 660 C5 660 5 640 5 640 C5 640 110 640 110 640 L110 640 Z " />
<glyph glyph-name="underscore" unicode="&#x5f;" horiz-adv-x="455" d="M5 -50 C5 -50 5 -100 5 -100 C5 -100 450 -100 450 -100 C450 -100 450 -50 450 -50 C450 -50 5 -50 5 -50 L5 -50 Z " />
<glyph glyph-name="a" unicode="a" horiz-adv-x="500" d="M479 49 C470 40 453 33 431 33 C403 33 391 62 391 97 C391 97 391 355 391 355 C391 436 329 505 257 505 C161 505 69 456 55 398 C55 398 145 398 145 398 C156 442 198 480 237 480 C269 480 296 432 296 375 C296 375 296 253 296 253 C296 253 211 245 211 245 C116 236 36 171 36 104 C36 45 90 -5 153 -5 C197 -5 255 19 300 52 C308 17 330 -10 369 -10 C420 -10 464 12 489 37 C489 37 479 49 479 49 L479 49 Z M296 230 C296 230 296 87 296 87 C296 83 296 80 296 77 C267 64 231 55 198 55 C159 55 125 89 125 129 C125 170 164 210 211 217 C211 217 296 230 296 230 L296 230 Z " />
<glyph glyph-name="b" unicode="b" horiz-adv-x="569" d="M170 450 C185 458 227 465 263 465 C357 465 436 348 436 210 C436 107 369 20 290 20 C225 20 170 84 170 160 C170 160 170 450 170 450 L170 450 Z M170 465 C170 465 170 599 170 599 C170 599 170 697 170 697 C170 697 170 720 170 720 C170 720 152 720 152 720 C152 720 19 680 19 680 C20 680 20 679 19 679 C20 675 20 672 19 672 C65 663 80 643 80 574 C80 574 80 0 80 0 C80 0 90 0 90 0 C98 16 126 29 150 29 C190 29 236 -5 290 -5 C420 -5 531 112 531 250 C531 388 440 505 332 505 C284 505 209 487 170 465 L170 465 Z " />
<glyph glyph-name="c" unicode="c" horiz-adv-x="503" d="M453 84 C453 84 444 93 444 93 C420 70 366 50 327 50 C229 50 145 149 145 266 C145 382 212 480 292 480 C330 480 365 445 369 404 C371 380 392 360 414 360 C436 360 454 378 454 400 C449 457 379 505 302 505 C166 505 50 379 50 231 C50 104 143 -5 252 -5 C312 -5 404 36 453 84 L453 84 Z " />
<glyph glyph-name="d" unicode="d" horiz-adv-x="589" d="M540 48 C494 58 479 76 479 146 C479 146 479 599 479 599 C479 599 479 697 479 697 C479 697 479 720 479 720 C479 720 461 720 461 720 C461 720 328 680 328 680 C328 680 328 672 328 672 C374 662 389 643 389 574 C389 574 389 453 389 453 C356 483 309 505 267 505 C144 505 39 375 39 221 C39 99 128 -5 232 -5 C283 -5 351 23 389 58 C389 58 389 23 389 23 C389 23 389 0 389 0 C389 0 407 0 407 0 C407 0 540 40 540 40 C540 40 540 48 540 48 L540 48 Z M389 121 C389 121 389 73 389 73 C371 60 325 50 281 50 C201 50 132 145 132 256 C132 377 192 480 263 480 C310 480 363 451 389 418 C389 418 389 121 389 121 L389 121 Z " />
<glyph glyph-name="e" unicode="e" horiz-adv-x="510" d="M460 84 C460 84 450 93 450 93 C426 70 371 50 330 50 C230 50 145 149 145 266 C145 280 146 294 148 308 C148 308 375 308 375 308 C375 308 460 308 460 308 C460 415 376 505 277 505 C154 505 50 379 50 231 C50 104 144 -5 255 -5 C317 -5 411 36 460 84 L460 84 Z M150 325 C166 414 215 480 272 480 C328 480 376 436 376 384 C376 384 376 383 376 383 C375 361 356 340 334 338 C334 338 150 325 150 325 L150 325 Z " />
<glyph glyph-name="f" unicode="f" horiz-adv-x="425" d="M150 0 C150 0 195 0 195 0 C195 0 256 0 256 0 C255 0 255 3 256 6 C255 10 255 13 256 13 C256 13 247 13 247 13 C219 13 195 51 195 96 C195 96 195 465 195 465 C195 465 330 465 330 465 C330 465 330 500 330 500 C330 500 195 500 195 500 C195 500 195 533 195 533 C195 623 242 700 296 700 C323 700 348 682 350 660 C352 639 372 620 395 620 C417 620 435 639 435 660 C432 693 380 720 321 720 C216 720 119 643 110 553 C110 553 105 500 105 500 C105 500 31 500 31 500 C31 500 31 465 31 465 C31 465 105 465 105 465 C105 465 105 96 105 96 C105 51 81 13 54 13 C54 13 44 13 44 13 C45 13 45 10 44 6 C45 3 45 0 44 0 C44 0 105 0 105 0 C105 0 150 0 150 0 L150 0 Z " />
<glyph glyph-name="g" unicode="g" horiz-adv-x="474" d="M474 500 C474 500 335 476 335 476 C306 494 272 505 235 505 C141 505 60 433 60 347 C60 285 104 229 164 204 C98 198 45 152 45 98 C45 52 87 13 143 0 C75 -25 20 -79 20 -125 C20 -188 91 -241 174 -241 C325 -241 454 -147 454 -36 C454 29 371 85 275 85 C275 85 190 81 190 81 C144 79 105 103 105 133 C105 164 140 190 180 190 C180 190 235 190 235 190 C330 190 411 262 411 347 C411 383 397 417 373 444 C373 444 474 450 474 450 C474 450 474 500 474 500 L474 500 Z M145 347 C145 422 186 485 235 485 C284 485 326 422 326 347 C326 273 284 210 235 210 C186 210 145 273 145 347 L145 347 Z M168 -3 C177 -4 186 -4 195 -4 C195 -4 250 -1 250 -1 C325 -1 389 -38 389 -82 C389 -154 295 -216 184 -216 C128 -216 80 -169 80 -114 C80 -70 119 -20 168 -3 L168 -3 Z " />
<glyph glyph-name="h" unicode="h" horiz-adv-x="601" d="M561 13 C561 13 552 13 552 13 C525 13 502 48 501 91 C501 91 501 96 501 96 C501 96 501 337 501 337 C501 428 460 505 384 505 C347 505 262 477 195 442 C195 442 195 599 195 599 C195 599 195 697 195 697 C195 697 195 720 195 720 C195 720 177 720 177 720 C177 720 44 680 44 680 C45 680 45 679 44 679 C45 675 45 672 44 672 C90 663 105 643 105 574 C105 574 105 96 105 96 C105 51 81 13 54 13 C54 13 44 13 44 13 C45 13 45 10 44 6 C45 3 45 0 44 0 C44 0 105 0 105 0 C105 0 150 0 150 0 C150 0 195 0 195 0 C195 0 256 0 256 0 C255 0 255 3 256 6 C255 10 255 13 256 13 C256 13 247 13 247 13 C219 13 195 51 195 96 C195 96 195 431 195 431 C219 439 270 445 314 445 C377 445 411 391 411 328 C411 328 411 96 411 96 C411 51 387 13 359 13 C359 13 350 13 350 13 C350 13 350 0 350 0 C350 0 411 0 411 0 C411 0 456 0 456 0 C456 0 501 0 501 0 C501 0 561 0 561 0 C561 0 561 13 561 13 L561 13 Z " />
<glyph glyph-name="i" unicode="i" horiz-adv-x="301" d="M45 452 C91 442 106 423 106 354 C106 354 106 96 106 96 C106 51 82 13 54 13 C54 13 45 13 45 13 C45 13 45 0 45 0 C45 0 106 0 106 0 C106 0 151 0 151 0 C151 0 196 0 196 0 C196 0 256 0 256 0 C256 0 256 13 256 13 C256 13 247 13 247 13 C220 13 197 48 196 91 C196 91 196 96 196 96 C196 96 196 379 196 379 C196 379 196 477 196 477 C196 477 196 500 196 500 C196 500 178 500 178 500 C178 500 45 460 45 460 C45 460 45 452 45 452 L45 452 Z M146 570 C178 570 206 598 206 630 C206 662 178 690 146 690 C113 690 86 662 86 630 C86 598 113 570 146 570 L146 570 Z " />
<glyph glyph-name="j" unicode="j" horiz-adv-x="301" d="M45 452 C87 443 104 426 106 368 C106 368 105 3 105 3 C105 -117 69 -177 -5 -224 C-5 -224 4 -236 4 -236 C134 -155 196 -81 196 27 C196 27 196 379 196 379 C196 379 196 477 196 477 C196 477 196 500 196 500 C196 500 178 500 178 500 C178 500 45 460 45 460 C45 460 45 452 45 452 L45 452 Z M146 570 C178 570 206 598 206 630 C206 662 178 690 146 690 C113 690 86 662 86 630 C86 598 113 570 146 570 L146 570 Z " />
<glyph glyph-name="k" unicode="k" horiz-adv-x="539" d="M570 13 C570 13 560 13 560 13 C534 13 482 49 448 92 C448 92 445 96 445 96 C445 96 269 324 269 324 C269 324 369 416 369 416 C417 456 473 487 498 487 C498 487 507 487 507 487 C506 487 506 490 507 494 C506 497 506 500 507 500 C507 500 460 500 460 500 C460 500 440 500 440 500 C440 500 420 500 420 500 C420 500 359 500 359 500 C359 500 359 487 359 487 C359 487 366 487 366 487 C388 487 369 449 323 404 C323 404 324 404 324 404 C324 404 194 275 194 275 C194 275 194 599 194 599 C194 599 194 697 194 697 C194 697 194 720 194 720 C194 720 176 720 176 720 C176 720 43 680 43 680 C44 680 44 679 43 679 C44 675 44 672 43 672 C89 663 104 643 104 574 C104 574 104 96 104 96 C104 51 80 13 53 13 C53 13 43 13 43 13 C44 13 44 10 43 6 C44 3 44 0 43 0 C43 0 104 0 104 0 C104 0 149 0 149 0 C149 0 194 0 194 0 C194 0 255 0 255 0 C254 0 254 3 255 6 C254 10 254 13 255 13 C255 13 246 13 246 13 C218 13 194 51 194 96 C194 96 194 275 194 275 C194 275 203 263 203 263 C203 263 203 263 203 263 C203 263 333 96 333 96 C333 96 332 96 332 96 C367 51 377 13 354 13 C354 13 346 13 346 13 C346 13 346 0 346 0 C346 0 407 0 407 0 C407 0 463 0 463 0 C463 0 519 0 519 0 C519 0 570 0 570 0 C570 0 570 13 570 13 L570 13 Z " />
<glyph glyph-name="l" unicode="l" horiz-adv-x="301" d="M45 672 C91 662 106 643 106 574 C106 574 106 96 106 96 C106 51 82 13 54 13 C54 13 45 13 45 13 C45 13 45 0 45 0 C45 0 106 0 106 0 C106 0 151 0 151 0 C151 0 196 0 196 0 C196 0 256 0 256 0 C256 0 256 13 256 13 C256 13 247 13 247 13 C220 13 197 48 196 91 C196 91 196 96 196 96 C196 96 196 599 196 599 C196 599 196 697 196 697 C196 697 196 720 196 720 C196 720 178 720 178 720 C178 720 45 680 45 680 C45 680 45 672 45 672 L45 672 Z " />
<glyph glyph-name="m" unicode="m" horiz-adv-x="926" d="M887 13 C887 13 878 13 878 13 C850 13 826 51 826 96 C826 96 826 337 826 337 C826 428 765 505 701 505 C671 505 579 467 493 422 C471 471 431 505 390 505 C345 505 262 477 195 442 C195 442 195 500 195 500 C195 500 177 500 177 500 C177 500 44 460 44 460 C45 460 45 460 44 459 C45 455 45 452 44 452 C90 443 105 424 105 354 C105 354 105 96 105 96 C105 51 81 13 54 13 C54 13 44 13 44 13 C45 13 45 10 44 6 C45 3 45 0 44 0 C44 0 105 0 105 0 C105 0 150 0 150 0 C150 0 195 0 195 0 C195 0 256 0 256 0 C255 0 255 3 256 6 C255 10 255 13 256 13 C256 13 247 13 247 13 C219 13 195 51 195 96 C195 96 195 379 195 379 C195 379 195 380 195 380 C195 380 195 432 195 432 C222 442 272 450 320 450 C372 450 421 394 421 328 C421 328 421 96 421 96 C421 51 397 13 369 13 C369 13 360 13 360 13 C360 13 360 0 360 0 C360 0 421 0 421 0 C421 0 466 0 466 0 C466 0 511 0 511 0 C511 0 571 0 571 0 C571 0 571 13 571 13 C571 13 562 13 562 13 C535 13 512 48 511 91 C511 91 511 96 511 96 C511 96 511 337 511 337 C511 362 506 387 498 409 C537 429 595 445 632 445 C685 445 736 391 736 328 C736 328 736 96 736 96 C736 51 712 13 685 13 C685 13 675 13 675 13 C675 13 675 0 675 0 C675 0 736 0 736 0 C736 0 781 0 781 0 C781 0 826 0 826 0 C826 0 887 0 887 0 C887 0 887 13 887 13 L887 13 Z " />
<glyph glyph-name="n" unicode="n" horiz-adv-x="601" d="M561 13 C561 13 552 13 552 13 C525 13 502 48 501 91 C501 91 501 96 501 96 C501 96 501 337 501 337 C501 428 460 505 384 505 C347 505 262 477 195 442 C195 442 195 500 195 500 C195 500 177 500 177 500 C177 500 44 460 44 460 C45 460 45 460 44 459 C45 455 45 452 44 452 C90 443 105 424 105 354 C105 354 105 96 105 96 C105 51 81 13 54 13 C54 13 44 13 44 13 C45 13 45 10 44 6 C45 3 45 0 44 0 C44 0 105 0 105 0 C105 0 150 0 150 0 C150 0 195 0 195 0 C195 0 256 0 256 0 C255 0 255 3 256 6 C255 10 255 13 256 13 C256 13 247 13 247 13 C219 13 195 51 195 96 C195 96 195 379 195 379 C195 379 195 380 195 380 C195 380 195 431 195 431 C219 439 270 445 314 445 C377 445 411 391 411 328 C411 328 411 96 411 96 C411 51 387 13 359 13 C359 13 350 13 350 13 C350 13 350 0 350 0 C350 0 411 0 411 0 C411 0 456 0 456 0 C456 0 501 0 501 0 C501 0 561 0 561 0 C561 0 561 13 561 13 L561 13 Z " />
<glyph glyph-name="o" unicode="o" horiz-adv-x="600" d="M300 15 C219 15 150 123 150 250 C150 377 219 485 300 485 C381 485 450 377 450 250 C450 123 381 15 300 15 L300 15 Z M50 250 C50 112 165 -5 300 -5 C435 -5 550 112 550 250 C550 388 435 505 300 505 C165 505 50 388 50 250 L50 250 Z " />
<glyph glyph-name="p" unicode="p" horiz-adv-x="628" d="M192 410 C216 430 267 445 310 445 C404 445 484 330 484 196 C484 101 409 20 320 20 C252 20 195 75 195 140 C195 140 195 379 195 379 C195 379 195 380 195 380 C195 380 195 380 195 380 C195 380 192 410 192 410 L192 410 Z M190 425 C190 425 183 500 183 500 C183 500 165 500 165 500 C165 500 44 460 44 460 C45 460 45 460 44 459 C45 455 45 452 44 452 C90 443 105 424 105 354 C105 354 105 -134 105 -134 C105 -179 81 -217 54 -217 C54 -217 44 -217 44 -217 C45 -217 45 -220 44 -224 C45 -227 45 -230 44 -230 C44 -230 105 -230 105 -230 C105 -230 150 -230 150 -230 C150 -230 195 -230 195 -230 C195 -230 256 -230 256 -230 C255 -230 255 -227 256 -224 C255 -220 255 -217 256 -217 C256 -217 247 -217 247 -217 C219 -217 195 -179 195 -134 C195 -134 195 34 195 34 C228 10 273 -5 320 -5 C457 -5 573 119 573 265 C573 395 484 505 379 505 C318 505 233 468 190 425 C190 425 190 425 190 425 L190 425 Z " />
<glyph glyph-name="q" unicode="q" horiz-adv-x="599" d="M555 -217 C555 -217 546 -217 546 -217 C518 -217 494 -179 494 -134 C494 -134 494 500 494 500 C494 500 484 500 484 500 C476 484 451 471 428 471 C387 471 339 505 284 505 C160 505 55 375 55 221 C55 99 139 -5 237 -5 C292 -5 364 25 404 63 C404 63 404 -134 404 -134 C404 -179 380 -217 352 -217 C352 -217 343 -217 343 -217 C343 -217 343 -230 343 -230 C343 -230 404 -230 404 -230 C404 -230 449 -230 449 -230 C449 -230 494 -230 494 -230 C494 -230 555 -230 555 -230 C555 -230 555 -217 555 -217 L555 -217 Z M404 81 C386 63 334 50 286 50 C212 50 148 145 148 256 C148 377 210 480 284 480 C349 480 404 416 404 341 C404 341 404 81 404 81 L404 81 Z " />
<glyph glyph-name="r" unicode="r" horiz-adv-x="414" d="M192 414 C207 427 234 438 255 438 C287 438 330 403 361 403 C384 403 404 423 404 446 C404 478 377 505 327 505 C290 505 229 469 190 426 C190 426 183 500 183 500 C183 500 165 500 165 500 C165 500 44 460 44 460 C45 460 45 460 44 459 C45 455 45 452 44 452 C90 443 105 424 105 354 C105 354 105 96 105 96 C105 51 81 13 54 13 C54 13 44 13 44 13 C45 13 45 10 44 6 C45 3 45 0 44 0 C44 0 105 0 105 0 C105 0 150 0 150 0 C150 0 195 0 195 0 C195 0 256 0 256 0 C255 0 255 3 256 6 C255 10 255 13 256 13 C256 13 247 13 247 13 C219 13 195 51 195 96 C195 96 195 379 195 379 C195 379 195 380 195 380 C195 380 195 380 195 380 C195 380 192 414 192 414 L192 414 Z " />
<glyph glyph-name="s" unicode="s" horiz-adv-x="420" d="M45 133 C45 133 45 38 45 38 C76 15 146 -5 197 -5 C291 -5 371 65 371 147 C371 193 319 255 258 282 C186 314 124 368 124 399 C124 446 170 485 223 485 C227 485 237 482 250 477 C287 460 322 425 332 394 C334 390 336 382 338 377 C338 377 348 377 348 377 C348 377 348 466 348 466 C309 487 251 505 223 505 C132 505 55 442 55 368 C55 321 119 252 195 218 C249 194 296 146 296 113 C296 60 253 15 203 15 C201 15 198 15 196 15 C196 15 196 16 196 16 C146 18 85 62 64 111 C61 117 57 127 54 133 C54 133 45 133 45 133 L45 133 Z " />
<glyph glyph-name="t" unicode="t" horiz-adv-x="351" d="M320 500 C320 500 185 500 185 500 C185 500 185 640 185 640 C185 640 170 640 170 640 C170 640 105 487 105 487 C105 487 105 487 105 487 C105 487 167 634 167 634 C133 556 69 483 26 475 C26 475 25 475 25 475 C25 475 25 465 25 465 C25 465 95 465 95 465 C95 465 95 113 95 113 C95 30 123 -5 190 -5 C232 -5 288 27 332 64 C332 64 325 71 325 71 C302 52 268 35 235 35 C199 35 184 54 184 97 C184 97 185 465 185 465 C185 465 320 465 320 465 C320 465 320 500 320 500 L320 500 Z " />
<glyph glyph-name="u" unicode="u" horiz-adv-x="566" d="M531 48 C488 57 472 73 471 133 C471 133 471 146 471 146 C471 146 471 500 471 500 C471 500 426 500 426 500 C426 500 381 500 381 500 C381 500 320 500 320 500 C320 500 320 487 320 487 C320 487 329 487 329 487 C357 487 381 449 381 404 C381 404 381 121 381 121 C381 121 381 79 381 79 C365 65 331 54 285 54 C214 54 165 105 165 164 C165 164 165 500 165 500 C165 500 120 500 120 500 C120 500 75 500 75 500 C75 500 14 500 14 500 C15 500 15 497 14 494 C15 490 15 487 14 487 C14 487 24 487 24 487 C51 487 75 449 75 404 C75 404 75 155 75 155 C75 68 132 -5 214 -5 C280 -5 343 25 381 63 C381 63 381 23 381 23 C381 23 381 0 381 0 C381 0 399 0 399 0 C399 0 531 40 531 40 C531 40 531 48 531 48 L531 48 Z " />
<glyph glyph-name="v" unicode="v" horiz-adv-x="588" d="M541 500 C541 500 485 500 485 500 C485 500 470 500 470 500 C470 500 455 500 455 500 C455 500 395 500 395 500 C395 500 395 487 395 487 C395 487 403 487 403 487 C427 487 435 455 423 416 C423 416 305 105 305 105 C305 105 187 404 187 404 C187 404 187 404 187 404 C169 449 176 487 201 487 C201 487 210 487 210 487 C210 487 210 500 210 500 C210 500 149 500 149 500 C149 500 97 500 97 500 C97 500 46 500 46 500 C46 500 -9 500 -9 500 C-9 500 -9 487 -9 487 C-9 487 0 487 0 487 C27 487 67 449 86 404 C86 404 86 404 86 404 C86 404 261 -10 261 -10 C261 -10 276 -10 276 -10 C276 -10 446 404 446 404 C446 404 446 404 446 404 C464 449 504 487 532 487 C532 487 541 487 541 487 C541 487 541 500 541 500 L541 500 Z " />
<glyph glyph-name="w" unicode="w" horiz-adv-x="889" d="M838 500 C838 500 794 500 794 500 C794 500 764 500 764 500 C764 500 679 500 679 500 C679 500 679 487 679 487 C679 487 693 487 693 487 C727 487 747 463 722 391 C722 391 614 105 614 105 C614 105 493 410 493 410 C473 468 491 487 522 487 C522 487 535 487 535 487 C535 487 535 500 535 500 C535 500 458 500 458 500 C458 500 355 500 355 500 C355 500 316 500 316 500 C316 500 316 487 316 487 C316 487 327 487 327 487 C345 487 370 463 401 390 C401 390 401 390 401 390 C401 390 414 360 414 360 C414 360 414 360 414 360 C414 360 314 102 314 102 C314 102 201 393 201 393 C201 393 201 393 201 393 C171 464 187 487 217 487 C217 487 229 487 229 487 C229 487 229 500 229 500 C229 500 159 500 159 500 C159 500 56 500 56 500 C56 500 13 500 13 500 C13 500 13 487 13 487 C13 487 24 487 24 487 C44 487 71 463 102 390 C102 390 102 390 102 390 C102 390 271 -10 271 -10 C271 -10 286 -10 286 -10 C286 -10 424 336 424 336 C424 336 570 -10 570 -10 C570 -10 585 -10 585 -10 C585 -10 757 410 757 410 C783 467 806 487 826 487 C826 487 838 487 838 487 C838 487 838 500 838 500 L838 500 Z " />
<glyph glyph-name="x" unicode="x" horiz-adv-x="556" d="M335 487 C335 487 346 487 346 487 C378 487 378 449 346 404 C346 404 346 404 346 404 C346 404 282 316 282 316 C282 316 224 404 224 404 C224 404 225 404 225 404 C195 449 195 487 224 487 C224 487 234 487 234 487 C234 487 234 500 234 500 C234 500 161 500 161 500 C161 500 106 500 106 500 C106 500 51 500 51 500 C51 500 11 500 11 500 C11 500 11 487 11 487 C11 487 18 487 18 487 C38 487 76 456 106 417 C106 417 223 240 223 240 C223 240 120 89 120 89 C88 47 38 13 9 13 C9 13 -1 13 -1 13 C-1 13 -1 0 -1 0 C-1 0 59 0 59 0 C59 0 74 0 74 0 C74 0 89 0 89 0 C89 0 186 0 186 0 C186 0 186 13 186 13 C186 13 172 13 172 13 C132 13 123 51 153 96 C153 96 153 96 153 96 C153 96 235 221 235 221 C235 221 325 85 325 85 C348 45 350 13 328 13 C328 13 321 13 321 13 C321 13 321 0 321 0 C321 0 381 0 381 0 C381 0 436 0 436 0 C436 0 491 0 491 0 C491 0 523 0 523 0 C523 0 523 13 523 13 C523 13 517 13 517 13 C499 13 458 51 428 96 C428 96 428 96 428 96 C428 96 292 302 292 302 C292 302 379 414 379 414 C414 455 462 487 487 487 C487 487 497 487 497 487 C496 487 496 490 497 494 C496 497 496 500 497 500 C497 500 446 500 446 500 C446 500 431 500 431 500 C431 500 416 500 416 500 C416 500 335 500 335 500 C335 500 335 487 335 487 L335 487 Z " />
<glyph glyph-name="y" unicode="y" horiz-adv-x="598" d="M572 500 C572 500 516 500 516 500 C516 500 501 500 501 500 C501 500 486 500 486 500 C486 500 426 500 426 500 C426 500 426 487 426 487 C426 487 434 487 434 487 C458 487 466 455 454 416 C454 416 336 105 336 105 C336 105 218 404 218 404 C218 404 218 404 218 404 C200 449 207 487 232 487 C232 487 241 487 241 487 C241 487 241 500 241 500 C241 500 180 500 180 500 C180 500 128 500 128 500 C128 500 77 500 77 500 C77 500 22 500 22 500 C22 500 22 487 22 487 C22 487 31 487 31 487 C58 487 98 449 117 404 C117 404 117 404 117 404 C117 404 287 3 287 3 C287 3 257 -64 257 -64 C229 -133 197 -171 166 -171 C142 -171 110 -146 86 -146 C62 -146 41 -163 41 -184 C41 -209 73 -230 111 -230 C179 -230 239 -174 281 -72 C281 -72 307 -10 307 -10 C307 -10 477 404 477 404 C477 404 477 404 477 404 C495 449 535 487 563 487 C563 487 572 487 572 487 C572 487 572 500 572 500 L572 500 Z " />
<glyph glyph-name="z" unicode="z" horiz-adv-x="483" d="M421 142 C421 142 413 123 413 123 C389 68 319 20 261 20 C261 20 162 20 162 20 C162 20 434 500 434 500 C434 500 382 500 382 500 C382 500 330 500 330 500 C330 500 167 500 167 500 C167 500 95 500 95 500 C95 500 70 500 70 500 C69 497 68 492 68 490 C61 467 51 429 45 406 C45 406 55 406 55 406 C55 406 64 417 64 417 C92 451 161 479 214 479 C214 479 214 479 214 479 C214 479 318 480 318 480 C318 480 45 0 45 0 C45 0 98 0 98 0 C98 0 151 0 151 0 C151 0 316 0 316 0 C316 0 408 0 408 0 C408 0 412 0 412 0 C413 3 413 7 414 10 C420 44 430 102 436 136 C430 138 421 142 421 142 C421 142 421 142 421 142 L421 142 Z " />
<glyph glyph-name="braceleft" unicode="&#x7b;" horiz-adv-x="249" d="M234 -120 C234 -120 234 -105 234 -105 C234 -105 214 -105 214 -105 C169 -105 130 -51 130 12 C130 12 130 153 130 153 C130 210 94 260 48 270 C94 280 130 330 130 388 C130 388 130 528 130 528 C130 591 169 645 215 645 C215 645 235 645 235 645 C235 645 235 660 235 660 C235 660 195 660 195 660 C122 660 60 599 60 528 C60 528 60 338 60 338 C60 305 37 277 10 278 C10 278 5 278 5 278 C5 278 5 263 5 263 C5 263 10 263 10 263 C37 262 60 235 60 203 C60 203 60 12 60 12 C60 -59 122 -120 194 -120 C194 -120 234 -120 234 -120 L234 -120 Z " />
<glyph glyph-name="bar" unicode="&#x7c;" horiz-adv-x="190" d="M60 770 C60 770 60 -234 60 -234 C60 -234 130 -234 130 -234 C130 -234 130 770 130 770 C130 770 60 770 60 770 L60 770 Z " />
<glyph glyph-name="braceright" unicode="&#x7d;" horiz-adv-x="249" d="M5 660 C5 660 5 645 5 645 C5 645 25 645 25 645 C71 645 110 591 110 528 C110 528 110 387 110 387 C110 330 146 280 192 270 C146 260 110 210 109 152 C109 152 110 12 110 12 C110 -51 71 -105 25 -105 C25 -105 5 -105 5 -105 C5 -105 5 -120 5 -120 C5 -120 45 -120 45 -120 C118 -120 180 -59 180 12 C180 12 180 202 180 202 C180 235 203 263 230 263 C230 263 235 263 235 263 C235 263 235 278 235 278 C235 278 230 278 230 278 C203 278 180 305 180 337 C180 337 180 528 180 528 C180 599 118 660 45 660 C45 660 5 660 5 660 L5 660 Z " />
<glyph glyph-name="[namenotfound]" unicode="&#xa0;" horiz-adv-x="220" d="" />
<glyph glyph-name="exclamdown" unicode="&#xa1;" horiz-adv-x="234" d="M109 505 C74 505 44 475 44 440 C44 405 74 375 109 375 C144 375 174 405 174 440 C174 475 144 505 109 505 L109 505 Z M60 -100 C56 -135 82 -165 115 -165 C150 -165 175 -135 170 -100 C170 -100 115 300 115 300 C115 300 103 300 103 300 C103 300 60 -100 60 -100 L60 -100 Z " />
<glyph glyph-name="cent" unicode="&#xa2;" horiz-adv-x="503" d="M272 575 C272 575 272 503 272 503 C149 486 50 368 50 231 C50 104 143 -5 252 -5 C258 -5 265 -5 272 -4 C272 -4 272 -75 272 -75 C272 -75 302 -75 302 -75 C302 -75 302 2 302 2 C355 16 416 48 453 84 C453 84 444 93 444 93 C420 70 366 50 327 50 C319 50 310 51 302 52 C302 52 302 479 302 479 C336 474 365 441 369 404 C371 380 392 360 414 360 C436 360 454 378 454 400 C449 457 379 505 302 505 C302 505 302 575 302 575 C302 575 272 575 272 575 L272 575 Z M272 61 C200 89 145 172 145 266 C145 372 201 463 272 478 C272 478 272 61 272 61 L272 61 Z " />
<glyph glyph-name="guillemotleft" unicode="&#xab;" horiz-adv-x="459" d="M276 250 C276 250 412 456 412 456 C412 456 402 465 402 465 C402 465 185 255 185 255 C185 255 185 245 185 245 C185 245 405 35 405 35 C405 35 415 44 415 44 C415 44 276 250 276 250 L276 250 Z M111 250 C111 250 247 456 247 456 C247 456 237 465 237 465 C237 465 20 255 20 255 C20 255 20 245 20 245 C20 245 240 35 240 35 C240 35 249 44 249 44 C249 44 111 250 111 250 L111 250 Z " />
<glyph glyph-name="guillemotright" unicode="&#xbb;" horiz-adv-x="459" d="M183 250 C183 250 47 456 47 456 C47 456 57 465 57 465 C57 465 274 255 274 255 C274 255 274 245 274 245 C274 245 55 35 55 35 C55 35 45 44 45 44 C45 44 183 250 183 250 L183 250 Z M348 250 C348 250 213 456 213 456 C213 456 223 465 223 465 C223 465 440 255 440 255 C440 255 440 245 440 245 C440 245 220 35 220 35 C220 35 210 44 210 44 C210 44 348 250 348 250 L348 250 Z " />
<glyph glyph-name="questiondown" unicode="&#xbf;" horiz-adv-x="370" d="M231 505 C196 505 166 475 166 440 C166 405 196 375 231 375 C266 375 296 405 296 440 C296 475 266 505 231 505 L231 505 Z M243 126 C251 126 258 132 257 140 C257 140 237 295 237 295 C237 295 225 295 225 295 C225 295 212 195 212 195 C212 195 177 195 177 195 C69 195 35 113 35 73 C35 -56 133 -165 249 -165 C294 -165 333 -137 333 -105 C333 -84 315 -66 294 -66 C271 -66 244 -95 221 -95 C132 -95 56 -22 56 63 C56 83 93 126 208 126 C208 126 243 126 243 126 L243 126 Z " />
<glyph glyph-name="Agrave" unicode="&#xc0;" horiz-adv-x="653" d="M647 13 C647 13 639 13 639 13 C614 13 577 51 559 96 C559 96 559 96 559 96 C559 96 321 675 321 675 C321 675 297 675 297 675 C297 675 91 96 91 96 C91 96 91 96 91 96 C75 51 37 13 10 13 C10 13 1 13 1 13 C1 13 1 0 1 0 C1 0 57 0 57 0 C57 0 73 0 73 0 C73 0 89 0 89 0 C89 0 178 0 178 0 C178 0 178 13 178 13 C178 13 165 13 165 13 C127 13 110 55 125 105 C125 105 167 227 167 227 C167 227 403 227 403 227 C403 227 454 96 454 96 C454 96 454 96 454 96 C472 51 456 13 420 13 C420 13 408 13 408 13 C408 13 408 0 408 0 C408 0 492 0 492 0 C492 0 545 0 545 0 C545 0 598 0 598 0 C598 0 647 0 647 0 C647 0 647 13 647 13 L647 13 Z M311 852 C296 880 282 904 277 904 C263 904 226 877 226 866 C226 860 244 838 265 816 C265 816 382 690 382 690 C382 690 392 698 392 698 C392 698 311 852 311 852 L311 852 Z M393 252 C393 252 176 252 176 252 C176 252 277 547 277 547 C277 547 393 252 393 252 L393 252 Z " />
<glyph glyph-name="Aacute" unicode="&#xc1;" horiz-adv-x="653" d="M248 690 C248 690 362 816 362 816 C382 839 399 862 400 866 C400 877 362 904 348 904 C345 904 331 880 316 852 C316 852 238 698 238 698 C238 698 248 690 248 690 L248 690 Z M647 13 C647 13 639 13 639 13 C614 13 577 51 559 96 C559 96 559 96 559 96 C559 96 321 675 321 675 C321 675 297 675 297 675 C297 675 91 96 91 96 C91 96 91 96 91 96 C75 51 37 13 10 13 C10 13 1 13 1 13 C1 13 1 0 1 0 C1 0 57 0 57 0 C57 0 73 0 73 0 C73 0 89 0 89 0 C89 0 178 0 178 0 C178 0 178 13 178 13 C178 13 165 13 165 13 C127 13 110 55 125 105 C125 105 167 227 167 227 C167 227 403 227 403 227 C403 227 454 96 454 96 C454 96 454 96 454 96 C472 51 456 13 420 13 C420 13 408 13 408 13 C408 13 408 0 408 0 C408 0 492 0 492 0 C492 0 545 0 545 0 C545 0 598 0 598 0 C598 0 647 0 647 0 C647 0 647 13 647 13 L647 13 Z M393 252 C393 252 176 252 176 252 C176 252 277 547 277 547 C277 547 393 252 393 252 L393 252 Z " />
<glyph glyph-name="Acircumflex" unicode="&#xc2;" horiz-adv-x="653" d="M647 13 C647 13 639 13 639 13 C614 13 577 51 559 96 C559 96 559 96 559 96 C559 96 321 675 321 675 C321 675 297 675 297 675 C297 675 91 96 91 96 C91 96 91 96 91 96 C75 51 37 13 10 13 C10 13 1 13 1 13 C1 13 1 0 1 0 C1 0 57 0 57 0 C57 0 73 0 73 0 C73 0 89 0 89 0 C89 0 178 0 178 0 C178 0 178 13 178 13 C178 13 165 13 165 13 C127 13 110 55 125 105 C125 105 167 227 167 227 C167 227 403 227 403 227 C403 227 454 96 454 96 C454 96 454 96 454 96 C472 51 456 13 420 13 C420 13 408 13 408 13 C408 13 408 0 408 0 C408 0 492 0 492 0 C492 0 545 0 545 0 C545 0 598 0 598 0 C598 0 647 0 647 0 C647 0 647 13 647 13 L647 13 Z M309 818 C309 818 421 692 421 692 C421 692 430 700 430 700 C430 700 338 879 338 879 C334 886 322 905 309 905 C297 905 284 886 281 880 C281 880 189 700 189 700 C189 700 198 692 198 692 C198 692 309 818 309 818 L309 818 Z M393 252 C393 252 176 252 176 252 C176 252 277 547 277 547 C277 547 393 252 393 252 L393 252 Z " />
<glyph glyph-name="Atilde" unicode="&#xc3;" horiz-adv-x="653" d="M169 755 C169 787 188 815 210 815 C263 815 331 753 384 753 C428 753 465 808 465 872 C465 872 450 872 450 872 C450 840 429 812 403 812 C350 812 283 875 230 875 C189 875 154 820 154 755 C154 755 169 755 169 755 L169 755 Z M647 13 C647 13 639 13 639 13 C614 13 577 51 559 96 C559 96 559 96 559 96 C559 96 321 675 321 675 C321 675 297 675 297 675 C297 675 91 96 91 96 C91 96 91 96 91 96 C75 51 37 13 10 13 C10 13 1 13 1 13 C1 13 1 0 1 0 C1 0 57 0 57 0 C57 0 73 0 73 0 C73 0 89 0 89 0 C89 0 178 0 178 0 C178 0 178 13 178 13 C178 13 165 13 165 13 C127 13 110 55 125 105 C125 105 167 227 167 227 C167 227 403 227 403 227 C403 227 454 96 454 96 C454 96 454 96 454 96 C472 51 456 13 420 13 C420 13 408 13 408 13 C408 13 408 0 408 0 C408 0 492 0 492 0 C492 0 545 0 545 0 C545 0 598 0 598 0 C598 0 647 0 647 0 C647 0 647 13 647 13 L647 13 Z M393 252 C393 252 176 252 176 252 C176 252 277 547 277 547 C277 547 393 252 393 252 L393 252 Z " />
<glyph glyph-name="Adieresis" unicode="&#xc4;" horiz-adv-x="653" d="M405 730 C435 730 460 755 460 785 C460 815 435 840 405 840 C375 840 350 815 350 785 C350 755 375 730 405 730 L405 730 Z M213 730 C243 730 268 755 268 785 C268 815 243 840 213 840 C183 840 158 815 158 785 C158 755 183 730 213 730 L213 730 Z M647 13 C647 13 639 13 639 13 C614 13 577 51 559 96 C559 96 559 96 559 96 C559 96 321 675 321 675 C321 675 297 675 297 675 C297 675 91 96 91 96 C91 96 91 96 91 96 C75 51 37 13 10 13 C10 13 1 13 1 13 C1 13 1 0 1 0 C1 0 57 0 57 0 C57 0 73 0 73 0 C73 0 89 0 89 0 C89 0 178 0 178 0 C178 0 178 13 178 13 C178 13 165 13 165 13 C127 13 110 55 125 105 C125 105 167 227 167 227 C167 227 403 227 403 227 C403 227 454 96 454 96 C454 96 454 96 454 96 C472 51 456 13 420 13 C420 13 408 13 408 13 C408 13 408 0 408 0 C408 0 492 0 492 0 C492 0 545 0 545 0 C545 0 598 0 598 0 C598 0 647 0 647 0 C647 0 647 13 647 13 L647 13 Z M393 252 C393 252 176 252 176 252 C176 252 277 547 277 547 C277 547 393 252 393 252 L393 252 Z " />
<glyph glyph-name="Aring" unicode="&#xc5;" horiz-adv-x="653" d="M309 715 C275 715 239 752 239 788 C239 827 271 860 309 860 C347 860 379 827 379 788 C379 752 343 715 309 715 L309 715 Z M214 788 C214 743 263 695 309 695 C355 695 404 743 404 788 C404 837 360 880 309 880 C258 880 214 837 214 788 L214 788 Z M647 13 C647 13 639 13 639 13 C614 13 577 51 559 96 C559 96 559 96 559 96 C559 96 321 675 321 675 C321 675 297 675 297 675 C297 675 91 96 91 96 C91 96 91 96 91 96 C75 51 37 13 10 13 C10 13 1 13 1 13 C1 13 1 0 1 0 C1 0 57 0 57 0 C57 0 73 0 73 0 C73 0 89 0 89 0 C89 0 178 0 178 0 C178 0 178 13 178 13 C178 13 165 13 165 13 C127 13 110 55 125 105 C125 105 167 227 167 227 C167 227 403 227 403 227 C403 227 454 96 454 96 C454 96 454 96 454 96 C472 51 456 13 420 13 C420 13 408 13 408 13 C408 13 408 0 408 0 C408 0 492 0 492 0 C492 0 545 0 545 0 C545 0 598 0 598 0 C598 0 647 0 647 0 C647 0 647 13 647 13 L647 13 Z M393 252 C393 252 176 252 176 252 C176 252 277 547 277 547 C277 547 393 252 393 252 L393 252 Z " />
<glyph glyph-name="Ccedilla" unicode="&#xc7;" horiz-adv-x="708" d="M648 484 C648 484 648 607 648 607 C591 638 475 665 397 665 C209 665 50 511 50 330 C50 149 209 -5 397 -5 C484 -5 600 26 649 63 C649 63 642 73 642 73 C642 73 642 73 642 73 C642 73 649 63 649 63 C649 63 649 184 649 184 C649 184 638 184 638 184 C635 176 630 162 627 153 C603 87 508 25 420 20 C420 20 420 20 420 20 C412 19 404 19 397 19 C267 19 157 162 157 330 C157 498 267 641 397 641 C419 641 443 639 469 635 C536 621 607 568 626 514 C629 506 634 492 637 484 C637 484 648 484 648 484 L648 484 Z " />
<glyph glyph-name="Egrave" unicode="&#xc8;" horiz-adv-x="594" d="M429 261 C429 261 429 330 429 330 C429 330 429 342 429 342 C429 342 429 354 429 354 C429 354 429 415 429 415 C429 415 418 415 418 415 C418 415 415 406 415 406 C407 378 349 355 290 354 C290 354 199 354 199 354 C199 354 199 636 199 636 C199 636 331 636 331 636 C395 636 464 593 481 543 C481 543 486 527 486 527 C486 527 496 527 496 527 C496 527 496 648 496 648 C496 648 496 660 496 660 C496 660 484 660 484 660 C484 660 399 660 399 660 C399 660 199 660 199 660 C199 660 150 660 150 660 C150 660 101 660 101 660 C101 660 41 660 41 660 C41 660 41 647 41 647 C41 647 50 647 50 647 C77 647 101 609 101 564 C101 564 101 96 101 96 C101 51 77 13 50 13 C50 13 41 13 41 13 C41 13 41 0 41 0 C41 0 101 0 101 0 C101 0 150 0 150 0 C150 0 199 0 199 0 C199 0 401 0 401 0 C401 0 494 0 494 0 C494 0 497 0 497 0 C498 3 499 9 499 12 C505 45 515 101 521 133 C521 134 521 134 520 133 C515 134 511 134 511 133 C511 133 503 117 503 117 C477 67 401 24 337 24 C337 24 199 24 199 24 C199 24 199 330 199 330 C199 330 290 330 290 330 C349 330 407 303 415 272 C415 272 418 261 418 261 C418 261 429 261 429 261 L429 261 Z M278 852 C264 880 249 904 245 904 C231 904 193 877 193 866 C193 860 211 838 232 816 C232 816 349 690 349 690 C349 690 359 698 359 698 C359 698 278 852 278 852 L278 852 Z " />
<glyph glyph-name="Eacute" unicode="&#xc9;" horiz-adv-x="594" d="M262 690 C262 690 376 816 376 816 C396 839 414 862 413 866 C413 877 376 904 362 904 C359 904 344 880 330 852 C330 852 252 698 252 698 C252 698 262 690 262 690 L262 690 Z M429 261 C429 261 429 330 429 330 C429 330 429 342 429 342 C429 342 429 354 429 354 C429 354 429 415 429 415 C429 415 418 415 418 415 C418 415 415 406 415 406 C407 378 349 355 290 354 C290 354 199 354 199 354 C199 354 199 636 199 636 C199 636 331 636 331 636 C395 636 464 593 481 543 C481 543 486 527 486 527 C486 527 496 527 496 527 C496 527 496 648 496 648 C496 648 496 660 496 660 C496 660 484 660 484 660 C484 660 399 660 399 660 C399 660 199 660 199 660 C199 660 150 660 150 660 C150 660 101 660 101 660 C101 660 41 660 41 660 C41 660 41 647 41 647 C41 647 50 647 50 647 C77 647 101 609 101 564 C101 564 101 96 101 96 C101 51 77 13 50 13 C50 13 41 13 41 13 C41 13 41 0 41 0 C41 0 101 0 101 0 C101 0 150 0 150 0 C150 0 199 0 199 0 C199 0 401 0 401 0 C401 0 494 0 494 0 C494 0 497 0 497 0 C498 3 499 9 499 12 C505 45 515 101 521 133 C521 134 521 134 520 133 C515 134 511 134 511 133 C511 133 503 117 503 117 C477 67 401 24 337 24 C337 24 199 24 199 24 C199 24 199 330 199 330 C199 330 290 330 290 330 C349 330 407 303 415 272 C415 272 418 261 418 261 C418 261 429 261 429 261 L429 261 Z " />
<glyph glyph-name="Ecircumflex" unicode="&#xca;" horiz-adv-x="594" d="M429 261 C429 261 429 330 429 330 C429 330 429 342 429 342 C429 342 429 354 429 354 C429 354 429 415 429 415 C429 415 418 415 418 415 C418 415 415 406 415 406 C407 378 349 355 290 354 C290 354 199 354 199 354 C199 354 199 636 199 636 C199 636 331 636 331 636 C395 636 464 593 481 543 C481 543 486 527 486 527 C486 527 496 527 496 527 C496 527 496 648 496 648 C496 648 496 660 496 660 C496 660 484 660 484 660 C484 660 399 660 399 660 C399 660 199 660 199 660 C199 660 150 660 150 660 C150 660 101 660 101 660 C101 660 41 660 41 660 C41 660 41 647 41 647 C41 647 50 647 50 647 C77 647 101 609 101 564 C101 564 101 96 101 96 C101 51 77 13 50 13 C50 13 41 13 41 13 C41 13 41 0 41 0 C41 0 101 0 101 0 C101 0 150 0 150 0 C150 0 199 0 199 0 C199 0 401 0 401 0 C401 0 494 0 494 0 C494 0 497 0 497 0 C498 3 499 9 499 12 C505 45 515 101 521 133 C521 134 521 134 520 133 C515 134 511 134 511 133 C511 133 503 117 503 117 C477 67 401 24 337 24 C337 24 199 24 199 24 C199 24 199 330 199 330 C199 330 290 330 290 330 C349 330 407 303 415 272 C415 272 418 261 418 261 C418 261 429 261 429 261 L429 261 Z M293 818 C293 818 404 692 404 692 C404 692 413 700 413 700 C413 700 321 879 321 879 C318 886 305 905 292 905 C280 905 267 886 264 880 C264 880 172 700 172 700 C172 700 181 692 181 692 C181 692 293 818 293 818 L293 818 Z " />
<glyph glyph-name="Edieresis" unicode="&#xcb;" horiz-adv-x="594" d="M388 730 C418 730 443 755 443 785 C443 815 418 840 388 840 C358 840 333 815 333 785 C333 755 358 730 388 730 L388 730 Z M197 730 C226 730 252 755 252 785 C252 815 226 840 197 840 C167 840 142 815 142 785 C142 755 167 730 197 730 L197 730 Z M429 261 C429 261 429 330 429 330 C429 330 429 342 429 342 C429 342 429 354 429 354 C429 354 429 415 429 415 C429 415 418 415 418 415 C418 415 415 406 415 406 C407 378 349 355 290 354 C290 354 199 354 199 354 C199 354 199 636 199 636 C199 636 331 636 331 636 C395 636 464 593 481 543 C481 543 486 527 486 527 C486 527 496 527 496 527 C496 527 496 648 496 648 C496 648 496 660 496 660 C496 660 484 660 484 660 C484 660 399 660 399 660 C399 660 199 660 199 660 C199 660 150 660 150 660 C150 660 101 660 101 660 C101 660 41 660 41 660 C41 660 41 647 41 647 C41 647 50 647 50 647 C77 647 101 609 101 564 C101 564 101 96 101 96 C101 51 77 13 50 13 C50 13 41 13 41 13 C41 13 41 0 41 0 C41 0 101 0 101 0 C101 0 150 0 150 0 C150 0 199 0 199 0 C199 0 401 0 401 0 C401 0 494 0 494 0 C494 0 497 0 497 0 C498 3 499 9 499 12 C505 45 515 101 521 133 C521 134 521 134 520 133 C515 134 511 134 511 133 C511 133 503 117 503 117 C477 67 401 24 337 24 C337 24 199 24 199 24 C199 24 199 330 199 330 C199 330 290 330 290 330 C349 330 407 303 415 272 C415 272 418 261 418 261 C418 261 429 261 429 261 L429 261 Z " />
<glyph glyph-name="Igrave" unicode="&#xcc;" horiz-adv-x="299" d="M260 660 C260 660 199 660 199 660 C199 660 151 660 151 660 C151 660 102 660 102 660 C102 660 41 660 41 660 C41 660 41 647 41 647 C41 647 51 647 51 647 C78 647 102 609 102 564 C102 564 102 96 102 96 C102 51 78 13 51 13 C51 13 41 13 41 13 C41 13 41 0 41 0 C41 0 102 0 102 0 C102 0 151 0 151 0 C151 0 199 0 199 0 C199 0 260 0 260 0 C260 0 260 13 260 13 C260 13 251 13 251 13 C223 13 199 51 199 96 C199 96 199 564 199 564 C199 609 223 647 251 647 C251 647 260 647 260 647 C260 647 260 660 260 660 L260 660 Z M152 852 C137 880 123 904 119 904 C105 904 67 877 67 866 C67 860 85 838 106 816 C106 816 223 690 223 690 C223 690 233 698 233 698 C233 698 152 852 152 852 L152 852 Z " />
<glyph glyph-name="Iacute" unicode="&#xcd;" horiz-adv-x="299" d="M89 690 C89 690 203 816 203 816 C224 839 241 862 241 866 C241 877 204 904 190 904 C186 904 172 880 158 852 C158 852 79 698 79 698 C79 698 89 690 89 690 L89 690 Z M260 660 C260 660 199 660 199 660 C199 660 151 660 151 660 C151 660 102 660 102 660 C102 660 41 660 41 660 C41 660 41 647 41 647 C41 647 51 647 51 647 C78 647 102 609 102 564 C102 564 102 96 102 96 C102 51 78 13 51 13 C51 13 41 13 41 13 C41 13 41 0 41 0 C41 0 102 0 102 0 C102 0 151 0 151 0 C151 0 199 0 199 0 C199 0 260 0 260 0 C260 0 260 13 260 13 C260 13 251 13 251 13 C223 13 199 51 199 96 C199 96 199 564 199 564 C199 609 223 647 251 647 C251 647 260 647 260 647 C260 647 260 660 260 660 L260 660 Z " />
<glyph glyph-name="Icircumflex" unicode="&#xce;" horiz-adv-x="299" d="M260 660 C260 660 199 660 199 660 C199 660 151 660 151 660 C151 660 102 660 102 660 C102 660 41 660 41 660 C41 660 41 647 41 647 C41 647 51 647 51 647 C78 647 102 609 102 564 C102 564 102 96 102 96 C102 51 78 13 51 13 C51 13 41 13 41 13 C41 13 41 0 41 0 C41 0 102 0 102 0 C102 0 151 0 151 0 C151 0 199 0 199 0 C199 0 260 0 260 0 C260 0 260 13 260 13 C260 13 251 13 251 13 C223 13 199 51 199 96 C199 96 199 564 199 564 C199 609 223 647 251 647 C251 647 260 647 260 647 C260 647 260 660 260 660 L260 660 Z M151 818 C151 818 262 692 262 692 C262 692 271 700 271 700 C271 700 179 879 179 879 C176 886 163 905 151 905 C138 905 126 886 122 880 C122 880 30 700 30 700 C30 700 39 692 39 692 C39 692 151 818 151 818 L151 818 Z " />
<glyph glyph-name="Idieresis" unicode="&#xcf;" horiz-adv-x="299" d="M247 730 C276 730 302 755 302 785 C302 815 276 840 247 840 C217 840 192 815 192 785 C192 755 217 730 247 730 L247 730 Z M55 730 C85 730 110 755 110 785 C110 815 85 840 55 840 C25 840 0 815 0 785 C0 755 25 730 55 730 L55 730 Z M260 660 C260 660 199 660 199 660 C199 660 151 660 151 660 C151 660 102 660 102 660 C102 660 41 660 41 660 C41 660 41 647 41 647 C41 647 51 647 51 647 C78 647 102 609 102 564 C102 564 102 96 102 96 C102 51 78 13 51 13 C51 13 41 13 41 13 C41 13 41 0 41 0 C41 0 102 0 102 0 C102 0 151 0 151 0 C151 0 199 0 199 0 C199 0 260 0 260 0 C260 0 260 13 260 13 C260 13 251 13 251 13 C223 13 199 51 199 96 C199 96 199 564 199 564 C199 609 223 647 251 647 C251 647 260 647 260 647 C260 647 260 660 260 660 L260 660 Z " />
<glyph glyph-name="Ntilde" unicode="&#xd1;" horiz-adv-x="683" d="M202 755 C202 787 221 815 244 815 C297 815 364 753 417 753 C461 753 498 808 498 872 C498 872 483 872 483 872 C483 840 462 812 437 812 C384 812 316 875 263 875 C222 875 187 820 187 755 C187 755 202 755 202 755 L202 755 Z M645 660 C645 660 585 660 585 660 C585 660 570 660 570 660 C570 660 556 660 556 660 C556 660 495 660 495 660 C495 660 495 647 495 647 C495 647 504 647 504 647 C532 647 556 609 556 564 C556 564 556 142 556 142 C556 142 186 660 186 660 C186 660 129 618 129 618 C129 618 129 619 129 619 C129 619 186 660 186 660 C186 660 129 660 129 660 C129 660 115 660 115 660 C115 660 100 660 100 660 C100 660 40 660 40 660 C40 660 40 647 40 647 C40 647 49 647 49 647 C76 647 100 609 100 564 C100 564 100 96 100 96 C100 51 76 13 49 13 C49 13 40 13 40 13 C40 13 40 0 40 0 C40 0 100 0 100 0 C100 0 115 0 115 0 C115 0 129 0 129 0 C129 0 190 0 190 0 C190 0 190 13 190 13 C190 13 181 13 181 13 C153 13 129 51 129 96 C129 96 129 574 129 574 C129 574 511 42 511 42 C511 42 556 -20 556 -20 C556 -20 585 -20 585 -20 C585 -20 585 77 585 77 C585 77 585 564 585 564 C585 609 608 647 636 647 C636 647 645 647 645 647 C645 647 645 660 645 660 L645 660 Z " />
<glyph glyph-name="Ograve" unicode="&#xd2;" horiz-adv-x="759" d="M380 19 C247 19 157 179 157 330 C157 481 247 641 380 641 C512 641 602 481 602 330 C602 179 512 19 380 19 L380 19 Z M50 330 C50 167 184 -5 380 -5 C575 -5 709 167 709 330 C709 493 575 665 380 665 C184 665 50 493 50 330 L50 330 Z M381 852 C366 880 352 904 348 904 C334 904 296 877 296 866 C296 860 314 838 335 816 C335 816 452 690 452 690 C452 690 462 698 462 698 C462 698 381 852 381 852 L381 852 Z " />
<glyph glyph-name="Oacute" unicode="&#xd3;" horiz-adv-x="759" d="M356 690 C356 690 470 816 470 816 C491 839 508 862 508 866 C508 877 471 904 457 904 C453 904 439 880 424 852 C424 852 346 698 346 698 C346 698 356 690 356 690 L356 690 Z M380 19 C247 19 157 179 157 330 C157 481 247 641 380 641 C512 641 602 481 602 330 C602 179 512 19 380 19 L380 19 Z M50 330 C50 167 184 -5 380 -5 C575 -5 709 167 709 330 C709 493 575 665 380 665 C184 665 50 493 50 330 L50 330 Z " />
<glyph glyph-name="Ocircumflex" unicode="&#xd4;" horiz-adv-x="759" d="M380 19 C247 19 157 179 157 330 C157 481 247 641 380 641 C512 641 602 481 602 330 C602 179 512 19 380 19 L380 19 Z M50 330 C50 167 184 -5 380 -5 C575 -5 709 167 709 330 C709 493 575 665 380 665 C184 665 50 493 50 330 L50 330 Z M380 818 C380 818 491 692 491 692 C491 692 500 700 500 700 C500 700 408 879 408 879 C405 886 392 905 380 905 C367 905 355 886 351 880 C351 880 259 700 259 700 C259 700 268 692 268 692 C268 692 380 818 380 818 L380 818 Z " />
<glyph glyph-name="Otilde" unicode="&#xd5;" horiz-adv-x="759" d="M239 755 C239 787 258 815 281 815 C334 815 401 753 454 753 C498 753 535 808 535 872 C535 872 520 872 520 872 C520 840 499 812 474 812 C421 812 353 875 300 875 C259 875 224 820 224 755 C224 755 239 755 239 755 L239 755 Z M380 19 C247 19 157 179 157 330 C157 481 247 641 380 641 C512 641 602 481 602 330 C602 179 512 19 380 19 L380 19 Z M50 330 C50 167 184 -5 380 -5 C575 -5 709 167 709 330 C709 493 575 665 380 665 C184 665 50 493 50 330 L50 330 Z " />
<glyph glyph-name="Odieresis" unicode="&#xd6;" horiz-adv-x="759" d="M476 730 C505 730 531 755 531 785 C531 815 505 840 476 840 C446 840 421 815 421 785 C421 755 446 730 476 730 L476 730 Z M284 730 C314 730 339 755 339 785 C339 815 314 840 284 840 C254 840 229 815 229 785 C229 755 254 730 284 730 L284 730 Z M380 19 C247 19 157 179 157 330 C157 481 247 641 380 641 C512 641 602 481 602 330 C602 179 512 19 380 19 L380 19 Z M50 330 C50 167 184 -5 380 -5 C575 -5 709 167 709 330 C709 493 575 665 380 665 C184 665 50 493 50 330 L50 330 Z " />
<glyph glyph-name="Oslash" unicode="&#xd8;" horiz-adv-x="759" d="M66 -20 C66 -20 164 79 164 79 C220 28 294 -5 380 -5 C575 -5 709 167 709 330 C709 408 679 487 626 549 C626 549 725 650 725 650 C725 650 693 680 693 680 C693 680 596 581 596 581 C540 632 466 665 380 665 C184 665 50 493 50 330 C50 252 80 173 134 110 C134 110 35 10 35 10 C35 10 66 -20 66 -20 L66 -20 Z M380 19 C310 19 251 64 212 128 C212 128 568 491 568 491 C590 441 602 385 602 330 C602 179 512 19 380 19 C380 19 380 19 380 19 L380 19 Z M191 169 C169 218 157 275 157 330 C157 481 247 641 380 641 C450 641 508 596 547 532 C547 532 191 169 191 169 L191 169 Z " />
<glyph glyph-name="Ugrave" unicode="&#xd9;" horiz-adv-x="649" d="M630 660 C630 660 561 660 561 660 C561 660 546 660 546 660 C546 660 531 660 531 660 C531 660 458 660 458 660 C458 660 458 647 458 647 C458 647 469 647 469 647 C500 647 528 608 531 561 C531 561 530 195 530 195 C530 105 465 29 345 29 C244 29 189 106 189 196 C189 196 189 564 189 564 C189 564 189 569 189 569 C190 612 213 647 240 647 C240 647 249 647 249 647 C249 647 249 660 249 660 C249 660 189 660 189 660 C189 660 140 660 140 660 C140 660 91 660 91 660 C91 660 31 660 31 660 C31 660 31 647 31 647 C31 647 40 647 40 647 C67 647 91 609 91 564 C91 564 91 215 91 215 C91 96 175 -5 331 -5 C480 -5 561 82 561 185 C561 185 561 554 561 554 C561 604 588 647 619 647 C619 647 630 647 630 647 C630 647 630 660 630 660 L630 660 Z M327 852 C313 880 299 904 294 904 C280 904 243 877 243 866 C243 860 261 838 282 816 C282 816 398 690 398 690 C398 690 409 698 409 698 C409 698 327 852 327 852 L327 852 Z " />
<glyph glyph-name="Uacute" unicode="&#xda;" horiz-adv-x="649" d="M326 690 C326 690 440 816 440 816 C460 839 477 862 477 866 C477 877 440 904 426 904 C423 904 408 880 394 852 C394 852 316 698 316 698 C316 698 326 690 326 690 L326 690 Z M630 660 C630 660 561 660 561 660 C561 660 546 660 546 660 C546 660 531 660 531 660 C531 660 458 660 458 660 C458 660 458 647 458 647 C458 647 469 647 469 647 C500 647 528 608 531 561 C531 561 530 195 530 195 C530 105 465 29 345 29 C244 29 189 106 189 196 C189 196 189 564 189 564 C189 564 189 569 189 569 C190 612 213 647 240 647 C240 647 249 647 249 647 C249 647 249 660 249 660 C249 660 189 660 189 660 C189 660 140 660 140 660 C140 660 91 660 91 660 C91 660 31 660 31 660 C31 660 31 647 31 647 C31 647 40 647 40 647 C67 647 91 609 91 564 C91 564 91 215 91 215 C91 96 175 -5 331 -5 C480 -5 561 82 561 185 C561 185 561 554 561 554 C561 604 588 647 619 647 C619 647 630 647 630 647 C630 647 630 660 630 660 L630 660 Z " />
<glyph glyph-name="Ucircumflex" unicode="&#xdb;" horiz-adv-x="649" d="M630 660 C630 660 561 660 561 660 C561 660 546 660 546 660 C546 660 531 660 531 660 C531 660 458 660 458 660 C458 660 458 647 458 647 C458 647 469 647 469 647 C500 647 528 608 531 561 C531 561 530 195 530 195 C530 105 465 29 345 29 C244 29 189 106 189 196 C189 196 189 564 189 564 C189 564 189 569 189 569 C190 612 213 647 240 647 C240 647 249 647 249 647 C249 647 249 660 249 660 C249 660 189 660 189 660 C189 660 140 660 140 660 C140 660 91 660 91 660 C91 660 31 660 31 660 C31 660 31 647 31 647 C31 647 40 647 40 647 C67 647 91 609 91 564 C91 564 91 215 91 215 C91 96 175 -5 331 -5 C480 -5 561 82 561 185 C561 185 561 554 561 554 C561 604 588 647 619 647 C619 647 630 647 630 647 C630 647 630 660 630 660 L630 660 Z M326 818 C326 818 437 692 437 692 C437 692 447 700 447 700 C447 700 355 879 355 879 C351 886 339 905 326 905 C313 905 301 886 298 880 C298 880 206 700 206 700 C206 700 215 692 215 692 C215 692 326 818 326 818 L326 818 Z " />
<glyph glyph-name="Udieresis" unicode="&#xdc;" horiz-adv-x="649" d="M422 730 C452 730 477 755 477 785 C477 815 452 840 422 840 C392 840 367 815 367 785 C367 755 392 730 422 730 L422 730 Z M230 730 C260 730 285 755 285 785 C285 815 260 840 230 840 C200 840 175 815 175 785 C175 755 200 730 230 730 L230 730 Z M630 660 C630 660 561 660 561 660 C561 660 546 660 546 660 C546 660 531 660 531 660 C531 660 458 660 458 660 C458 660 458 647 458 647 C458 647 469 647 469 647 C500 647 528 608 531 561 C531 561 530 195 530 195 C530 105 465 29 345 29 C244 29 189 106 189 196 C189 196 189 564 189 564 C189 564 189 569 189 569 C190 612 213 647 240 647 C240 647 249 647 249 647 C249 647 249 660 249 660 C249 660 189 660 189 660 C189 660 140 660 140 660 C140 660 91 660 91 660 C91 660 31 660 31 660 C31 660 31 647 31 647 C31 647 40 647 40 647 C67 647 91 609 91 564 C91 564 91 215 91 215 C91 96 175 -5 331 -5 C480 -5 561 82 561 185 C561 185 561 554 561 554 C561 604 588 647 619 647 C619 647 630 647 630 647 C630 647 630 660 630 660 L630 660 Z " />
<glyph glyph-name="Yacute" unicode="&#xdd;" horiz-adv-x="623" d="M312 690 C312 690 426 816 426 816 C447 839 464 862 464 866 C464 877 426 904 413 904 C409 904 395 880 380 852 C380 852 302 698 302 698 C302 698 312 690 312 690 L312 690 Z M422 13 C422 13 413 13 413 13 C385 13 362 51 361 96 C361 96 361 312 361 312 C361 312 521 568 521 568 C550 611 592 647 615 647 C615 647 623 647 623 647 C623 647 623 660 623 660 C623 660 578 660 578 660 C578 660 563 660 563 660 C563 660 548 660 548 660 C548 660 459 660 459 660 C460 660 460 657 459 654 C460 650 460 647 459 647 C459 647 472 647 472 647 C509 647 511 600 477 544 C477 544 477 544 477 544 C477 544 348 334 348 334 C348 334 214 572 214 572 C193 613 198 647 227 647 C227 647 237 647 237 647 C237 647 237 660 237 660 C237 660 164 660 164 660 C164 660 106 660 106 660 C106 660 47 660 47 660 C47 660 10 660 10 660 C10 660 10 647 10 647 C10 647 17 647 17 647 C35 647 69 616 94 576 C94 576 264 277 264 277 C264 277 264 96 264 96 C264 51 240 13 213 13 C213 13 204 13 204 13 C204 13 204 0 204 0 C204 0 264 0 264 0 C264 0 313 0 313 0 C313 0 361 0 361 0 C361 0 422 0 422 0 C422 0 422 13 422 13 L422 13 Z " />
<glyph glyph-name="agrave" unicode="&#xe0;" horiz-adv-x="583" d="M534 48 C488 58 473 76 473 146 C473 146 473 500 473 500 C473 500 448 500 448 500 C448 500 399 427 399 427 C375 467 316 505 266 505 C152 505 55 375 55 221 C55 99 136 -5 230 -5 C282 -5 346 45 383 110 C383 110 383 0 383 0 C383 0 383 -5 383 -5 C383 -5 398 -5 398 -5 C398 -5 454 16 454 16 C454 16 534 40 534 40 C534 40 534 48 534 48 L534 48 Z M232 692 C217 720 203 744 198 744 C184 744 147 717 147 706 C147 700 165 678 186 656 C186 656 303 530 303 530 C303 530 313 538 313 538 C313 538 232 692 232 692 L232 692 Z M383 132 C360 87 315 50 280 50 C209 50 148 145 148 256 C148 377 200 480 261 480 C311 480 368 440 383 403 C383 403 383 132 383 132 L383 132 Z " />
<glyph glyph-name="aacute" unicode="&#xe1;" horiz-adv-x="500" d="M192 530 C192 530 306 656 306 656 C326 679 344 702 344 706 C344 717 306 744 293 744 C289 744 275 720 260 692 C260 692 182 538 182 538 C182 538 192 530 192 530 L192 530 Z M479 49 C470 40 453 33 431 33 C403 33 391 62 391 97 C391 97 391 355 391 355 C391 436 329 505 257 505 C161 505 69 456 55 398 C55 398 145 398 145 398 C156 442 198 480 237 480 C269 480 296 432 296 375 C296 375 296 253 296 253 C296 253 211 245 211 245 C116 236 36 171 36 104 C36 45 90 -5 153 -5 C197 -5 255 19 300 52 C308 17 330 -10 369 -10 C420 -10 464 12 489 37 C489 37 479 49 479 49 L479 49 Z M296 230 C296 230 296 87 296 87 C296 83 296 80 296 77 C267 64 231 55 198 55 C159 55 125 89 125 129 C125 170 164 210 211 217 C211 217 296 230 296 230 L296 230 Z " />
<glyph glyph-name="acircumflex" unicode="&#xe2;" horiz-adv-x="583" d="M534 48 C488 58 473 76 473 146 C473 146 473 500 473 500 C473 500 448 500 448 500 C448 500 399 427 399 427 C375 467 316 505 266 505 C152 505 55 375 55 221 C55 99 136 -5 230 -5 C282 -5 346 45 383 110 C383 110 383 0 383 0 C383 0 383 -5 383 -5 C383 -5 398 -5 398 -5 C398 -5 454 16 454 16 C454 16 534 40 534 40 C534 40 534 48 534 48 L534 48 Z M231 658 C231 658 342 532 342 532 C342 532 351 540 351 540 C351 540 259 719 259 719 C256 726 243 745 230 745 C218 745 205 726 202 720 C202 720 110 540 110 540 C110 540 119 532 119 532 C119 532 231 658 231 658 L231 658 Z M383 132 C360 87 315 50 280 50 C209 50 148 145 148 256 C148 377 200 480 261 480 C311 480 368 440 383 403 C383 403 383 132 383 132 L383 132 Z " />
<glyph glyph-name="atilde" unicode="&#xe3;" horiz-adv-x="583" d="M90 595 C90 627 109 655 132 655 C184 655 252 593 305 593 C349 593 386 648 386 712 C386 712 371 712 371 712 C371 680 350 652 324 652 C271 652 204 715 151 715 C110 715 75 660 75 595 C75 595 90 595 90 595 L90 595 Z M534 48 C488 58 473 76 473 146 C473 146 473 500 473 500 C473 500 448 500 448 500 C448 500 399 427 399 427 C375 467 316 505 266 505 C152 505 55 375 55 221 C55 99 136 -5 230 -5 C282 -5 346 45 383 110 C383 110 383 0 383 0 C383 0 383 -5 383 -5 C383 -5 398 -5 398 -5 C398 -5 454 16 454 16 C454 16 534 40 534 40 C534 40 534 48 534 48 L534 48 Z M383 132 C360 87 315 50 280 50 C209 50 148 145 148 256 C148 377 200 480 261 480 C311 480 368 440 383 403 C383 403 383 132 383 132 L383 132 Z " />
<glyph glyph-name="adieresis" unicode="&#xe4;" horiz-adv-x="583" d="M326 570 C356 570 381 595 381 625 C381 655 356 680 326 680 C296 680 271 655 271 625 C271 595 296 570 326 570 L326 570 Z M135 570 C164 570 190 595 190 625 C190 655 164 680 135 680 C105 680 80 655 80 625 C80 595 105 570 135 570 L135 570 Z M534 48 C488 58 473 76 473 146 C473 146 473 500 473 500 C473 500 448 500 448 500 C448 500 399 427 399 427 C375 467 316 505 266 505 C152 505 55 375 55 221 C55 99 136 -5 230 -5 C282 -5 346 45 383 110 C383 110 383 0 383 0 C383 0 383 -5 383 -5 C383 -5 398 -5 398 -5 C398 -5 454 16 454 16 C454 16 534 40 534 40 C534 40 534 48 534 48 L534 48 Z M383 132 C360 87 315 50 280 50 C209 50 148 145 148 256 C148 377 200 480 261 480 C311 480 368 440 383 403 C383 403 383 132 383 132 L383 132 Z " />
<glyph glyph-name="aring" unicode="&#xe5;" horiz-adv-x="583" d="M230 555 C196 555 160 592 160 628 C160 667 192 700 230 700 C269 700 301 667 301 628 C301 592 265 555 230 555 L230 555 Z M135 628 C135 583 184 535 230 535 C277 535 326 583 326 628 C326 677 282 720 230 720 C179 720 135 677 135 628 L135 628 Z M534 48 C488 58 473 76 473 146 C473 146 473 500 473 500 C473 500 448 500 448 500 C448 500 399 427 399 427 C375 467 316 505 266 505 C152 505 55 375 55 221 C55 99 136 -5 230 -5 C282 -5 346 45 383 110 C383 110 383 0 383 0 C383 0 383 -5 383 -5 C383 -5 398 -5 398 -5 C398 -5 454 16 454 16 C454 16 534 40 534 40 C534 40 534 48 534 48 L534 48 Z M383 132 C360 87 315 50 280 50 C209 50 148 145 148 256 C148 377 200 480 261 480 C311 480 368 440 383 403 C383 403 383 132 383 132 L383 132 Z " />
<glyph glyph-name="ccedilla" unicode="&#xe7;" horiz-adv-x="503" d="M453 84 C453 84 444 93 444 93 C420 70 366 50 327 50 C229 50 145 149 145 266 C145 382 212 480 292 480 C330 480 365 445 369 404 C371 380 392 360 414 360 C436 360 454 378 454 400 C449 457 379 505 302 505 C166 505 50 379 50 231 C50 104 143 -5 252 -5 C312 -5 404 36 453 84 L453 84 Z " />
<glyph glyph-name="egrave" unicode="&#xe8;" horiz-adv-x="510" d="M460 84 C460 84 450 93 450 93 C426 70 371 50 330 50 C230 50 145 149 145 266 C145 280 146 294 148 308 C148 308 375 308 375 308 C375 308 460 308 460 308 C460 415 376 505 277 505 C154 505 50 379 50 231 C50 104 144 -5 255 -5 C317 -5 411 36 460 84 L460 84 Z M278 692 C264 720 249 744 245 744 C231 744 194 717 193 706 C194 700 212 678 232 656 C232 656 349 530 349 530 C349 530 359 538 359 538 C359 538 278 692 278 692 L278 692 Z M150 325 C166 414 215 480 272 480 C328 480 376 436 376 384 C376 384 376 383 376 383 C375 361 356 340 334 338 C334 338 150 325 150 325 L150 325 Z " />
<glyph glyph-name="eacute" unicode="&#xe9;" horiz-adv-x="510" d="M246 530 C246 530 360 656 360 656 C380 679 398 702 398 706 C398 717 360 744 346 744 C343 744 328 720 314 692 C314 692 236 538 236 538 C236 538 246 530 246 530 L246 530 Z M460 84 C460 84 450 93 450 93 C426 70 371 50 330 50 C230 50 145 149 145 266 C145 280 146 294 148 308 C148 308 375 308 375 308 C375 308 460 308 460 308 C460 415 376 505 277 505 C154 505 50 379 50 231 C50 104 144 -5 255 -5 C317 -5 411 36 460 84 L460 84 Z M150 325 C166 414 215 480 272 480 C328 480 376 436 376 384 C376 384 376 383 376 383 C375 361 356 340 334 338 C334 338 150 325 150 325 L150 325 Z " />
<glyph glyph-name="ecircumflex" unicode="&#xea;" horiz-adv-x="510" d="M460 84 C460 84 450 93 450 93 C426 70 371 50 330 50 C230 50 145 149 145 266 C145 280 146 294 148 308 C148 308 375 308 375 308 C375 308 460 308 460 308 C460 415 376 505 277 505 C154 505 50 379 50 231 C50 104 144 -5 255 -5 C317 -5 411 36 460 84 L460 84 Z M277 658 C277 658 388 532 388 532 C388 532 397 540 397 540 C397 540 306 719 306 719 C302 726 290 745 277 745 C264 745 252 726 248 720 C248 720 156 540 156 540 C156 540 166 532 166 532 C166 532 277 658 277 658 L277 658 Z M150 325 C166 414 215 480 272 480 C328 480 376 436 376 384 C376 384 376 383 376 383 C375 361 356 340 334 338 C334 338 150 325 150 325 L150 325 Z " />
<glyph glyph-name="edieresis" unicode="&#xeb;" horiz-adv-x="510" d="M373 570 C403 570 428 595 428 625 C428 655 403 680 373 680 C343 680 318 655 318 625 C318 595 343 570 373 570 L373 570 Z M181 570 C211 570 236 595 236 625 C236 655 211 680 181 680 C151 680 126 655 126 625 C126 595 151 570 181 570 L181 570 Z M460 84 C460 84 450 93 450 93 C426 70 371 50 330 50 C230 50 145 149 145 266 C145 280 146 294 148 308 C148 308 375 308 375 308 C375 308 460 308 460 308 C460 415 376 505 277 505 C154 505 50 379 50 231 C50 104 144 -5 255 -5 C317 -5 411 36 460 84 L460 84 Z M150 325 C166 414 215 480 272 480 C328 480 376 436 376 384 C376 384 376 383 376 383 C375 361 356 340 334 338 C334 338 150 325 150 325 L150 325 Z " />
<glyph glyph-name="igrave" unicode="&#xec;" horiz-adv-x="301" d="M196 0 C196 0 256 0 256 0 C256 0 256 13 256 13 C256 13 244 13 244 13 C218 13 196 10 196 0 C196 0 196 404 196 404 C196 404 196 505 196 505 C196 505 191 505 191 505 C191 505 55 463 55 463 C55 463 55 454 55 454 C55 454 91 441 91 441 C99 438 106 421 106 378 C106 378 106 0 106 0 C106 0 45 0 45 0 C45 0 45 13 45 13 C45 13 57 13 57 13 C84 13 106 10 106 0 C106 0 196 0 196 0 L196 0 Z M152 692 C137 720 123 744 119 744 C105 744 67 717 67 706 C67 700 85 678 106 656 C106 656 223 530 223 530 C223 530 233 538 233 538 C233 538 152 692 152 692 L152 692 Z " />
<glyph glyph-name="iacute" unicode="&#xed;" horiz-adv-x="301" d="M74 530 C74 530 188 656 188 656 C209 679 226 702 226 706 C226 717 189 744 175 744 C171 744 157 720 142 692 C142 692 64 538 64 538 C64 538 74 530 74 530 L74 530 Z M196 0 C196 0 256 0 256 0 C256 0 256 13 256 13 C256 13 244 13 244 13 C218 13 196 10 196 0 C196 0 196 404 196 404 C196 404 196 505 196 505 C196 505 191 505 191 505 C191 505 55 463 55 463 C55 463 55 454 55 454 C55 454 91 441 91 441 C99 438 106 421 106 378 C106 378 106 0 106 0 C106 0 45 0 45 0 C45 0 45 13 45 13 C45 13 57 13 57 13 C84 13 106 10 106 0 C106 0 196 0 196 0 L196 0 Z " />
<glyph glyph-name="icircumflex" unicode="&#xee;" horiz-adv-x="301" d="M196 0 C196 0 256 0 256 0 C256 0 256 13 256 13 C256 13 244 13 244 13 C218 13 196 10 196 0 C196 0 196 404 196 404 C196 404 196 505 196 505 C196 505 191 505 191 505 C191 505 55 463 55 463 C55 463 55 454 55 454 C55 454 91 441 91 441 C99 438 106 421 106 378 C106 378 106 0 106 0 C106 0 45 0 45 0 C45 0 45 13 45 13 C45 13 57 13 57 13 C84 13 106 10 106 0 C106 0 196 0 196 0 L196 0 Z M151 705 C151 705 122 720 122 720 C122 720 30 540 30 540 C30 540 39 532 39 532 C39 532 151 658 151 658 C151 658 262 532 262 532 C262 532 271 540 271 540 C271 540 179 719 179 719 C179 719 151 705 151 705 L151 705 Z M122 691 C122 691 151 658 151 658 C151 658 122 691 122 691 L122 691 Z M179 719 C176 726 163 745 151 745 C138 745 126 726 122 720 C122 720 179 719 179 719 L179 719 Z " />
<glyph glyph-name="idieresis" unicode="&#xef;" horiz-adv-x="301" d="M247 570 C276 570 302 595 302 625 C302 655 276 680 247 680 C217 680 192 655 192 625 C192 595 217 570 247 570 L247 570 Z M55 570 C85 570 110 595 110 625 C110 655 85 680 55 680 C25 680 0 655 0 625 C0 595 25 570 55 570 L55 570 Z M196 0 C196 0 256 0 256 0 C256 0 256 13 256 13 C256 13 244 13 244 13 C218 13 196 10 196 0 C196 0 196 404 196 404 C196 404 196 505 196 505 C196 505 191 505 191 505 C191 505 55 463 55 463 C55 463 55 454 55 454 C55 454 91 441 91 441 C99 438 106 421 106 378 C106 378 106 0 106 0 C106 0 45 0 45 0 C45 0 45 13 45 13 C45 13 57 13 57 13 C84 13 106 10 106 0 C106 0 196 0 196 0 L196 0 Z " />
<glyph glyph-name="ntilde" unicode="&#xf1;" horiz-adv-x="601" d="M163 595 C163 627 182 655 204 655 C257 655 324 593 377 593 C421 593 458 648 458 712 C458 712 443 712 443 712 C443 680 422 652 397 652 C344 652 276 715 223 715 C183 715 148 660 148 595 C148 595 163 595 163 595 L163 595 Z M561 13 C561 13 552 13 552 13 C525 13 502 48 501 91 C501 91 501 96 501 96 C501 96 501 337 501 337 C501 428 460 505 384 505 C347 505 262 477 195 442 C195 442 195 500 195 500 C195 500 177 500 177 500 C177 500 44 460 44 460 C45 460 45 460 44 459 C45 455 45 452 44 452 C90 443 105 424 105 354 C105 354 105 96 105 96 C105 51 81 13 54 13 C54 13 44 13 44 13 C45 13 45 10 44 6 C45 3 45 0 44 0 C44 0 105 0 105 0 C105 0 150 0 150 0 C150 0 195 0 195 0 C195 0 256 0 256 0 C255 0 255 3 256 6 C255 10 255 13 256 13 C256 13 247 13 247 13 C219 13 195 51 195 96 C195 96 195 379 195 379 C195 379 195 380 195 380 C195 380 195 431 195 431 C219 439 270 445 314 445 C377 445 411 391 411 328 C411 328 411 96 411 96 C411 51 387 13 359 13 C359 13 350 13 350 13 C350 13 350 0 350 0 C350 0 411 0 411 0 C411 0 456 0 456 0 C456 0 501 0 501 0 C501 0 561 0 561 0 C561 0 561 13 561 13 L561 13 Z " />
<glyph glyph-name="ograve" unicode="&#xf2;" horiz-adv-x="600" d="M300 15 C219 15 150 123 150 250 C150 377 219 485 300 485 C381 485 450 377 450 250 C450 123 381 15 300 15 L300 15 Z M50 250 C50 112 165 -5 300 -5 C435 -5 550 112 550 250 C550 388 435 505 300 505 C165 505 50 388 50 250 L50 250 Z M301 692 C287 720 272 744 268 744 C254 744 217 717 217 706 C217 700 235 678 255 656 C255 656 372 530 372 530 C372 530 382 538 382 538 C382 538 301 692 301 692 L301 692 Z " />
<glyph glyph-name="oacute" unicode="&#xf3;" horiz-adv-x="600" d="M269 530 C269 530 383 656 383 656 C403 679 421 702 421 706 C421 717 383 744 369 744 C366 744 352 720 337 692 C337 692 259 538 259 538 C259 538 269 530 269 530 L269 530 Z M300 15 C219 15 150 123 150 250 C150 377 219 485 300 485 C381 485 450 377 450 250 C450 123 381 15 300 15 L300 15 Z M50 250 C50 112 165 -5 300 -5 C435 -5 550 112 550 250 C550 388 435 505 300 505 C165 505 50 388 50 250 L50 250 Z " />
<glyph glyph-name="ocircumflex" unicode="&#xf4;" horiz-adv-x="600" d="M300 15 C219 15 150 123 150 250 C150 377 219 485 300 485 C381 485 450 377 450 250 C450 123 381 15 300 15 L300 15 Z M50 250 C50 112 165 -5 300 -5 C435 -5 550 112 550 250 C550 388 435 505 300 505 C165 505 50 388 50 250 L50 250 Z M300 658 C300 658 411 532 411 532 C411 532 421 540 421 540 C421 540 329 719 329 719 C325 726 313 745 300 745 C287 745 275 726 271 720 C271 720 179 540 179 540 C179 540 189 532 189 532 C189 532 300 658 300 658 L300 658 Z " />
<glyph glyph-name="otilde" unicode="&#xf5;" horiz-adv-x="600" d="M160 595 C160 627 179 655 201 655 C254 655 322 593 375 593 C418 593 455 648 455 712 C455 712 440 712 440 712 C440 680 419 652 394 652 C341 652 274 715 221 715 C180 715 145 660 145 595 C145 595 160 595 160 595 L160 595 Z M300 15 C219 15 150 123 150 250 C150 377 219 485 300 485 C381 485 450 377 450 250 C450 123 381 15 300 15 L300 15 Z M50 250 C50 112 165 -5 300 -5 C435 -5 550 112 550 250 C550 388 435 505 300 505 C165 505 50 388 50 250 L50 250 Z " />
<glyph glyph-name="odieresis" unicode="&#xf6;" horiz-adv-x="600" d="M396 570 C426 570 451 595 451 625 C451 655 426 680 396 680 C366 680 341 655 341 625 C341 595 366 570 396 570 L396 570 Z M204 570 C234 570 259 595 259 625 C259 655 234 680 204 680 C174 680 149 655 149 625 C149 595 174 570 204 570 L204 570 Z M300 15 C219 15 150 123 150 250 C150 377 219 485 300 485 C381 485 450 377 450 250 C450 123 381 15 300 15 L300 15 Z M50 250 C50 112 165 -5 300 -5 C435 -5 550 112 550 250 C550 388 435 505 300 505 C165 505 50 388 50 250 L50 250 Z " />
<glyph glyph-name="oslash" unicode="&#xf8;" horiz-adv-x="600" d="M61 -16 C61 -16 136 60 136 60 C180 20 238 -5 300 -5 C435 -5 550 112 550 250 C550 313 526 373 486 418 C486 418 561 494 561 494 C561 494 539 516 539 516 C539 516 464 440 464 440 C420 480 362 505 300 505 C165 505 50 388 50 250 C50 187 74 127 114 82 C114 82 39 6 39 6 C39 6 61 -16 61 -16 L61 -16 Z M300 15 C253 15 210 52 182 107 C182 107 431 362 431 362 C443 328 450 290 450 250 C450 123 381 15 300 15 C300 15 300 15 300 15 L300 15 Z M169 138 C157 172 150 210 150 250 C150 377 219 485 300 485 C347 485 390 448 418 393 C418 393 169 138 169 138 L169 138 Z " />
<glyph glyph-name="ugrave" unicode="&#xf9;" horiz-adv-x="566" d="M531 48 C488 57 472 73 471 133 C471 133 471 146 471 146 C471 146 471 500 471 500 C471 500 426 500 426 500 C426 500 381 500 381 500 C381 500 320 500 320 500 C320 500 320 487 320 487 C320 487 329 487 329 487 C357 487 381 449 381 404 C381 404 381 121 381 121 C381 121 381 79 381 79 C365 65 331 54 285 54 C214 54 165 105 165 164 C165 164 165 500 165 500 C165 500 120 500 120 500 C120 500 75 500 75 500 C75 500 14 500 14 500 C15 500 15 497 14 494 C15 490 15 487 14 487 C14 487 24 487 24 487 C51 487 75 449 75 404 C75 404 75 155 75 155 C75 68 132 -5 214 -5 C280 -5 343 25 381 63 C381 63 381 23 381 23 C381 23 381 0 381 0 C381 0 399 0 399 0 C399 0 531 40 531 40 C531 40 531 48 531 48 L531 48 Z M274 692 C260 720 245 744 241 744 C227 744 190 717 189 706 C190 700 208 678 228 656 C228 656 345 530 345 530 C345 530 355 538 355 538 C355 538 274 692 274 692 L274 692 Z " />
<glyph glyph-name="uacute" unicode="&#xfa;" horiz-adv-x="566" d="M242 530 C242 530 356 656 356 656 C376 679 394 702 394 706 C394 717 356 744 342 744 C339 744 324 720 310 692 C310 692 232 538 232 538 C232 538 242 530 242 530 L242 530 Z M531 48 C488 57 472 73 471 133 C471 133 471 146 471 146 C471 146 471 500 471 500 C471 500 426 500 426 500 C426 500 381 500 381 500 C381 500 320 500 320 500 C320 500 320 487 320 487 C320 487 329 487 329 487 C357 487 381 449 381 404 C381 404 381 121 381 121 C381 121 381 79 381 79 C365 65 331 54 285 54 C214 54 165 105 165 164 C165 164 165 500 165 500 C165 500 120 500 120 500 C120 500 75 500 75 500 C75 500 14 500 14 500 C15 500 15 497 14 494 C15 490 15 487 14 487 C14 487 24 487 24 487 C51 487 75 449 75 404 C75 404 75 155 75 155 C75 68 132 -5 214 -5 C280 -5 343 25 381 63 C381 63 381 23 381 23 C381 23 381 0 381 0 C381 0 399 0 399 0 C399 0 531 40 531 40 C531 40 531 48 531 48 L531 48 Z " />
<glyph glyph-name="ucircumflex" unicode="&#xfb;" horiz-adv-x="566" d="M531 48 C488 57 472 73 471 133 C471 133 471 146 471 146 C471 146 471 500 471 500 C471 500 426 500 426 500 C426 500 381 500 381 500 C381 500 320 500 320 500 C320 500 320 487 320 487 C320 487 329 487 329 487 C357 487 381 449 381 404 C381 404 381 121 381 121 C381 121 381 79 381 79 C365 65 331 54 285 54 C214 54 165 105 165 164 C165 164 165 500 165 500 C165 500 120 500 120 500 C120 500 75 500 75 500 C75 500 14 500 14 500 C15 500 15 497 14 494 C15 490 15 487 14 487 C14 487 24 487 24 487 C51 487 75 449 75 404 C75 404 75 155 75 155 C75 68 132 -5 214 -5 C280 -5 343 25 381 63 C381 63 381 23 381 23 C381 23 381 0 381 0 C381 0 399 0 399 0 C399 0 531 40 531 40 C531 40 531 48 531 48 L531 48 Z M273 658 C273 658 384 532 384 532 C384 532 393 540 393 540 C393 540 302 719 302 719 C298 726 286 745 273 745 C260 745 248 726 244 720 C244 720 152 540 152 540 C152 540 162 532 162 532 C162 532 273 658 273 658 L273 658 Z " />
<glyph glyph-name="udieresis" unicode="&#xfc;" horiz-adv-x="566" d="M369 570 C399 570 424 595 424 625 C424 655 399 680 369 680 C339 680 314 655 314 625 C314 595 339 570 369 570 L369 570 Z M177 570 C207 570 232 595 232 625 C232 655 207 680 177 680 C147 680 122 655 122 625 C122 595 147 570 177 570 L177 570 Z M531 48 C488 57 472 73 471 133 C471 133 471 146 471 146 C471 146 471 500 471 500 C471 500 426 500 426 500 C426 500 381 500 381 500 C381 500 320 500 320 500 C320 500 320 487 320 487 C320 487 329 487 329 487 C357 487 381 449 381 404 C381 404 381 121 381 121 C381 121 381 79 381 79 C365 65 331 54 285 54 C214 54 165 105 165 164 C165 164 165 500 165 500 C165 500 120 500 120 500 C120 500 75 500 75 500 C75 500 14 500 14 500 C15 500 15 497 14 494 C15 490 15 487 14 487 C14 487 24 487 24 487 C51 487 75 449 75 404 C75 404 75 155 75 155 C75 68 132 -5 214 -5 C280 -5 343 25 381 63 C381 63 381 23 381 23 C381 23 381 0 381 0 C381 0 399 0 399 0 C399 0 531 40 531 40 C531 40 531 48 531 48 L531 48 Z " />
<glyph glyph-name="ydieresis" unicode="&#xff;" horiz-adv-x="484" d="M362 570 C391 570 417 595 417 625 C417 655 391 680 362 680 C332 680 307 655 307 625 C307 595 332 570 362 570 L362 570 Z M170 570 C200 570 225 595 225 625 C225 655 200 680 170 680 C140 680 115 655 115 625 C115 595 140 570 170 570 L170 570 Z M541 500 C541 500 485 500 485 500 C485 500 470 500 470 500 C470 500 455 500 455 500 C455 500 395 500 395 500 C395 500 395 487 395 487 C395 487 403 487 403 487 C427 487 435 455 423 416 C423 416 305 105 305 105 C305 105 187 404 187 404 C187 404 187 404 187 404 C169 449 176 487 201 487 C201 487 210 487 210 487 C210 487 210 500 210 500 C210 500 149 500 149 500 C149 500 97 500 97 500 C97 500 46 500 46 500 C46 500 -9 500 -9 500 C-9 500 -9 487 -9 487 C-9 487 0 487 0 487 C27 487 67 449 86 404 C86 404 86 404 86 404 C86 404 256 3 256 3 C256 3 226 -64 226 -64 C198 -133 166 -171 135 -171 C111 -171 79 -146 55 -146 C31 -146 10 -163 10 -184 C10 -209 42 -230 80 -230 C148 -230 208 -174 250 -72 C250 -72 276 -10 276 -10 C276 -10 446 404 446 404 C446 404 446 404 446 404 C464 449 504 487 532 487 C532 487 541 487 541 487 C541 487 541 500 541 500 L541 500 Z " />
<glyph glyph-name="Amacron" unicode="&#x100;" horiz-adv-x="653" d="M159 765 C159 765 459 765 459 765 C459 765 459 815 459 815 C459 815 159 815 159 815 C159 815 159 765 159 765 L159 765 Z M647 13 C647 13 639 13 639 13 C614 13 577 51 559 96 C559 96 559 96 559 96 C559 96 321 675 321 675 C321 675 297 675 297 675 C297 675 91 96 91 96 C91 96 91 96 91 96 C75 51 37 13 10 13 C10 13 1 13 1 13 C1 13 1 0 1 0 C1 0 57 0 57 0 C57 0 73 0 73 0 C73 0 89 0 89 0 C89 0 178 0 178 0 C178 0 178 13 178 13 C178 13 165 13 165 13 C127 13 110 55 125 105 C125 105 167 227 167 227 C167 227 403 227 403 227 C403 227 454 96 454 96 C454 96 454 96 454 96 C472 51 456 13 420 13 C420 13 408 13 408 13 C408 13 408 0 408 0 C408 0 492 0 492 0 C492 0 545 0 545 0 C545 0 598 0 598 0 C598 0 647 0 647 0 C647 0 647 13 647 13 L647 13 Z M393 252 C393 252 176 252 176 252 C176 252 277 547 277 547 C277 547 393 252 393 252 L393 252 Z " />
<glyph glyph-name="amacron" unicode="&#x101;" horiz-adv-x="583" d="M80 605 C80 605 380 605 380 605 C380 605 380 655 380 655 C380 655 80 655 80 655 C80 655 80 605 80 605 L80 605 Z M534 48 C488 58 473 76 473 146 C473 146 473 500 473 500 C473 500 448 500 448 500 C448 500 399 427 399 427 C375 467 316 505 266 505 C152 505 55 375 55 221 C55 99 136 -5 230 -5 C282 -5 346 45 383 110 C383 110 383 0 383 0 C383 0 383 -5 383 -5 C383 -5 398 -5 398 -5 C398 -5 454 16 454 16 C454 16 534 40 534 40 C534 40 534 48 534 48 L534 48 Z M383 132 C360 87 315 50 280 50 C209 50 148 145 148 256 C148 377 200 480 261 480 C311 480 368 440 383 403 C383 403 383 132 383 132 L383 132 Z " />
<glyph glyph-name="Abreve" unicode="&#x102;" horiz-adv-x="653" d="M183 871 C205 804 263 748 309 748 C356 748 413 804 435 871 C435 871 420 876 420 876 C408 839 357 808 309 808 C262 808 211 839 199 876 C199 876 183 871 183 871 L183 871 Z M647 13 C647 13 639 13 639 13 C614 13 577 51 559 96 C559 96 559 96 559 96 C559 96 321 675 321 675 C321 675 297 675 297 675 C297 675 91 96 91 96 C91 96 91 96 91 96 C75 51 37 13 10 13 C10 13 1 13 1 13 C1 13 1 0 1 0 C1 0 57 0 57 0 C57 0 73 0 73 0 C73 0 89 0 89 0 C89 0 178 0 178 0 C178 0 178 13 178 13 C178 13 165 13 165 13 C127 13 110 55 125 105 C125 105 167 227 167 227 C167 227 403 227 403 227 C403 227 454 96 454 96 C454 96 454 96 454 96 C472 51 456 13 420 13 C420 13 408 13 408 13 C408 13 408 0 408 0 C408 0 492 0 492 0 C492 0 545 0 545 0 C545 0 598 0 598 0 C598 0 647 0 647 0 C647 0 647 13 647 13 L647 13 Z M393 252 C393 252 176 252 176 252 C176 252 277 547 277 547 C277 547 393 252 393 252 L393 252 Z " />
<glyph glyph-name="abreve" unicode="&#x103;" horiz-adv-x="583" d="M105 681 C126 614 184 558 230 558 C277 558 334 614 356 681 C356 681 341 686 341 686 C329 649 278 618 230 618 C183 618 132 649 120 686 C120 686 105 681 105 681 L105 681 Z M534 48 C488 58 473 76 473 146 C473 146 473 500 473 500 C473 500 448 500 448 500 C448 500 399 427 399 427 C375 467 316 505 266 505 C152 505 55 375 55 221 C55 99 136 -5 230 -5 C282 -5 346 45 383 110 C383 110 383 0 383 0 C383 0 383 -5 383 -5 C383 -5 398 -5 398 -5 C398 -5 454 16 454 16 C454 16 534 40 534 40 C534 40 534 48 534 48 L534 48 Z M383 132 C360 87 315 50 280 50 C209 50 148 145 148 256 C148 377 200 480 261 480 C311 480 368 440 383 403 C383 403 383 132 383 132 L383 132 Z " />
<glyph glyph-name="Aogonek" unicode="&#x104;" horiz-adv-x="653" d="M647 13 C647 13 639 13 639 13 C614 13 577 51 559 96 C559 96 559 96 559 96 C559 96 321 675 321 675 C321 675 297 675 297 675 C297 675 91 96 91 96 C91 96 91 96 91 96 C75 51 37 13 10 13 C10 13 1 13 1 13 C1 13 1 0 1 0 C1 0 57 0 57 0 C57 0 73 0 73 0 C73 0 89 0 89 0 C89 0 178 0 178 0 C178 0 178 13 178 13 C178 13 165 13 165 13 C127 13 110 55 125 105 C125 105 167 227 167 227 C167 227 403 227 403 227 C403 227 454 96 454 96 C454 96 454 96 454 96 C472 51 456 13 420 13 C420 13 408 13 408 13 C408 13 408 0 408 0 C408 0 456 0 456 0 C404 -35 331 -105 331 -155 C331 -198 388 -235 456 -235 C487 -235 525 -220 540 -203 C540 -203 533 -196 533 -196 C527 -203 500 -210 475 -210 C427 -210 386 -180 386 -145 C386 -88 464 -11 492 0 C492 0 545 0 545 0 C545 0 598 0 598 0 C598 0 647 0 647 0 C647 0 647 13 647 13 L647 13 Z M393 252 C393 252 176 252 176 252 C176 252 277 547 277 547 C277 547 393 252 393 252 L393 252 Z " />
<glyph glyph-name="aogonek" unicode="&#x105;" horiz-adv-x="500" d="M479 49 C478 48 478 48 477 47 C471 45 464 41 456 36 C449 34 440 33 431 33 C403 33 391 62 391 97 C391 97 391 355 391 355 C391 436 329 505 257 505 C161 505 69 456 55 398 C55 398 145 398 145 398 C156 442 198 480 237 480 C269 480 296 432 296 375 C296 375 296 253 296 253 C296 253 211 245 211 245 C116 236 36 171 36 104 C36 45 90 -5 153 -5 C197 -5 255 19 300 52 C308 17 330 -10 369 -10 C380 -10 390 -9 400 -7 C358 -46 318 -96 318 -136 C318 -189 375 -235 443 -235 C474 -235 512 -220 527 -203 C527 -203 520 -196 520 -196 C514 -203 487 -210 462 -210 C414 -210 373 -171 373 -126 C373 -77 420 -18 454 11 C468 19 480 28 489 37 C489 37 479 49 479 49 L479 49 Z M296 230 C296 230 296 87 296 87 C296 83 296 80 296 77 C267 64 231 55 198 55 C159 55 125 89 125 129 C125 170 164 210 211 217 C211 217 296 230 296 230 L296 230 Z " />
<glyph glyph-name="Cacute" unicode="&#x106;" horiz-adv-x="708" d="M351 690 C351 690 465 816 465 816 C485 839 502 862 502 866 C502 877 465 904 451 904 C447 904 433 880 419 852 C419 852 341 698 341 698 C341 698 351 690 351 690 L351 690 Z M648 484 C648 484 648 607 648 607 C591 638 475 665 397 665 C209 665 50 511 50 330 C50 149 209 -5 397 -5 C484 -5 600 26 649 63 C649 63 642 73 642 73 C642 73 642 73 642 73 C642 73 649 63 649 63 C649 63 649 184 649 184 C649 184 638 184 638 184 C635 176 630 162 627 153 C603 87 508 25 420 20 C420 20 420 20 420 20 C412 19 404 19 397 19 C267 19 157 162 157 330 C157 498 267 641 397 641 C419 641 443 639 469 635 C536 621 607 568 626 514 C629 506 634 492 637 484 C637 484 648 484 648 484 L648 484 Z " />
<glyph glyph-name="cacute" unicode="&#x107;" horiz-adv-x="503" d="M226 530 C226 530 339 656 339 656 C360 679 377 702 377 706 C377 717 340 744 326 744 C322 744 308 720 294 692 C294 692 216 538 216 538 C216 538 226 530 226 530 L226 530 Z M453 84 C453 84 444 93 444 93 C420 70 366 50 327 50 C229 50 145 149 145 266 C145 382 212 480 292 480 C330 480 365 445 369 404 C371 380 392 360 414 360 C436 360 454 378 454 400 C449 457 379 505 302 505 C166 505 50 379 50 231 C50 104 143 -5 252 -5 C312 -5 404 36 453 84 L453 84 Z " />
<glyph glyph-name="Ccircumflex" unicode="&#x108;" horiz-adv-x="708" d="M648 484 C648 484 648 607 648 607 C591 638 475 665 397 665 C209 665 50 511 50 330 C50 149 209 -5 397 -5 C484 -5 600 26 649 63 C649 63 642 73 642 73 C642 73 642 73 642 73 C642 73 649 63 649 63 C649 63 649 184 649 184 C649 184 638 184 638 184 C635 176 630 162 627 153 C603 87 508 25 420 20 C420 20 420 20 420 20 C412 19 404 19 397 19 C267 19 157 162 157 330 C157 498 267 641 397 641 C419 641 443 639 469 635 C536 621 607 568 626 514 C629 506 634 492 637 484 C637 484 648 484 648 484 L648 484 Z M397 818 C397 818 508 692 508 692 C508 692 517 700 517 700 C517 700 425 879 425 879 C422 886 409 905 397 905 C384 905 372 886 368 880 C368 880 276 700 276 700 C276 700 285 692 285 692 C285 692 397 818 397 818 L397 818 Z " />
<glyph glyph-name="Cdotaccent" unicode="&#x10a;" horiz-adv-x="708" d="M397 730 C427 730 452 755 452 785 C452 815 427 840 397 840 C367 840 342 815 342 785 C342 755 367 730 397 730 L397 730 Z M648 484 C648 484 648 607 648 607 C591 638 475 665 397 665 C209 665 50 511 50 330 C50 149 209 -5 397 -5 C484 -5 600 26 649 63 C649 63 642 73 642 73 C642 73 642 73 642 73 C642 73 649 63 649 63 C649 63 649 184 649 184 C649 184 638 184 638 184 C635 176 630 162 627 153 C603 87 508 25 420 20 C420 20 420 20 420 20 C412 19 404 19 397 19 C267 19 157 162 157 330 C157 498 267 641 397 641 C419 641 443 639 469 635 C536 621 607 568 626 514 C629 506 634 492 637 484 C637 484 648 484 648 484 L648 484 Z " />
<glyph glyph-name="cdotaccent" unicode="&#x10b;" horiz-adv-x="503" d="M302 570 C332 570 357 595 357 625 C357 655 332 680 302 680 C272 680 247 655 247 625 C247 595 272 570 302 570 L302 570 Z M453 84 C453 84 444 93 444 93 C420 70 366 50 327 50 C229 50 145 149 145 266 C145 382 212 480 292 480 C330 480 365 445 369 404 C371 380 392 360 414 360 C436 360 454 378 454 400 C449 457 379 505 302 505 C166 505 50 379 50 231 C50 104 143 -5 252 -5 C312 -5 404 36 453 84 L453 84 Z " />
<glyph glyph-name="Ccaron" unicode="&#x10c;" horiz-adv-x="708" d="M648 484 C648 484 648 607 648 607 C591 638 475 665 397 665 C209 665 50 511 50 330 C50 149 209 -5 397 -5 C484 -5 600 26 649 63 C649 63 642 73 642 73 C642 73 642 73 642 73 C642 73 649 63 649 63 C649 63 649 184 649 184 C649 184 638 184 638 184 C635 176 630 162 627 153 C603 87 508 25 420 20 C420 20 420 20 420 20 C412 19 404 19 397 19 C267 19 157 162 157 330 C157 498 267 641 397 641 C419 641 443 639 469 635 C536 621 607 568 626 514 C629 506 634 492 637 484 C637 484 648 484 648 484 L648 484 Z M397 802 C397 802 508 928 508 928 C508 928 517 920 517 920 C517 920 425 741 425 741 C422 734 409 715 397 715 C384 715 372 734 368 740 C368 740 276 920 276 920 C276 920 285 928 285 928 C285 928 397 802 397 802 L397 802 Z " />
<glyph glyph-name="ccaron" unicode="&#x10d;" horiz-adv-x="503" d="M453 84 C453 84 444 93 444 93 C420 70 366 50 327 50 C229 50 145 149 145 266 C145 382 212 480 292 480 C330 480 365 445 369 404 C371 380 392 360 414 360 C436 360 454 378 454 400 C449 457 379 505 302 505 C166 505 50 379 50 231 C50 104 143 -5 252 -5 C312 -5 404 36 453 84 L453 84 Z M302 642 C302 642 413 768 413 768 C413 768 422 760 422 760 C422 760 331 581 331 581 C327 574 315 555 302 555 C289 555 277 574 273 580 C273 580 181 760 181 760 C181 760 191 768 191 768 C191 768 302 642 302 642 L302 642 Z " />
<glyph glyph-name="Dcaron" unicode="&#x10e;" horiz-adv-x="708" d="M41 647 C41 647 50 647 50 647 C77 647 101 609 101 564 C101 564 101 96 101 96 C101 51 77 13 50 13 C50 13 41 13 41 13 C41 13 41 0 41 0 C41 0 101 0 101 0 C101 0 150 0 150 0 C150 0 199 0 199 0 C199 0 344 0 344 0 C514 0 659 152 659 330 C659 508 497 660 307 660 C307 660 199 660 199 660 C199 660 150 660 150 660 C150 660 101 660 101 660 C101 660 41 660 41 660 C41 660 41 647 41 647 L41 647 Z M332 802 C332 802 443 928 443 928 C443 928 452 920 452 920 C452 920 360 741 360 741 C357 734 344 715 331 715 C319 715 306 734 303 740 C303 740 211 920 211 920 C211 920 220 928 220 928 C220 928 332 802 332 802 L332 802 Z M199 25 C199 25 199 635 199 635 C199 635 307 635 307 635 C444 635 561 495 561 330 C561 165 461 25 344 25 C344 25 199 25 199 25 L199 25 Z " />
<glyph glyph-name="dcaron" unicode="&#x10f;" horiz-adv-x="605" d="M556 48 C510 58 495 76 495 146 C495 146 495 599 495 599 C495 599 495 697 495 697 C495 697 495 720 495 720 C495 720 477 720 477 720 C477 720 344 680 344 680 C344 680 344 672 344 672 C390 662 405 643 405 574 C405 574 405 453 405 453 C372 483 325 505 283 505 C160 505 55 375 55 221 C55 99 144 -5 248 -5 C299 -5 367 23 405 58 C405 58 405 23 405 23 C405 23 405 0 405 0 C405 0 423 0 423 0 C423 0 556 40 556 40 C556 40 556 48 556 48 L556 48 Z M627 624 C650 668 669 724 669 732 C669 745 628 752 613 752 C596 752 578 685 571 644 C571 644 542 480 542 480 C542 480 554 476 554 476 C554 476 627 624 627 624 L627 624 Z M405 121 C405 121 405 73 405 73 C387 60 341 50 297 50 C217 50 148 145 148 256 C148 377 208 480 279 480 C326 480 379 451 405 418 C405 418 405 121 405 121 L405 121 Z " />
<glyph glyph-name="Emacron" unicode="&#x112;" horiz-adv-x="594" d="M142 765 C142 765 442 765 442 765 C442 765 442 815 442 815 C442 815 142 815 142 815 C142 815 142 765 142 765 L142 765 Z M429 261 C429 261 429 330 429 330 C429 330 429 342 429 342 C429 342 429 354 429 354 C429 354 429 415 429 415 C429 415 418 415 418 415 C418 415 415 406 415 406 C407 378 349 355 290 354 C290 354 199 354 199 354 C199 354 199 636 199 636 C199 636 331 636 331 636 C395 636 464 593 481 543 C481 543 486 527 486 527 C486 527 496 527 496 527 C496 527 496 648 496 648 C496 648 496 660 496 660 C496 660 484 660 484 660 C484 660 399 660 399 660 C399 660 199 660 199 660 C199 660 150 660 150 660 C150 660 101 660 101 660 C101 660 41 660 41 660 C41 660 41 647 41 647 C41 647 50 647 50 647 C77 647 101 609 101 564 C101 564 101 96 101 96 C101 51 77 13 50 13 C50 13 41 13 41 13 C41 13 41 0 41 0 C41 0 101 0 101 0 C101 0 150 0 150 0 C150 0 199 0 199 0 C199 0 401 0 401 0 C401 0 494 0 494 0 C494 0 497 0 497 0 C498 3 499 9 499 12 C505 45 515 101 521 133 C521 134 521 134 520 133 C515 134 511 134 511 133 C511 133 503 117 503 117 C477 67 401 24 337 24 C337 24 199 24 199 24 C199 24 199 330 199 330 C199 330 290 330 290 330 C349 330 407 303 415 272 C415 272 418 261 418 261 C418 261 429 261 429 261 L429 261 Z " />
<glyph glyph-name="emacron" unicode="&#x113;" horiz-adv-x="510" d="M127 605 C127 605 427 605 427 605 C427 605 427 655 427 655 C427 655 127 655 127 655 C127 655 127 605 127 605 L127 605 Z M460 84 C460 84 450 93 450 93 C426 70 371 50 330 50 C230 50 145 149 145 266 C145 280 146 294 148 308 C148 308 375 308 375 308 C375 308 460 308 460 308 C460 415 376 505 277 505 C154 505 50 379 50 231 C50 104 144 -5 255 -5 C317 -5 411 36 460 84 L460 84 Z M150 325 C166 414 215 480 272 480 C328 480 376 436 376 384 C376 384 376 383 376 383 C375 361 356 340 334 338 C334 338 150 325 150 325 L150 325 Z " />
<glyph glyph-name="Ebreve" unicode="&#x114;" horiz-adv-x="594" d="M167 871 C188 804 246 748 292 748 C339 748 396 804 418 871 C418 871 403 876 403 876 C391 839 340 808 292 808 C245 808 194 839 182 876 C182 876 167 871 167 871 L167 871 Z M429 261 C429 261 429 330 429 330 C429 330 429 342 429 342 C429 342 429 354 429 354 C429 354 429 415 429 415 C429 415 418 415 418 415 C418 415 415 406 415 406 C407 378 349 355 290 354 C290 354 199 354 199 354 C199 354 199 636 199 636 C199 636 331 636 331 636 C395 636 464 593 481 543 C481 543 486 527 486 527 C486 527 496 527 496 527 C496 527 496 648 496 648 C496 648 496 660 496 660 C496 660 484 660 484 660 C484 660 399 660 399 660 C399 660 199 660 199 660 C199 660 150 660 150 660 C150 660 101 660 101 660 C101 660 41 660 41 660 C41 660 41 647 41 647 C41 647 50 647 50 647 C77 647 101 609 101 564 C101 564 101 96 101 96 C101 51 77 13 50 13 C50 13 41 13 41 13 C41 13 41 0 41 0 C41 0 101 0 101 0 C101 0 150 0 150 0 C150 0 199 0 199 0 C199 0 401 0 401 0 C401 0 494 0 494 0 C494 0 497 0 497 0 C498 3 499 9 499 12 C505 45 515 101 521 133 C521 134 521 134 520 133 C515 134 511 134 511 133 C511 133 503 117 503 117 C477 67 401 24 337 24 C337 24 199 24 199 24 C199 24 199 330 199 330 C199 330 290 330 290 330 C349 330 407 303 415 272 C415 272 418 261 418 261 C418 261 429 261 429 261 L429 261 Z " />
<glyph glyph-name="ebreve" unicode="&#x115;" horiz-adv-x="510" d="M151 711 C173 644 231 588 277 588 C323 588 381 644 403 711 C403 711 387 716 387 716 C375 679 324 648 277 648 C229 648 178 679 166 716 C166 716 151 711 151 711 L151 711 Z M460 84 C460 84 450 93 450 93 C426 70 371 50 330 50 C230 50 145 149 145 266 C145 280 146 294 148 308 C148 308 375 308 375 308 C375 308 460 308 460 308 C460 415 376 505 277 505 C154 505 50 379 50 231 C50 104 144 -5 255 -5 C317 -5 411 36 460 84 L460 84 Z M150 325 C166 414 215 480 272 480 C328 480 376 436 376 384 C376 384 376 383 376 383 C375 361 356 340 334 338 C334 338 150 325 150 325 L150 325 Z " />
<glyph glyph-name="Edotaccent" unicode="&#x116;" horiz-adv-x="594" d="M292 730 C322 730 347 755 347 785 C347 815 322 840 292 840 C262 840 237 815 237 785 C237 755 262 730 292 730 L292 730 Z M429 261 C429 261 429 330 429 330 C429 330 429 342 429 342 C429 342 429 354 429 354 C429 354 429 415 429 415 C429 415 418 415 418 415 C418 415 415 406 415 406 C407 378 349 355 290 354 C290 354 199 354 199 354 C199 354 199 636 199 636 C199 636 331 636 331 636 C395 636 464 593 481 543 C481 543 486 527 486 527 C486 527 496 527 496 527 C496 527 496 648 496 648 C496 648 496 660 496 660 C496 660 484 660 484 660 C484 660 399 660 399 660 C399 660 199 660 199 660 C199 660 150 660 150 660 C150 660 101 660 101 660 C101 660 41 660 41 660 C41 660 41 647 41 647 C41 647 50 647 50 647 C77 647 101 609 101 564 C101 564 101 96 101 96 C101 51 77 13 50 13 C50 13 41 13 41 13 C41 13 41 0 41 0 C41 0 101 0 101 0 C101 0 150 0 150 0 C150 0 199 0 199 0 C199 0 401 0 401 0 C401 0 494 0 494 0 C494 0 497 0 497 0 C498 3 499 9 499 12 C505 45 515 101 521 133 C521 134 521 134 520 133 C515 134 511 134 511 133 C511 133 503 117 503 117 C477 67 401 24 337 24 C337 24 199 24 199 24 C199 24 199 330 199 330 C199 330 290 330 290 330 C349 330 407 303 415 272 C415 272 418 261 418 261 C418 261 429 261 429 261 L429 261 Z " />
<glyph glyph-name="edotaccent" unicode="&#x117;" horiz-adv-x="510" d="M277 570 C307 570 332 595 332 625 C332 655 307 680 277 680 C247 680 222 655 222 625 C222 595 247 570 277 570 L277 570 Z M460 84 C460 84 450 93 450 93 C426 70 371 50 330 50 C230 50 145 149 145 266 C145 280 146 294 148 308 C148 308 375 308 375 308 C375 308 460 308 460 308 C460 415 376 505 277 505 C154 505 50 379 50 231 C50 104 144 -5 255 -5 C317 -5 411 36 460 84 L460 84 Z M150 325 C166 414 215 480 272 480 C328 480 376 436 376 384 C376 384 376 383 376 383 C375 361 356 340 334 338 C334 338 150 325 150 325 L150 325 Z " />
<glyph glyph-name="Eogonek" unicode="&#x118;" horiz-adv-x="594" d="M429 261 C429 261 429 330 429 330 C429 330 429 342 429 342 C429 342 429 354 429 354 C429 354 429 415 429 415 C429 415 418 415 418 415 C418 415 415 406 415 406 C407 378 349 355 290 354 C290 354 199 354 199 354 C199 354 199 636 199 636 C199 636 331 636 331 636 C395 636 464 593 481 543 C481 543 486 527 486 527 C486 527 496 527 496 527 C496 527 496 648 496 648 C496 648 496 660 496 660 C496 660 484 660 484 660 C484 660 399 660 399 660 C399 660 199 660 199 660 C199 660 150 660 150 660 C150 660 101 660 101 660 C101 660 41 660 41 660 C41 660 41 647 41 647 C41 647 50 647 50 647 C77 647 101 609 101 564 C101 564 101 96 101 96 C101 51 77 13 50 13 C50 13 41 13 41 13 C41 13 41 0 41 0 C41 0 101 0 101 0 C101 0 150 0 150 0 C150 0 199 0 199 0 C199 0 401 0 401 0 C401 0 458 0 458 0 C405 -35 332 -105 332 -155 C332 -198 389 -235 457 -235 C488 -235 526 -220 541 -203 C541 -203 534 -196 534 -196 C528 -203 502 -210 477 -210 C428 -210 387 -180 387 -145 C387 -88 465 -11 494 0 C494 0 497 0 497 0 C498 3 499 9 499 12 C505 45 515 101 521 133 C521 134 521 134 520 133 C515 134 511 134 511 133 C511 133 503 117 503 117 C477 67 401 24 337 24 C337 24 199 24 199 24 C199 24 199 330 199 330 C199 330 290 330 290 330 C349 330 407 303 415 272 C415 272 418 261 418 261 C418 261 429 261 429 261 L429 261 Z " />
<glyph glyph-name="eogonek" unicode="&#x119;" horiz-adv-x="510" d="M359 20 C359 20 359 20 359 20 C398 36 435 59 460 84 C460 84 450 93 450 93 C426 70 371 50 330 50 C230 50 145 149 145 266 C145 280 146 294 148 308 C148 308 375 308 375 308 C375 308 460 308 460 308 C460 415 376 505 277 505 C154 505 50 379 50 231 C50 104 144 -5 255 -5 C268 -5 282 -3 297 0 C249 -39 198 -97 198 -141 C198 -192 255 -235 323 -235 C354 -235 392 -220 407 -203 C407 -203 400 -196 400 -196 C394 -203 367 -210 343 -210 C294 -210 253 -174 253 -131 C253 -70 331 10 359 20 C359 20 359 20 359 20 L359 20 Z M150 325 C166 414 215 480 272 480 C328 480 376 436 376 384 C376 384 376 383 376 383 C375 361 356 340 334 338 C334 338 150 325 150 325 L150 325 Z " />
<glyph glyph-name="Ecaron" unicode="&#x11a;" horiz-adv-x="594" d="M429 261 C429 261 429 330 429 330 C429 330 429 342 429 342 C429 342 429 354 429 354 C429 354 429 415 429 415 C429 415 418 415 418 415 C418 415 415 406 415 406 C407 378 349 355 290 354 C290 354 199 354 199 354 C199 354 199 636 199 636 C199 636 331 636 331 636 C395 636 464 593 481 543 C481 543 486 527 486 527 C486 527 496 527 496 527 C496 527 496 648 496 648 C496 648 496 660 496 660 C496 660 484 660 484 660 C484 660 399 660 399 660 C399 660 199 660 199 660 C199 660 150 660 150 660 C150 660 101 660 101 660 C101 660 41 660 41 660 C41 660 41 647 41 647 C41 647 50 647 50 647 C77 647 101 609 101 564 C101 564 101 96 101 96 C101 51 77 13 50 13 C50 13 41 13 41 13 C41 13 41 0 41 0 C41 0 101 0 101 0 C101 0 150 0 150 0 C150 0 199 0 199 0 C199 0 401 0 401 0 C401 0 494 0 494 0 C494 0 497 0 497 0 C498 3 499 9 499 12 C505 45 515 101 521 133 C521 134 521 134 520 133 C515 134 511 134 511 133 C511 133 503 117 503 117 C477 67 401 24 337 24 C337 24 199 24 199 24 C199 24 199 330 199 330 C199 330 290 330 290 330 C349 330 407 303 415 272 C415 272 418 261 418 261 C418 261 429 261 429 261 L429 261 Z M293 802 C293 802 404 928 404 928 C404 928 413 920 413 920 C413 920 321 741 321 741 C318 734 305 715 292 715 C280 715 267 734 264 740 C264 740 172 920 172 920 C172 920 181 928 181 928 C181 928 293 802 293 802 L293 802 Z " />
<glyph glyph-name="ecaron" unicode="&#x11b;" horiz-adv-x="510" d="M460 84 C460 84 450 93 450 93 C426 70 371 50 330 50 C230 50 145 149 145 266 C145 280 146 294 148 308 C148 308 375 308 375 308 C375 308 460 308 460 308 C460 415 376 505 277 505 C154 505 50 379 50 231 C50 104 144 -5 255 -5 C317 -5 411 36 460 84 L460 84 Z M277 642 C277 642 388 768 388 768 C388 768 397 760 397 760 C397 760 306 581 306 581 C302 574 290 555 277 555 C264 555 252 574 248 580 C248 580 156 760 156 760 C156 760 166 768 166 768 C166 768 277 642 277 642 L277 642 Z M150 325 C166 414 215 480 272 480 C328 480 376 436 376 384 C376 384 376 383 376 383 C375 361 356 340 334 338 C334 338 150 325 150 325 L150 325 Z " />
<glyph glyph-name="Gcircumflex" unicode="&#x11c;" horiz-adv-x="788" d="M695 310 C695 310 634 310 634 310 C634 310 590 310 590 310 C590 310 546 310 546 310 C546 310 486 310 486 310 C486 310 486 297 486 297 C486 297 495 297 495 297 C523 297 546 259 546 214 C546 214 546 46 546 46 C495 30 434 19 387 19 C263 19 157 162 157 330 C157 498 263 641 387 641 C402 641 418 640 435 638 C435 638 435 637 435 637 C506 629 585 572 606 514 C609 506 614 492 617 484 C617 484 628 484 628 484 C628 484 628 607 628 607 C571 638 460 665 387 665 C205 665 50 511 50 330 C50 149 205 -5 387 -5 C464 -5 578 23 634 55 C634 55 634 214 634 214 C634 259 658 297 685 297 C685 297 695 297 695 297 C695 297 695 310 695 310 L695 310 Z M387 818 C387 818 498 692 498 692 C498 692 507 700 507 700 C507 700 415 879 415 879 C412 886 399 905 387 905 C374 905 362 886 358 880 C358 880 266 700 266 700 C266 700 275 692 275 692 C275 692 387 818 387 818 L387 818 Z " />
<glyph glyph-name="Gbreve" unicode="&#x11e;" horiz-adv-x="788" d="M261 871 C283 804 340 748 387 748 C433 748 491 804 512 871 C512 871 497 876 497 876 C485 839 434 808 387 808 C339 808 288 839 276 876 C276 876 261 871 261 871 L261 871 Z M695 310 C695 310 634 310 634 310 C634 310 590 310 590 310 C590 310 546 310 546 310 C546 310 486 310 486 310 C486 310 486 297 486 297 C486 297 495 297 495 297 C523 297 546 259 546 214 C546 214 546 46 546 46 C495 30 434 19 387 19 C263 19 157 162 157 330 C157 498 263 641 387 641 C402 641 418 640 435 638 C435 638 435 637 435 637 C506 629 585 572 606 514 C609 506 614 492 617 484 C617 484 628 484 628 484 C628 484 628 607 628 607 C571 638 460 665 387 665 C205 665 50 511 50 330 C50 149 205 -5 387 -5 C464 -5 578 23 634 55 C634 55 634 214 634 214 C634 259 658 297 685 297 C685 297 695 297 695 297 C695 297 695 310 695 310 L695 310 Z " />
<glyph glyph-name="gbreve" unicode="&#x11f;" horiz-adv-x="474" d="M109 711 C131 644 189 588 235 588 C282 588 339 644 361 711 C361 711 346 716 346 716 C334 679 283 648 235 648 C188 648 137 679 125 716 C125 716 109 711 109 711 L109 711 Z M474 500 C474 500 335 476 335 476 C306 494 272 505 235 505 C141 505 60 433 60 347 C60 285 104 229 164 204 C98 198 45 152 45 98 C45 52 87 13 143 0 C75 -25 20 -79 20 -125 C20 -188 91 -241 174 -241 C325 -241 454 -147 454 -36 C454 29 371 85 275 85 C275 85 190 81 190 81 C144 79 105 103 105 133 C105 164 140 190 180 190 C180 190 235 190 235 190 C330 190 411 262 411 347 C411 383 397 417 373 444 C373 444 474 450 474 450 C474 450 474 500 474 500 L474 500 Z M145 347 C145 422 186 485 235 485 C284 485 326 422 326 347 C326 273 284 210 235 210 C186 210 145 273 145 347 L145 347 Z M168 -3 C177 -4 186 -4 195 -4 C195 -4 250 -1 250 -1 C325 -1 389 -38 389 -82 C389 -154 295 -216 184 -216 C128 -216 80 -169 80 -114 C80 -70 119 -20 168 -3 L168 -3 Z " />
<glyph glyph-name="Gdotaccent" unicode="&#x120;" horiz-adv-x="788" d="M387 730 C417 730 442 755 442 785 C442 815 417 840 387 840 C357 840 332 815 332 785 C332 755 357 730 387 730 L387 730 Z M695 310 C695 310 634 310 634 310 C634 310 590 310 590 310 C590 310 546 310 546 310 C546 310 486 310 486 310 C486 310 486 297 486 297 C486 297 495 297 495 297 C523 297 546 259 546 214 C546 214 546 46 546 46 C495 30 434 19 387 19 C263 19 157 162 157 330 C157 498 263 641 387 641 C402 641 418 640 435 638 C435 638 435 637 435 637 C506 629 585 572 606 514 C609 506 614 492 617 484 C617 484 628 484 628 484 C628 484 628 607 628 607 C571 638 460 665 387 665 C205 665 50 511 50 330 C50 149 205 -5 387 -5 C464 -5 578 23 634 55 C634 55 634 214 634 214 C634 259 658 297 685 297 C685 297 695 297 695 297 C695 297 695 310 695 310 L695 310 Z " />
<glyph glyph-name="gdotaccent" unicode="&#x121;" horiz-adv-x="474" d="M235 570 C265 570 290 595 290 625 C290 655 265 680 235 680 C205 680 180 655 180 625 C180 595 205 570 235 570 L235 570 Z M474 500 C474 500 335 476 335 476 C306 494 272 505 235 505 C141 505 60 433 60 347 C60 285 104 229 164 204 C98 198 45 152 45 98 C45 52 87 13 143 0 C75 -25 20 -79 20 -125 C20 -188 91 -241 174 -241 C325 -241 454 -147 454 -36 C454 29 371 85 275 85 C275 85 190 81 190 81 C144 79 105 103 105 133 C105 164 140 190 180 190 C180 190 235 190 235 190 C330 190 411 262 411 347 C411 383 397 417 373 444 C373 444 474 450 474 450 C474 450 474 500 474 500 L474 500 Z M145 347 C145 422 186 485 235 485 C284 485 326 422 326 347 C326 273 284 210 235 210 C186 210 145 273 145 347 L145 347 Z M168 -3 C177 -4 186 -4 195 -4 C195 -4 250 -1 250 -1 C325 -1 389 -38 389 -82 C389 -154 295 -216 184 -216 C128 -216 80 -169 80 -114 C80 -70 119 -20 168 -3 L168 -3 Z " />
<glyph glyph-name="Hcircumflex" unicode="&#x124;" horiz-adv-x="751" d="M711 660 C711 660 651 660 651 660 C651 660 602 660 602 660 C602 660 553 660 553 660 C553 660 493 660 493 660 C493 660 493 647 493 647 C493 647 502 647 502 647 C530 647 553 609 553 564 C553 564 553 350 553 350 C553 350 199 350 199 350 C199 350 199 564 199 564 C199 564 199 569 199 569 C200 612 223 647 250 647 C250 647 259 647 259 647 C259 647 259 660 259 660 C259 660 199 660 199 660 C199 660 150 660 150 660 C150 660 101 660 101 660 C101 660 41 660 41 660 C41 660 41 647 41 647 C41 647 50 647 50 647 C77 647 101 609 101 564 C101 564 101 96 101 96 C101 51 77 13 50 13 C50 13 41 13 41 13 C41 13 41 0 41 0 C41 0 101 0 101 0 C101 0 150 0 150 0 C150 0 199 0 199 0 C199 0 259 0 259 0 C259 0 259 13 259 13 C259 13 250 13 250 13 C223 13 200 48 199 91 C199 91 199 96 199 96 C199 96 199 326 199 326 C199 326 553 326 553 326 C553 326 553 96 553 96 C553 51 530 13 502 13 C502 13 493 13 493 13 C493 13 493 0 493 0 C493 0 553 0 553 0 C553 0 602 0 602 0 C602 0 651 0 651 0 C651 0 711 0 711 0 C711 0 711 13 711 13 C711 13 702 13 702 13 C675 13 652 48 651 91 C651 91 651 96 651 96 C651 96 651 564 651 564 C651 564 651 569 651 569 C652 612 675 647 702 647 C702 647 711 647 711 647 C711 647 711 660 711 660 L711 660 Z M376 818 C376 818 487 692 487 692 C487 692 497 700 497 700 C497 700 405 879 405 879 C401 886 389 905 376 905 C363 905 351 886 347 880 C347 880 255 700 255 700 C255 700 265 692 265 692 C265 692 376 818 376 818 L376 818 Z " />
<glyph glyph-name="Itilde" unicode="&#x128;" horiz-adv-x="299" d="M10 755 C10 787 29 815 52 815 C105 815 172 753 225 753 C269 753 306 808 306 872 C306 872 291 872 291 872 C291 840 270 812 245 812 C192 812 124 875 71 875 C30 875 -5 820 -5 755 C-5 755 10 755 10 755 L10 755 Z M260 660 C260 660 199 660 199 660 C199 660 151 660 151 660 C151 660 102 660 102 660 C102 660 41 660 41 660 C41 660 41 647 41 647 C41 647 51 647 51 647 C78 647 102 609 102 564 C102 564 102 96 102 96 C102 51 78 13 51 13 C51 13 41 13 41 13 C41 13 41 0 41 0 C41 0 102 0 102 0 C102 0 151 0 151 0 C151 0 199 0 199 0 C199 0 260 0 260 0 C260 0 260 13 260 13 C260 13 251 13 251 13 C223 13 199 51 199 96 C199 96 199 564 199 564 C199 609 223 647 251 647 C251 647 260 647 260 647 C260 647 260 660 260 660 L260 660 Z " />
<glyph glyph-name="itilde" unicode="&#x129;" horiz-adv-x="301" d="M10 595 C10 627 29 655 52 655 C105 655 172 593 225 593 C269 593 306 648 306 712 C306 712 291 712 291 712 C291 680 270 652 245 652 C192 652 124 715 71 715 C30 715 -5 660 -5 595 C-5 595 10 595 10 595 L10 595 Z M196 0 C196 0 256 0 256 0 C256 0 256 13 256 13 C256 13 244 13 244 13 C218 13 196 10 196 0 C196 0 196 404 196 404 C196 404 196 505 196 505 C196 505 191 505 191 505 C191 505 55 463 55 463 C55 463 55 454 55 454 C55 454 91 441 91 441 C99 438 106 421 106 378 C106 378 106 0 106 0 C106 0 45 0 45 0 C45 0 45 13 45 13 C45 13 57 13 57 13 C84 13 106 10 106 0 C106 0 196 0 196 0 L196 0 Z " />
<glyph glyph-name="Imacron" unicode="&#x12a;" horiz-adv-x="299" d="M1 765 C1 765 301 765 301 765 C301 765 301 815 301 815 C301 815 1 815 1 815 C1 815 1 765 1 765 L1 765 Z M260 660 C260 660 199 660 199 660 C199 660 151 660 151 660 C151 660 102 660 102 660 C102 660 41 660 41 660 C41 660 41 647 41 647 C41 647 51 647 51 647 C78 647 102 609 102 564 C102 564 102 96 102 96 C102 51 78 13 51 13 C51 13 41 13 41 13 C41 13 41 0 41 0 C41 0 102 0 102 0 C102 0 151 0 151 0 C151 0 199 0 199 0 C199 0 260 0 260 0 C260 0 260 13 260 13 C260 13 251 13 251 13 C223 13 199 51 199 96 C199 96 199 564 199 564 C199 609 223 647 251 647 C251 647 260 647 260 647 C260 647 260 660 260 660 L260 660 Z " />
<glyph glyph-name="imacron" unicode="&#x12b;" horiz-adv-x="301" d="M1 605 C1 605 301 605 301 605 C301 605 301 655 301 655 C301 655 1 655 1 655 C1 655 1 605 1 605 L1 605 Z M196 0 C196 0 256 0 256 0 C256 0 256 13 256 13 C256 13 244 13 244 13 C218 13 196 10 196 0 C196 0 196 404 196 404 C196 404 196 505 196 505 C196 505 191 505 191 505 C191 505 55 463 55 463 C55 463 55 454 55 454 C55 454 91 441 91 441 C99 438 106 421 106 378 C106 378 106 0 106 0 C106 0 45 0 45 0 C45 0 45 13 45 13 C45 13 57 13 57 13 C84 13 106 10 106 0 C106 0 196 0 196 0 L196 0 Z " />
<glyph glyph-name="Ibreve" unicode="&#x12c;" horiz-adv-x="299" d="M25 871 C47 804 104 748 151 748 C197 748 255 804 276 871 C276 871 261 876 261 876 C249 839 198 808 151 808 C103 808 52 839 40 876 C40 876 25 871 25 871 L25 871 Z M260 660 C260 660 199 660 199 660 C199 660 151 660 151 660 C151 660 102 660 102 660 C102 660 41 660 41 660 C41 660 41 647 41 647 C41 647 51 647 51 647 C78 647 102 609 102 564 C102 564 102 96 102 96 C102 51 78 13 51 13 C51 13 41 13 41 13 C41 13 41 0 41 0 C41 0 102 0 102 0 C102 0 151 0 151 0 C151 0 199 0 199 0 C199 0 260 0 260 0 C260 0 260 13 260 13 C260 13 251 13 251 13 C223 13 199 51 199 96 C199 96 199 564 199 564 C199 609 223 647 251 647 C251 647 260 647 260 647 C260 647 260 660 260 660 L260 660 Z " />
<glyph glyph-name="ibreve" unicode="&#x12d;" horiz-adv-x="301" d="M25 711 C47 644 104 588 151 588 C197 588 255 644 276 711 C276 711 261 716 261 716 C249 679 198 648 151 648 C103 648 52 679 40 716 C40 716 25 711 25 711 L25 711 Z M196 0 C196 0 256 0 256 0 C256 0 256 13 256 13 C256 13 244 13 244 13 C218 13 196 10 196 0 C196 0 196 404 196 404 C196 404 196 505 196 505 C196 505 191 505 191 505 C191 505 55 463 55 463 C55 463 55 454 55 454 C55 454 91 441 91 441 C99 438 106 421 106 378 C106 378 106 0 106 0 C106 0 45 0 45 0 C45 0 45 13 45 13 C45 13 57 13 57 13 C84 13 106 10 106 0 C106 0 196 0 196 0 L196 0 Z " />
<glyph glyph-name="Idotaccent" unicode="&#x130;" horiz-adv-x="299" d="M151 730 C181 730 206 755 206 785 C206 815 181 840 151 840 C121 840 96 815 96 785 C96 755 121 730 151 730 L151 730 Z M260 660 C260 660 199 660 199 660 C199 660 151 660 151 660 C151 660 102 660 102 660 C102 660 41 660 41 660 C41 660 41 647 41 647 C41 647 51 647 51 647 C78 647 102 609 102 564 C102 564 102 96 102 96 C102 51 78 13 51 13 C51 13 41 13 41 13 C41 13 41 0 41 0 C41 0 102 0 102 0 C102 0 151 0 151 0 C151 0 199 0 199 0 C199 0 260 0 260 0 C260 0 260 13 260 13 C260 13 251 13 251 13 C223 13 199 51 199 96 C199 96 199 564 199 564 C199 609 223 647 251 647 C251 647 260 647 260 647 C260 647 260 660 260 660 L260 660 Z " />
<glyph glyph-name="dotlessi" unicode="&#x131;" horiz-adv-x="301" d="M196 0 C196 0 256 0 256 0 C256 0 256 13 256 13 C256 13 244 13 244 13 C218 13 196 10 196 0 C196 0 196 404 196 404 C196 404 196 505 196 505 C196 505 191 505 191 505 C191 505 55 463 55 463 C55 463 55 454 55 454 C55 454 91 441 91 441 C99 438 106 421 106 378 C106 378 106 0 106 0 C106 0 45 0 45 0 C45 0 45 13 45 13 C45 13 57 13 57 13 C84 13 106 10 106 0 C106 0 196 0 196 0 L196 0 Z " />
<glyph glyph-name="Jcircumflex" unicode="&#x134;" horiz-adv-x="383" d="M344 660 C344 660 283 660 283 660 C283 660 234 660 234 660 C234 660 186 660 186 660 C186 660 125 660 125 660 C125 660 125 647 125 647 C125 647 134 647 134 647 C162 647 186 609 186 564 C186 564 186 200 186 200 C186 77 168 10 134 10 C113 10 90 28 85 50 C79 72 59 90 40 90 C13 90 -6 72 0 50 C8 18 58 -10 109 -10 C222 -10 283 93 283 282 C283 282 283 564 283 564 C283 609 307 647 334 647 C334 647 344 647 344 647 C344 647 344 660 344 660 L344 660 Z M235 818 C235 818 346 692 346 692 C346 692 355 700 355 700 C355 700 263 879 263 879 C260 886 247 905 234 905 C222 905 209 886 206 880 C206 880 114 700 114 700 C114 700 123 692 123 692 C123 692 235 818 235 818 L235 818 Z " />
<glyph glyph-name="Lacute" unicode="&#x139;" horiz-adv-x="594" d="M127 690 C127 690 241 816 241 816 C261 839 278 862 278 866 C278 877 241 904 227 904 C223 904 209 880 195 852 C195 852 117 698 117 698 C117 698 127 690 127 690 L127 690 Z M507 146 C507 146 499 127 499 127 C475 72 405 24 347 24 C347 24 199 24 199 24 C199 24 199 564 199 564 C199 564 199 569 199 569 C200 612 223 647 250 647 C250 647 259 647 259 647 C259 647 259 660 259 660 C259 660 199 660 199 660 C199 660 150 660 150 660 C150 660 101 660 101 660 C101 660 41 660 41 660 C41 660 41 647 41 647 C41 647 50 647 50 647 C77 647 101 609 101 564 C101 564 101 96 101 96 C101 51 77 13 50 13 C50 13 41 13 41 13 C41 13 41 0 41 0 C41 0 101 0 101 0 C101 0 150 0 150 0 C150 0 199 0 199 0 C199 0 401 0 401 0 C401 0 494 0 494 0 C494 0 497 0 497 0 C498 3 499 9 499 12 C506 46 516 105 522 139 C522 141 507 146 507 146 L507 146 Z " />
<glyph glyph-name="Lcaron" unicode="&#x13d;" horiz-adv-x="594" d="M507 146 C507 146 499 127 499 127 C475 72 405 24 347 24 C347 24 199 24 199 24 C199 24 199 564 199 564 C199 564 199 569 199 569 C200 612 223 647 250 647 C250 647 259 647 259 647 C259 647 259 660 259 660 C259 660 199 660 199 660 C199 660 150 660 150 660 C150 660 101 660 101 660 C101 660 41 660 41 660 C41 660 41 647 41 647 C41 647 50 647 50 647 C77 647 101 609 101 564 C101 564 101 96 101 96 C101 51 77 13 50 13 C50 13 41 13 41 13 C41 13 41 0 41 0 C41 0 101 0 101 0 C101 0 150 0 150 0 C150 0 199 0 199 0 C199 0 401 0 401 0 C401 0 494 0 494 0 C494 0 497 0 497 0 C498 3 499 9 499 12 C506 46 516 105 522 139 C522 141 507 146 507 146 L507 146 Z M391 564 C414 608 433 664 433 672 C433 685 392 692 377 692 C360 692 342 625 335 584 C335 584 306 420 306 420 C306 420 318 416 318 416 C318 416 391 564 391 564 L391 564 Z " />
<glyph glyph-name="lcaron" unicode="&#x13e;" horiz-adv-x="301" d="M45 672 C91 662 106 643 106 574 C106 574 106 96 106 96 C106 51 82 13 54 13 C54 13 45 13 45 13 C45 13 45 0 45 0 C45 0 106 0 106 0 C106 0 151 0 151 0 C151 0 196 0 196 0 C196 0 256 0 256 0 C256 0 256 13 256 13 C256 13 247 13 247 13 C220 13 197 48 196 91 C196 91 196 96 196 96 C196 96 196 599 196 599 C196 599 196 697 196 697 C196 697 196 720 196 720 C196 720 178 720 178 720 C178 720 45 680 45 680 C45 680 45 672 45 672 L45 672 Z M328 594 C351 638 370 694 370 702 C370 715 329 722 313 722 C296 722 278 655 272 614 C272 614 243 450 243 450 C243 450 254 446 254 446 C254 446 328 594 328 594 L328 594 Z " />
<glyph glyph-name="Lslash" unicode="&#x141;" horiz-adv-x="594" d="M51 265 C51 265 101 282 101 282 C101 282 101 96 101 96 C101 51 77 13 50 13 C50 13 41 13 41 13 C41 13 41 0 41 0 C41 0 101 0 101 0 C101 0 150 0 150 0 C150 0 199 0 199 0 C199 0 401 0 401 0 C401 0 494 0 494 0 C494 0 497 0 497 0 C498 3 499 9 499 12 C506 46 516 105 522 139 C522 141 507 146 507 146 C507 146 499 127 499 127 C475 72 405 24 347 24 C347 24 199 24 199 24 C199 24 199 315 199 315 C199 315 346 365 346 365 C346 365 346 395 346 395 C346 395 199 345 199 345 C199 345 199 564 199 564 C199 564 199 569 199 569 C200 612 223 647 250 647 C250 647 259 647 259 647 C259 647 259 660 259 660 C259 660 199 660 199 660 C199 660 150 660 150 660 C150 660 101 660 101 660 C101 660 41 660 41 660 C41 660 41 647 41 647 C41 647 50 647 50 647 C77 647 101 609 101 564 C101 564 101 312 101 312 C101 312 51 295 51 295 C51 295 51 265 51 265 L51 265 Z " />
<glyph glyph-name="lslash" unicode="&#x142;" horiz-adv-x="301" d="M6 295 C6 295 106 329 106 329 C106 329 106 96 106 96 C106 51 82 13 54 13 C54 13 45 13 45 13 C45 13 45 0 45 0 C45 0 106 0 106 0 C106 0 151 0 151 0 C151 0 196 0 196 0 C196 0 256 0 256 0 C256 0 256 13 256 13 C256 13 247 13 247 13 C220 13 197 48 196 91 C196 91 196 96 196 96 C196 96 196 361 196 361 C196 361 296 395 296 395 C296 395 296 425 296 425 C296 425 196 391 196 391 C196 391 196 599 196 599 C196 599 196 697 196 697 C196 697 196 720 196 720 C196 720 178 720 178 720 C178 720 45 680 45 680 C45 680 45 672 45 672 C91 662 106 643 106 574 C106 574 106 359 106 359 C106 359 6 325 6 325 C6 325 6 295 6 295 L6 295 Z " />
<glyph glyph-name="Nacute" unicode="&#x143;" horiz-adv-x="683" d="M312 690 C312 690 426 816 426 816 C446 839 464 862 463 866 C464 877 426 904 412 904 C409 904 394 880 380 852 C380 852 302 698 302 698 C302 698 312 690 312 690 L312 690 Z M645 660 C645 660 585 660 585 660 C585 660 570 660 570 660 C570 660 556 660 556 660 C556 660 495 660 495 660 C495 660 495 647 495 647 C495 647 504 647 504 647 C532 647 556 609 556 564 C556 564 556 142 556 142 C556 142 186 660 186 660 C186 660 129 618 129 618 C129 618 129 619 129 619 C129 619 186 660 186 660 C186 660 129 660 129 660 C129 660 115 660 115 660 C115 660 100 660 100 660 C100 660 40 660 40 660 C40 660 40 647 40 647 C40 647 49 647 49 647 C76 647 100 609 100 564 C100 564 100 96 100 96 C100 51 76 13 49 13 C49 13 40 13 40 13 C40 13 40 0 40 0 C40 0 100 0 100 0 C100 0 115 0 115 0 C115 0 129 0 129 0 C129 0 190 0 190 0 C190 0 190 13 190 13 C190 13 181 13 181 13 C153 13 129 51 129 96 C129 96 129 574 129 574 C129 574 511 42 511 42 C511 42 556 -20 556 -20 C556 -20 585 -20 585 -20 C585 -20 585 77 585 77 C585 77 585 564 585 564 C585 609 608 647 636 647 C636 647 645 647 645 647 C645 647 645 660 645 660 L645 660 Z " />
<glyph glyph-name="nacute" unicode="&#x144;" horiz-adv-x="601" d="M227 530 C227 530 340 656 340 656 C361 679 378 702 378 706 C378 717 341 744 327 744 C323 744 309 720 295 692 C295 692 217 538 217 538 C217 538 227 530 227 530 L227 530 Z M561 13 C561 13 552 13 552 13 C525 13 502 48 501 91 C501 91 501 96 501 96 C501 96 501 337 501 337 C501 428 460 505 384 505 C347 505 262 477 195 442 C195 442 195 500 195 500 C195 500 177 500 177 500 C177 500 44 460 44 460 C45 460 45 460 44 459 C45 455 45 452 44 452 C90 443 105 424 105 354 C105 354 105 96 105 96 C105 51 81 13 54 13 C54 13 44 13 44 13 C45 13 45 10 44 6 C45 3 45 0 44 0 C44 0 105 0 105 0 C105 0 150 0 150 0 C150 0 195 0 195 0 C195 0 256 0 256 0 C255 0 255 3 256 6 C255 10 255 13 256 13 C256 13 247 13 247 13 C219 13 195 51 195 96 C195 96 195 379 195 379 C195 379 195 380 195 380 C195 380 195 431 195 431 C219 439 270 445 314 445 C377 445 411 391 411 328 C411 328 411 96 411 96 C411 51 387 13 359 13 C359 13 350 13 350 13 C350 13 350 0 350 0 C350 0 411 0 411 0 C411 0 456 0 456 0 C456 0 501 0 501 0 C501 0 561 0 561 0 C561 0 561 13 561 13 L561 13 Z " />
<glyph glyph-name="Ncaron" unicode="&#x147;" horiz-adv-x="683" d="M645 660 C645 660 585 660 585 660 C585 660 570 660 570 660 C570 660 556 660 556 660 C556 660 495 660 495 660 C495 660 495 647 495 647 C495 647 504 647 504 647 C532 647 556 609 556 564 C556 564 556 142 556 142 C556 142 186 660 186 660 C186 660 129 618 129 618 C129 618 129 619 129 619 C129 619 186 660 186 660 C186 660 129 660 129 660 C129 660 115 660 115 660 C115 660 100 660 100 660 C100 660 40 660 40 660 C40 660 40 647 40 647 C40 647 49 647 49 647 C76 647 100 609 100 564 C100 564 100 96 100 96 C100 51 76 13 49 13 C49 13 40 13 40 13 C40 13 40 0 40 0 C40 0 100 0 100 0 C100 0 115 0 115 0 C115 0 129 0 129 0 C129 0 190 0 190 0 C190 0 190 13 190 13 C190 13 181 13 181 13 C153 13 129 51 129 96 C129 96 129 574 129 574 C129 574 511 42 511 42 C511 42 556 -20 556 -20 C556 -20 585 -20 585 -20 C585 -20 585 77 585 77 C585 77 585 564 585 564 C585 609 608 647 636 647 C636 647 645 647 645 647 C645 647 645 660 645 660 L645 660 Z M343 802 C343 802 454 928 454 928 C454 928 463 920 463 920 C463 920 371 741 371 741 C368 734 355 715 343 715 C330 715 318 734 314 740 C314 740 222 920 222 920 C222 920 231 928 231 928 C231 928 343 802 343 802 L343 802 Z " />
<glyph glyph-name="ncaron" unicode="&#x148;" horiz-adv-x="601" d="M561 13 C561 13 552 13 552 13 C525 13 502 48 501 91 C501 91 501 96 501 96 C501 96 501 337 501 337 C501 428 460 505 384 505 C347 505 262 477 195 442 C195 442 195 500 195 500 C195 500 177 500 177 500 C177 500 44 460 44 460 C45 460 45 460 44 459 C45 455 45 452 44 452 C90 443 105 424 105 354 C105 354 105 96 105 96 C105 51 81 13 54 13 C54 13 44 13 44 13 C45 13 45 10 44 6 C45 3 45 0 44 0 C44 0 105 0 105 0 C105 0 150 0 150 0 C150 0 195 0 195 0 C195 0 256 0 256 0 C255 0 255 3 256 6 C255 10 255 13 256 13 C256 13 247 13 247 13 C219 13 195 51 195 96 C195 96 195 379 195 379 C195 379 195 380 195 380 C195 380 195 431 195 431 C219 439 270 445 314 445 C377 445 411 391 411 328 C411 328 411 96 411 96 C411 51 387 13 359 13 C359 13 350 13 350 13 C350 13 350 0 350 0 C350 0 411 0 411 0 C411 0 456 0 456 0 C456 0 501 0 501 0 C501 0 561 0 561 0 C561 0 561 13 561 13 L561 13 Z M303 642 C303 642 414 768 414 768 C414 768 423 760 423 760 C423 760 332 581 332 581 C328 574 316 555 303 555 C290 555 278 574 274 580 C274 580 182 760 182 760 C182 760 192 768 192 768 C192 768 303 642 303 642 L303 642 Z " />
<glyph glyph-name="Omacron" unicode="&#x14c;" horiz-adv-x="759" d="M230 765 C230 765 530 765 530 765 C530 765 530 815 530 815 C530 815 230 815 230 815 C230 815 230 765 230 765 L230 765 Z M380 19 C247 19 157 179 157 330 C157 481 247 641 380 641 C512 641 602 481 602 330 C602 179 512 19 380 19 L380 19 Z M50 330 C50 167 184 -5 380 -5 C575 -5 709 167 709 330 C709 493 575 665 380 665 C184 665 50 493 50 330 L50 330 Z " />
<glyph glyph-name="omacron" unicode="&#x14d;" horiz-adv-x="600" d="M150 605 C150 605 450 605 450 605 C450 605 450 655 450 655 C450 655 150 655 150 655 C150 655 150 605 150 605 L150 605 Z M300 15 C219 15 150 123 150 250 C150 377 219 485 300 485 C381 485 450 377 450 250 C450 123 381 15 300 15 L300 15 Z M50 250 C50 112 165 -5 300 -5 C435 -5 550 112 550 250 C550 388 435 505 300 505 C165 505 50 388 50 250 L50 250 Z " />
<glyph glyph-name="Obreve" unicode="&#x14e;" horiz-adv-x="759" d="M254 871 C276 804 333 748 380 748 C426 748 484 804 505 871 C505 871 490 876 490 876 C478 839 427 808 380 808 C332 808 281 839 269 876 C269 876 254 871 254 871 L254 871 Z M380 19 C247 19 157 179 157 330 C157 481 247 641 380 641 C512 641 602 481 602 330 C602 179 512 19 380 19 L380 19 Z M50 330 C50 167 184 -5 380 -5 C575 -5 709 167 709 330 C709 493 575 665 380 665 C184 665 50 493 50 330 L50 330 Z " />
<glyph glyph-name="obreve" unicode="&#x14f;" horiz-adv-x="600" d="M174 711 C196 644 254 588 300 588 C346 588 404 644 426 711 C426 711 411 716 411 716 C399 679 348 648 300 648 C252 648 201 679 189 716 C189 716 174 711 174 711 L174 711 Z M300 15 C219 15 150 123 150 250 C150 377 219 485 300 485 C381 485 450 377 450 250 C450 123 381 15 300 15 L300 15 Z M50 250 C50 112 165 -5 300 -5 C435 -5 550 112 550 250 C550 388 435 505 300 505 C165 505 50 388 50 250 L50 250 Z " />
<glyph glyph-name="Racute" unicode="&#x154;" horiz-adv-x="654" d="M246 690 C246 690 360 816 360 816 C380 839 397 862 398 866 C397 877 360 904 346 904 C343 904 329 880 314 852 C314 852 236 698 236 698 C236 698 246 690 246 690 L246 690 Z M41 647 C41 647 50 647 50 647 C77 647 101 609 101 564 C101 564 101 96 101 96 C101 51 77 13 50 13 C50 13 41 13 41 13 C41 13 41 0 41 0 C41 0 101 0 101 0 C101 0 150 0 150 0 C150 0 199 0 199 0 C199 0 259 0 259 0 C259 0 259 13 259 13 C259 13 250 13 250 13 C223 13 200 48 199 91 C199 91 199 96 199 96 C199 96 199 305 199 305 C199 305 275 305 275 305 C275 305 426 106 426 106 C496 14 522 0 620 0 C620 0 655 0 655 0 C655 0 655 20 655 20 C655 20 650 20 650 20 C620 20 608 29 563 87 C563 87 385 318 385 318 C476 345 543 411 543 485 C543 580 440 660 320 660 C320 660 199 660 199 660 C199 660 150 660 150 660 C150 660 101 660 101 660 C101 660 41 660 41 660 C41 660 41 647 41 647 L41 647 Z M296 330 C296 330 256 330 256 330 C256 330 199 330 199 330 C199 330 199 635 199 635 C199 635 320 635 320 635 C385 635 441 566 441 485 C441 401 374 330 296 330 L296 330 Z " />
<glyph glyph-name="Rcaron" unicode="&#x158;" horiz-adv-x="578" d="M41 647 C41 647 50 647 50 647 C77 647 101 609 101 564 C101 564 101 96 101 96 C101 51 77 13 50 13 C50 13 41 13 41 13 C41 13 41 0 41 0 C41 0 101 0 101 0 C101 0 150 0 150 0 C150 0 199 0 199 0 C199 0 259 0 259 0 C259 0 259 13 259 13 C259 13 250 13 250 13 C223 13 200 48 199 91 C199 91 199 96 199 96 C199 96 199 305 199 305 C199 305 296 305 296 305 C338 188 468 27 579 -45 C579 -45 588 -30 588 -30 C543 -1 455 161 397 321 C397 321 394 321 394 321 C480 349 543 413 543 485 C543 580 440 660 320 660 C320 660 199 660 199 660 C199 660 150 660 150 660 C150 660 101 660 101 660 C101 660 41 660 41 660 C41 660 41 647 41 647 L41 647 Z M322 802 C322 802 434 928 434 928 C434 928 443 920 443 920 C443 920 351 741 351 741 C347 734 335 715 322 715 C310 715 297 734 294 740 C294 740 202 920 202 920 C202 920 211 928 211 928 C211 928 322 802 322 802 L322 802 Z M199 330 C199 330 199 635 199 635 C199 635 320 635 320 635 C385 635 441 566 441 485 C441 401 374 330 296 330 C296 330 199 330 199 330 L199 330 Z " />
<glyph glyph-name="rcaron" unicode="&#x159;" horiz-adv-x="414" d="M216 642 C216 642 327 768 327 768 C327 768 337 760 337 760 C337 760 245 581 245 581 C241 574 229 555 216 555 C203 555 191 574 188 580 C188 580 96 760 96 760 C96 760 105 768 105 768 C105 768 216 642 216 642 L216 642 Z M192 414 C207 427 234 438 255 438 C287 438 330 403 361 403 C384 403 404 423 404 446 C404 478 377 505 327 505 C290 505 229 469 190 426 C190 426 183 500 183 500 C183 500 165 500 165 500 C165 500 44 460 44 460 C45 460 45 460 44 459 C45 455 45 452 44 452 C90 443 105 424 105 354 C105 354 105 96 105 96 C105 51 81 13 54 13 C54 13 44 13 44 13 C45 13 45 10 44 6 C45 3 45 0 44 0 C44 0 105 0 105 0 C105 0 150 0 150 0 C150 0 195 0 195 0 C195 0 256 0 256 0 C255 0 255 3 256 6 C255 10 255 13 256 13 C256 13 247 13 247 13 C219 13 195 51 195 96 C195 96 195 379 195 379 C195 379 195 380 195 380 C195 380 195 380 195 380 C195 380 192 414 192 414 L192 414 Z " />
<glyph glyph-name="Sacute" unicode="&#x15a;" horiz-adv-x="509" d="M202 690 C202 690 316 816 316 816 C336 839 354 862 354 866 C354 877 316 904 302 904 C299 904 284 880 270 852 C270 852 192 698 192 698 C192 698 202 690 202 690 L202 690 Z M40 179 C40 179 40 51 40 51 C40 51 50 65 50 65 C50 65 50 65 50 65 C50 65 40 51 40 51 C81 21 180 -5 254 -5 C368 -5 464 80 464 180 C464 252 384 338 289 368 C193 398 111 462 111 508 C111 580 174 641 248 641 C259 641 275 638 292 634 C335 620 382 573 398 529 C402 518 409 499 413 488 C413 488 424 488 424 488 C424 488 424 619 424 619 C379 644 300 665 252 665 C140 665 44 575 44 469 C44 402 122 321 213 292 C312 261 395 191 395 140 C395 75 330 19 254 19 C244 19 233 20 221 21 C156 32 84 89 62 149 C59 157 54 171 51 179 C51 179 40 179 40 179 L40 179 Z " />
<glyph glyph-name="sacute" unicode="&#x15b;" horiz-adv-x="420" d="M147 530 C147 530 261 656 261 656 C282 679 299 702 299 706 C299 717 261 744 247 744 C244 744 230 720 215 692 C215 692 137 538 137 538 C137 538 147 530 147 530 L147 530 Z M45 133 C45 133 45 38 45 38 C76 15 146 -5 197 -5 C291 -5 371 65 371 147 C371 193 319 255 258 282 C186 314 124 368 124 399 C124 446 170 485 223 485 C227 485 237 482 250 477 C287 460 322 425 332 394 C334 390 336 382 338 377 C338 377 348 377 348 377 C348 377 348 466 348 466 C309 487 251 505 223 505 C132 505 55 442 55 368 C55 321 119 252 195 218 C249 194 296 146 296 113 C296 60 253 15 203 15 C201 15 198 15 196 15 C196 15 196 16 196 16 C146 18 85 62 64 111 C61 117 57 127 54 133 C54 133 45 133 45 133 L45 133 Z " />
<glyph glyph-name="Scircumflex" unicode="&#x15c;" horiz-adv-x="509" d="M40 179 C40 179 40 51 40 51 C40 51 50 65 50 65 C50 65 50 65 50 65 C50 65 40 51 40 51 C81 21 180 -5 254 -5 C368 -5 464 80 464 180 C464 252 384 338 289 368 C193 398 111 462 111 508 C111 580 174 641 248 641 C259 641 275 638 292 634 C335 620 382 573 398 529 C402 518 409 499 413 488 C413 488 424 488 424 488 C424 488 424 619 424 619 C379 644 300 665 252 665 C140 665 44 575 44 469 C44 402 122 321 213 292 C312 261 395 191 395 140 C395 75 330 19 254 19 C244 19 233 20 221 21 C156 32 84 89 62 149 C59 157 54 171 51 179 C51 179 40 179 40 179 L40 179 Z M248 818 C248 818 359 692 359 692 C359 692 368 700 368 700 C368 700 277 879 277 879 C273 886 261 905 248 905 C235 905 223 886 219 880 C219 880 127 700 127 700 C127 700 137 692 137 692 C137 692 248 818 248 818 L248 818 Z " />
<glyph glyph-name="Scedilla" unicode="&#x15e;" horiz-adv-x="509" d="M40 179 C40 179 40 51 40 51 C40 51 50 65 50 65 C50 65 50 65 50 65 C50 65 40 51 40 51 C81 21 180 -5 254 -5 C368 -5 464 80 464 180 C464 252 384 338 289 368 C193 398 111 462 111 508 C111 580 174 641 248 641 C259 641 275 638 292 634 C335 620 382 573 398 529 C402 518 409 499 413 488 C413 488 424 488 424 488 C424 488 424 619 424 619 C379 644 300 665 252 665 C140 665 44 575 44 469 C44 402 122 321 213 292 C312 261 395 191 395 140 C395 75 330 19 254 19 C244 19 233 20 221 21 C156 32 84 89 62 149 C59 157 54 171 51 179 C51 179 40 179 40 179 L40 179 Z " />
<glyph glyph-name="scedilla" unicode="&#x15f;" horiz-adv-x="420" d="M45 133 C45 133 45 38 45 38 C76 15 146 -5 197 -5 C291 -5 371 65 371 147 C371 193 319 255 258 282 C186 314 124 368 124 399 C124 446 170 485 223 485 C227 485 237 482 250 477 C287 460 322 425 332 394 C334 390 336 382 338 377 C338 377 348 377 348 377 C348 377 348 466 348 466 C309 487 251 505 223 505 C132 505 55 442 55 368 C55 321 119 252 195 218 C249 194 296 146 296 113 C296 60 253 15 203 15 C201 15 198 15 196 15 C196 15 196 16 196 16 C146 18 85 62 64 111 C61 117 57 127 54 133 C54 133 45 133 45 133 L45 133 Z " />
<glyph glyph-name="Scaron" unicode="&#x160;" horiz-adv-x="509" d="M40 179 C40 179 40 51 40 51 C40 51 50 65 50 65 C50 65 50 65 50 65 C50 65 40 51 40 51 C81 21 180 -5 254 -5 C368 -5 464 80 464 180 C464 252 384 338 289 368 C193 398 111 462 111 508 C111 580 174 641 248 641 C259 641 275 638 292 634 C335 620 382 573 398 529 C402 518 409 499 413 488 C413 488 424 488 424 488 C424 488 424 619 424 619 C379 644 300 665 252 665 C140 665 44 575 44 469 C44 402 122 321 213 292 C312 261 395 191 395 140 C395 75 330 19 254 19 C244 19 233 20 221 21 C156 32 84 89 62 149 C59 157 54 171 51 179 C51 179 40 179 40 179 L40 179 Z M248 802 C248 802 359 928 359 928 C359 928 368 920 368 920 C368 920 277 741 277 741 C273 734 261 715 248 715 C235 715 223 734 219 740 C219 740 127 920 127 920 C127 920 137 928 137 928 C137 928 248 802 248 802 L248 802 Z " />
<glyph glyph-name="scaron" unicode="&#x161;" horiz-adv-x="420" d="M45 133 C45 133 45 38 45 38 C76 15 146 -5 197 -5 C291 -5 371 65 371 147 C371 193 319 255 258 282 C186 314 124 368 124 399 C124 446 170 485 223 485 C227 485 237 482 250 477 C287 460 322 425 332 394 C334 390 336 382 338 377 C338 377 348 377 348 377 C348 377 348 466 348 466 C309 487 251 505 223 505 C132 505 55 442 55 368 C55 321 119 252 195 218 C249 194 296 146 296 113 C296 60 253 15 203 15 C201 15 198 15 196 15 C196 15 196 16 196 16 C146 18 85 62 64 111 C61 117 57 127 54 133 C54 133 45 133 45 133 L45 133 Z M224 642 C224 642 335 768 335 768 C335 768 344 760 344 760 C344 760 252 581 252 581 C249 574 236 555 223 555 C211 555 199 574 195 580 C195 580 103 760 103 760 C103 760 112 768 112 768 C112 768 224 642 224 642 L224 642 Z " />
<glyph glyph-name="Tcaron" unicode="&#x164;" horiz-adv-x="620" d="M617 514 C614 550 608 612 605 648 C605 651 604 657 604 660 C604 660 580 660 580 660 C580 660 508 660 508 660 C508 660 112 660 112 660 C112 660 40 660 40 660 C40 660 16 660 16 660 C16 657 15 651 15 648 C12 612 6 550 3 514 C3 514 13 514 13 514 C13 514 23 537 23 537 C45 590 109 636 163 636 C163 636 261 636 261 636 C261 636 261 96 261 96 C261 51 237 13 210 13 C210 13 201 13 201 13 C201 13 201 0 201 0 C201 0 261 0 261 0 C261 0 310 0 310 0 C310 0 359 0 359 0 C359 0 419 0 419 0 C419 0 419 13 419 13 C419 13 410 13 410 13 C383 13 360 48 359 91 C359 91 359 96 359 96 C359 96 359 636 359 636 C359 636 457 636 457 636 C511 636 575 590 597 537 C597 537 607 514 607 514 C607 514 617 514 617 514 L617 514 Z M310 802 C310 802 421 928 421 928 C421 928 431 920 431 920 C431 920 339 741 339 741 C335 734 323 715 310 715 C297 715 285 734 281 740 C281 740 189 920 189 920 C189 920 199 928 199 928 C199 928 310 802 310 802 L310 802 Z " />
<glyph glyph-name="tcaron" unicode="&#x165;" horiz-adv-x="351" d="M320 500 C320 500 185 500 185 500 C185 500 185 640 185 640 C185 640 170 640 170 640 C170 640 105 487 105 487 C105 487 105 487 105 487 C105 487 167 634 167 634 C133 556 69 483 26 475 C26 475 25 475 25 475 C25 475 25 465 25 465 C25 465 95 465 95 465 C95 465 95 113 95 113 C95 30 123 -5 190 -5 C232 -5 288 27 332 64 C332 64 325 71 325 71 C302 52 268 35 235 35 C199 35 184 54 184 97 C184 97 185 465 185 465 C185 465 320 465 320 465 C320 465 320 500 320 500 L320 500 Z M452 594 C475 638 494 694 494 702 C494 715 453 722 438 722 C421 722 403 655 396 614 C396 614 367 450 367 450 C367 450 379 446 379 446 C379 446 452 594 452 594 L452 594 Z " />
<glyph glyph-name="Utilde" unicode="&#x168;" horiz-adv-x="649" d="M186 755 C186 787 205 815 227 815 C280 815 348 753 401 753 C444 753 481 808 481 872 C481 872 466 872 466 872 C466 840 445 812 420 812 C367 812 300 875 247 875 C206 875 171 820 171 755 C171 755 186 755 186 755 L186 755 Z M630 660 C630 660 561 660 561 660 C561 660 546 660 546 660 C546 660 531 660 531 660 C531 660 458 660 458 660 C458 660 458 647 458 647 C458 647 469 647 469 647 C500 647 528 608 531 561 C531 561 530 195 530 195 C530 105 465 29 345 29 C244 29 189 106 189 196 C189 196 189 564 189 564 C189 564 189 569 189 569 C190 612 213 647 240 647 C240 647 249 647 249 647 C249 647 249 660 249 660 C249 660 189 660 189 660 C189 660 140 660 140 660 C140 660 91 660 91 660 C91 660 31 660 31 660 C31 660 31 647 31 647 C31 647 40 647 40 647 C67 647 91 609 91 564 C91 564 91 215 91 215 C91 96 175 -5 331 -5 C480 -5 561 82 561 185 C561 185 561 554 561 554 C561 604 588 647 619 647 C619 647 630 647 630 647 C630 647 630 660 630 660 L630 660 Z " />
<glyph glyph-name="utilde" unicode="&#x169;" horiz-adv-x="566" d="M133 595 C133 627 152 655 174 655 C227 655 294 593 347 593 C391 593 428 648 428 712 C428 712 413 712 413 712 C413 680 392 652 367 652 C314 652 246 715 193 715 C153 715 118 660 118 595 C118 595 133 595 133 595 L133 595 Z M531 48 C488 57 472 73 471 133 C471 133 471 146 471 146 C471 146 471 500 471 500 C471 500 426 500 426 500 C426 500 381 500 381 500 C381 500 320 500 320 500 C320 500 320 487 320 487 C320 487 329 487 329 487 C357 487 381 449 381 404 C381 404 381 121 381 121 C381 121 381 79 381 79 C365 65 331 54 285 54 C214 54 165 105 165 164 C165 164 165 500 165 500 C165 500 120 500 120 500 C120 500 75 500 75 500 C75 500 14 500 14 500 C15 500 15 497 14 494 C15 490 15 487 14 487 C14 487 24 487 24 487 C51 487 75 449 75 404 C75 404 75 155 75 155 C75 68 132 -5 214 -5 C280 -5 343 25 381 63 C381 63 381 23 381 23 C381 23 381 0 381 0 C381 0 399 0 399 0 C399 0 531 40 531 40 C531 40 531 48 531 48 L531 48 Z " />
<glyph glyph-name="Umacron" unicode="&#x16a;" horiz-adv-x="649" d="M176 765 C176 765 476 765 476 765 C476 765 476 815 476 815 C476 815 176 815 176 815 C176 815 176 765 176 765 L176 765 Z M630 660 C630 660 561 660 561 660 C561 660 546 660 546 660 C546 660 531 660 531 660 C531 660 458 660 458 660 C458 660 458 647 458 647 C458 647 469 647 469 647 C500 647 528 608 531 561 C531 561 530 195 530 195 C530 105 465 29 345 29 C244 29 189 106 189 196 C189 196 189 564 189 564 C189 564 189 569 189 569 C190 612 213 647 240 647 C240 647 249 647 249 647 C249 647 249 660 249 660 C249 660 189 660 189 660 C189 660 140 660 140 660 C140 660 91 660 91 660 C91 660 31 660 31 660 C31 660 31 647 31 647 C31 647 40 647 40 647 C67 647 91 609 91 564 C91 564 91 215 91 215 C91 96 175 -5 331 -5 C480 -5 561 82 561 185 C561 185 561 554 561 554 C561 604 588 647 619 647 C619 647 630 647 630 647 C630 647 630 660 630 660 L630 660 Z " />
<glyph glyph-name="umacron" unicode="&#x16b;" horiz-adv-x="566" d="M123 605 C123 605 423 605 423 605 C423 605 423 655 423 655 C423 655 123 655 123 655 C123 655 123 605 123 605 L123 605 Z M531 48 C488 57 472 73 471 133 C471 133 471 146 471 146 C471 146 471 500 471 500 C471 500 426 500 426 500 C426 500 381 500 381 500 C381 500 320 500 320 500 C320 500 320 487 320 487 C320 487 329 487 329 487 C357 487 381 449 381 404 C381 404 381 121 381 121 C381 121 381 79 381 79 C365 65 331 54 285 54 C214 54 165 105 165 164 C165 164 165 500 165 500 C165 500 120 500 120 500 C120 500 75 500 75 500 C75 500 14 500 14 500 C15 500 15 497 14 494 C15 490 15 487 14 487 C14 487 24 487 24 487 C51 487 75 449 75 404 C75 404 75 155 75 155 C75 68 132 -5 214 -5 C280 -5 343 25 381 63 C381 63 381 23 381 23 C381 23 381 0 381 0 C381 0 399 0 399 0 C399 0 531 40 531 40 C531 40 531 48 531 48 L531 48 Z " />
<glyph glyph-name="Ubreve" unicode="&#x16c;" horiz-adv-x="649" d="M200 871 C222 804 280 748 326 748 C372 748 430 804 452 871 C452 871 437 876 437 876 C425 839 374 808 326 808 C279 808 228 839 216 876 C216 876 200 871 200 871 L200 871 Z M630 660 C630 660 561 660 561 660 C561 660 546 660 546 660 C546 660 531 660 531 660 C531 660 458 660 458 660 C458 660 458 647 458 647 C458 647 469 647 469 647 C500 647 528 608 531 561 C531 561 530 195 530 195 C530 105 465 29 345 29 C244 29 189 106 189 196 C189 196 189 564 189 564 C189 564 189 569 189 569 C190 612 213 647 240 647 C240 647 249 647 249 647 C249 647 249 660 249 660 C249 660 189 660 189 660 C189 660 140 660 140 660 C140 660 91 660 91 660 C91 660 31 660 31 660 C31 660 31 647 31 647 C31 647 40 647 40 647 C67 647 91 609 91 564 C91 564 91 215 91 215 C91 96 175 -5 331 -5 C480 -5 561 82 561 185 C561 185 561 554 561 554 C561 604 588 647 619 647 C619 647 630 647 630 647 C630 647 630 660 630 660 L630 660 Z " />
<glyph glyph-name="ubreve" unicode="&#x16d;" horiz-adv-x="566" d="M147 711 C169 644 226 588 273 588 C319 588 377 644 399 711 C399 711 383 716 383 716 C371 679 320 648 273 648 C225 648 174 679 162 716 C162 716 147 711 147 711 L147 711 Z M531 48 C488 57 472 73 471 133 C471 133 471 146 471 146 C471 146 471 500 471 500 C471 500 426 500 426 500 C426 500 381 500 381 500 C381 500 320 500 320 500 C320 500 320 487 320 487 C320 487 329 487 329 487 C357 487 381 449 381 404 C381 404 381 121 381 121 C381 121 381 79 381 79 C365 65 331 54 285 54 C214 54 165 105 165 164 C165 164 165 500 165 500 C165 500 120 500 120 500 C120 500 75 500 75 500 C75 500 14 500 14 500 C15 500 15 497 14 494 C15 490 15 487 14 487 C14 487 24 487 24 487 C51 487 75 449 75 404 C75 404 75 155 75 155 C75 68 132 -5 214 -5 C280 -5 343 25 381 63 C381 63 381 23 381 23 C381 23 381 0 381 0 C381 0 399 0 399 0 C399 0 531 40 531 40 C531 40 531 48 531 48 L531 48 Z " />
<glyph glyph-name="Uring" unicode="&#x16e;" horiz-adv-x="649" d="M326 715 C292 715 256 752 256 788 C256 827 288 860 326 860 C364 860 396 827 396 788 C396 752 360 715 326 715 L326 715 Z M231 788 C231 743 280 695 326 695 C372 695 421 743 421 788 C421 837 377 880 326 880 C275 880 231 837 231 788 L231 788 Z M630 660 C630 660 561 660 561 660 C561 660 546 660 546 660 C546 660 531 660 531 660 C531 660 458 660 458 660 C458 660 458 647 458 647 C458 647 469 647 469 647 C500 647 528 608 531 561 C531 561 530 195 530 195 C530 105 465 29 345 29 C244 29 189 106 189 196 C189 196 189 564 189 564 C189 564 189 569 189 569 C190 612 213 647 240 647 C240 647 249 647 249 647 C249 647 249 660 249 660 C249 660 189 660 189 660 C189 660 140 660 140 660 C140 660 91 660 91 660 C91 660 31 660 31 660 C31 660 31 647 31 647 C31 647 40 647 40 647 C67 647 91 609 91 564 C91 564 91 215 91 215 C91 96 175 -5 331 -5 C480 -5 561 82 561 185 C561 185 561 554 561 554 C561 604 588 647 619 647 C619 647 630 647 630 647 C630 647 630 660 630 660 L630 660 Z " />
<glyph glyph-name="uring" unicode="&#x16f;" horiz-adv-x="566" d="M273 555 C239 555 203 592 203 628 C203 667 235 700 273 700 C311 700 343 667 343 628 C343 592 307 555 273 555 L273 555 Z M178 628 C178 583 227 535 273 535 C319 535 368 583 368 628 C368 677 324 720 273 720 C222 720 178 677 178 628 L178 628 Z M531 48 C488 57 472 73 471 133 C471 133 471 146 471 146 C471 146 471 500 471 500 C471 500 426 500 426 500 C426 500 381 500 381 500 C381 500 320 500 320 500 C320 500 320 487 320 487 C320 487 329 487 329 487 C357 487 381 449 381 404 C381 404 381 121 381 121 C381 121 381 79 381 79 C365 65 331 54 285 54 C214 54 165 105 165 164 C165 164 165 500 165 500 C165 500 120 500 120 500 C120 500 75 500 75 500 C75 500 14 500 14 500 C15 500 15 497 14 494 C15 490 15 487 14 487 C14 487 24 487 24 487 C51 487 75 449 75 404 C75 404 75 155 75 155 C75 68 132 -5 214 -5 C280 -5 343 25 381 63 C381 63 381 23 381 23 C381 23 381 0 381 0 C381 0 399 0 399 0 C399 0 531 40 531 40 C531 40 531 48 531 48 L531 48 Z " />
<glyph glyph-name="Wcircumflex" unicode="&#x174;" horiz-adv-x="953" d="M949 660 C949 660 892 660 892 660 C892 660 877 660 877 660 C877 660 862 660 862 660 C862 660 777 660 777 660 C778 660 778 657 777 654 C778 650 778 647 777 647 C777 647 790 647 790 647 C827 647 847 610 834 566 C834 566 710 139 710 139 C710 139 517 670 517 670 C517 670 492 670 492 670 C492 670 286 -15 286 -15 C286 -15 311 -15 311 -15 C311 -15 517 670 517 670 C517 670 468 507 468 507 C468 507 665 -15 665 -15 C665 -15 690 -15 690 -15 C690 -15 865 571 865 571 C881 613 913 647 940 647 C940 647 949 647 949 647 C949 647 949 660 949 660 L949 660 Z M225 660 C225 660 153 660 153 660 C153 660 99 660 99 660 C99 660 46 660 46 660 C46 660 2 660 2 660 C2 660 2 647 2 647 C2 647 9 647 9 647 C31 647 64 609 80 564 C80 564 80 564 80 564 C80 564 286 -15 286 -15 C286 -15 329 129 329 129 C329 129 185 564 185 564 C185 564 185 564 185 564 C170 609 184 647 215 647 C215 647 225 647 225 647 C225 647 225 660 225 660 L225 660 Z M505 818 C505 818 616 692 616 692 C616 692 625 700 625 700 C625 700 533 879 533 879 C530 886 517 905 504 905 C492 905 479 886 476 880 C476 880 384 700 384 700 C384 700 393 692 393 692 C393 692 505 818 505 818 L505 818 Z " />
<glyph glyph-name="Ycircumflex" unicode="&#x176;" horiz-adv-x="623" d="M422 13 C422 13 413 13 413 13 C385 13 362 51 361 96 C361 96 361 312 361 312 C361 312 521 568 521 568 C550 611 592 647 615 647 C615 647 623 647 623 647 C623 647 623 660 623 660 C623 660 578 660 578 660 C578 660 563 660 563 660 C563 660 548 660 548 660 C548 660 459 660 459 660 C460 660 460 657 459 654 C460 650 460 647 459 647 C459 647 472 647 472 647 C509 647 511 600 477 544 C477 544 477 544 477 544 C477 544 348 334 348 334 C348 334 214 572 214 572 C193 613 198 647 227 647 C227 647 237 647 237 647 C237 647 237 660 237 660 C237 660 164 660 164 660 C164 660 106 660 106 660 C106 660 47 660 47 660 C47 660 10 660 10 660 C10 660 10 647 10 647 C10 647 17 647 17 647 C35 647 69 616 94 576 C94 576 264 277 264 277 C264 277 264 96 264 96 C264 51 240 13 213 13 C213 13 204 13 204 13 C204 13 204 0 204 0 C204 0 264 0 264 0 C264 0 313 0 313 0 C313 0 361 0 361 0 C361 0 422 0 422 0 C422 0 422 13 422 13 L422 13 Z M313 818 C313 818 424 692 424 692 C424 692 433 700 433 700 C433 700 342 879 342 879 C338 886 325 905 313 905 C300 905 288 886 284 880 C284 880 192 700 192 700 C192 700 201 692 201 692 C201 692 313 818 313 818 L313 818 Z " />
<glyph glyph-name="Ydieresis" unicode="&#x178;" horiz-adv-x="623" d="M409 730 C439 730 464 755 464 785 C464 815 439 840 409 840 C379 840 354 815 354 785 C354 755 379 730 409 730 L409 730 Z M217 730 C247 730 272 755 272 785 C272 815 247 840 217 840 C187 840 162 815 162 785 C162 755 187 730 217 730 L217 730 Z M422 13 C422 13 413 13 413 13 C385 13 362 51 361 96 C361 96 361 312 361 312 C361 312 521 568 521 568 C550 611 592 647 615 647 C615 647 623 647 623 647 C623 647 623 660 623 660 C623 660 578 660 578 660 C578 660 563 660 563 660 C563 660 548 660 548 660 C548 660 459 660 459 660 C460 660 460 657 459 654 C460 650 460 647 459 647 C459 647 472 647 472 647 C509 647 511 600 477 544 C477 544 477 544 477 544 C477 544 348 334 348 334 C348 334 214 572 214 572 C193 613 198 647 227 647 C227 647 237 647 237 647 C237 647 237 660 237 660 C237 660 164 660 164 660 C164 660 106 660 106 660 C106 660 47 660 47 660 C47 660 10 660 10 660 C10 660 10 647 10 647 C10 647 17 647 17 647 C35 647 69 616 94 576 C94 576 264 277 264 277 C264 277 264 96 264 96 C264 51 240 13 213 13 C213 13 204 13 204 13 C204 13 204 0 204 0 C204 0 264 0 264 0 C264 0 313 0 313 0 C313 0 361 0 361 0 C361 0 422 0 422 0 C422 0 422 13 422 13 L422 13 Z " />
<glyph glyph-name="Zacute" unicode="&#x179;" horiz-adv-x="588" d="M325 690 C325 690 439 816 439 816 C459 839 476 862 476 866 C476 877 439 904 425 904 C422 904 407 880 393 852 C393 852 315 698 315 698 C315 698 325 690 325 690 L325 690 Z M515 147 C515 147 507 128 507 128 C484 73 414 25 355 25 C355 25 164 25 164 25 C164 25 529 660 529 660 C529 660 474 660 474 660 C474 660 419 660 419 660 C419 660 193 660 193 660 C193 660 121 660 121 660 C121 660 97 660 97 660 C97 660 93 648 93 648 C85 618 72 568 64 539 C64 539 74 539 74 539 C74 539 84 553 84 553 C115 598 186 636 239 636 C239 636 405 636 405 636 C405 636 41 0 41 0 C41 0 95 0 95 0 C95 0 150 0 150 0 C150 0 409 0 409 0 C409 0 502 0 502 0 C502 0 505 0 505 0 C506 3 507 9 508 13 C514 47 524 106 530 140 C526 141 515 147 515 147 L515 147 Z " />
<glyph glyph-name="zacute" unicode="&#x17a;" horiz-adv-x="483" d="M188 530 C188 530 302 656 302 656 C322 679 339 702 339 706 C339 717 302 744 288 744 C284 744 270 720 256 692 C256 692 178 538 178 538 C178 538 188 530 188 530 L188 530 Z M421 142 C421 142 413 123 413 123 C389 68 319 20 261 20 C261 20 162 20 162 20 C162 20 434 500 434 500 C434 500 382 500 382 500 C382 500 330 500 330 500 C330 500 167 500 167 500 C167 500 95 500 95 500 C95 500 70 500 70 500 C69 497 68 492 68 490 C61 467 51 429 45 406 C45 406 55 406 55 406 C55 406 64 417 64 417 C92 451 161 479 214 479 C214 479 214 479 214 479 C214 479 318 480 318 480 C318 480 45 0 45 0 C45 0 98 0 98 0 C98 0 151 0 151 0 C151 0 316 0 316 0 C316 0 408 0 408 0 C408 0 412 0 412 0 C413 3 413 7 414 10 C420 44 430 102 436 136 C430 138 421 142 421 142 C421 142 421 142 421 142 L421 142 Z " />
<glyph glyph-name="Zdotaccent" unicode="&#x17b;" horiz-adv-x="588" d="M325 730 C355 730 380 755 380 785 C380 815 355 840 325 840 C295 840 270 815 270 785 C270 755 295 730 325 730 L325 730 Z M515 147 C515 147 507 128 507 128 C484 73 414 25 355 25 C355 25 164 25 164 25 C164 25 529 660 529 660 C529 660 474 660 474 660 C474 660 419 660 419 660 C419 660 193 660 193 660 C193 660 121 660 121 660 C121 660 97 660 97 660 C97 660 93 648 93 648 C85 618 72 568 64 539 C64 539 74 539 74 539 C74 539 84 553 84 553 C115 598 186 636 239 636 C239 636 405 636 405 636 C405 636 41 0 41 0 C41 0 95 0 95 0 C95 0 150 0 150 0 C150 0 409 0 409 0 C409 0 502 0 502 0 C502 0 505 0 505 0 C506 3 507 9 508 13 C514 47 524 106 530 140 C526 141 515 147 515 147 L515 147 Z " />
<glyph glyph-name="zdotaccent" unicode="&#x17c;" horiz-adv-x="483" d="M264 570 C294 570 319 595 319 625 C319 655 294 680 264 680 C234 680 209 655 209 625 C209 595 234 570 264 570 L264 570 Z M421 142 C421 142 413 123 413 123 C389 68 319 20 261 20 C261 20 162 20 162 20 C162 20 434 500 434 500 C434 500 382 500 382 500 C382 500 330 500 330 500 C330 500 167 500 167 500 C167 500 95 500 95 500 C95 500 70 500 70 500 C69 497 68 492 68 490 C61 467 51 429 45 406 C45 406 55 406 55 406 C55 406 64 417 64 417 C92 451 161 479 214 479 C214 479 214 479 214 479 C214 479 318 480 318 480 C318 480 45 0 45 0 C45 0 98 0 98 0 C98 0 151 0 151 0 C151 0 316 0 316 0 C316 0 408 0 408 0 C408 0 412 0 412 0 C413 3 413 7 414 10 C420 44 430 102 436 136 C430 138 421 142 421 142 C421 142 421 142 421 142 L421 142 Z " />
<glyph glyph-name="Zcaron" unicode="&#x17d;" horiz-adv-x="588" d="M515 147 C515 147 507 128 507 128 C484 73 414 25 355 25 C355 25 164 25 164 25 C164 25 529 660 529 660 C529 660 474 660 474 660 C474 660 419 660 419 660 C419 660 193 660 193 660 C193 660 121 660 121 660 C121 660 97 660 97 660 C97 660 93 648 93 648 C85 618 72 568 64 539 C64 539 74 539 74 539 C74 539 84 553 84 553 C115 598 186 636 239 636 C239 636 405 636 405 636 C405 636 41 0 41 0 C41 0 95 0 95 0 C95 0 150 0 150 0 C150 0 409 0 409 0 C409 0 502 0 502 0 C502 0 505 0 505 0 C506 3 507 9 508 13 C514 47 524 106 530 140 C526 141 515 147 515 147 L515 147 Z M325 802 C325 802 436 928 436 928 C436 928 446 920 446 920 C446 920 354 741 354 741 C350 734 338 715 325 715 C312 715 300 734 297 740 C297 740 205 920 205 920 C205 920 214 928 214 928 C214 928 325 802 325 802 L325 802 Z " />
<glyph glyph-name="zcaron" unicode="&#x17e;" horiz-adv-x="483" d="M421 142 C421 142 413 123 413 123 C389 68 319 20 261 20 C261 20 162 20 162 20 C162 20 434 500 434 500 C434 500 382 500 382 500 C382 500 330 500 330 500 C330 500 167 500 167 500 C167 500 95 500 95 500 C95 500 70 500 70 500 C69 497 68 492 68 490 C61 467 51 429 45 406 C45 406 55 406 55 406 C55 406 64 417 64 417 C92 451 161 479 214 479 C214 479 214 479 214 479 C214 479 318 480 318 480 C318 480 45 0 45 0 C45 0 98 0 98 0 C98 0 151 0 151 0 C151 0 316 0 316 0 C316 0 408 0 408 0 C408 0 412 0 412 0 C413 3 413 7 414 10 C420 44 430 102 436 136 C430 138 421 142 421 142 C421 142 421 142 421 142 L421 142 Z M264 642 C264 642 375 768 375 768 C375 768 385 760 385 760 C385 760 293 581 293 581 C289 574 277 555 264 555 C251 555 239 574 235 580 C235 580 143 760 143 760 C143 760 153 768 153 768 C153 768 264 642 264 642 L264 642 Z " />
<glyph glyph-name="SmallLetterOwithogon" unicode="&#x1eb;" horiz-adv-x="699" d="M714 -52 C714 -52 706 -45 706 -45 C693 -61 630 -75 571 -75 C488 -75 408 -44 362 -5 C533 1 649 143 649 277 C649 413 528 558 351 558 C174 558 53 413 53 277 C53 146 164 7 328 -4 C403 -76 497 -134 562 -134 C607 -134 677 -96 714 -52 L714 -52 Z M351 17 C231 17 149 150 149 277 C149 403 231 536 351 536 C471 536 553 403 553 277 C553 150 471 17 351 17 L351 17 Z " />
<glyph glyph-name="CapitalLetterAwithdo" unicode="&#x226;" horiz-adv-x="653" d="M309 730 C339 730 364 755 364 785 C364 815 339 840 309 840 C279 840 254 815 254 785 C254 755 279 730 309 730 L309 730 Z M647 13 C647 13 639 13 639 13 C614 13 577 51 559 96 C559 96 559 96 559 96 C559 96 321 675 321 675 C321 675 297 675 297 675 C297 675 91 96 91 96 C91 96 91 96 91 96 C75 51 37 13 10 13 C10 13 1 13 1 13 C1 13 1 0 1 0 C1 0 57 0 57 0 C57 0 73 0 73 0 C73 0 89 0 89 0 C89 0 178 0 178 0 C178 0 178 13 178 13 C178 13 165 13 165 13 C127 13 110 55 125 105 C125 105 167 227 167 227 C167 227 403 227 403 227 C403 227 454 96 454 96 C454 96 454 96 454 96 C472 51 456 13 420 13 C420 13 408 13 408 13 C408 13 408 0 408 0 C408 0 492 0 492 0 C492 0 545 0 545 0 C545 0 598 0 598 0 C598 0 647 0 647 0 C647 0 647 13 647 13 L647 13 Z M393 252 C393 252 176 252 176 252 C176 252 277 547 277 547 C277 547 393 252 393 252 L393 252 Z " />
<glyph glyph-name="LETTERSMALLCAPITALG" unicode="&#x262;" horiz-adv-x="730" d="M637 260 C637 260 576 260 576 260 C576 260 537 260 537 260 C537 260 498 260 498 260 C498 260 437 260 437 260 C437 260 437 247 437 247 C437 247 446 247 446 247 C474 248 498 209 498 164 C498 164 498 45 498 45 C450 28 394 17 354 17 C243 17 149 136 149 277 C149 417 243 536 354 536 C364 536 376 535 389 533 C457 522 528 467 549 409 C552 401 557 387 560 379 C560 379 571 379 571 379 C571 379 571 500 571 500 C513 531 414 558 354 558 C192 558 53 429 53 277 C53 125 192 -5 354 -5 C418 -5 520 23 576 55 C576 55 576 164 576 164 C576 209 600 248 628 247 C628 247 637 247 637 247 C637 247 637 260 637 260 L637 260 Z " />
<glyph glyph-name="LETTERSMALLCAPITALI" unicode="&#x26a;" horiz-adv-x="294" d="M255 553 C227 554 179 554 151 553 C122 554 74 554 46 553 C46 553 46 541 46 541 C46 541 55 541 55 541 C83 541 107 502 107 457 C107 457 107 96 107 96 C107 51 83 13 55 13 C55 13 46 13 46 13 C46 13 46 0 46 0 C46 0 107 0 107 0 C107 0 151 0 151 0 C151 0 194 0 194 0 C194 0 255 0 255 0 C255 0 255 13 255 13 C255 13 246 13 246 13 C218 13 195 51 194 96 C194 96 194 457 194 457 C195 502 218 541 246 541 C246 541 255 541 255 541 C255 541 255 553 255 553 L255 553 Z " />
<glyph glyph-name="LETTERSMALLCAPITALN" unicode="&#x274;" horiz-adv-x="620" d="M435 541 C435 541 444 541 444 541 C472 541 496 502 496 457 C496 457 496 127 496 127 C496 127 178 553 178 553 C178 553 127 516 127 516 C127 516 127 516 127 516 C127 516 178 553 178 553 C178 553 127 553 127 553 C127 553 114 553 114 553 C94 554 60 554 40 553 C40 553 40 541 40 541 C40 541 50 541 50 541 C77 541 101 502 101 457 C101 457 101 96 101 96 C101 51 77 13 50 13 C50 13 40 13 40 13 C40 13 40 0 40 0 C40 0 101 0 101 0 C101 0 114 0 114 0 C114 0 127 0 127 0 C127 0 188 0 188 0 C188 0 188 13 188 13 C188 13 179 13 179 13 C151 13 127 51 127 96 C127 96 127 477 127 477 C127 477 456 38 456 38 C456 38 497 -18 497 -18 C497 -18 522 -18 522 -18 C522 -18 522 70 522 70 C522 70 522 457 522 457 C522 502 545 541 573 541 C573 541 582 541 582 541 C583 541 583 544 582 547 C583 551 583 554 582 553 C563 554 529 554 509 553 C489 552 455 554 435 553 C435 553 435 541 435 541 L435 541 Z " />
<glyph glyph-name="LETTERSMALLCAPITALR" unicode="&#x280;" horiz-adv-x="594" d="M43 541 C43 541 52 541 52 541 C80 541 104 502 104 457 C104 457 104 96 104 96 C104 51 80 13 52 13 C52 13 43 13 43 13 C43 13 43 0 43 0 C43 0 104 0 104 0 C104 0 147 0 147 0 C147 0 191 0 191 0 C191 0 252 0 252 0 C252 0 252 13 252 13 C252 13 243 13 243 13 C215 13 191 51 191 96 C191 96 191 255 191 255 C191 255 239 255 239 255 C239 255 370 106 370 106 C451 14 477 0 562 0 C562 0 594 0 594 0 C594 0 594 18 594 18 C594 18 589 18 589 18 C561 18 547 28 493 89 C493 89 337 267 337 267 C417 290 475 346 475 409 C475 487 382 553 272 553 C272 553 191 553 191 553 C191 553 147 553 147 553 C119 554 71 554 43 553 C43 553 43 541 43 541 L43 541 Z M256 278 C256 278 219 278 219 278 C219 278 191 278 191 278 C191 278 191 531 191 531 C191 531 272 531 272 531 C332 531 384 475 384 409 C384 338 325 278 256 278 L256 278 Z " />
<glyph glyph-name="LETTERSMALLCAPITALY" unicode="&#x28f;" horiz-adv-x="554" d="M384 13 C384 13 375 13 375 13 C347 13 323 51 323 96 C323 96 323 264 323 264 C323 264 453 466 453 466 C482 507 523 541 545 541 C545 541 553 541 553 541 C553 541 553 553 553 553 C538 554 511 554 495 553 C467 554 420 554 393 553 C393 553 393 541 393 541 C393 541 405 541 405 541 C442 541 444 493 409 437 C409 437 409 437 409 437 C409 437 308 276 308 276 C308 276 206 460 206 460 C183 504 189 541 218 541 C218 541 228 541 228 541 C228 541 228 553 228 553 C194 554 136 554 103 553 C79 554 37 554 13 553 C13 553 13 541 13 541 C13 541 20 541 20 541 C40 541 80 502 106 457 C106 457 106 457 106 457 C106 457 236 235 236 235 C236 235 236 96 236 96 C236 51 212 13 184 13 C184 13 175 13 175 13 C175 13 175 0 175 0 C175 0 236 0 236 0 C236 0 279 0 279 0 C279 0 323 0 323 0 C323 0 384 0 384 0 C384 0 384 13 384 13 L384 13 Z " />
<glyph glyph-name="LETTERSMALLCAPITALB" unicode="&#x299;" horiz-adv-x="545" d="M43 541 C43 541 52 541 52 541 C80 541 104 502 104 457 C104 457 104 96 104 96 C104 51 80 13 52 13 C52 13 43 13 43 13 C43 13 43 0 43 0 C43 0 104 0 104 0 C104 0 147 0 147 0 C147 0 191 0 191 0 C191 0 293 0 293 0 C418 0 525 69 525 150 C525 218 440 277 330 291 C411 311 471 361 471 419 C471 491 379 553 272 553 C272 553 191 553 191 553 C191 553 147 553 147 553 C119 554 71 554 43 553 C43 553 43 541 43 541 L43 541 Z M191 295 C191 295 191 531 191 531 C191 531 272 531 272 531 C332 531 384 479 384 419 C384 352 325 295 256 295 C256 295 191 295 191 295 L191 295 Z M191 277 C191 277 252 277 252 277 C350 277 434 218 434 150 C434 81 365 23 284 23 C284 23 191 23 191 23 C191 23 191 277 191 277 L191 277 Z " />
<glyph glyph-name="LETTERSMALLCAPITALH" unicode="&#x29c;" horiz-adv-x="691" d="M651 553 C623 554 575 554 547 553 C519 552 471 554 443 553 C443 553 443 541 443 541 C443 541 452 541 452 541 C479 541 503 502 503 457 C503 457 503 296 503 296 C503 296 191 296 191 296 C191 296 191 457 191 457 C191 502 215 541 243 541 C243 541 252 541 252 541 C252 541 252 553 252 553 C224 554 176 554 147 553 C119 554 71 554 43 553 C43 553 43 541 43 541 C43 541 52 541 52 541 C80 541 104 502 104 457 C104 457 104 96 104 96 C104 51 80 13 52 13 C52 13 43 13 43 13 C43 13 43 0 43 0 C43 0 104 0 104 0 C104 0 147 0 147 0 C147 0 191 0 191 0 C191 0 252 0 252 0 C252 0 252 13 252 13 C252 13 243 13 243 13 C215 13 191 51 191 96 C191 96 191 274 191 274 C191 274 503 274 503 274 C503 274 503 96 503 96 C503 51 479 13 452 13 C452 13 443 13 443 13 C443 13 443 0 443 0 C443 0 503 0 503 0 C503 0 547 0 547 0 C547 0 591 0 591 0 C591 0 651 0 651 0 C651 0 651 13 651 13 C651 13 642 13 642 13 C615 13 592 48 591 91 C591 91 591 96 591 96 C591 96 591 457 591 457 C591 457 591 462 591 462 C592 505 615 541 642 541 C642 541 651 541 651 541 C651 541 651 553 651 553 L651 553 Z " />
<glyph glyph-name="LETTERSMALLCAPITALL" unicode="&#x29f;" horiz-adv-x="541" d="M454 143 C454 143 446 125 446 125 C422 69 352 22 293 22 C293 22 191 22 191 22 C191 22 191 457 191 457 C191 502 215 541 243 541 C243 541 252 541 252 541 C252 541 252 553 252 553 C224 554 176 554 147 553 C119 554 71 554 43 553 C43 553 43 541 43 541 C43 541 52 541 52 541 C80 541 104 502 104 457 C104 457 104 96 104 96 C104 51 80 13 52 13 C52 13 43 13 43 13 C43 13 43 0 43 0 C43 0 104 0 104 0 C104 0 147 0 147 0 C147 0 191 0 191 0 C191 0 348 0 348 0 C348 0 441 0 441 0 C441 0 445 0 445 0 C445 3 446 8 446 11 C452 45 463 103 469 137 C463 139 454 143 454 143 L454 143 Z " />
<glyph glyph-name="LETTERSMALLCAPITALA" unicode="&#x1d00;" horiz-adv-x="583" d="M576 13 C576 13 568 13 568 13 C545 13 510 47 490 90 C490 90 287 566 287 566 C287 566 265 566 265 566 C265 566 93 96 93 96 C93 96 93 96 93 96 C76 51 38 13 11 13 C11 13 2 13 2 13 C2 13 2 0 2 0 C2 0 58 0 58 0 C58 0 72 0 72 0 C72 0 86 0 86 0 C86 0 175 0 175 0 C175 0 175 13 175 13 C175 13 163 13 163 13 C124 13 107 58 126 111 C126 111 125 111 125 111 C125 111 153 190 153 190 C153 190 355 190 355 190 C355 190 393 96 393 96 C393 96 393 96 393 96 C411 51 396 13 361 13 C361 13 349 13 349 13 C349 13 349 0 349 0 C349 0 433 0 433 0 C433 0 480 0 480 0 C480 0 528 0 528 0 C528 0 576 0 576 0 C576 0 576 13 576 13 L576 13 Z M346 212 C346 212 161 212 161 212 C161 212 247 453 247 453 C247 453 346 212 346 212 L346 212 Z " />
<glyph glyph-name="LETTERSMALLCAPITALC" unicode="&#x1d04;" horiz-adv-x="650" d="M591 379 C591 379 591 500 591 500 C533 531 429 558 364 558 C196 558 53 429 53 277 C53 125 196 -5 364 -5 C437 -5 541 26 591 63 C591 63 585 72 585 72 C585 72 585 72 585 72 C585 72 591 63 591 63 C591 63 591 183 591 183 C591 183 580 183 580 183 C577 174 572 160 570 151 C544 79 450 17 364 17 C248 17 149 136 149 277 C149 417 248 536 364 536 C375 536 388 535 401 534 C471 524 547 467 569 409 C572 401 577 387 580 379 C580 379 591 379 591 379 L591 379 Z " />
<glyph glyph-name="LETTERSMALLCAPITALD" unicode="&#x1d05;" horiz-adv-x="641" d="M43 541 C43 541 52 541 52 541 C80 541 104 502 104 457 C104 457 104 96 104 96 C104 51 80 13 52 13 C52 13 43 13 43 13 C43 13 43 0 43 0 C43 0 104 0 104 0 C104 0 147 0 147 0 C147 0 191 0 191 0 C191 0 296 0 296 0 C455 0 591 127 591 277 C591 426 443 553 270 553 C270 553 191 553 191 553 C191 553 147 553 147 553 C119 554 71 554 43 553 C43 553 43 541 43 541 L43 541 Z M191 23 C191 23 191 531 191 531 C191 531 270 531 270 531 C396 531 504 414 504 277 C504 140 408 23 296 23 C296 23 191 23 191 23 L191 23 Z " />
<glyph glyph-name="LETTERSMALLCAPITALE" unicode="&#x1d07;" horiz-adv-x="541" d="M376 207 C376 207 376 276 376 276 C376 276 376 287 376 287 C376 287 376 298 376 298 C376 298 376 359 376 359 C376 359 366 359 366 359 C366 359 363 349 363 349 C354 322 297 298 237 298 C237 298 191 298 191 298 C191 298 191 531 191 531 C191 531 277 531 277 531 C341 531 410 489 427 439 C427 439 433 422 433 422 C433 422 442 422 442 422 C442 422 442 542 442 542 C442 542 442 553 442 553 C442 554 439 554 436 553 C434 554 431 554 429 553 C407 554 369 554 346 553 C346 553 191 553 191 553 C191 553 147 553 147 553 C119 554 71 554 43 553 C43 553 43 541 43 541 C43 541 52 541 52 541 C80 541 104 502 104 457 C104 457 104 96 104 96 C104 51 80 13 52 13 C52 13 43 13 43 13 C43 13 43 0 43 0 C43 0 104 0 104 0 C104 0 147 0 147 0 C147 0 191 0 191 0 C191 0 348 0 348 0 C348 0 441 0 441 0 C441 0 445 0 445 0 C445 3 446 8 446 11 C452 43 462 98 468 131 C468 131 458 131 458 131 C458 131 450 115 450 115 C424 64 348 22 283 22 C283 22 191 22 191 22 C191 22 191 276 191 276 C191 276 237 276 237 276 C297 276 354 249 363 218 C363 218 366 207 366 207 C366 207 376 207 376 207 L376 207 Z " />
<glyph glyph-name="LETTERSMALLCAPITALJ" unicode="&#x1d0a;" horiz-adv-x="337" d="M89 541 C89 541 98 541 98 541 C125 541 149 502 149 457 C149 457 149 168 149 168 C149 64 136 8 113 8 C98 8 82 27 76 50 C72 69 53 86 36 86 C12 86 -5 69 0 50 C7 18 49 -10 91 -10 C186 -10 237 78 237 241 C237 241 237 457 237 457 C237 502 260 541 288 541 C288 541 297 541 297 541 C298 541 298 544 297 547 C298 551 298 554 297 553 C270 554 222 554 193 553 C165 554 117 554 89 553 C89 553 89 541 89 541 L89 541 Z " />
<glyph glyph-name="LETTERSMALLCAPITALK" unicode="&#x1d0b;" horiz-adv-x="585" d="M376 541 C376 541 384 541 384 541 C404 541 391 509 356 470 C356 470 253 363 253 363 C253 363 253 363 253 363 C253 363 191 298 191 298 C191 298 191 457 191 457 C191 502 215 541 243 541 C243 541 252 541 252 541 C252 541 252 553 252 553 C224 554 176 554 147 553 C119 554 71 554 43 553 C43 553 43 541 43 541 C43 541 52 541 52 541 C80 541 104 502 104 457 C104 457 104 96 104 96 C104 51 80 13 52 13 C52 13 43 13 43 13 C43 13 43 0 43 0 C43 0 104 0 104 0 C104 0 147 0 147 0 C147 0 191 0 191 0 C191 0 252 0 252 0 C252 0 252 13 252 13 C252 13 243 13 243 13 C215 13 191 51 191 96 C191 96 191 298 191 298 C191 298 306 145 306 145 C379 48 462 -5 543 -5 C543 -5 576 -5 576 -5 C576 -5 576 13 576 13 C576 13 571 13 571 13 C535 13 464 82 368 210 C368 210 266 345 266 345 C266 345 372 457 372 457 C372 457 373 457 373 457 C415 502 475 541 503 541 C503 541 512 541 512 541 C512 541 512 553 512 553 C495 554 467 554 450 553 C430 554 396 554 376 553 C376 553 376 541 376 541 L376 541 Z " />
<glyph glyph-name="LETTERSMALLCAPITALM" unicode="&#x1d0d;" horiz-adv-x="765" d="M727 553 C700 554 654 554 628 553 C628 553 620 553 620 553 C620 553 588 553 588 553 C588 553 401 97 401 97 C401 97 398 102 398 102 C398 102 185 553 185 553 C185 553 146 553 146 553 C146 553 133 553 133 553 C113 554 79 554 59 553 C59 553 59 541 59 541 C59 541 68 541 68 541 C94 541 115 507 116 466 C116 466 99 96 99 96 C99 96 99 96 99 96 C98 51 72 13 44 13 C44 13 35 13 35 13 C35 13 35 0 35 0 C35 0 95 0 95 0 C95 0 108 0 108 0 C108 0 121 0 121 0 C121 0 210 0 210 0 C210 0 210 13 210 13 C210 13 197 13 197 13 C156 13 125 57 126 110 C126 110 141 448 141 448 C141 448 339 38 339 38 C339 38 359 -5 359 -5 C359 -5 381 -5 381 -5 C381 -5 591 484 591 484 C591 484 606 83 606 83 C603 44 582 13 558 13 C558 13 549 13 549 13 C549 13 549 0 549 0 C549 0 609 0 609 0 C609 0 653 0 653 0 C653 0 697 0 697 0 C697 0 757 0 757 0 C757 0 757 13 757 13 C757 13 748 13 748 13 C720 13 694 51 692 96 C692 96 692 96 692 96 C692 96 672 463 672 463 C672 506 692 541 718 541 C718 541 727 541 727 541 C727 541 727 553 727 553 L727 553 Z " />
<glyph glyph-name="LETTERSMALLCAPITALO" unicode="&#x1d0f;" horiz-adv-x="699" d="M351 17 C231 17 149 150 149 277 C149 403 231 536 351 536 C471 536 553 403 553 277 C553 150 471 17 351 17 L351 17 Z M53 277 C53 140 174 -5 351 -5 C528 -5 649 140 649 277 C649 413 528 558 351 558 C174 558 53 413 53 277 L53 277 Z " />
<glyph glyph-name="LETTERSMALLCAPITALP" unicode="&#x1d18;" horiz-adv-x="512" d="M43 541 C43 541 52 541 52 541 C80 541 104 502 104 457 C104 457 104 96 104 96 C104 51 80 13 52 13 C52 13 43 13 43 13 C43 13 43 0 43 0 C43 0 104 0 104 0 C104 0 147 0 147 0 C147 0 191 0 191 0 C191 0 252 0 252 0 C252 0 252 13 252 13 C252 13 243 13 243 13 C215 13 191 51 191 96 C191 96 191 241 191 241 C191 241 261 241 261 241 C386 241 493 313 493 397 C493 481 395 553 279 553 C279 553 191 553 191 553 C191 553 147 553 147 553 C119 554 71 554 43 553 C43 553 43 541 43 541 L43 541 Z M191 263 C191 263 191 531 191 531 C191 531 279 531 279 531 C345 531 401 469 401 397 C401 325 337 263 261 263 C261 263 191 263 191 263 L191 263 Z " />
<glyph glyph-name="LETTERSMALLCAPITALT" unicode="&#x1d1b;" horiz-adv-x="560" d="M554 410 C551 446 546 507 543 542 C542 545 542 550 542 553 C542 554 539 554 535 553 C534 554 531 554 529 553 C507 554 468 554 445 553 C445 553 115 553 115 553 C92 554 53 554 31 553 C29 554 26 554 25 553 C21 554 18 554 18 553 C18 550 18 545 17 542 C14 507 9 446 6 410 C6 410 16 410 16 410 C16 410 25 433 25 433 C47 486 112 531 165 531 C165 531 236 531 236 531 C236 531 236 96 236 96 C236 51 212 13 185 13 C185 13 176 13 176 13 C176 13 176 0 176 0 C176 0 236 0 236 0 C236 0 280 0 280 0 C280 0 324 0 324 0 C324 0 384 0 384 0 C384 0 384 13 384 13 C384 13 375 13 375 13 C347 13 324 51 324 96 C324 96 324 531 324 531 C324 531 395 531 395 531 C448 531 513 486 535 433 C535 433 544 410 544 410 C544 410 554 410 554 410 L554 410 Z " />
<glyph glyph-name="LETTERSMALLCAPITALU" unicode="&#x1d1c;" horiz-adv-x="591" d="M571 553 C549 554 511 554 489 553 C466 554 426 554 403 553 C403 553 403 541 403 541 C403 541 414 541 414 541 C445 541 473 503 476 455 C476 455 475 159 475 159 C475 87 419 26 315 26 C228 26 181 87 181 159 C181 159 181 457 181 457 C181 502 205 541 233 541 C233 541 242 541 242 541 C242 541 242 553 242 553 C214 554 166 554 137 553 C109 554 61 554 33 553 C33 553 33 541 33 541 C33 541 42 541 42 541 C70 541 94 502 94 457 C94 457 94 176 94 176 C94 78 167 -5 302 -5 C432 -5 503 66 503 150 C503 150 503 447 503 447 C503 447 503 452 503 452 C504 501 530 541 561 541 C561 541 571 541 571 541 C571 541 571 553 571 553 L571 553 Z " />
<glyph glyph-name="LETTERSMALLCAPITALV" unicode="&#x1d20;" horiz-adv-x="577" d="M577 553 C558 554 526 554 507 553 C477 554 426 554 396 553 C396 553 396 541 396 541 C396 541 410 541 410 541 C453 541 471 488 450 427 C450 427 450 427 450 427 C450 427 338 96 338 96 C338 96 181 467 181 467 C168 507 182 541 214 541 C214 541 225 541 225 541 C225 541 225 553 225 553 C191 554 131 554 96 553 C72 554 31 554 6 553 C6 552 6 550 5 547 C6 544 6 541 5 541 C5 541 13 541 13 541 C33 541 65 508 86 468 C86 468 300 -15 300 -15 C300 -15 322 -15 322 -15 C322 -15 487 457 487 457 C487 457 487 457 487 457 C502 502 539 541 567 541 C567 541 577 541 577 541 C577 541 577 553 577 553 L577 553 Z M6 553 C5 553 5 553 5 553 C5 553 5 553 6 553 C6 553 6 553 6 553 L6 553 Z " />
<glyph glyph-name="LETTERSMALLCAPITALW" unicode="&#x1d21;" horiz-adv-x="821" d="M817 553 C798 554 766 554 747 553 C720 554 675 554 648 553 C648 553 648 541 648 541 C648 541 661 541 661 541 C697 541 717 504 706 460 C706 460 567 -15 567 -15 C567 -15 589 -15 589 -15 C589 -15 732 461 732 461 C747 504 781 541 808 541 C808 541 817 541 817 541 C817 541 817 553 817 553 L817 553 Z M215 553 C182 554 126 554 94 553 C69 554 26 554 2 553 C2 553 2 541 2 541 C2 541 9 541 9 541 C31 541 64 502 80 457 C80 457 81 457 81 457 C81 457 251 -15 251 -15 C251 -15 274 -15 274 -15 C274 -15 445 563 445 563 C445 563 423 563 423 563 C423 563 287 105 287 105 C287 105 171 462 171 462 C159 505 174 541 204 541 C204 541 215 541 215 541 C215 541 215 553 215 553 L215 553 Z M567 -15 C567 -15 604 112 604 112 C604 112 445 563 445 563 C445 563 405 427 405 427 C405 427 567 -15 567 -15 L567 -15 Z " />
<glyph glyph-name="LETTERSMALLCAPITALZ" unicode="&#x1d22;" horiz-adv-x="528" d="M457 144 C457 144 449 126 449 126 C425 70 355 23 297 23 C297 23 155 23 155 23 C155 23 469 553 469 553 C469 553 420 553 420 553 C420 553 370 553 370 553 C370 553 198 553 198 553 C176 554 137 554 114 553 C113 554 110 554 108 553 C104 554 102 554 102 553 C101 550 99 545 99 542 C91 513 77 463 70 434 C70 434 80 434 80 434 C80 434 90 449 90 449 C120 493 192 531 245 531 C245 531 357 531 357 531 C357 531 44 0 44 0 C44 0 92 0 92 0 C92 0 141 0 141 0 C141 0 351 0 351 0 C351 0 445 0 445 0 C445 0 448 0 448 0 C448 3 449 8 450 11 C456 45 466 104 472 138 C467 140 457 144 457 144 L457 144 Z " />
<glyph glyph-name="Wgrave" unicode="&#x1e80;" horiz-adv-x="953" d="M949 660 C949 660 892 660 892 660 C892 660 877 660 877 660 C877 660 862 660 862 660 C862 660 777 660 777 660 C778 660 778 657 777 654 C778 650 778 647 777 647 C777 647 790 647 790 647 C827 647 847 610 834 566 C834 566 710 139 710 139 C710 139 517 670 517 670 C517 670 492 670 492 670 C492 670 286 -15 286 -15 C286 -15 311 -15 311 -15 C311 -15 517 670 517 670 C517 670 468 507 468 507 C468 507 665 -15 665 -15 C665 -15 690 -15 690 -15 C690 -15 865 571 865 571 C881 613 913 647 940 647 C940 647 949 647 949 647 C949 647 949 660 949 660 L949 660 Z M225 660 C225 660 153 660 153 660 C153 660 99 660 99 660 C99 660 46 660 46 660 C46 660 2 660 2 660 C2 660 2 647 2 647 C2 647 9 647 9 647 C31 647 64 609 80 564 C80 564 80 564 80 564 C80 564 286 -15 286 -15 C286 -15 329 129 329 129 C329 129 185 564 185 564 C185 564 185 564 185 564 C170 609 184 647 215 647 C215 647 225 647 225 647 C225 647 225 660 225 660 L225 660 Z M506 852 C491 880 477 904 472 904 C458 904 421 877 421 866 C421 860 439 838 460 816 C460 816 577 690 577 690 C577 690 587 698 587 698 C587 698 506 852 506 852 L506 852 Z " />
<glyph glyph-name="Wacute" unicode="&#x1e82;" horiz-adv-x="953" d="M443 690 C443 690 557 816 557 816 C578 839 595 862 595 866 C595 877 557 904 543 904 C540 904 526 880 511 852 C511 852 433 698 433 698 C433 698 443 690 443 690 L443 690 Z M949 660 C949 660 892 660 892 660 C892 660 877 660 877 660 C877 660 862 660 862 660 C862 660 777 660 777 660 C778 660 778 657 777 654 C778 650 778 647 777 647 C777 647 790 647 790 647 C827 647 847 610 834 566 C834 566 710 139 710 139 C710 139 517 670 517 670 C517 670 492 670 492 670 C492 670 286 -15 286 -15 C286 -15 311 -15 311 -15 C311 -15 517 670 517 670 C517 670 468 507 468 507 C468 507 665 -15 665 -15 C665 -15 690 -15 690 -15 C690 -15 865 571 865 571 C881 613 913 647 940 647 C940 647 949 647 949 647 C949 647 949 660 949 660 L949 660 Z M225 660 C225 660 153 660 153 660 C153 660 99 660 99 660 C99 660 46 660 46 660 C46 660 2 660 2 660 C2 660 2 647 2 647 C2 647 9 647 9 647 C31 647 64 609 80 564 C80 564 80 564 80 564 C80 564 286 -15 286 -15 C286 -15 329 129 329 129 C329 129 185 564 185 564 C185 564 185 564 185 564 C170 609 184 647 215 647 C215 647 225 647 225 647 C225 647 225 660 225 660 L225 660 Z " />
<glyph glyph-name="Wdieresis" unicode="&#x1e84;" horiz-adv-x="953" d="M600 730 C630 730 655 755 655 785 C655 815 630 840 600 840 C570 840 545 815 545 785 C545 755 570 730 600 730 L600 730 Z M408 730 C438 730 463 755 463 785 C463 815 438 840 408 840 C378 840 353 815 353 785 C353 755 378 730 408 730 L408 730 Z M949 660 C949 660 892 660 892 660 C892 660 877 660 877 660 C877 660 862 660 862 660 C862 660 777 660 777 660 C778 660 778 657 777 654 C778 650 778 647 777 647 C777 647 790 647 790 647 C827 647 847 610 834 566 C834 566 710 139 710 139 C710 139 517 670 517 670 C517 670 492 670 492 670 C492 670 286 -15 286 -15 C286 -15 311 -15 311 -15 C311 -15 517 670 517 670 C517 670 468 507 468 507 C468 507 665 -15 665 -15 C665 -15 690 -15 690 -15 C690 -15 865 571 865 571 C881 613 913 647 940 647 C940 647 949 647 949 647 C949 647 949 660 949 660 L949 660 Z M225 660 C225 660 153 660 153 660 C153 660 99 660 99 660 C99 660 46 660 46 660 C46 660 2 660 2 660 C2 660 2 647 2 647 C2 647 9 647 9 647 C31 647 64 609 80 564 C80 564 80 564 80 564 C80 564 286 -15 286 -15 C286 -15 329 129 329 129 C329 129 185 564 185 564 C185 564 185 564 185 564 C170 609 184 647 215 647 C215 647 225 647 225 647 C225 647 225 660 225 660 L225 660 Z " />
<glyph glyph-name="CapitalLetterEWITHTI" unicode="&#x1ebc;" horiz-adv-x="594" d="M152 755 C152 787 171 815 194 815 C247 815 314 753 367 753 C411 753 448 808 448 872 C448 872 433 872 433 872 C433 840 412 812 386 812 C333 812 266 875 213 875 C172 875 137 820 137 755 C137 755 152 755 152 755 L152 755 Z M429 261 C429 261 429 330 429 330 C429 330 429 342 429 342 C429 342 429 354 429 354 C429 354 429 415 429 415 C429 415 418 415 418 415 C418 415 415 406 415 406 C407 378 349 355 290 354 C290 354 199 354 199 354 C199 354 199 636 199 636 C199 636 331 636 331 636 C395 636 464 593 481 543 C481 543 486 527 486 527 C486 527 496 527 496 527 C496 527 496 648 496 648 C496 648 496 660 496 660 C496 660 484 660 484 660 C484 660 399 660 399 660 C399 660 199 660 199 660 C199 660 150 660 150 660 C150 660 101 660 101 660 C101 660 41 660 41 660 C41 660 41 647 41 647 C41 647 50 647 50 647 C77 647 101 609 101 564 C101 564 101 96 101 96 C101 51 77 13 50 13 C50 13 41 13 41 13 C41 13 41 0 41 0 C41 0 101 0 101 0 C101 0 150 0 150 0 C150 0 199 0 199 0 C199 0 401 0 401 0 C401 0 494 0 494 0 C494 0 497 0 497 0 C498 3 499 9 499 12 C505 45 515 101 521 133 C521 134 521 134 520 133 C515 134 511 134 511 133 C511 133 503 117 503 117 C477 67 401 24 337 24 C337 24 199 24 199 24 C199 24 199 330 199 330 C199 330 290 330 290 330 C349 330 407 303 415 272 C415 272 418 261 418 261 C418 261 429 261 429 261 L429 261 Z " />
<glyph glyph-name="Ygrave" unicode="&#x1ef2;" horiz-adv-x="623" d="M422 13 C422 13 413 13 413 13 C385 13 362 51 361 96 C361 96 361 312 361 312 C361 312 521 568 521 568 C550 611 592 647 615 647 C615 647 623 647 623 647 C623 647 623 660 623 660 C623 660 578 660 578 660 C578 660 563 660 563 660 C563 660 548 660 548 660 C548 660 459 660 459 660 C460 660 460 657 459 654 C460 650 460 647 459 647 C459 647 472 647 472 647 C509 647 511 600 477 544 C477 544 477 544 477 544 C477 544 348 334 348 334 C348 334 214 572 214 572 C193 613 198 647 227 647 C227 647 237 647 237 647 C237 647 237 660 237 660 C237 660 164 660 164 660 C164 660 106 660 106 660 C106 660 47 660 47 660 C47 660 10 660 10 660 C10 660 10 647 10 647 C10 647 17 647 17 647 C35 647 69 616 94 576 C94 576 264 277 264 277 C264 277 264 96 264 96 C264 51 240 13 213 13 C213 13 204 13 204 13 C204 13 204 0 204 0 C204 0 264 0 264 0 C264 0 313 0 313 0 C313 0 361 0 361 0 C361 0 422 0 422 0 C422 0 422 13 422 13 L422 13 Z M314 852 C300 880 285 904 281 904 C267 904 229 877 229 866 C229 860 247 838 268 816 C268 816 385 690 385 690 C385 690 395 698 395 698 C395 698 314 852 314 852 L314 852 Z " />
<glyph glyph-name="quoteleft" unicode="&#x2018;" horiz-adv-x="251" d="M125 525 C117 525 110 524 103 521 C102 526 102 531 102 535 C102 581 134 637 172 655 C172 655 166 668 166 668 C103 637 49 555 49 490 C49 473 56 450 67 432 C77 411 100 395 125 395 C160 395 190 425 190 460 C190 495 160 525 125 525 L125 525 Z " />
<glyph glyph-name="quoteright" unicode="&#x2019;" horiz-adv-x="251" d="M125 535 C133 535 140 536 147 539 C148 534 148 529 148 525 C148 479 116 423 78 405 C78 405 84 392 84 392 C147 423 201 505 201 570 C201 587 194 610 183 628 C173 649 150 665 125 665 C90 665 60 635 60 600 C60 565 90 535 125 535 L125 535 Z " />
<glyph glyph-name="quotedblleft" unicode="&#x201c;" horiz-adv-x="442" d="M270 415 C270 415 270 415 270 415 C282 403 298 395 316 395 C352 395 382 425 381 460 C382 495 352 525 316 525 C309 525 302 524 295 521 C294 526 294 531 294 535 C294 581 326 637 364 655 C364 655 357 668 357 668 C294 637 240 555 240 490 C240 466 254 432 270 415 C270 415 270 415 270 415 L270 415 Z M125 525 C117 525 110 524 103 521 C102 526 102 531 102 535 C102 581 134 637 172 655 C172 655 166 668 166 668 C103 637 49 555 49 490 C49 473 56 450 67 432 C77 411 100 395 125 395 C160 395 190 425 190 460 C190 495 160 525 125 525 L125 525 Z " />
<glyph glyph-name="quotedblright" unicode="&#x201d;" horiz-adv-x="442" d="M316 535 C324 535 331 536 338 539 C339 534 339 529 339 525 C339 479 307 423 269 405 C269 405 276 392 276 392 C339 423 393 505 393 570 C393 590 383 618 370 636 C358 653 338 665 316 665 C281 665 251 635 251 600 C251 565 281 535 316 535 L316 535 Z M125 535 C133 535 140 536 147 539 C148 534 148 529 148 525 C148 479 116 423 78 405 C78 405 84 392 84 392 C147 423 201 505 201 570 C201 587 194 610 183 628 C173 649 150 665 125 665 C90 665 60 635 60 600 C60 565 90 535 125 535 L125 535 Z " />
</font>
</svg>
