<?xml version="1.0" encoding="UTF-8"?>
<svg xmlns="http://www.w3.org/2000/svg" xmlns:xlink="http://www.w3.org/1999/xlink" version="1.2" >
<font id="Zimra Thin">
<font-face  font-family="Zimra" units-per-em="1024" ascent="936" descent="-280" font-style="normal" font-weight="100" font-stretch="normal" cap-height="660" x-height="500" underline-position="0" underline-thickness="0" />
<missing-glyph  horiz-adv-x="472" d="M0 700 C0 700 432 700 432 700 C432 700 432 0 432 0 C432 0 0 0 0 0 C0 0 0 700 0 700 L0 700 Z M50 50 C50 50 382 50 382 50 C382 50 382 650 382 650 C382 650 50 650 50 650 C50 650 50 50 50 50 L50 50 Z " />
<glyph glyph-name="NULL" d="" />
<glyph glyph-name="CR" unicode="&#xd;" horiz-adv-x="256" d="" />
<glyph glyph-name="space" unicode="&#x20;" horiz-adv-x="250" d="" />
<glyph glyph-name="exclam" unicode="&#x21;" horiz-adv-x="153" d="M74 -5 C85 -5 94 4 94 15 C94 26 85 35 74 35 C63 35 54 26 54 15 C54 4 63 -5 74 -5 L74 -5 Z M93 620 C94 644 85 665 73 665 C61 665 52 644 53 620 C53 620 73 110 73 110 C73 110 76 110 76 110 C76 110 93 620 93 620 L93 620 Z " />
<glyph glyph-name="quotedbl" unicode="&#x22;" horiz-adv-x="212" d="M121 660 C121 660 143 489 143 489 C143 489 150 489 150 489 C150 489 172 660 172 660 C172 660 121 660 121 660 L121 660 Z M40 660 C40 660 62 489 62 489 C62 489 69 489 69 489 C69 489 91 660 91 660 C91 660 40 660 40 660 L40 660 Z " />
<glyph glyph-name="numbersign" unicode="&#x23;" horiz-adv-x="525" d="M390 692 C390 692 359 468 359 468 C359 468 205 468 205 468 C205 468 236 692 236 692 C236 692 228 692 228 692 C228 692 197 468 197 468 C197 468 61 468 61 468 C61 468 59 452 59 452 C59 452 195 452 195 452 C195 452 162 208 162 208 C162 208 23 208 23 208 C23 208 21 192 21 192 C21 192 159 192 159 192 C159 192 133 0 133 0 C133 0 141 0 141 0 C141 0 167 192 167 192 C167 192 321 192 321 192 C321 192 295 0 295 0 C295 0 303 0 303 0 C303 0 329 192 329 192 C329 192 460 192 460 192 C460 192 462 208 462 208 C462 208 332 208 332 208 C332 208 365 452 365 452 C365 452 503 452 503 452 C503 452 505 468 505 468 C505 468 367 468 367 468 C367 468 398 692 398 692 C398 692 390 692 390 692 L390 692 Z M203 452 C203 452 357 452 357 452 C357 452 324 208 324 208 C324 208 170 208 170 208 C170 208 203 452 203 452 L203 452 Z " />
<glyph glyph-name="dollar" unicode="&#x24;" horiz-adv-x="499" d="M263 735 C263 735 263 663 263 663 C251 664 241 665 231 665 C219 665 208 664 197 661 C197 661 197 735 197 735 C197 735 183 735 183 735 C183 735 183 658 183 658 C111 636 57 568 57 491 C57 442 110 383 183 346 C183 346 183 17 183 17 C130 40 82 85 66 132 C63 140 58 155 55 163 C55 163 44 163 44 163 C44 163 44 56 44 56 C72 35 126 16 183 5 C183 5 183 -75 183 -75 C183 -75 197 -75 197 -75 C197 -75 197 3 197 3 C219 -1 242 -4 263 -5 C263 -5 263 -75 263 -75 C263 -75 277 -75 277 -75 C277 -75 277 -5 277 -5 C278 -5 280 -5 281 -5 C375 -5 455 70 455 159 C455 223 374 300 277 333 C277 333 277 655 277 655 C279 655 282 654 284 654 C284 654 284 654 284 654 C329 645 381 598 398 551 C402 538 410 518 414 506 C414 506 425 506 425 506 C425 506 425 613 425 613 C387 634 327 653 277 661 C277 661 277 735 277 735 C277 735 263 735 263 735 L263 735 Z M197 12 C197 12 197 340 197 340 C212 333 228 327 245 322 C251 320 257 318 263 316 C263 316 263 0 263 0 C254 1 244 2 234 3 C234 3 234 3 234 3 C222 4 209 7 197 12 C197 12 197 12 197 12 L197 12 Z M263 338 C263 338 262 338 262 338 C239 345 217 353 197 364 C197 364 197 656 197 656 C208 659 219 660 230 660 C240 660 251 659 263 657 C263 657 263 338 263 338 L263 338 Z M183 371 C118 407 72 458 72 500 C72 570 120 631 183 652 C183 652 183 371 183 371 L183 371 Z M277 311 C367 276 439 206 439 150 C439 69 367 0 281 0 C280 0 278 0 277 0 C277 0 277 311 277 311 L277 311 Z " />
<glyph glyph-name="ampersand" unicode="&#x26;" horiz-adv-x="692" d="M632 380 C632 380 474 380 474 380 C474 380 474 367 474 367 C474 367 486 367 486 367 C519 367 547 343 547 270 C547 270 547 240 547 240 C547 183 522 130 481 89 C447 119 408 158 366 209 C270 323 189 454 189 517 C189 595 244 661 309 661 C375 661 431 609 431 549 C431 474 349 396 252 379 C252 379 254 376 254 376 C358 394 447 474 447 550 C447 612 384 665 310 665 C236 665 173 593 173 508 C173 475 195 424 229 366 C131 332 50 239 50 161 C50 71 147 -5 261 -5 C343 -5 419 26 473 75 C563 2 634 -11 693 0 C693 0 693 3 693 3 C641 -6 575 8 484 86 C526 129 551 183 551 240 C551 240 551 270 551 270 C551 343 583 367 620 367 C620 367 632 367 632 367 C632 367 632 380 632 380 L632 380 Z M469 78 C419 33 348 4 272 4 C162 4 69 80 69 169 C69 244 143 331 231 363 C263 310 305 251 351 197 C394 146 433 107 469 78 C469 78 469 78 469 78 L469 78 Z " />
<glyph glyph-name="quotesingle" unicode="&#x27;" horiz-adv-x="130" d="M40 660 C40 660 62 489 62 489 C62 489 69 489 69 489 C69 489 91 660 91 660 C91 660 40 660 40 660 L40 660 Z " />
<glyph glyph-name="parenleft" unicode="&#x28;" horiz-adv-x="164" d="M152 690 C102 631 60 488 60 270 C60 52 102 -91 152 -150 C152 -150 155 -148 155 -148 C112 -97 75 43 75 270 C75 497 112 637 155 688 C155 688 152 690 152 690 L152 690 Z " />
<glyph glyph-name="parenright" unicode="&#x29;" horiz-adv-x="164" d="M10 -150 C60 -91 102 52 102 270 C102 488 60 631 10 690 C10 690 7 688 7 688 C50 637 87 497 87 270 C87 43 50 -97 7 -148 C7 -148 10 -150 10 -150 L10 -150 Z " />
<glyph glyph-name="asterisk" unicode="&#x2a;" horiz-adv-x="245" d="M149 541 C149 541 49 605 49 605 C45 607 41 607 39 604 C38 601 39 597 43 595 C43 595 149 541 149 541 C149 541 149 540 149 540 C149 540 149 539 149 539 C149 539 43 485 43 485 C35 481 39 470 49 475 C49 475 149 539 149 539 C149 539 144 420 144 420 C144 416 147 412 150 412 C153 412 156 416 156 420 C156 420 151 539 151 539 C151 539 251 475 251 475 C255 473 259 473 261 476 C262 479 261 483 257 485 C257 485 151 539 151 539 C151 539 151 540 151 540 C151 540 151 541 151 541 C151 541 257 595 257 595 C265 599 261 610 251 605 C251 605 151 541 151 541 C151 541 156 660 156 660 C156 664 153 668 150 668 C147 668 144 664 144 660 C144 660 149 541 149 541 L149 541 Z " />
<glyph glyph-name="plus" unicode="&#x2b;" horiz-adv-x="555" d="M270 450 C270 450 270 254 270 254 C270 254 75 254 75 254 C75 254 75 246 75 246 C75 246 270 246 270 246 C270 246 270 50 270 50 C270 50 280 50 280 50 C280 50 280 246 280 246 C280 246 475 246 475 246 C475 246 475 254 475 254 C475 254 280 254 280 254 C280 254 280 450 280 450 C280 450 270 450 270 450 L270 450 Z " />
<glyph glyph-name="comma" unicode="&#x2c;" horiz-adv-x="150" d="M171 105 C171 105 157 91 157 91 C142 106 128 111 116 107 C129 126 149 127 171 105 L171 105 Z M79 -5 C81 -5 82 -5 84 -4 C81 -35 74 -60 65 -64 C65 -64 67 -68 67 -68 C85 -59 101 -12 101 34 C101 67 107 92 116 107 C99 100 87 74 85 32 C83 33 81 33 79 33 C69 33 60 24 60 14 C60 4 69 -5 79 -5 L79 -5 Z " />
<glyph glyph-name="hyphen" unicode="&#x2d;" horiz-adv-x="280" d="M20 221 C20 221 260 221 260 221 C260 221 260 236 260 236 C260 236 20 236 20 236 C20 236 20 221 20 221 L20 221 Z " />
<glyph glyph-name="period" unicode="&#x2e;" horiz-adv-x="205" d="M125 -5 C136 -5 145 4 145 15 C145 26 136 35 125 35 C114 35 105 26 105 15 C105 4 114 -5 125 -5 L125 -5 Z " />
<glyph glyph-name="slash" unicode="&#x2f;" horiz-adv-x="318" d="M0 -145 C0 -145 9 -145 9 -145 C9 -145 319 710 319 710 C319 710 310 710 310 710 C310 710 0 -145 0 -145 L0 -145 Z " />
<glyph glyph-name="zero" unicode="0" horiz-adv-x="590" d="M295 -1 C175 -1 72 114 72 250 C72 386 175 501 295 501 C416 501 518 386 518 250 C518 114 416 -1 295 -1 L295 -1 Z M50 250 C50 112 163 -5 295 -5 C428 -5 541 112 541 250 C541 388 428 505 295 505 C163 505 50 388 50 250 L50 250 Z " />
<glyph glyph-name="one" unicode="1" horiz-adv-x="251" d="M196 500 C196 500 136 500 136 500 C136 500 126 500 126 500 C126 500 116 500 116 500 C116 500 55 500 55 500 C55 500 55 487 55 487 C55 487 64 487 64 487 C92 487 116 449 116 404 C116 404 116 96 116 96 C116 51 92 13 64 13 C64 13 55 13 55 13 C55 13 55 0 55 0 C55 0 116 0 116 0 C116 0 126 0 126 0 C126 0 136 0 136 0 C136 0 196 0 196 0 C196 0 196 13 196 13 C196 13 187 13 187 13 C160 13 137 48 136 91 C136 91 136 96 136 96 C136 96 136 404 136 404 C136 404 136 409 136 409 C137 452 160 487 187 487 C187 487 196 487 196 487 C196 487 196 500 196 500 L196 500 Z " />
<glyph glyph-name="two" unicode="2" horiz-adv-x="478" d="M439 81 C439 81 439 72 439 72 C436 44 396 20 350 20 C350 20 56 20 56 20 C253 147 416 242 416 347 C416 432 345 505 261 505 C191 505 105 437 72 357 C72 357 75 356 75 356 C104 428 185 490 251 490 C328 490 393 421 393 340 C393 231 238 142 50 20 C50 20 49 20 49 20 C49 20 47 18 47 18 C40 14 32 9 25 4 C25 4 25 0 25 0 C25 0 445 0 445 0 C445 0 446 10 446 10 C448 29 451 61 452 81 C452 81 439 81 439 81 L439 81 Z " />
<glyph glyph-name="three" unicode="3" horiz-adv-x="449" d="M26 -215 C228 -204 399 -87 399 40 C399 132 306 210 196 210 C186 210 170 208 153 204 C262 248 347 323 347 379 C347 447 285 505 212 505 C151 505 59 445 11 375 C11 375 14 374 14 374 C56 437 143 490 202 490 C269 490 326 436 326 373 C326 315 236 237 126 197 C119 195 112 192 106 190 C106 190 106 187 106 187 C109 188 112 189 116 190 C136 195 167 199 192 199 C292 199 378 125 378 39 C378 -86 216 -202 26 -212 C26 -212 26 -215 26 -215 L26 -215 Z " />
<glyph glyph-name="four" unicode="4" horiz-adv-x="490" d="M31 9 C31 9 31 9 31 9 C31 9 31 9 31 9 C31 9 27 3 27 3 C27 3 27 0 27 0 C27 0 31 0 31 0 C31 0 32 0 32 0 C32 0 350 0 350 0 C350 0 350 -150 350 -150 C350 -150 370 -150 370 -150 C370 -150 370 0 370 0 C370 0 480 0 480 0 C480 0 480 9 480 9 C480 9 370 9 370 9 C370 9 370 499 370 499 C370 499 370 505 370 505 C370 505 367 505 367 505 C367 505 31 9 31 9 L31 9 Z M38 9 C38 9 351 471 351 471 C351 471 350 469 350 469 C350 469 350 9 350 9 C350 9 38 9 38 9 L38 9 Z " />
<glyph glyph-name="five" unicode="5" horiz-adv-x="433" d="M381 500 C381 500 381 500 381 500 C387 519 395 544 400 561 C400 561 388 561 388 561 C388 561 385 552 385 552 C376 524 330 500 285 500 C285 500 96 500 96 500 C96 500 90 500 90 500 C90 500 70 243 70 243 C70 243 75 243 75 243 C75 243 143 243 143 243 C262 243 363 158 363 58 C363 -64 210 -172 31 -178 C31 -178 31 -182 31 -182 C221 -176 383 -62 383 64 C383 172 277 263 154 263 C154 263 77 263 77 263 C77 263 94 479 94 479 C94 479 374 479 374 479 C374 479 381 500 381 500 L381 500 Z " />
<glyph glyph-name="six" unicode="6" horiz-adv-x="571" d="M516 715 C281 707 80 517 80 301 C80 136 180 -5 297 -5 C425 -5 528 96 521 215 C521 329 430 425 324 425 C202 425 109 323 112 199 C105 226 102 254 102 283 C102 289 103 301 103 308 C103 518 293 704 516 712 C516 712 516 715 516 715 L516 715 Z M118 176 C118 176 118 176 118 176 C104 308 197 420 321 420 C418 420 500 325 500 214 C507 99 414 1 300 1 C219 1 148 75 118 176 L118 176 Z " />
<glyph glyph-name="seven" unicode="7" horiz-adv-x="436" d="M29 490 C29 490 28 480 28 480 C28 480 28 480 28 480 C27 460 25 435 23 419 C23 419 36 419 36 419 C36 419 36 428 36 428 C39 456 79 480 124 480 C124 480 415 480 415 480 C415 480 139 -140 139 -140 C139 -140 162 -140 162 -140 C250 73 338 286 427 498 C427 498 425 500 425 500 C425 500 30 500 30 500 C30 500 29 490 29 490 L29 490 Z " />
<glyph glyph-name="eight" unicode="8" horiz-adv-x="539" d="M290 343 C285 344 280 345 275 345 C188 352 114 426 114 506 C114 590 189 661 277 661 C367 661 443 593 443 513 C443 426 374 350 290 343 C290 343 290 343 290 343 L290 343 Z M295 343 C384 352 459 429 459 516 C459 596 376 665 278 665 C180 665 97 588 97 498 C97 417 169 341 256 327 C156 326 71 251 71 164 C71 73 167 -5 281 -5 C394 -5 490 76 490 172 C490 251 402 327 295 343 L295 343 Z M259 327 C264 326 268 325 273 325 C380 316 471 243 471 165 C471 75 384 -1 282 -1 C178 -1 90 76 90 167 C90 253 168 326 259 326 C259 326 259 327 259 327 L259 327 Z " />
<glyph glyph-name="nine" unicode="9" horiz-adv-x="571" d="M55 -215 C291 -207 491 -17 491 199 C491 364 392 505 274 505 C147 505 44 404 50 285 C50 171 141 75 247 75 C369 75 462 178 459 302 C466 275 469 246 469 217 C469 211 468 199 468 192 C468 -18 278 -204 55 -212 C55 -212 55 -215 55 -215 L55 -215 Z M454 322 C467 191 373 80 251 80 C154 80 71 175 71 286 C65 401 157 499 272 499 C353 499 424 424 454 322 L454 322 Z " />
<glyph glyph-name="colon" unicode="&#x3a;" horiz-adv-x="205" d="M125 352 C136 352 145 361 145 372 C145 383 136 392 125 392 C114 392 105 383 105 372 C105 361 114 352 125 352 L125 352 Z M125 -5 C136 -5 145 4 145 15 C145 26 136 35 125 35 C114 35 105 26 105 15 C105 4 114 -5 125 -5 L125 -5 Z " />
<glyph glyph-name="semicolon" unicode="&#x3b;" horiz-adv-x="150" d="M79 345 C90 345 99 354 99 365 C99 376 90 385 79 385 C68 385 59 376 59 365 C59 354 68 345 79 345 L79 345 Z M171 105 C171 105 157 91 157 91 C142 106 128 111 116 107 C129 126 149 127 171 105 L171 105 Z M79 -5 C81 -5 82 -5 84 -4 C81 -35 74 -60 65 -64 C65 -64 67 -68 67 -68 C85 -59 101 -12 101 34 C101 67 107 92 116 107 C99 100 87 74 85 32 C83 33 81 33 79 33 C69 33 60 24 60 14 C60 4 69 -5 79 -5 L79 -5 Z " />
<glyph glyph-name="less" unicode="&#x3c;" horiz-adv-x="532" d="M457 500 C457 500 42 281 42 281 C42 281 40 280 40 280 C40 280 40 270 40 270 C40 270 42 269 42 269 C42 269 457 50 457 50 C457 50 457 60 457 60 C457 60 48 275 48 275 C48 275 457 490 457 490 C457 490 457 500 457 500 L457 500 Z " />
<glyph glyph-name="equal" unicode="&#x3d;" horiz-adv-x="523" d="M73 204 C73 204 73 196 73 196 C73 196 453 196 453 196 C453 196 453 204 453 204 C453 204 73 204 73 204 L73 204 Z M73 304 C73 304 73 296 73 296 C73 296 453 296 453 296 C453 296 453 304 453 304 C453 304 73 304 73 304 L73 304 Z " />
<glyph glyph-name="greater" unicode="&#x3e;" horiz-adv-x="530" d="M474 275 C474 275 75 60 75 60 C75 60 75 50 75 50 C75 50 480 269 480 269 C480 269 490 275 490 275 C490 275 480 281 480 281 C480 281 75 500 75 500 C75 500 75 490 75 490 C75 490 474 275 474 275 L474 275 Z " />
<glyph glyph-name="question" unicode="&#x3f;" horiz-adv-x="365" d="M142 -5 C153 -5 162 4 162 15 C162 26 153 35 142 35 C131 35 122 26 122 15 C122 4 131 -5 142 -5 L142 -5 Z M148 348 C148 348 182 348 182 348 C294 348 330 422 330 458 C330 570 238 665 129 665 C84 665 45 633 45 596 C45 594 51 593 57 593 C89 593 103 649 136 649 C238 649 326 562 326 460 C326 429 289 363 176 363 C176 363 141 363 141 363 C138 363 136 362 136 360 C136 360 141 104 141 104 C141 104 143 104 143 104 C143 104 148 348 148 348 L148 348 Z " />
<glyph glyph-name="at" unicode="&#x40;" horiz-adv-x="1121" d="M1046 0 C986 -130 763 -241 562 -241 C297 -241 71 -11 71 259 C71 529 296 759 561 759 C826 759 1051 568 1051 343 C1051 159 958 2 849 2 C723 2 638 93 665 200 C665 200 735 480 735 480 C735 480 716 480 716 480 C716 480 688 369 688 369 C682 436 628 490 566 490 C425 490 305 357 305 201 C305 102 382 17 473 17 C537 17 609 82 641 164 C639 69 725 -5 846 -5 C965 -5 1067 155 1067 343 C1067 570 834 764 561 764 C288 764 55 532 55 259 C55 -14 288 -246 562 -246 C765 -246 991 -133 1053 0 C1053 0 1046 0 1046 0 L1046 0 Z M685 356 C685 356 646 200 646 200 C623 107 548 28 483 28 C399 28 327 109 327 205 C327 356 437 484 565 484 C630 484 684 426 685 356 L685 356 Z " />
<glyph glyph-name="A" unicode="A" horiz-adv-x="623" d="M586 13 C586 13 578 13 578 13 C556 13 526 44 509 84 C509 84 309 675 309 675 C309 675 304 675 304 675 C304 675 114 96 114 96 C114 96 114 96 114 96 C100 51 63 13 36 13 C36 13 26 13 26 13 C26 13 26 0 26 0 C26 0 83 0 83 0 C83 0 87 0 87 0 C87 0 90 0 90 0 C90 0 179 0 179 0 C179 0 179 13 179 13 C179 13 166 13 166 13 C127 13 109 57 126 110 C126 110 165 232 165 232 C165 232 437 232 437 232 C437 232 482 96 482 96 C497 51 479 13 442 13 C442 13 429 13 429 13 C429 13 429 0 429 0 C429 0 514 0 514 0 C514 0 526 0 526 0 C526 0 538 0 538 0 C538 0 586 0 586 0 C586 0 586 13 586 13 L586 13 Z M435 238 C435 238 167 238 167 238 C167 238 299 645 299 645 C299 645 435 238 435 238 L435 238 Z " />
<glyph glyph-name="B" unicode="B" horiz-adv-x="553" d="M39 647 C39 647 48 647 48 647 C75 647 99 609 99 564 C99 564 99 96 99 96 C99 51 75 13 48 13 C48 13 39 13 39 13 C39 13 39 0 39 0 C39 0 99 0 99 0 C99 0 110 0 110 0 C110 0 121 0 121 0 C121 0 316 0 316 0 C434 0 534 80 534 174 C534 256 430 328 298 343 C400 358 482 429 482 510 C482 591 394 660 291 660 C291 660 121 660 121 660 C121 660 110 660 110 660 C110 660 99 660 99 660 C99 660 39 660 39 660 C39 660 39 647 39 647 L39 647 Z M283 344 C270 345 258 346 245 346 C245 346 121 345 121 345 C121 345 121 654 121 654 C121 654 291 654 291 654 C382 654 460 588 460 510 C460 427 380 355 283 344 C283 344 283 344 283 344 L283 344 Z M274 340 C405 329 511 258 511 174 C511 83 420 6 314 6 C314 6 121 6 121 6 C121 6 121 340 121 340 C121 340 257 340 257 340 C263 340 268 340 274 340 C274 340 274 340 274 340 L274 340 Z " />
<glyph glyph-name="C" unicode="C" horiz-adv-x="726" d="M667 497 C667 497 667 603 667 603 C605 637 486 665 407 665 C225 665 71 511 71 330 C71 149 225 -5 407 -5 C495 -5 615 28 667 67 C667 67 667 172 667 172 C667 172 656 172 656 172 C653 164 648 149 645 140 C622 72 527 8 438 2 C438 2 438 1 438 1 C427 0 417 0 407 0 C238 0 95 152 95 330 C95 508 238 660 407 660 C427 660 450 658 474 655 C474 655 474 654 474 654 C546 644 624 586 645 528 C648 519 653 505 656 497 C656 497 667 497 667 497 L667 497 Z " />
<glyph glyph-name="D" unicode="D" horiz-adv-x="651" d="M60 647 C60 647 69 647 69 647 C96 647 120 609 120 564 C120 564 120 96 120 96 C120 51 96 13 69 13 C69 13 60 13 60 13 C60 13 60 0 60 0 C60 0 120 0 120 0 C120 0 131 0 131 0 C131 0 142 0 142 0 C142 0 317 0 317 0 C471 0 602 152 602 330 C602 508 451 660 273 660 C273 660 142 660 142 660 C142 660 131 660 131 660 C131 660 120 660 120 660 C120 660 60 660 60 660 C60 660 60 647 60 647 L60 647 Z M142 6 C142 6 142 654 142 654 C142 654 273 654 273 654 C439 654 580 505 580 330 C580 155 459 6 317 6 C317 6 142 6 142 6 L142 6 Z " />
<glyph glyph-name="E" unicode="E" horiz-adv-x="508" d="M342 271 C342 271 342 340 342 340 C342 340 342 342 342 342 C342 342 342 345 342 345 C342 345 342 406 342 406 C342 406 332 406 332 406 C332 406 329 397 329 397 C320 369 263 345 204 345 C204 345 112 345 112 345 C112 345 112 655 112 655 C112 655 235 655 235 655 C299 655 368 612 385 562 C385 562 391 545 391 545 C391 545 400 545 400 545 C400 545 400 657 400 657 C400 657 400 660 400 660 C400 660 397 660 397 660 C397 660 304 660 304 660 C304 660 112 660 112 660 C112 660 102 660 102 660 C102 660 91 660 91 660 C91 660 30 660 30 660 C30 660 30 647 30 647 C30 647 39 647 39 647 C67 647 91 609 91 564 C91 564 91 96 91 96 C91 51 67 13 39 13 C39 13 30 13 30 13 C30 13 30 0 30 0 C30 0 91 0 91 0 C91 0 102 0 102 0 C102 0 112 0 112 0 C112 0 312 0 312 0 C312 0 407 0 407 0 C407 0 408 0 408 0 C408 1 408 2 409 3 C414 33 423 84 428 115 C428 115 419 115 419 115 C419 115 411 98 411 98 C385 48 308 6 244 5 C244 5 112 5 112 5 C112 5 112 340 112 340 C112 340 204 340 204 340 C263 340 320 313 329 281 C329 281 332 271 332 271 C332 271 342 271 342 271 L342 271 Z " />
<glyph glyph-name="F" unicode="F" horiz-adv-x="447" d="M342 266 C342 266 342 335 342 335 C342 335 342 337 342 337 C342 337 342 340 342 340 C342 340 342 401 342 401 C342 400 341 400 341 401 C336 400 332 400 332 401 C332 401 329 392 329 392 C320 364 263 340 204 340 C204 340 122 340 122 340 C122 340 122 655 122 655 C122 655 275 655 275 655 C339 655 408 612 425 562 C425 562 431 545 431 545 C431 545 440 545 440 545 C440 545 440 657 440 657 C440 657 440 660 440 660 C440 660 437 660 437 660 C437 660 344 660 344 660 C344 660 122 660 122 660 C122 660 112 660 112 660 C112 660 101 660 101 660 C101 660 40 660 40 660 C40 660 40 647 40 647 C40 647 49 647 49 647 C77 647 101 609 101 564 C101 564 101 96 101 96 C101 51 77 13 49 13 C49 13 40 13 40 13 C40 13 40 0 40 0 C40 0 101 0 101 0 C101 0 112 0 112 0 C112 0 122 0 122 0 C122 0 193 0 193 0 C193 0 193 13 193 13 C193 13 182 13 182 13 C150 13 123 51 122 96 C122 96 122 335 122 335 C122 335 204 335 204 335 C263 335 320 308 329 276 C329 276 332 266 332 266 C332 266 342 266 342 266 L342 266 Z " />
<glyph glyph-name="G" unicode="G" horiz-adv-x="726" d="M713 310 C713 310 652 310 652 310 C652 310 642 310 642 310 C642 310 632 310 632 310 C632 310 572 310 572 310 C572 310 572 297 572 297 C572 297 581 297 581 297 C609 297 632 259 632 214 C632 214 632 55 632 55 C569 24 466 0 395 0 C233 0 95 152 95 330 C95 508 233 660 395 660 C412 660 432 658 453 655 C453 655 453 655 453 655 C525 645 604 587 625 528 C628 519 633 505 636 497 C636 497 647 497 647 497 C647 497 647 603 647 603 C585 637 470 665 395 665 C220 665 71 511 71 330 C71 149 220 -5 395 -5 C474 -5 592 24 652 59 C652 59 652 214 652 214 C652 259 676 297 703 297 C703 297 713 297 713 297 C713 297 713 310 713 310 L713 310 Z " />
<glyph glyph-name="H" unicode="H" horiz-adv-x="730" d="M673 660 C673 660 612 660 612 660 C612 660 601 660 601 660 C601 660 591 660 591 660 C591 660 530 660 530 660 C530 660 530 647 530 647 C530 647 539 647 539 647 C567 647 591 609 591 564 C591 564 591 315 591 315 C591 315 103 315 103 315 C103 315 103 564 103 564 C104 609 127 647 155 647 C155 647 164 647 164 647 C164 647 164 660 164 660 C164 660 103 660 103 660 C103 660 93 660 93 660 C93 660 82 660 82 660 C82 660 21 660 21 660 C21 660 21 647 21 647 C21 647 30 647 30 647 C58 647 82 609 82 564 C82 564 82 96 82 96 C82 51 58 13 30 13 C30 13 21 13 21 13 C21 13 21 0 21 0 C21 0 82 0 82 0 C82 0 93 0 93 0 C93 0 103 0 103 0 C103 0 164 0 164 0 C164 0 164 13 164 13 C164 13 155 13 155 13 C127 13 104 51 103 96 C103 96 103 309 103 309 C103 309 591 309 591 309 C591 309 591 96 591 96 C591 51 567 13 539 13 C539 13 530 13 530 13 C530 13 530 0 530 0 C530 0 591 0 591 0 C591 0 601 0 601 0 C601 0 612 0 612 0 C612 0 673 0 673 0 C673 0 673 13 673 13 C673 13 664 13 664 13 C636 13 612 51 612 96 C612 96 612 564 612 564 C612 609 636 647 664 647 C664 647 673 647 673 647 C673 647 673 660 673 660 L673 660 Z " />
<glyph glyph-name="I" unicode="I" horiz-adv-x="212" d="M172 660 C172 660 112 660 112 660 C112 660 101 660 101 660 C101 660 90 660 90 660 C90 660 29 660 29 660 C29 660 29 647 29 647 C29 647 38 647 38 647 C66 647 90 609 90 564 C90 564 90 96 90 96 C90 51 66 13 38 13 C38 13 29 13 29 13 C29 13 29 0 29 0 C29 0 90 0 90 0 C90 0 101 0 101 0 C101 0 112 0 112 0 C112 0 172 0 172 0 C172 0 172 13 172 13 C172 13 163 13 163 13 C136 13 113 48 112 91 C112 91 112 96 112 96 C112 96 112 564 112 564 C112 564 112 569 112 569 C113 612 136 647 163 647 C163 647 172 647 172 647 C172 647 172 660 172 660 L172 660 Z " />
<glyph glyph-name="J" unicode="J" horiz-adv-x="316" d="M287 660 C287 660 226 660 226 660 C226 660 215 660 215 660 C215 660 205 660 205 660 C205 660 144 660 144 660 C144 660 144 647 144 647 C144 647 153 647 153 647 C181 647 205 609 205 564 C205 564 205 200 205 200 C205 66 165 -6 92 -6 C60 -6 26 20 19 50 C18 55 13 59 9 59 C3 59 -1 55 0 50 C8 18 48 -10 86 -10 C177 -10 226 70 226 218 C226 218 226 564 226 564 C226 609 250 647 278 647 C278 647 287 647 287 647 C287 647 287 660 287 660 L287 660 Z " />
<glyph glyph-name="K" unicode="K" horiz-adv-x="611" d="M441 647 C441 647 448 647 448 647 C468 647 436 609 379 564 C379 564 380 564 380 564 C380 564 130 369 130 369 C130 369 130 369 130 369 C130 369 113 355 113 355 C113 355 113 564 113 564 C113 609 136 647 164 647 C164 647 173 647 173 647 C174 647 174 650 173 654 C174 657 174 660 173 660 C173 660 113 660 113 660 C113 660 102 660 102 660 C102 660 91 660 91 660 C91 660 31 660 31 660 C31 660 31 647 31 647 C31 647 40 647 40 647 C67 647 91 609 91 564 C91 564 91 96 91 96 C91 51 67 13 40 13 C40 13 31 13 31 13 C31 13 31 0 31 0 C31 0 91 0 91 0 C91 0 102 0 102 0 C102 0 113 0 113 0 C113 0 173 0 173 0 C174 0 174 3 173 6 C174 10 174 13 173 13 C173 13 164 13 164 13 C136 13 113 51 113 96 C113 96 113 355 113 355 C113 355 116 351 116 351 C116 351 117 352 117 352 C117 352 302 196 302 196 C458 66 559 -5 589 -5 C589 -5 601 -5 601 -5 C601 -5 601 -1 601 -1 C601 -1 596 -1 596 -1 C579 -1 482 73 319 210 C319 210 134 365 134 365 C134 365 387 564 387 564 C387 564 387 564 387 564 C445 609 517 647 545 647 C545 647 554 647 554 647 C554 647 554 660 554 660 C554 660 509 660 509 660 C509 660 506 660 506 660 C506 660 502 660 502 660 C502 660 441 660 441 660 C441 660 441 647 441 647 L441 647 Z " />
<glyph glyph-name="L" unicode="L" horiz-adv-x="498" d="M404 127 C404 127 397 108 397 108 C373 53 303 6 244 5 C244 5 102 5 102 5 C102 5 102 564 102 564 C103 609 126 647 154 647 C154 647 163 647 163 647 C163 647 163 660 163 660 C163 660 102 660 102 660 C102 660 92 660 92 660 C92 660 81 660 81 660 C81 660 20 660 20 660 C20 660 20 647 20 647 C20 647 29 647 29 647 C57 647 81 609 81 564 C81 564 81 96 81 96 C81 51 57 13 29 13 C29 13 20 13 20 13 C20 13 20 0 20 0 C20 0 81 0 81 0 C81 0 92 0 92 0 C92 0 102 0 102 0 C102 0 302 0 302 0 C302 0 397 0 397 0 C397 0 398 0 398 0 C398 1 398 2 399 3 C404 35 414 89 419 121 C413 123 404 127 404 127 L404 127 Z " />
<glyph glyph-name="M" unicode="M" horiz-adv-x="761" d="M723 660 C723 660 663 660 663 660 C663 660 653 660 653 660 C653 660 651 660 651 660 C651 660 643 660 643 660 C643 660 388 -5 388 -5 C388 -5 393 -5 393 -5 C393 -5 644 641 644 641 C644 641 667 91 667 91 C667 48 646 13 620 13 C620 13 611 13 611 13 C611 13 611 0 611 0 C611 0 671 0 671 0 C671 0 682 0 682 0 C682 0 693 0 693 0 C693 0 753 0 753 0 C753 0 753 13 753 13 C753 13 744 13 744 13 C719 13 695 44 689 83 C689 83 667 574 667 574 C668 614 689 647 714 647 C714 647 723 647 723 647 C723 647 723 660 723 660 L723 660 Z M64 647 C64 647 73 647 73 647 C101 647 123 609 121 564 C121 564 121 564 121 564 C121 564 103 87 103 87 C99 46 75 13 49 13 C49 13 40 13 40 13 C40 13 40 0 40 0 C40 0 100 0 100 0 C100 0 103 0 103 0 C103 0 107 0 107 0 C107 0 195 0 195 0 C195 0 195 13 195 13 C195 13 182 13 182 13 C144 13 112 54 111 104 C111 104 131 631 131 631 C131 631 382 9 382 9 C382 9 388 -5 388 -5 C388 -5 398 22 398 22 C398 22 397 25 397 25 C397 25 141 660 141 660 C141 660 132 660 132 660 C132 660 128 660 128 660 C128 660 125 660 125 660 C125 660 64 660 64 660 C64 660 64 647 64 647 L64 647 Z " />
<glyph glyph-name="N" unicode="N" horiz-adv-x="640" d="M623 660 C623 660 562 660 562 660 C562 660 559 660 559 660 C559 660 556 660 556 660 C556 660 495 660 495 660 C495 660 495 647 495 647 C495 647 504 647 504 647 C532 647 556 609 556 564 C556 564 556 31 556 31 C556 31 125 660 125 660 C125 660 112 650 112 650 C112 650 112 651 112 651 C112 651 125 660 125 660 C125 660 112 660 112 660 C112 660 109 660 109 660 C109 660 106 660 106 660 C106 660 45 660 45 660 C45 660 45 647 45 647 C45 647 54 647 54 647 C82 647 106 609 106 564 C106 564 106 96 106 96 C106 51 82 13 54 13 C54 13 45 13 45 13 C45 13 45 0 45 0 C45 0 106 0 106 0 C106 0 109 0 109 0 C109 0 112 0 112 0 C112 0 173 0 173 0 C173 0 173 13 173 13 C173 13 164 13 164 13 C136 13 112 51 112 96 C112 96 112 641 112 641 C112 641 546 9 546 9 C546 9 555 -4 555 -4 C555 -4 562 -4 562 -4 C562 -4 562 17 562 17 C562 17 562 564 562 564 C562 609 586 647 614 647 C614 647 623 647 623 647 C623 647 623 660 623 660 L623 660 Z " />
<glyph glyph-name="O" unicode="O" horiz-adv-x="759" d="M390 0 C215 0 95 170 95 330 C95 490 215 660 390 660 C565 660 685 490 685 330 C685 170 565 0 390 0 L390 0 Z M71 330 C71 167 200 -5 390 -5 C580 -5 709 167 709 330 C709 493 580 665 390 665 C200 665 71 493 71 330 L71 330 Z " />
<glyph glyph-name="P" unicode="P" horiz-adv-x="507" d="M30 647 C30 647 39 647 39 647 C66 647 90 609 90 564 C90 564 90 96 90 96 C90 51 66 13 39 13 C39 13 30 13 30 13 C30 13 30 0 30 0 C30 0 90 0 90 0 C90 0 101 0 101 0 C101 0 112 0 112 0 C112 0 172 0 172 0 C173 0 173 3 172 6 C173 10 173 13 172 13 C172 13 163 13 163 13 C135 13 112 51 112 96 C112 96 112 291 112 291 C112 291 253 291 253 291 C379 291 487 375 487 473 C487 574 396 660 288 660 C288 660 112 660 112 660 C112 660 101 660 101 660 C101 660 90 660 90 660 C90 660 30 660 30 660 C30 660 30 647 30 647 L30 647 Z M112 297 C112 297 112 654 112 654 C112 654 288 654 288 654 C384 654 465 571 465 473 C465 378 367 297 253 297 C253 297 112 297 112 297 L112 297 Z " />
<glyph glyph-name="Q" unicode="Q" horiz-adv-x="759" d="M801 -50 C801 -50 798 -49 798 -49 C772 -81 700 -108 643 -108 C550 -108 451 -61 393 -5 C581 -3 709 168 709 330 C709 493 580 665 390 665 C200 665 71 493 71 330 C71 168 198 -2 385 -5 C450 -69 552 -123 641 -123 C694 -123 768 -90 801 -50 L801 -50 Z M390 0 C215 0 95 170 95 330 C95 490 215 660 390 660 C565 660 685 490 685 330 C685 170 565 0 390 0 L390 0 Z " />
<glyph glyph-name="R" unicode="R" horiz-adv-x="615" d="M60 647 C60 647 69 647 69 647 C96 647 120 609 120 564 C120 564 120 96 120 96 C120 51 96 13 69 13 C69 13 60 13 60 13 C60 13 60 0 60 0 C60 0 120 0 120 0 C120 0 131 0 131 0 C131 0 142 0 142 0 C142 0 202 0 202 0 C203 0 203 3 202 6 C203 10 203 13 202 13 C202 13 193 13 193 13 C165 13 142 51 142 96 C142 96 142 310 142 310 C142 310 258 310 258 310 C258 310 458 106 458 106 C547 14 564 0 585 0 C585 0 597 0 597 0 C597 0 597 4 597 4 C597 4 592 4 592 4 C584 4 570 17 488 102 C488 102 283 310 283 310 C393 317 484 395 484 485 C484 580 400 660 301 660 C301 660 142 660 142 660 C142 660 131 660 131 660 C131 660 120 660 120 660 C120 660 60 660 60 660 C60 660 60 647 60 647 L60 647 Z M269 315 C269 315 253 315 253 315 C253 315 142 315 142 315 C142 315 142 654 142 654 C142 654 301 654 301 654 C388 654 461 576 461 485 C461 393 373 315 269 315 L269 315 Z " />
<glyph glyph-name="S" unicode="S" horiz-adv-x="480" d="M25 163 C25 163 25 56 25 56 C70 23 179 -5 262 -5 C356 -5 436 70 436 159 C436 226 347 308 243 338 C140 368 53 442 53 500 C53 586 126 660 211 660 C226 660 245 658 265 654 C265 654 265 654 265 654 C310 645 362 598 379 551 C383 538 391 518 395 506 C395 506 406 506 406 506 C406 506 406 613 406 613 C355 641 265 665 212 665 C118 665 38 585 38 491 C38 429 124 351 226 322 C331 292 420 213 420 150 C420 69 348 0 262 0 C247 0 231 1 215 3 C215 3 215 3 215 3 C145 11 68 70 47 132 C44 140 39 155 36 163 C36 163 25 163 25 163 L25 163 Z " />
<glyph glyph-name="T" unicode="T" horiz-adv-x="620" d="M596 533 C594 567 589 624 586 657 C586 658 585 659 585 660 C585 660 580 660 580 660 C580 660 489 660 489 660 C489 660 131 660 131 660 C131 660 40 660 40 660 C40 660 35 660 35 660 C35 659 34 658 34 657 C31 624 26 567 24 533 C24 533 34 533 34 533 C34 533 43 556 43 556 C65 609 130 655 183 655 C183 655 299 655 299 655 C299 655 299 96 299 96 C299 51 275 13 248 13 C248 13 239 13 239 13 C239 13 239 0 239 0 C239 0 299 0 299 0 C299 0 310 0 310 0 C310 0 321 0 321 0 C321 0 381 0 381 0 C382 0 382 3 381 6 C382 10 382 13 381 13 C381 13 372 13 372 13 C344 13 321 51 321 96 C321 96 321 655 321 655 C321 655 437 655 437 655 C490 655 555 609 577 556 C577 556 586 533 586 533 C586 533 596 533 596 533 L596 533 Z " />
<glyph glyph-name="U" unicode="U" horiz-adv-x="691" d="M643 660 C643 660 574 660 574 660 C574 660 571 660 571 660 C571 660 567 660 567 660 C567 660 494 660 494 660 C494 660 494 647 494 647 C494 647 505 647 505 647 C539 647 567 604 567 554 C567 554 567 176 567 176 C567 82 491 3 350 3 C209 3 132 93 132 199 C132 199 132 564 132 564 C132 609 155 647 183 647 C183 647 192 647 192 647 C193 647 193 650 192 654 C193 657 193 660 192 660 C192 660 132 660 132 660 C132 660 121 660 121 660 C121 660 110 660 110 660 C110 660 50 660 50 660 C50 660 50 647 50 647 C50 647 59 647 59 647 C86 647 110 609 110 564 C110 564 110 203 110 203 C110 91 193 -5 347 -5 C494 -5 574 77 574 173 C574 173 574 554 574 554 C574 604 601 647 632 647 C632 647 643 647 643 647 C643 647 643 660 643 660 L643 660 Z " />
<glyph glyph-name="V" unicode="V" horiz-adv-x="626" d="M597 660 C597 660 540 660 540 660 C540 660 537 660 537 660 C537 660 533 660 533 660 C533 660 436 660 436 660 C436 660 436 647 436 647 C436 647 450 647 450 647 C490 647 511 602 499 546 C499 546 332 -15 332 -15 C332 -15 337 -15 337 -15 C337 -15 513 571 513 571 C528 613 562 647 588 647 C588 647 597 647 597 647 C597 647 597 660 597 660 L597 660 Z M190 660 C190 660 109 660 109 660 C109 660 97 660 97 660 C97 660 85 660 85 660 C85 660 42 660 42 660 C42 660 42 647 42 647 C42 647 49 647 49 647 C69 647 97 617 115 579 C115 579 332 -15 332 -15 C332 -15 341 16 341 16 C341 16 144 564 144 564 C144 564 144 564 144 564 C127 609 143 647 179 647 C179 647 190 647 190 647 C190 647 190 660 190 660 L190 660 Z " />
<glyph glyph-name="W" unicode="W" horiz-adv-x="907" d="M784 564 C784 564 784 564 784 564 C784 564 634 21 634 21 C634 21 448 670 448 670 C448 670 442 670 442 670 C442 670 274 19 274 19 C274 19 116 564 116 564 C116 564 116 564 116 564 C103 609 119 647 151 647 C151 647 161 647 161 647 C161 647 161 660 161 660 C161 660 88 660 88 660 C88 660 76 660 76 660 C76 660 64 660 64 660 C64 660 20 660 20 660 C20 660 20 647 20 647 C20 647 27 647 27 647 C47 647 74 616 89 577 C89 577 265 -15 265 -15 C265 -15 270 -15 270 -15 C270 -15 438 632 438 632 C438 632 624 -15 624 -15 C624 -15 629 -15 629 -15 C629 -15 792 571 792 571 C807 613 838 647 865 647 C865 647 874 647 874 647 C875 647 875 650 874 654 C875 657 875 660 874 660 C874 660 817 660 817 660 C817 660 814 660 814 660 C814 660 811 660 811 660 C811 660 726 660 726 660 C725 660 725 657 726 654 C725 650 725 647 726 647 C726 647 738 647 738 647 C775 647 797 609 784 564 C784 564 784 564 784 564 L784 564 Z " />
<glyph glyph-name="X" unicode="X" horiz-adv-x="620" d="M592 660 C592 660 540 660 540 660 C540 660 536 660 536 660 C536 660 531 660 531 660 C531 660 442 660 442 660 C443 660 443 657 442 654 C443 650 443 647 442 647 C442 647 454 647 454 647 C489 647 496 613 472 570 C472 570 323 345 323 345 C323 345 178 564 178 564 C178 564 178 564 178 564 C148 609 151 647 184 647 C184 647 195 647 195 647 C195 647 195 660 195 660 C195 660 114 660 114 660 C114 660 101 660 101 660 C101 660 89 660 89 660 C89 660 53 660 53 660 C53 660 53 647 53 647 C53 647 60 647 60 647 C79 647 119 613 148 571 C148 571 311 327 311 327 C311 327 166 85 166 85 C139 45 97 13 71 13 C71 13 62 13 62 13 C62 13 62 0 62 0 C62 0 115 0 115 0 C115 0 119 0 119 0 C119 0 123 0 123 0 C123 0 212 0 212 0 C212 0 212 13 212 13 C212 13 200 13 200 13 C163 13 158 58 189 111 C189 111 189 111 189 111 C189 111 314 322 314 322 C314 322 464 96 464 96 C464 96 464 96 464 96 C494 51 491 13 458 13 C458 13 447 13 447 13 C447 13 447 0 447 0 C447 0 528 0 528 0 C528 0 540 0 540 0 C540 0 552 0 552 0 C552 0 588 0 588 0 C588 0 588 13 588 13 C588 13 582 13 582 13 C562 13 524 46 495 87 C495 87 326 340 326 340 C326 340 476 564 476 564 C476 564 476 564 476 564 C506 609 555 647 583 647 C583 647 592 647 592 647 C592 647 592 660 592 660 L592 660 Z " />
<glyph glyph-name="Y" unicode="Y" horiz-adv-x="559" d="M369 13 C369 13 360 13 360 13 C332 13 308 51 308 96 C308 96 308 256 308 256 C308 256 308 256 308 256 C308 256 465 564 465 564 C465 564 465 564 465 564 C488 609 529 647 553 647 C553 647 561 647 561 647 C561 647 561 660 561 660 C561 660 514 660 514 660 C514 660 511 660 511 660 C511 660 508 660 508 660 C508 660 419 660 419 660 C419 660 419 647 419 647 C419 647 431 647 431 647 C469 647 477 600 449 544 C449 544 449 544 449 544 C449 544 303 256 303 256 C303 256 302 256 302 256 C302 256 304 259 304 259 C304 259 149 573 149 573 C132 614 140 647 169 647 C169 647 179 647 179 647 C179 647 179 660 179 660 C179 660 106 660 106 660 C106 660 93 660 93 660 C93 660 80 660 80 660 C80 660 42 660 42 660 C42 660 42 647 42 647 C42 647 48 647 48 647 C68 647 103 612 126 569 C126 569 286 247 286 247 C286 247 286 96 286 96 C286 51 262 13 235 13 C235 13 226 13 226 13 C226 13 226 0 226 0 C226 0 286 0 286 0 C286 0 297 0 297 0 C297 0 308 0 308 0 C308 0 369 0 369 0 C369 0 369 13 369 13 L369 13 Z " />
<glyph glyph-name="Z" unicode="Z" horiz-adv-x="587" d="M524 3 C530 35 539 89 545 121 C545 121 544 122 542 122 C536 125 530 127 530 127 C530 127 522 109 522 109 C499 54 432 7 374 6 C374 6 370 6 370 6 C370 6 90 6 90 6 C90 6 529 660 529 660 C529 660 517 660 517 660 C517 660 504 660 504 660 C504 660 233 660 233 660 C233 660 142 660 142 660 C142 660 137 660 137 660 C136 659 136 658 136 657 C129 630 116 584 109 558 C109 558 119 558 119 558 C119 558 129 572 129 572 C159 617 231 655 284 655 C284 655 501 655 501 655 C501 655 62 0 62 0 C62 0 74 0 74 0 C74 0 86 0 86 0 C86 0 427 0 427 0 C427 0 523 0 523 0 C523 0 524 0 524 0 C524 0 524 3 524 3 L524 3 Z " />
<glyph glyph-name="bracketleft" unicode="&#x5b;" horiz-adv-x="213" d="M99 656 C99 656 204 656 204 656 C204 656 204 660 204 660 C204 660 99 660 99 660 C99 660 83 660 83 660 C83 660 83 -120 83 -120 C83 -120 99 -120 99 -120 C99 -120 204 -120 204 -120 C204 -120 204 -116 204 -116 C204 -116 99 -116 99 -116 C99 -116 99 656 99 656 L99 656 Z " />
<glyph glyph-name="backslash" unicode="&#x5c;" horiz-adv-x="203" d="M197 -145 C197 -145 204 -145 204 -145 C204 -145 -53 710 -53 710 C-53 710 -60 710 -60 710 C-60 710 197 -145 197 -145 L197 -145 Z " />
<glyph glyph-name="bracketright" unicode="&#x5d;" horiz-adv-x="195" d="M110 656 C110 656 110 -116 110 -116 C110 -116 5 -116 5 -116 C5 -116 5 -120 5 -120 C5 -120 110 -120 110 -120 C110 -120 125 -120 125 -120 C125 -120 125 660 125 660 C125 660 110 660 110 660 C110 660 5 660 5 660 C5 660 5 656 5 656 C5 656 110 656 110 656 L110 656 Z " />
<glyph glyph-name="underscore" unicode="&#x5f;" horiz-adv-x="455" d="M5 -50 C5 -50 5 -61 5 -61 C5 -61 450 -61 450 -61 C450 -61 450 -50 450 -50 C450 -50 5 -50 5 -50 L5 -50 Z " />
<glyph glyph-name="a" unicode="a" horiz-adv-x="469" d="M447 34 C429 16 407 0 392 0 C365 0 354 25 354 54 C354 54 354 363 354 363 C354 440 302 505 241 505 C161 505 83 465 72 417 C72 417 92 417 92 417 C102 461 169 499 237 499 C289 499 333 438 333 367 C333 367 333 238 333 238 C333 238 194 226 194 226 C108 218 35 160 35 100 C35 43 86 -5 146 -5 C206 -5 288 34 333 82 C333 82 333 52 333 52 C333 19 347 -10 378 -10 C399 -10 427 9 449 31 C449 31 447 34 447 34 L447 34 Z M333 233 C333 233 333 86 333 86 C291 43 214 8 156 8 C101 8 55 53 55 106 C55 159 119 212 194 219 C194 219 333 233 333 233 L333 233 Z " />
<glyph glyph-name="b" unicode="b" horiz-adv-x="568" d="M118 450 C166 475 244 496 288 496 C407 496 509 377 509 237 C509 110 410 1 294 1 C199 1 118 53 118 113 C118 113 118 450 118 450 L118 450 Z M118 453 C118 453 118 599 118 599 C118 599 118 715 118 715 C118 715 118 720 118 720 C118 720 114 720 114 720 C114 720 37 698 37 698 C37 698 37 691 37 691 C83 681 98 662 98 593 C98 593 98 0 98 0 C98 0 100 0 100 0 C102 11 107 20 113 20 C163 20 226 -5 294 -5 C421 -5 530 110 530 246 C530 386 426 505 303 505 C257 505 172 481 118 453 L118 453 Z " />
<glyph glyph-name="c" unicode="c" horiz-adv-x="454" d="M402 43 C402 43 400 45 400 45 C379 25 307 7 243 7 C150 7 71 117 71 246 C71 383 171 499 289 499 C336 499 381 455 385 403 C386 398 390 393 395 393 C400 393 404 397 404 402 C399 458 347 505 291 505 C161 505 50 382 50 238 C50 107 131 -5 226 -5 C295 -5 375 17 402 43 L402 43 Z " />
<glyph glyph-name="d" unicode="d" horiz-adv-x="571" d="M462 599 C462 599 462 715 462 715 C462 715 462 720 462 720 C462 720 458 720 458 720 C458 720 381 698 381 698 C381 698 381 691 381 691 C427 681 442 662 442 593 C442 593 442 418 442 418 C412 463 328 505 252 505 C137 505 39 378 39 228 C39 102 133 -5 244 -5 C320 -5 409 25 442 61 C442 61 442 5 442 5 C442 5 442 0 442 0 C442 0 446 0 446 0 C446 0 523 22 523 22 C523 22 523 29 523 29 C476 38 462 57 462 127 C462 127 462 599 462 599 L462 599 Z M442 121 C442 121 442 64 442 64 C416 33 330 7 255 7 C150 7 60 112 60 236 C60 378 148 500 251 500 C331 500 418 453 442 408 C442 408 442 121 442 121 L442 121 Z " />
<glyph glyph-name="e" unicode="e" horiz-adv-x="461" d="M409 43 C409 43 407 45 407 45 C386 25 312 7 246 7 C151 7 71 117 71 246 C71 273 74 299 80 324 C80 324 411 324 411 324 C411 422 339 505 254 505 C144 505 50 382 50 238 C50 107 132 -5 229 -5 C300 -5 382 17 409 43 L409 43 Z M81 328 C107 426 175 499 253 499 C328 499 392 426 392 341 C392 335 388 331 383 331 C383 331 392 331 392 331 C392 331 81 328 81 328 L81 328 Z " />
<glyph glyph-name="f" unicode="f" horiz-adv-x="323" d="M203 13 C203 13 194 13 194 13 C167 13 144 48 143 91 C143 91 143 96 143 96 C143 96 143 492 143 492 C143 492 278 492 278 492 C278 492 278 500 278 500 C278 500 143 500 143 500 C143 500 143 533 143 533 C143 632 194 716 254 716 C284 716 311 690 314 660 C314 656 319 652 324 652 C329 652 333 656 333 660 C330 693 297 720 260 720 C189 720 127 636 124 537 C124 537 123 500 123 500 C123 500 31 500 31 500 C31 500 31 492 31 492 C31 492 123 492 123 492 C123 492 123 96 123 96 C123 51 99 13 71 13 C71 13 62 13 62 13 C62 13 62 0 62 0 C62 0 123 0 123 0 C123 0 133 0 133 0 C133 0 143 0 143 0 C143 0 203 0 203 0 C203 0 203 13 203 13 L203 13 Z " />
<glyph glyph-name="g" unicode="g" horiz-adv-x="461" d="M462 500 C462 500 319 494 319 494 C319 494 319 494 319 494 C299 501 277 505 254 505 C158 505 76 435 76 352 C76 279 139 216 220 202 C220 202 199 202 199 202 C122 202 57 165 57 122 C57 77 107 41 171 37 C94 11 32 -49 32 -100 C32 -174 98 -236 175 -236 C319 -236 442 -154 442 -59 C442 5 361 59 265 59 C265 59 192 56 192 56 C126 52 70 86 70 130 C70 167 129 199 199 199 C199 199 254 199 254 199 C350 199 432 269 432 352 C432 409 393 460 337 486 C337 486 462 489 462 489 C462 489 462 500 462 500 L462 500 Z M95 352 C95 432 168 501 254 501 C277 501 299 496 319 487 C319 487 319 486 319 486 C319 486 322 486 322 486 C375 462 413 410 413 352 C413 271 340 203 254 203 C168 203 95 271 95 352 C95 352 95 352 95 352 L95 352 Z M178 37 C183 37 188 37 193 37 C193 37 260 40 260 40 C350 40 427 -10 427 -69 C427 -156 312 -231 178 -231 C106 -231 45 -170 45 -98 C45 -47 105 13 178 37 C178 37 178 37 178 37 L178 37 Z " />
<glyph glyph-name="h" unicode="h" horiz-adv-x="584" d="M544 13 C544 13 535 13 535 13 C508 13 485 48 484 91 C484 91 484 96 484 96 C484 96 484 336 484 336 C484 427 437 505 350 505 C302 505 200 474 126 437 C126 437 126 599 126 599 C126 599 126 715 126 715 C126 715 126 720 126 720 C126 720 122 720 122 720 C122 720 45 698 45 698 C45 698 45 691 45 691 C91 681 106 662 106 593 C106 593 106 96 106 96 C106 51 82 13 54 13 C54 13 45 13 45 13 C45 13 45 0 45 0 C45 0 106 0 106 0 C106 0 116 0 116 0 C116 0 126 0 126 0 C126 0 186 0 186 0 C186 0 186 13 186 13 C186 13 177 13 177 13 C150 13 127 48 126 91 C126 91 126 96 126 96 C126 96 126 435 126 435 C188 466 283 492 335 492 C418 492 463 419 464 333 C464 333 464 96 464 96 C464 51 440 13 412 13 C412 13 403 13 403 13 C403 13 403 0 403 0 C403 0 464 0 464 0 C464 0 474 0 474 0 C474 0 484 0 484 0 C484 0 544 0 544 0 C544 0 544 13 544 13 L544 13 Z " />
<glyph glyph-name="i" unicode="i" horiz-adv-x="231" d="M186 13 C186 13 177 13 177 13 C150 13 127 48 126 91 C126 91 126 96 126 96 C126 96 126 379 126 379 C126 379 126 495 126 495 C126 495 126 500 126 500 C126 500 122 500 122 500 C122 500 45 478 45 478 C45 478 45 471 45 471 C91 461 106 442 106 373 C106 373 106 96 106 96 C106 51 82 13 54 13 C54 13 45 13 45 13 C45 13 45 0 45 0 C45 0 106 0 106 0 C106 0 116 0 116 0 C116 0 126 0 126 0 C126 0 186 0 186 0 C186 0 186 13 186 13 L186 13 Z M115 570 C126 570 135 579 135 590 C135 601 126 610 115 610 C104 610 95 601 95 590 C95 579 104 570 115 570 L115 570 Z " />
<glyph glyph-name="j" unicode="j" horiz-adv-x="231" d="M115 570 C126 570 135 579 135 590 C135 601 126 610 115 610 C104 610 95 601 95 590 C95 579 104 570 115 570 L115 570 Z M106 387 C106 387 105 12 105 12 C105 -117 70 -181 -3 -226 C-3 -226 -1 -229 -1 -229 C85 -176 126 -109 126 18 C126 18 126 379 126 379 C126 379 126 495 126 495 C126 495 126 500 126 500 C126 500 122 500 122 500 C122 500 45 478 45 478 C45 478 45 471 45 471 C88 462 104 445 106 387 L106 387 Z " />
<glyph glyph-name="k" unicode="k" horiz-adv-x="495" d="M522 13 C522 13 513 13 513 13 C485 13 419 51 369 96 C369 96 369 96 369 96 C369 96 160 284 160 284 C160 284 317 407 317 407 C374 451 445 487 472 487 C472 487 481 487 481 487 C481 487 481 500 481 500 C481 500 436 500 436 500 C436 500 432 500 432 500 C432 500 427 500 427 500 C427 500 367 500 367 500 C367 500 367 487 367 487 C367 487 373 487 373 487 C394 487 363 449 305 404 C305 404 305 404 305 404 C305 404 157 287 157 287 C157 287 157 287 157 287 C157 287 142 275 142 275 C142 275 142 599 142 599 C142 599 142 715 142 715 C142 715 142 720 142 720 C142 720 138 720 138 720 C138 720 61 698 61 698 C61 698 61 691 61 691 C107 681 122 662 122 593 C122 593 122 96 122 96 C122 51 98 13 70 13 C70 13 61 13 61 13 C61 13 61 0 61 0 C61 0 122 0 122 0 C122 0 132 0 132 0 C132 0 142 0 142 0 C142 0 202 0 202 0 C202 0 202 13 202 13 C202 13 193 13 193 13 C166 13 143 48 142 91 C142 91 142 96 142 96 C142 96 142 275 142 275 C142 275 144 272 144 272 C144 272 145 273 145 273 C145 273 342 96 342 96 C342 96 342 96 342 96 C393 51 418 13 397 13 C397 13 390 13 390 13 C390 13 390 0 390 0 C390 0 450 0 450 0 C450 0 463 0 463 0 C463 0 475 0 475 0 C475 0 522 0 522 0 C522 0 522 13 522 13 L522 13 Z " />
<glyph glyph-name="l" unicode="l" horiz-adv-x="231" d="M186 13 C186 13 177 13 177 13 C150 13 127 48 126 91 C126 91 126 96 126 96 C126 96 126 599 126 599 C126 599 126 715 126 715 C126 715 126 720 126 720 C126 720 122 720 122 720 C122 720 45 698 45 698 C45 698 45 691 45 691 C91 681 106 662 106 593 C106 593 106 96 106 96 C106 51 82 13 54 13 C54 13 45 13 45 13 C45 13 45 0 45 0 C45 0 106 0 106 0 C106 0 116 0 116 0 C116 0 126 0 126 0 C126 0 186 0 186 0 C186 0 186 13 186 13 L186 13 Z " />
<glyph glyph-name="m" unicode="m" horiz-adv-x="962" d="M922 13 C922 13 913 13 913 13 C886 13 863 48 862 91 C862 91 862 96 862 96 C862 96 862 336 862 336 C862 427 792 505 719 505 C683 505 576 462 478 412 C454 466 406 505 357 505 C300 505 200 474 126 437 C126 437 126 500 126 500 C126 500 122 500 122 500 C122 500 45 478 45 478 C45 478 45 471 45 471 C91 461 106 443 106 373 C106 373 106 96 106 96 C106 51 82 13 54 13 C54 13 45 13 45 13 C45 13 45 0 45 0 C45 0 106 0 106 0 C106 0 116 0 116 0 C116 0 126 0 126 0 C126 0 186 0 186 0 C186 0 186 13 186 13 C186 13 177 13 177 13 C150 13 127 48 126 91 C126 91 126 96 126 96 C126 96 126 379 126 379 C126 379 126 399 126 399 C126 399 126 435 126 435 C189 467 281 493 341 493 C409 493 473 420 474 333 C474 333 474 96 474 96 C474 51 450 13 422 13 C422 13 413 13 413 13 C413 13 413 0 413 0 C413 0 474 0 474 0 C474 0 484 0 484 0 C484 0 494 0 494 0 C494 0 554 0 554 0 C554 0 554 13 554 13 C554 13 545 13 545 13 C518 13 495 48 494 91 C494 91 494 96 494 96 C494 96 494 336 494 336 C494 362 489 386 479 409 C566 454 666 492 704 492 C774 492 841 419 841 333 C841 333 842 88 842 88 C839 47 816 13 790 13 C790 13 781 13 781 13 C781 13 781 0 781 0 C781 0 842 0 842 0 C842 0 852 0 852 0 C852 0 862 0 862 0 C862 0 922 0 922 0 C922 0 922 13 922 13 L922 13 Z " />
<glyph glyph-name="n" unicode="n" horiz-adv-x="584" d="M544 13 C544 13 535 13 535 13 C508 13 485 48 484 91 C484 91 484 96 484 96 C484 96 484 336 484 336 C484 427 437 505 350 505 C302 505 200 474 126 437 C126 437 126 500 126 500 C126 500 122 500 122 500 C122 500 45 478 45 478 C45 478 45 471 45 471 C91 461 106 443 106 373 C106 373 106 96 106 96 C106 51 82 13 54 13 C54 13 45 13 45 13 C45 13 45 0 45 0 C45 0 106 0 106 0 C106 0 116 0 116 0 C116 0 126 0 126 0 C126 0 186 0 186 0 C186 0 186 13 186 13 C186 13 177 13 177 13 C150 13 127 48 126 91 C126 91 126 96 126 96 C126 96 126 379 126 379 C126 379 126 399 126 399 C126 399 126 435 126 435 C188 466 283 492 335 492 C418 492 463 419 464 333 C464 333 464 96 464 96 C464 51 440 13 412 13 C412 13 403 13 403 13 C403 13 403 0 403 0 C403 0 464 0 464 0 C464 0 474 0 474 0 C474 0 484 0 484 0 C484 0 544 0 544 0 C544 0 544 13 544 13 L544 13 Z " />
<glyph glyph-name="o" unicode="o" horiz-adv-x="580" d="M290 -1 C172 -1 72 114 72 250 C72 386 172 501 290 501 C408 501 508 386 508 250 C508 114 408 -1 290 -1 L290 -1 Z M50 250 C50 112 160 -5 290 -5 C420 -5 531 112 531 250 C531 388 420 505 290 505 C160 505 50 388 50 250 L50 250 Z " />
<glyph glyph-name="p" unicode="p" horiz-adv-x="611" d="M186 -217 C186 -217 177 -217 177 -217 C150 -217 127 -182 126 -139 C126 -139 126 -134 126 -134 C126 -134 126 88 126 88 C155 34 228 -5 309 -5 C443 -5 556 113 556 252 C556 389 457 505 340 505 C266 505 169 465 125 418 C125 418 123 500 123 500 C123 500 119 500 119 500 C119 500 45 478 45 478 C45 478 45 471 45 471 C91 461 106 443 106 373 C106 373 106 -134 106 -134 C106 -179 82 -217 54 -217 C54 -217 45 -217 45 -217 C45 -217 45 -230 45 -230 C45 -230 106 -230 106 -230 C106 -230 116 -230 116 -230 C116 -230 126 -230 126 -230 C126 -230 186 -230 186 -230 C186 -230 186 -217 186 -217 L186 -217 Z M125 414 C164 456 254 492 324 492 C439 492 537 374 537 236 C537 109 432 1 309 1 C210 1 126 65 126 140 C126 140 126 379 126 379 C126 379 126 399 126 399 C126 399 126 399 126 399 C126 399 125 414 125 414 L125 414 Z " />
<glyph glyph-name="q" unicode="q" horiz-adv-x="600" d="M555 -217 C555 -217 546 -217 546 -217 C518 -217 495 -179 495 -134 C495 -134 495 500 495 500 C495 500 493 500 493 500 C491 489 484 480 478 480 C428 480 364 505 296 505 C175 505 73 378 73 228 C73 102 166 -5 275 -5 C352 -5 441 25 475 62 C475 62 475 -134 475 -134 C475 -179 451 -217 423 -217 C423 -217 414 -217 414 -217 C414 -217 414 -230 414 -230 C414 -230 475 -230 475 -230 C475 -230 485 -230 485 -230 C485 -230 495 -230 495 -230 C495 -230 555 -230 555 -230 C555 -230 555 -217 555 -217 L555 -217 Z M475 66 C449 34 362 7 286 7 C182 7 94 112 94 236 C94 378 187 499 296 499 C393 499 475 448 475 388 C475 388 475 66 475 66 L475 66 Z " />
<glyph glyph-name="r" unicode="r" horiz-adv-x="389" d="M186 13 C186 13 177 13 177 13 C150 13 127 48 126 91 C126 91 126 96 126 96 C126 96 126 379 126 379 C126 379 126 399 126 399 C126 399 126 399 126 399 C126 399 125 417 125 417 C160 456 225 490 270 490 C299 490 340 460 370 460 C375 460 380 465 380 470 C380 489 347 505 286 505 C238 505 164 466 125 420 C125 420 123 500 123 500 C123 500 119 500 119 500 C119 500 45 478 45 478 C45 478 45 471 45 471 C91 461 106 443 106 373 C106 373 106 96 106 96 C106 51 82 13 54 13 C54 13 45 13 45 13 C45 13 45 0 45 0 C45 0 106 0 106 0 C106 0 116 0 116 0 C116 0 126 0 126 0 C126 0 186 0 186 0 C186 0 186 13 186 13 L186 13 Z " />
<glyph glyph-name="s" unicode="s" horiz-adv-x="423" d="M49 117 C49 117 49 43 49 43 C84 17 169 -5 234 -5 C309 -5 373 56 373 128 C373 170 310 229 236 257 C156 287 88 349 88 392 C88 451 142 501 205 501 C212 501 222 500 233 497 C276 486 321 448 333 412 C335 407 337 398 339 393 C339 393 349 393 349 393 C349 393 349 460 349 460 C304 484 238 505 205 505 C133 505 72 450 72 385 C72 339 141 273 222 243 C295 216 357 160 357 120 C357 55 301 0 235 0 C225 0 213 1 202 2 C202 2 202 2 202 2 C147 8 86 51 67 95 C65 101 61 111 58 117 C58 117 49 117 49 117 L49 117 Z " />
<glyph glyph-name="t" unicode="t" horiz-adv-x="350" d="M320 500 C320 500 132 500 132 500 C132 500 132 640 132 640 C132 640 129 640 129 640 C129 640 116 523 116 523 C111 510 71 497 25 494 C25 494 25 492 25 492 C25 492 112 492 112 492 C112 492 112 110 112 110 C112 29 138 -5 198 -5 C249 -5 298 18 330 45 C330 45 329 46 329 46 C301 23 257 4 208 4 C155 4 132 34 132 106 C132 106 132 492 132 492 C132 492 320 492 320 492 C320 492 320 500 320 500 L320 500 Z " />
<glyph glyph-name="u" unicode="u" horiz-adv-x="549" d="M514 29 C471 38 455 54 454 114 C454 114 454 127 454 127 C454 127 454 500 454 500 C454 500 444 500 444 500 C444 500 434 500 434 500 C434 500 373 500 373 500 C373 500 373 487 373 487 C373 487 382 487 382 487 C410 487 434 449 434 404 C434 404 434 121 434 121 C434 121 434 66 434 66 C409 35 340 8 253 8 C159 8 95 77 95 159 C95 159 96 500 96 500 C96 500 86 500 86 500 C86 500 76 500 76 500 C76 500 15 500 15 500 C15 500 15 487 15 487 C15 487 24 487 24 487 C52 487 76 449 76 404 C76 404 76 156 76 156 C76 69 141 -5 237 -5 C327 -5 402 26 434 63 C434 63 434 5 434 5 C434 5 434 0 434 0 C434 0 438 0 438 0 C438 0 514 22 514 22 C514 22 514 29 514 29 L514 29 Z " />
<glyph glyph-name="v" unicode="v" horiz-adv-x="522" d="M476 500 C476 500 419 500 419 500 C419 500 416 500 416 500 C416 500 413 500 413 500 C413 500 352 500 352 500 C352 500 352 487 352 487 C352 487 361 487 361 487 C387 487 395 449 380 404 C380 404 380 404 380 404 C380 404 238 -10 238 -10 C238 -10 241 -10 241 -10 C241 -10 385 404 385 404 C385 404 386 404 386 404 C402 449 439 487 467 487 C467 487 476 487 476 487 C476 487 476 500 476 500 L476 500 Z M10 487 C10 487 19 487 19 487 C46 487 83 449 98 404 C98 404 98 404 98 404 C98 404 238 -10 238 -10 C238 -10 246 15 246 15 C246 15 118 410 118 410 C106 452 116 487 141 487 C141 487 149 487 149 487 C150 487 150 490 149 494 C150 497 150 500 149 500 C149 500 89 500 89 500 C89 500 77 500 77 500 C77 500 66 500 66 500 C66 500 10 500 10 500 C10 500 10 487 10 487 L10 487 Z " />
<glyph glyph-name="w" unicode="w" horiz-adv-x="742" d="M692 500 C692 500 648 500 648 500 C648 500 642 500 642 500 C642 500 557 500 557 500 C557 500 557 487 557 487 C557 487 570 487 570 487 C606 487 628 460 599 376 C599 376 600 377 600 377 C600 377 467 -10 467 -10 C467 -10 470 -10 470 -10 C470 -10 612 398 612 398 C638 465 661 487 681 487 C681 487 692 487 692 487 C692 487 692 500 692 500 L692 500 Z M394 500 C394 500 318 500 318 500 C318 500 295 500 295 500 C295 500 255 500 255 500 C255 500 255 487 255 487 C255 487 266 487 266 487 C284 487 307 463 332 390 C332 390 332 390 332 390 C332 390 358 313 358 313 C358 313 358 313 358 313 C358 313 248 -10 248 -10 C248 -10 251 -10 251 -10 C251 -10 360 307 360 307 C360 307 467 -10 467 -10 C467 -10 475 15 475 15 C475 15 347 411 347 411 C333 468 352 487 382 487 C382 487 394 487 394 487 C394 487 394 500 394 500 L394 500 Z M169 500 C169 500 99 500 99 500 C99 500 76 500 76 500 C76 500 32 500 32 500 C32 500 32 487 32 487 C32 487 43 487 43 487 C63 487 88 463 113 390 C113 390 113 390 113 390 C113 390 248 -10 248 -10 C248 -10 256 15 256 15 C256 15 128 412 128 412 C113 468 130 487 157 487 C157 487 169 487 169 487 C169 487 169 500 169 500 L169 500 Z " />
<glyph glyph-name="x" unicode="x" horiz-adv-x="554" d="M478 500 C478 500 426 500 426 500 C426 500 423 500 423 500 C423 500 420 500 420 500 C420 500 339 500 339 500 C339 500 339 487 339 487 C339 487 350 487 350 487 C383 487 385 449 355 404 C355 404 355 404 355 404 C355 404 271 279 271 279 C271 279 166 411 166 411 C136 453 133 487 160 487 C160 487 170 487 170 487 C170 487 170 500 170 500 C170 500 97 500 97 500 C97 500 85 500 85 500 C85 500 73 500 73 500 C73 500 34 500 34 500 C34 500 34 487 34 487 C34 487 41 487 41 487 C63 487 112 449 148 404 C148 404 148 404 148 404 C148 404 259 262 259 262 C259 262 258 260 258 260 C258 260 257 260 257 260 C257 260 149 96 149 96 C149 96 149 96 149 96 C119 51 67 13 36 13 C36 13 25 13 25 13 C25 13 25 0 25 0 C25 0 86 0 86 0 C86 0 89 0 89 0 C89 0 93 0 93 0 C93 0 190 0 190 0 C190 0 190 13 190 13 C190 13 176 13 176 13 C138 13 127 47 150 88 C150 88 262 259 262 259 C262 259 390 96 390 96 C390 96 389 96 389 96 C425 51 435 13 412 13 C412 13 404 13 404 13 C404 13 404 0 404 0 C404 0 465 0 465 0 C465 0 477 0 477 0 C477 0 489 0 489 0 C489 0 520 0 520 0 C520 0 520 13 520 13 C520 13 514 13 514 13 C495 13 449 51 414 96 C414 96 414 96 414 96 C414 96 273 275 273 275 C273 275 361 404 361 404 C361 404 361 404 361 404 C391 449 441 487 469 487 C469 487 478 487 478 487 C478 487 478 500 478 500 L478 500 Z " />
<glyph glyph-name="y" unicode="y" horiz-adv-x="532" d="M507 500 C507 500 450 500 450 500 C450 500 447 500 447 500 C447 500 444 500 444 500 C444 500 383 500 383 500 C383 500 383 487 383 487 C383 487 392 487 392 487 C418 487 426 449 411 404 C411 404 411 404 411 404 C411 404 270 -6 270 -6 C270 -6 270 -6 270 -6 C270 -6 277 15 277 15 C277 15 149 410 149 410 C137 452 147 487 172 487 C172 487 180 487 180 487 C181 487 181 490 180 494 C181 497 181 500 180 500 C180 500 120 500 120 500 C120 500 108 500 108 500 C108 500 97 500 97 500 C97 500 41 500 41 500 C41 500 41 487 41 487 C41 487 50 487 50 487 C77 487 114 449 129 404 C129 404 129 404 129 404 C129 404 268 -7 268 -7 C268 -7 245 -70 245 -70 C212 -165 177 -217 144 -217 C127 -217 107 -193 89 -193 C84 -193 79 -197 79 -202 C79 -217 103 -230 132 -230 C173 -230 214 -174 250 -72 C250 -72 272 -10 272 -10 C272 -10 416 404 416 404 C416 404 417 404 417 404 C433 449 470 487 498 487 C498 487 507 487 507 487 C507 487 507 500 507 500 L507 500 Z " />
<glyph glyph-name="z" unicode="z" horiz-adv-x="483" d="M435 126 C435 126 427 108 427 108 C404 52 334 4 275 5 C275 5 275 5 275 5 C275 5 92 4 92 4 C92 4 434 500 434 500 C434 500 422 500 422 500 C422 500 411 500 411 500 C411 500 167 500 167 500 C167 500 76 500 76 500 C76 500 71 500 71 500 C71 499 71 498 70 498 C65 477 56 443 50 423 C50 423 60 423 60 423 C60 423 69 433 69 433 C96 467 165 495 219 495 C219 495 219 495 219 495 C219 495 408 496 408 496 C408 496 65 0 65 0 C65 0 77 0 77 0 C77 0 89 0 89 0 C89 0 333 0 333 0 C333 0 428 0 428 0 C428 0 429 0 429 0 C429 0 429 2 429 2 C435 34 445 88 450 120 C445 122 435 126 435 126 L435 126 Z " />
<glyph glyph-name="braceleft" unicode="&#x7b;" horiz-adv-x="235" d="M221 -120 C221 -120 221 -117 221 -117 C221 -117 185 -117 185 -117 C126 -117 76 -63 76 0 C76 0 76 192 76 192 C76 234 48 270 14 270 C-20 270 76 306 76 349 C76 349 76 540 76 540 C76 603 126 657 185 657 C185 657 221 657 221 657 C221 657 221 660 221 660 C221 660 181 660 181 660 C116 660 60 605 60 540 C60 540 60 338 60 338 C60 302 37 272 10 272 C10 272 5 272 5 272 C5 272 5 268 5 268 C5 268 10 268 10 268 C37 268 60 238 60 203 C60 203 60 0 60 0 C60 -65 116 -120 181 -120 C181 -120 221 -120 221 -120 L221 -120 Z " />
<glyph glyph-name="bar" unicode="&#x7c;" horiz-adv-x="135" d="M60 770 C60 770 60 -234 60 -234 C60 -234 76 -234 76 -234 C76 -234 76 770 76 770 C76 770 60 770 60 770 L60 770 Z " />
<glyph glyph-name="braceright" unicode="&#x7d;" horiz-adv-x="235" d="M5 660 C5 660 5 657 5 657 C5 657 41 657 41 657 C100 657 150 603 150 540 C150 540 150 348 150 348 C150 306 178 270 211 270 C244 270 150 234 150 191 C150 191 150 0 150 0 C150 -63 100 -117 41 -117 C41 -117 5 -117 5 -117 C5 -117 5 -120 5 -120 C5 -120 45 -120 45 -120 C110 -120 166 -65 166 0 C166 0 166 202 166 202 C166 238 189 268 216 268 C216 268 221 268 221 268 C221 268 221 272 221 272 C221 272 216 272 216 272 C189 272 166 302 166 337 C166 337 166 540 166 540 C166 605 110 660 45 660 C45 660 5 660 5 660 L5 660 Z " />
<glyph glyph-name="[namenotfound]" unicode="&#xa0;" horiz-adv-x="220" d="" />
<glyph glyph-name="exclamdown" unicode="&#xa1;" horiz-adv-x="153" d="M79 505 C68 505 59 496 59 485 C59 474 68 465 79 465 C90 465 99 474 99 485 C99 496 90 505 79 505 L79 505 Z M60 -120 C59 -144 68 -165 80 -165 C92 -165 101 -144 100 -120 C100 -120 80 390 80 390 C80 390 77 390 77 390 C77 390 60 -120 60 -120 L60 -120 Z " />
<glyph glyph-name="cent" unicode="&#xa2;" horiz-adv-x="454" d="M269 575 C269 575 269 504 269 504 C149 491 50 374 50 238 C50 107 131 -5 226 -5 C240 -5 255 -4 269 -2 C269 -2 269 -75 269 -75 C269 -75 283 -75 283 -75 C283 -75 283 -1 283 -1 C334 7 382 24 402 43 C402 43 400 45 400 45 C383 29 334 14 283 9 C283 9 283 499 283 499 C285 499 287 499 289 499 C336 499 381 455 385 403 C386 398 390 393 395 393 C400 393 404 397 404 402 C399 458 347 505 291 505 C288 505 286 505 283 505 C283 505 283 575 283 575 C283 575 269 575 269 575 L269 575 Z M269 8 C260 7 252 7 243 7 C150 7 71 117 71 246 C71 375 160 486 269 498 C269 498 269 8 269 8 L269 8 Z " />
<glyph glyph-name="guillemotleft" unicode="&#xab;" horiz-adv-x="455" d="M210 250 C210 250 410 461 410 461 C410 461 408 464 408 464 C408 464 187 251 187 251 C187 251 187 249 187 249 C187 249 409 36 409 36 C409 36 411 39 411 39 C411 39 210 250 210 250 L210 250 Z M42 250 C42 250 243 461 243 461 C243 461 241 464 241 464 C241 464 20 251 20 251 C20 251 20 249 20 249 C20 249 241 36 241 36 C241 36 244 39 244 39 C244 39 42 250 42 250 L42 250 Z " />
<glyph glyph-name="guillemotright" unicode="&#xbb;" horiz-adv-x="455" d="M246 250 C246 250 46 461 46 461 C46 461 48 464 48 464 C48 464 269 251 269 251 C269 251 269 249 269 249 C269 249 47 36 47 36 C47 36 45 39 45 39 C45 39 246 250 246 250 L246 250 Z M413 250 C413 250 213 461 213 461 C213 461 215 464 215 464 C215 464 436 251 436 251 C436 251 436 249 436 249 C436 249 214 36 214 36 C214 36 212 39 212 39 C212 39 413 250 413 250 L413 250 Z " />
<glyph glyph-name="questiondown" unicode="&#xbf;" horiz-adv-x="365" d="M224 505 C213 505 203 496 204 485 C203 474 213 465 224 465 C234 465 243 474 244 485 C243 496 234 505 224 505 L224 505 Z M229 140 C229 140 225 396 225 396 C225 396 222 396 222 396 C222 396 218 152 218 152 C218 152 183 152 183 152 C71 152 35 78 35 42 C35 -70 128 -165 236 -165 C282 -165 320 -133 320 -96 C320 -94 315 -93 308 -93 C277 -93 262 -149 230 -149 C127 -149 40 -62 40 40 C40 71 76 137 190 137 C190 137 225 137 225 137 C227 137 229 138 229 140 L229 140 Z " />
<glyph glyph-name="Agrave" unicode="&#xc0;" horiz-adv-x="573" d="M566 13 C566 13 558 13 558 13 C536 13 506 44 489 84 C489 84 289 675 289 675 C289 675 284 675 284 675 C284 675 94 96 94 96 C94 96 94 96 94 96 C80 51 43 13 16 13 C16 13 6 13 6 13 C6 13 6 0 6 0 C6 0 63 0 63 0 C63 0 67 0 67 0 C67 0 70 0 70 0 C70 0 159 0 159 0 C159 0 159 13 159 13 C159 13 146 13 146 13 C107 13 89 57 106 110 C106 110 145 232 145 232 C145 232 417 232 417 232 C417 232 462 96 462 96 C477 51 459 13 422 13 C422 13 409 13 409 13 C409 13 409 0 409 0 C409 0 494 0 494 0 C494 0 506 0 506 0 C506 0 518 0 518 0 C518 0 566 0 566 0 C566 0 566 13 566 13 L566 13 Z M261 831 C238 862 218 889 216 889 C213 889 204 883 205 881 C204 878 226 852 251 823 C251 823 361 692 361 692 C361 692 363 693 363 693 C363 693 261 831 261 831 L261 831 Z M415 238 C415 238 147 238 147 238 C147 238 279 645 279 645 C279 645 415 238 415 238 L415 238 Z " />
<glyph glyph-name="Aacute" unicode="&#xc1;" horiz-adv-x="573" d="M223 692 C223 692 330 823 330 823 C354 853 375 880 375 881 C375 883 367 889 364 889 C363 889 343 862 320 831 C320 831 221 693 221 693 C221 693 223 692 223 692 L223 692 Z M566 13 C566 13 558 13 558 13 C536 13 506 44 489 84 C489 84 289 675 289 675 C289 675 284 675 284 675 C284 675 94 96 94 96 C94 96 94 96 94 96 C80 51 43 13 16 13 C16 13 6 13 6 13 C6 13 6 0 6 0 C6 0 63 0 63 0 C63 0 67 0 67 0 C67 0 70 0 70 0 C70 0 159 0 159 0 C159 0 159 13 159 13 C159 13 146 13 146 13 C107 13 89 57 106 110 C106 110 145 232 145 232 C145 232 417 232 417 232 C417 232 462 96 462 96 C477 51 459 13 422 13 C422 13 409 13 409 13 C409 13 409 0 409 0 C409 0 494 0 494 0 C494 0 506 0 506 0 C506 0 518 0 518 0 C518 0 566 0 566 0 C566 0 566 13 566 13 L566 13 Z M415 238 C415 238 147 238 147 238 C147 238 279 645 279 645 C279 645 415 238 415 238 L415 238 Z " />
<glyph glyph-name="Acircumflex" unicode="&#xc2;" horiz-adv-x="573" d="M566 13 C566 13 558 13 558 13 C536 13 506 44 489 84 C489 84 289 675 289 675 C289 675 284 675 284 675 C284 675 94 96 94 96 C94 96 94 96 94 96 C80 51 43 13 16 13 C16 13 6 13 6 13 C6 13 6 0 6 0 C6 0 63 0 63 0 C63 0 67 0 67 0 C67 0 70 0 70 0 C70 0 159 0 159 0 C159 0 159 13 159 13 C159 13 146 13 146 13 C107 13 89 57 106 110 C106 110 145 232 145 232 C145 232 417 232 417 232 C417 232 462 96 462 96 C477 51 459 13 422 13 C422 13 409 13 409 13 C409 13 409 0 409 0 C409 0 494 0 494 0 C494 0 506 0 506 0 C506 0 518 0 518 0 C518 0 566 0 566 0 C566 0 566 13 566 13 L566 13 Z M286 882 C286 882 400 694 400 694 C400 694 403 696 403 696 C403 696 293 899 293 899 C292 901 289 905 286 905 C284 905 281 901 280 899 C280 899 170 696 170 696 C170 696 172 694 172 694 C172 694 286 882 286 882 L286 882 Z M415 238 C415 238 147 238 147 238 C147 238 279 645 279 645 C279 645 415 238 415 238 L415 238 Z " />
<glyph glyph-name="Atilde" unicode="&#xc3;" horiz-adv-x="573" d="M143 755 C143 794 165 827 191 827 C247 827 320 764 376 764 C407 764 433 798 433 837 C433 837 429 837 429 837 C429 805 407 777 380 777 C325 777 251 840 196 840 C166 840 140 801 140 755 C140 755 143 755 143 755 L143 755 Z M566 13 C566 13 558 13 558 13 C536 13 506 44 489 84 C489 84 289 675 289 675 C289 675 284 675 284 675 C284 675 94 96 94 96 C94 96 94 96 94 96 C80 51 43 13 16 13 C16 13 6 13 6 13 C6 13 6 0 6 0 C6 0 63 0 63 0 C63 0 67 0 67 0 C67 0 70 0 70 0 C70 0 159 0 159 0 C159 0 159 13 159 13 C159 13 146 13 146 13 C107 13 89 57 106 110 C106 110 145 232 145 232 C145 232 417 232 417 232 C417 232 462 96 462 96 C477 51 459 13 422 13 C422 13 409 13 409 13 C409 13 409 0 409 0 C409 0 494 0 494 0 C494 0 506 0 506 0 C506 0 518 0 518 0 C518 0 566 0 566 0 C566 0 566 13 566 13 L566 13 Z M415 238 C415 238 147 238 147 238 C147 238 279 645 279 645 C279 645 415 238 415 238 L415 238 Z " />
<glyph glyph-name="Adieresis" unicode="&#xc4;" horiz-adv-x="573" d="M370 730 C381 730 390 739 390 750 C390 761 381 770 370 770 C359 770 350 761 350 750 C350 739 359 730 370 730 L370 730 Z M203 730 C214 730 223 739 223 750 C223 761 214 770 203 770 C192 770 183 761 183 750 C183 739 192 730 203 730 L203 730 Z M566 13 C566 13 558 13 558 13 C536 13 506 44 489 84 C489 84 289 675 289 675 C289 675 284 675 284 675 C284 675 94 96 94 96 C94 96 94 96 94 96 C80 51 43 13 16 13 C16 13 6 13 6 13 C6 13 6 0 6 0 C6 0 63 0 63 0 C63 0 67 0 67 0 C67 0 70 0 70 0 C70 0 159 0 159 0 C159 0 159 13 159 13 C159 13 146 13 146 13 C107 13 89 57 106 110 C106 110 145 232 145 232 C145 232 417 232 417 232 C417 232 462 96 462 96 C477 51 459 13 422 13 C422 13 409 13 409 13 C409 13 409 0 409 0 C409 0 494 0 494 0 C494 0 506 0 506 0 C506 0 518 0 518 0 C518 0 566 0 566 0 C566 0 566 13 566 13 L566 13 Z M415 238 C415 238 147 238 147 238 C147 238 279 645 279 645 C279 645 415 238 415 238 L415 238 Z " />
<glyph glyph-name="Aring" unicode="&#xc5;" horiz-adv-x="573" d="M286 699 C244 699 199 744 199 788 C199 835 239 876 286 876 C334 876 374 835 374 788 C374 744 329 699 286 699 L286 699 Z M193 788 C193 743 241 695 286 695 C331 695 379 743 379 788 C379 837 336 880 286 880 C236 880 193 837 193 788 L193 788 Z M566 13 C566 13 558 13 558 13 C536 13 506 44 489 84 C489 84 289 675 289 675 C289 675 284 675 284 675 C284 675 94 96 94 96 C94 96 94 96 94 96 C80 51 43 13 16 13 C16 13 6 13 6 13 C6 13 6 0 6 0 C6 0 63 0 63 0 C63 0 67 0 67 0 C67 0 70 0 70 0 C70 0 159 0 159 0 C159 0 159 13 159 13 C159 13 146 13 146 13 C107 13 89 57 106 110 C106 110 145 232 145 232 C145 232 417 232 417 232 C417 232 462 96 462 96 C477 51 459 13 422 13 C422 13 409 13 409 13 C409 13 409 0 409 0 C409 0 494 0 494 0 C494 0 506 0 506 0 C506 0 518 0 518 0 C518 0 566 0 566 0 C566 0 566 13 566 13 L566 13 Z M415 238 C415 238 147 238 147 238 C147 238 279 645 279 645 C279 645 415 238 415 238 L415 238 Z " />
<glyph glyph-name="Ccedilla" unicode="&#xc7;" horiz-adv-x="726" d="M667 497 C667 497 667 603 667 603 C605 637 486 665 407 665 C225 665 71 511 71 330 C71 149 225 -5 407 -5 C495 -5 615 28 667 67 C667 67 667 172 667 172 C667 172 656 172 656 172 C653 164 648 149 645 140 C622 72 527 8 438 2 C438 2 438 1 438 1 C427 0 417 0 407 0 C238 0 95 152 95 330 C95 508 238 660 407 660 C427 660 450 658 474 655 C474 655 474 654 474 654 C546 644 624 586 645 528 C648 519 653 505 656 497 C656 497 667 497 667 497 L667 497 Z " />
<glyph glyph-name="Egrave" unicode="&#xc8;" horiz-adv-x="518" d="M352 271 C352 271 352 340 352 340 C352 340 352 342 352 342 C352 342 352 345 352 345 C352 345 352 406 352 406 C352 406 342 406 342 406 C342 406 339 397 339 397 C330 369 273 345 214 345 C214 345 122 345 122 345 C122 345 122 655 122 655 C122 655 245 655 245 655 C309 655 378 612 395 562 C395 562 401 545 401 545 C401 545 410 545 410 545 C410 545 410 657 410 657 C410 657 410 660 410 660 C410 660 407 660 407 660 C407 660 314 660 314 660 C314 660 122 660 122 660 C122 660 112 660 112 660 C112 660 101 660 101 660 C101 660 40 660 40 660 C40 660 40 647 40 647 C40 647 49 647 49 647 C77 647 101 609 101 564 C101 564 101 96 101 96 C101 51 77 13 49 13 C49 13 40 13 40 13 C40 13 40 0 40 0 C40 0 101 0 101 0 C101 0 112 0 112 0 C112 0 122 0 122 0 C122 0 322 0 322 0 C322 0 417 0 417 0 C417 0 418 0 418 0 C418 1 418 2 419 3 C424 33 433 84 438 115 C438 115 429 115 429 115 C429 115 421 98 421 98 C395 48 318 6 254 5 C254 5 122 5 122 5 C122 5 122 340 122 340 C122 340 214 340 214 340 C273 340 330 313 339 281 C339 281 342 271 342 271 C342 271 352 271 352 271 L352 271 Z M213 831 C191 862 170 889 168 889 C165 889 157 883 157 881 C157 878 178 852 203 823 C203 823 313 692 313 692 C313 692 315 693 315 693 C315 693 213 831 213 831 L213 831 Z " />
<glyph glyph-name="Eacute" unicode="&#xc9;" horiz-adv-x="518" d="M221 692 C221 692 328 823 328 823 C353 853 373 880 373 881 C373 883 365 889 362 889 C361 889 341 862 318 831 C318 831 219 693 219 693 C219 693 221 692 221 692 L221 692 Z M352 271 C352 271 352 340 352 340 C352 340 352 342 352 342 C352 342 352 345 352 345 C352 345 352 406 352 406 C352 406 342 406 342 406 C342 406 339 397 339 397 C330 369 273 345 214 345 C214 345 122 345 122 345 C122 345 122 655 122 655 C122 655 245 655 245 655 C309 655 378 612 395 562 C395 562 401 545 401 545 C401 545 410 545 410 545 C410 545 410 657 410 657 C410 657 410 660 410 660 C410 660 407 660 407 660 C407 660 314 660 314 660 C314 660 122 660 122 660 C122 660 112 660 112 660 C112 660 101 660 101 660 C101 660 40 660 40 660 C40 660 40 647 40 647 C40 647 49 647 49 647 C77 647 101 609 101 564 C101 564 101 96 101 96 C101 51 77 13 49 13 C49 13 40 13 40 13 C40 13 40 0 40 0 C40 0 101 0 101 0 C101 0 112 0 112 0 C112 0 122 0 122 0 C122 0 322 0 322 0 C322 0 417 0 417 0 C417 0 418 0 418 0 C418 1 418 2 419 3 C424 33 433 84 438 115 C438 115 429 115 429 115 C429 115 421 98 421 98 C395 48 318 6 254 5 C254 5 122 5 122 5 C122 5 122 340 122 340 C122 340 214 340 214 340 C273 340 330 313 339 281 C339 281 342 271 342 271 C342 271 352 271 352 271 L352 271 Z " />
<glyph glyph-name="Ecircumflex" unicode="&#xca;" horiz-adv-x="518" d="M352 271 C352 271 352 340 352 340 C352 340 352 342 352 342 C352 342 352 345 352 345 C352 345 352 406 352 406 C352 406 342 406 342 406 C342 406 339 397 339 397 C330 369 273 345 214 345 C214 345 122 345 122 345 C122 345 122 655 122 655 C122 655 245 655 245 655 C309 655 378 612 395 562 C395 562 401 545 401 545 C401 545 410 545 410 545 C410 545 410 657 410 657 C410 657 410 660 410 660 C410 660 407 660 407 660 C407 660 314 660 314 660 C314 660 122 660 122 660 C122 660 112 660 112 660 C112 660 101 660 101 660 C101 660 40 660 40 660 C40 660 40 647 40 647 C40 647 49 647 49 647 C77 647 101 609 101 564 C101 564 101 96 101 96 C101 51 77 13 49 13 C49 13 40 13 40 13 C40 13 40 0 40 0 C40 0 101 0 101 0 C101 0 112 0 112 0 C112 0 122 0 122 0 C122 0 322 0 322 0 C322 0 417 0 417 0 C417 0 418 0 418 0 C418 1 418 2 419 3 C424 33 433 84 438 115 C438 115 429 115 429 115 C429 115 421 98 421 98 C395 48 318 6 254 5 C254 5 122 5 122 5 C122 5 122 340 122 340 C122 340 214 340 214 340 C273 340 330 313 339 281 C339 281 342 271 342 271 C342 271 352 271 352 271 L352 271 Z M254 883 C254 883 368 694 368 694 C368 694 370 696 370 696 C370 696 260 899 260 899 C260 901 256 905 254 905 C252 905 249 901 248 899 C248 899 138 696 138 696 C138 696 140 694 140 694 C140 694 254 883 254 883 L254 883 Z " />
<glyph glyph-name="Edieresis" unicode="&#xcb;" horiz-adv-x="518" d="M338 730 C349 730 358 739 358 750 C358 761 349 770 338 770 C327 770 318 761 318 750 C318 739 327 730 338 730 L338 730 Z M171 730 C182 730 191 739 191 750 C191 761 182 770 171 770 C160 770 151 761 151 750 C151 739 160 730 171 730 L171 730 Z M352 271 C352 271 352 340 352 340 C352 340 352 342 352 342 C352 342 352 345 352 345 C352 345 352 406 352 406 C352 406 342 406 342 406 C342 406 339 397 339 397 C330 369 273 345 214 345 C214 345 122 345 122 345 C122 345 122 655 122 655 C122 655 245 655 245 655 C309 655 378 612 395 562 C395 562 401 545 401 545 C401 545 410 545 410 545 C410 545 410 657 410 657 C410 657 410 660 410 660 C410 660 407 660 407 660 C407 660 314 660 314 660 C314 660 122 660 122 660 C122 660 112 660 112 660 C112 660 101 660 101 660 C101 660 40 660 40 660 C40 660 40 647 40 647 C40 647 49 647 49 647 C77 647 101 609 101 564 C101 564 101 96 101 96 C101 51 77 13 49 13 C49 13 40 13 40 13 C40 13 40 0 40 0 C40 0 101 0 101 0 C101 0 112 0 112 0 C112 0 122 0 122 0 C122 0 322 0 322 0 C322 0 417 0 417 0 C417 0 418 0 418 0 C418 1 418 2 419 3 C424 33 433 84 438 115 C438 115 429 115 429 115 C429 115 421 98 421 98 C395 48 318 6 254 5 C254 5 122 5 122 5 C122 5 122 340 122 340 C122 340 214 340 214 340 C273 340 330 313 339 281 C339 281 342 271 342 271 C342 271 352 271 352 271 L352 271 Z " />
<glyph glyph-name="Igrave" unicode="&#xcc;" horiz-adv-x="223" d="M183 660 C183 660 123 660 123 660 C123 660 112 660 112 660 C112 660 101 660 101 660 C101 660 40 660 40 660 C40 660 40 647 40 647 C40 647 49 647 49 647 C77 647 101 609 101 564 C101 564 101 96 101 96 C101 51 77 13 49 13 C49 13 40 13 40 13 C40 13 40 0 40 0 C40 0 101 0 101 0 C101 0 112 0 112 0 C112 0 123 0 123 0 C123 0 183 0 183 0 C183 0 183 13 183 13 C183 13 174 13 174 13 C147 13 124 48 123 91 C123 91 123 96 123 96 C123 96 123 564 123 564 C123 564 123 569 123 569 C124 612 147 647 174 647 C174 647 183 647 183 647 C183 647 183 660 183 660 L183 660 Z M87 831 C64 862 43 889 41 889 C38 889 30 883 30 881 C30 878 51 852 76 823 C76 823 186 692 186 692 C186 692 189 693 189 693 C189 693 87 831 87 831 L87 831 Z " />
<glyph glyph-name="Iacute" unicode="&#xcd;" horiz-adv-x="223" d="M48 692 C48 692 155 823 155 823 C180 853 200 880 201 881 C200 883 192 889 189 889 C189 889 168 862 145 831 C145 831 46 693 46 693 C46 693 48 692 48 692 L48 692 Z M183 660 C183 660 123 660 123 660 C123 660 112 660 112 660 C112 660 101 660 101 660 C101 660 40 660 40 660 C40 660 40 647 40 647 C40 647 49 647 49 647 C77 647 101 609 101 564 C101 564 101 96 101 96 C101 51 77 13 49 13 C49 13 40 13 40 13 C40 13 40 0 40 0 C40 0 101 0 101 0 C101 0 112 0 112 0 C112 0 123 0 123 0 C123 0 183 0 183 0 C183 0 183 13 183 13 C183 13 174 13 174 13 C147 13 124 48 123 91 C123 91 123 96 123 96 C123 96 123 564 123 564 C123 564 123 569 123 569 C124 612 147 647 174 647 C174 647 183 647 183 647 C183 647 183 660 183 660 L183 660 Z " />
<glyph glyph-name="Icircumflex" unicode="&#xce;" horiz-adv-x="223" d="M183 660 C183 660 123 660 123 660 C123 660 112 660 112 660 C112 660 101 660 101 660 C101 660 40 660 40 660 C40 660 40 647 40 647 C40 647 49 647 49 647 C77 647 101 609 101 564 C101 564 101 96 101 96 C101 51 77 13 49 13 C49 13 40 13 40 13 C40 13 40 0 40 0 C40 0 101 0 101 0 C101 0 112 0 112 0 C112 0 123 0 123 0 C123 0 183 0 183 0 C183 0 183 13 183 13 C183 13 174 13 174 13 C147 13 124 48 123 91 C123 91 123 96 123 96 C123 96 123 564 123 564 C123 564 123 569 123 569 C124 612 147 647 174 647 C174 647 183 647 183 647 C183 647 183 660 183 660 L183 660 Z M112 882 C112 882 226 694 226 694 C226 694 228 696 228 696 C228 696 118 899 118 899 C117 901 114 905 112 905 C109 905 106 901 105 899 C105 899 -4 696 -4 696 C-4 696 -2 694 -2 694 C-2 694 112 882 112 882 L112 882 Z " />
<glyph glyph-name="Idieresis" unicode="&#xcf;" horiz-adv-x="223" d="M195 730 C206 730 215 739 215 750 C215 761 206 770 195 770 C184 770 175 761 175 750 C175 739 184 730 195 730 L195 730 Z M28 730 C39 730 48 739 48 750 C48 761 39 770 28 770 C17 770 8 761 8 750 C8 739 17 730 28 730 L28 730 Z M183 660 C183 660 123 660 123 660 C123 660 112 660 112 660 C112 660 101 660 101 660 C101 660 40 660 40 660 C40 660 40 647 40 647 C40 647 49 647 49 647 C77 647 101 609 101 564 C101 564 101 96 101 96 C101 51 77 13 49 13 C49 13 40 13 40 13 C40 13 40 0 40 0 C40 0 101 0 101 0 C101 0 112 0 112 0 C112 0 123 0 123 0 C123 0 183 0 183 0 C183 0 183 13 183 13 C183 13 174 13 174 13 C147 13 124 48 123 91 C123 91 123 96 123 96 C123 96 123 564 123 564 C123 564 123 569 123 569 C124 612 147 647 174 647 C174 647 183 647 183 647 C183 647 183 660 183 660 L183 660 Z " />
<glyph glyph-name="Ntilde" unicode="&#xd1;" horiz-adv-x="660" d="M191 755 C191 794 213 827 239 827 C295 827 368 764 424 764 C455 764 481 798 481 837 C481 837 477 837 477 837 C477 805 454 777 428 777 C372 777 299 840 243 840 C213 840 188 801 188 755 C188 755 191 755 191 755 L191 755 Z M623 660 C623 660 562 660 562 660 C562 660 559 660 559 660 C559 660 556 660 556 660 C556 660 495 660 495 660 C495 660 495 647 495 647 C495 647 504 647 504 647 C532 647 556 609 556 564 C556 564 556 31 556 31 C556 31 125 660 125 660 C125 660 112 650 112 650 C112 650 112 651 112 651 C112 651 125 660 125 660 C125 660 112 660 112 660 C112 660 109 660 109 660 C109 660 106 660 106 660 C106 660 45 660 45 660 C45 660 45 647 45 647 C45 647 54 647 54 647 C82 647 106 609 106 564 C106 564 106 96 106 96 C106 51 82 13 54 13 C54 13 45 13 45 13 C45 13 45 0 45 0 C45 0 106 0 106 0 C106 0 109 0 109 0 C109 0 112 0 112 0 C112 0 173 0 173 0 C173 0 173 13 173 13 C173 13 164 13 164 13 C136 13 112 51 112 96 C112 96 112 641 112 641 C112 641 546 9 546 9 C546 9 555 -4 555 -4 C555 -4 562 -4 562 -4 C562 -4 562 17 562 17 C562 17 562 564 562 564 C562 609 586 647 614 647 C614 647 623 647 623 647 C623 647 623 660 623 660 L623 660 Z " />
<glyph glyph-name="Ograve" unicode="&#xd2;" horiz-adv-x="759" d="M390 0 C215 0 95 170 95 330 C95 490 215 660 390 660 C565 660 685 490 685 330 C685 170 565 0 390 0 L390 0 Z M71 330 C71 167 200 -5 390 -5 C580 -5 709 167 709 330 C709 493 580 665 390 665 C200 665 71 493 71 330 L71 330 Z M365 831 C342 862 321 889 320 889 C317 889 308 883 308 881 C308 878 330 852 355 823 C355 823 465 692 465 692 C465 692 467 693 467 693 C467 693 365 831 365 831 L365 831 Z " />
<glyph glyph-name="Oacute" unicode="&#xd3;" horiz-adv-x="759" d="M365 692 C365 692 472 823 472 823 C496 853 517 880 517 881 C517 883 509 889 505 889 C505 889 485 862 462 831 C462 831 363 693 363 693 C363 693 365 692 365 692 L365 692 Z M390 0 C215 0 95 170 95 330 C95 490 215 660 390 660 C565 660 685 490 685 330 C685 170 565 0 390 0 L390 0 Z M71 330 C71 167 200 -5 390 -5 C580 -5 709 167 709 330 C709 493 580 665 390 665 C200 665 71 493 71 330 L71 330 Z " />
<glyph glyph-name="Ocircumflex" unicode="&#xd4;" horiz-adv-x="759" d="M390 0 C215 0 95 170 95 330 C95 490 215 660 390 660 C565 660 685 490 685 330 C685 170 565 0 390 0 L390 0 Z M71 330 C71 167 200 -5 390 -5 C580 -5 709 167 709 330 C709 493 580 665 390 665 C200 665 71 493 71 330 L71 330 Z M390 883 C390 883 504 694 504 694 C504 694 506 696 506 696 C506 696 396 899 396 899 C395 901 392 905 390 905 C388 905 385 901 384 899 C384 899 274 696 274 696 C274 696 276 694 276 694 C276 694 390 883 390 883 L390 883 Z " />
<glyph glyph-name="Otilde" unicode="&#xd5;" horiz-adv-x="759" d="M247 755 C247 794 269 827 295 827 C351 827 424 764 480 764 C511 764 537 798 537 837 C537 837 533 837 533 837 C533 805 510 777 484 777 C428 777 355 840 299 840 C269 840 244 801 244 755 C244 755 247 755 247 755 L247 755 Z M390 0 C215 0 95 170 95 330 C95 490 215 660 390 660 C565 660 685 490 685 330 C685 170 565 0 390 0 L390 0 Z M71 330 C71 167 200 -5 390 -5 C580 -5 709 167 709 330 C709 493 580 665 390 665 C200 665 71 493 71 330 L71 330 Z " />
<glyph glyph-name="Odieresis" unicode="&#xd6;" horiz-adv-x="759" d="M474 730 C485 730 494 739 494 750 C494 761 485 770 474 770 C463 770 454 761 454 750 C454 739 463 730 474 730 L474 730 Z M307 730 C318 730 327 739 327 750 C327 761 318 770 307 770 C296 770 287 761 287 750 C287 739 296 730 307 730 L307 730 Z M390 0 C215 0 95 170 95 330 C95 490 215 660 390 660 C565 660 685 490 685 330 C685 170 565 0 390 0 L390 0 Z M71 330 C71 167 200 -5 390 -5 C580 -5 709 167 709 330 C709 493 580 665 390 665 C200 665 71 493 71 330 L71 330 Z " />
<glyph glyph-name="Oslash" unicode="&#xd8;" horiz-adv-x="759" d="M75 -8 C75 -8 169 91 169 91 C224 33 300 -5 390 -5 C580 -5 709 167 709 330 C709 413 676 498 618 562 C618 562 713 662 713 662 C713 662 705 668 705 668 C705 668 611 569 611 569 C556 627 480 665 390 665 C200 665 71 493 71 330 C71 247 105 161 163 98 C163 98 68 -2 68 -2 C68 -2 75 -8 75 -8 L75 -8 Z M390 0 C304 0 231 41 180 102 C180 102 607 550 607 550 C656 489 685 408 685 330 C685 170 565 0 390 0 C390 0 390 0 390 0 L390 0 Z M174 109 C124 171 95 252 95 330 C95 490 215 660 390 660 C476 660 549 619 601 558 C601 558 174 109 174 109 L174 109 Z " />
<glyph glyph-name="Ugrave" unicode="&#xd9;" horiz-adv-x="662" d="M643 660 C643 660 574 660 574 660 C574 660 571 660 571 660 C571 660 567 660 567 660 C567 660 494 660 494 660 C494 660 494 647 494 647 C494 647 505 647 505 647 C539 647 567 604 567 554 C567 554 567 176 567 176 C567 82 491 3 350 3 C209 3 132 93 132 199 C132 199 132 564 132 564 C132 609 155 647 183 647 C183 647 192 647 192 647 C193 647 193 650 192 654 C193 657 193 660 192 660 C192 660 132 660 132 660 C132 660 121 660 121 660 C121 660 110 660 110 660 C110 660 50 660 50 660 C50 660 50 647 50 647 C50 647 59 647 59 647 C86 647 110 609 110 564 C110 564 110 203 110 203 C110 91 193 -5 347 -5 C494 -5 574 77 574 173 C574 173 574 554 574 554 C574 604 601 647 632 647 C632 647 643 647 643 647 C643 647 643 660 643 660 L643 660 Z M317 831 C294 862 273 889 272 889 C269 889 260 883 260 881 C260 878 282 852 307 823 C307 823 417 692 417 692 C417 692 419 693 419 693 C419 693 317 831 317 831 L317 831 Z " />
<glyph glyph-name="Uacute" unicode="&#xda;" horiz-adv-x="662" d="M340 692 C340 692 447 823 447 823 C471 853 492 880 492 881 C492 883 483 889 480 889 C479 889 459 862 436 831 C436 831 337 693 337 693 C337 693 340 692 340 692 L340 692 Z M643 660 C643 660 574 660 574 660 C574 660 571 660 571 660 C571 660 567 660 567 660 C567 660 494 660 494 660 C494 660 494 647 494 647 C494 647 505 647 505 647 C539 647 567 604 567 554 C567 554 567 176 567 176 C567 82 491 3 350 3 C209 3 132 93 132 199 C132 199 132 564 132 564 C132 609 155 647 183 647 C183 647 192 647 192 647 C193 647 193 650 192 654 C193 657 193 660 192 660 C192 660 132 660 132 660 C132 660 121 660 121 660 C121 660 110 660 110 660 C110 660 50 660 50 660 C50 660 50 647 50 647 C50 647 59 647 59 647 C86 647 110 609 110 564 C110 564 110 203 110 203 C110 91 193 -5 347 -5 C494 -5 574 77 574 173 C574 173 574 554 574 554 C574 604 601 647 632 647 C632 647 643 647 643 647 C643 647 643 660 643 660 L643 660 Z " />
<glyph glyph-name="Ucircumflex" unicode="&#xdb;" horiz-adv-x="662" d="M643 660 C643 660 574 660 574 660 C574 660 571 660 571 660 C571 660 567 660 567 660 C567 660 494 660 494 660 C494 660 494 647 494 647 C494 647 505 647 505 647 C539 647 567 604 567 554 C567 554 567 176 567 176 C567 82 491 3 350 3 C209 3 132 93 132 199 C132 199 132 564 132 564 C132 609 155 647 183 647 C183 647 192 647 192 647 C193 647 193 650 192 654 C193 657 193 660 192 660 C192 660 132 660 132 660 C132 660 121 660 121 660 C121 660 110 660 110 660 C110 660 50 660 50 660 C50 660 50 647 50 647 C50 647 59 647 59 647 C86 647 110 609 110 564 C110 564 110 203 110 203 C110 91 193 -5 347 -5 C494 -5 574 77 574 173 C574 173 574 554 574 554 C574 604 601 647 632 647 C632 647 643 647 643 647 C643 647 643 660 643 660 L643 660 Z M342 883 C342 883 456 694 456 694 C456 694 458 696 458 696 C458 696 348 899 348 899 C348 901 344 905 342 905 C340 905 337 901 336 899 C336 899 226 696 226 696 C226 696 228 694 228 694 C228 694 342 883 342 883 L342 883 Z " />
<glyph glyph-name="Udieresis" unicode="&#xdc;" horiz-adv-x="662" d="M426 730 C437 730 446 739 446 750 C446 761 437 770 426 770 C415 770 406 761 406 750 C406 739 415 730 426 730 L426 730 Z M259 730 C270 730 279 739 279 750 C279 761 270 770 259 770 C248 770 239 761 239 750 C239 739 248 730 259 730 L259 730 Z M643 660 C643 660 574 660 574 660 C574 660 571 660 571 660 C571 660 567 660 567 660 C567 660 494 660 494 660 C494 660 494 647 494 647 C494 647 505 647 505 647 C539 647 567 604 567 554 C567 554 567 176 567 176 C567 82 491 3 350 3 C209 3 132 93 132 199 C132 199 132 564 132 564 C132 609 155 647 183 647 C183 647 192 647 192 647 C193 647 193 650 192 654 C193 657 193 660 192 660 C192 660 132 660 132 660 C132 660 121 660 121 660 C121 660 110 660 110 660 C110 660 50 660 50 660 C50 660 50 647 50 647 C50 647 59 647 59 647 C86 647 110 609 110 564 C110 564 110 203 110 203 C110 91 193 -5 347 -5 C494 -5 574 77 574 173 C574 173 574 554 574 554 C574 604 601 647 632 647 C632 647 643 647 643 647 C643 647 643 660 643 660 L643 660 Z " />
<glyph glyph-name="Yacute" unicode="&#xdd;" horiz-adv-x="549" d="M285 692 C285 692 392 823 392 823 C416 853 437 880 437 881 C437 883 428 889 425 889 C424 889 404 862 382 831 C382 831 283 693 283 693 C283 693 285 692 285 692 L285 692 Z M359 13 C359 13 350 13 350 13 C322 13 298 51 298 96 C298 96 298 256 298 256 C298 256 298 256 298 256 C298 256 455 564 455 564 C455 564 455 564 455 564 C478 609 519 647 543 647 C543 647 551 647 551 647 C551 647 551 660 551 660 C551 660 504 660 504 660 C504 660 501 660 501 660 C501 660 498 660 498 660 C498 660 409 660 409 660 C409 660 409 647 409 647 C409 647 421 647 421 647 C459 647 467 600 439 544 C439 544 439 544 439 544 C439 544 293 256 293 256 C293 256 292 256 292 256 C292 256 294 259 294 259 C294 259 139 573 139 573 C122 614 130 647 159 647 C159 647 169 647 169 647 C169 647 169 660 169 660 C169 660 96 660 96 660 C96 660 83 660 83 660 C83 660 70 660 70 660 C70 660 32 660 32 660 C32 660 32 647 32 647 C32 647 38 647 38 647 C58 647 93 612 116 569 C116 569 276 247 276 247 C276 247 276 96 276 96 C276 51 252 13 225 13 C225 13 216 13 216 13 C216 13 216 0 216 0 C216 0 276 0 276 0 C276 0 287 0 287 0 C287 0 298 0 298 0 C298 0 359 0 359 0 C359 0 359 13 359 13 L359 13 Z " />
<glyph glyph-name="agrave" unicode="&#xe0;" horiz-adv-x="565" d="M223 671 C200 702 179 729 178 729 C175 729 166 723 166 721 C166 718 188 692 213 663 C213 663 323 532 323 532 C323 532 325 533 325 533 C325 533 223 671 223 671 L223 671 Z M455 4 C455 4 517 22 517 22 C517 22 517 29 517 29 C470 38 456 57 456 127 C456 127 456 500 456 500 C456 500 450 500 450 500 C450 500 437 413 437 413 C413 458 331 505 256 505 C147 505 55 378 55 228 C55 102 144 -5 248 -5 C319 -5 403 53 436 122 C436 122 436 121 436 121 C436 121 436 0 436 0 C436 0 436 -5 436 -5 C436 -5 439 -5 439 -5 C439 -5 455 4 455 4 L455 4 Z M436 128 C408 63 327 7 259 7 C160 7 76 112 76 236 C76 378 158 500 255 500 C332 500 418 450 436 403 C436 403 436 128 436 128 L436 128 Z " />
<glyph glyph-name="aacute" unicode="&#xe1;" horiz-adv-x="469" d="M180 532 C180 532 287 663 287 663 C311 693 332 720 332 721 C332 723 324 729 321 729 C320 729 300 702 277 671 C277 671 178 533 178 533 C178 533 180 532 180 532 L180 532 Z M447 34 C429 16 407 0 392 0 C365 0 354 25 354 54 C354 54 354 363 354 363 C354 440 302 505 241 505 C161 505 83 465 72 417 C72 417 92 417 92 417 C102 461 169 499 237 499 C289 499 333 438 333 367 C333 367 333 238 333 238 C333 238 194 226 194 226 C108 218 35 160 35 100 C35 43 86 -5 146 -5 C206 -5 288 34 333 82 C333 82 333 52 333 52 C333 19 347 -10 378 -10 C399 -10 427 9 449 31 C449 31 447 34 447 34 L447 34 Z M333 233 C333 233 333 86 333 86 C291 43 214 8 156 8 C101 8 55 53 55 106 C55 159 119 212 194 219 C194 219 333 233 333 233 L333 233 Z " />
<glyph glyph-name="acircumflex" unicode="&#xe2;" horiz-adv-x="565" d="M248 723 C248 723 362 534 362 534 C362 534 364 536 364 536 C364 536 254 739 254 739 C253 741 250 745 248 745 C246 745 243 741 242 739 C242 739 132 536 132 536 C132 536 134 534 134 534 C134 534 248 723 248 723 L248 723 Z M455 4 C455 4 517 22 517 22 C517 22 517 29 517 29 C470 38 456 57 456 127 C456 127 456 500 456 500 C456 500 450 500 450 500 C450 500 437 413 437 413 C413 458 331 505 256 505 C147 505 55 378 55 228 C55 102 144 -5 248 -5 C319 -5 403 53 436 122 C436 122 436 121 436 121 C436 121 436 0 436 0 C436 0 436 -5 436 -5 C436 -5 439 -5 439 -5 C439 -5 455 4 455 4 L455 4 Z M436 128 C408 63 327 7 259 7 C160 7 76 112 76 236 C76 378 158 500 255 500 C332 500 418 450 436 403 C436 403 436 128 436 128 L436 128 Z " />
<glyph glyph-name="atilde" unicode="&#xe3;" horiz-adv-x="565" d="M105 595 C105 634 127 667 153 667 C209 667 282 604 338 604 C368 604 394 638 394 677 C394 677 391 677 391 677 C391 645 368 617 342 617 C286 617 213 680 157 680 C127 680 101 641 101 595 C101 595 105 595 105 595 L105 595 Z M455 4 C455 4 517 22 517 22 C517 22 517 29 517 29 C470 38 456 57 456 127 C456 127 456 500 456 500 C456 500 450 500 450 500 C450 500 437 413 437 413 C413 458 331 505 256 505 C147 505 55 378 55 228 C55 102 144 -5 248 -5 C319 -5 403 53 436 122 C436 122 436 121 436 121 C436 121 436 0 436 0 C436 0 436 -5 436 -5 C436 -5 439 -5 439 -5 C439 -5 455 4 455 4 L455 4 Z M436 128 C408 63 327 7 259 7 C160 7 76 112 76 236 C76 378 158 500 255 500 C332 500 418 450 436 403 C436 403 436 128 436 128 L436 128 Z " />
<glyph glyph-name="adieresis" unicode="&#xe4;" horiz-adv-x="565" d="M332 570 C343 570 352 579 352 590 C352 601 343 610 332 610 C321 610 312 601 312 590 C312 579 321 570 332 570 L332 570 Z M164 570 C175 570 184 579 184 590 C184 601 175 610 164 610 C153 610 144 601 144 590 C144 579 153 570 164 570 L164 570 Z M455 4 C455 4 517 22 517 22 C517 22 517 29 517 29 C470 38 456 57 456 127 C456 127 456 500 456 500 C456 500 450 500 450 500 C450 500 437 413 437 413 C413 458 331 505 256 505 C147 505 55 378 55 228 C55 102 144 -5 248 -5 C319 -5 403 53 436 122 C436 122 436 121 436 121 C436 121 436 0 436 0 C436 0 436 -5 436 -5 C436 -5 439 -5 439 -5 C439 -5 455 4 455 4 L455 4 Z M436 128 C408 63 327 7 259 7 C160 7 76 112 76 236 C76 378 158 500 255 500 C332 500 418 450 436 403 C436 403 436 128 436 128 L436 128 Z " />
<glyph glyph-name="aring" unicode="&#xe5;" horiz-adv-x="565" d="M248 539 C205 539 160 584 160 628 C160 675 200 716 248 716 C296 716 336 675 336 628 C336 584 291 539 248 539 L248 539 Z M155 628 C155 583 203 535 248 535 C293 535 341 583 341 628 C341 677 298 720 248 720 C198 720 155 677 155 628 L155 628 Z M455 4 C455 4 517 22 517 22 C517 22 517 29 517 29 C470 38 456 57 456 127 C456 127 456 500 456 500 C456 500 450 500 450 500 C450 500 437 413 437 413 C413 458 331 505 256 505 C147 505 55 378 55 228 C55 102 144 -5 248 -5 C319 -5 403 53 436 122 C436 122 436 121 436 121 C436 121 436 0 436 0 C436 0 436 -5 436 -5 C436 -5 439 -5 439 -5 C439 -5 455 4 455 4 L455 4 Z M436 128 C408 63 327 7 259 7 C160 7 76 112 76 236 C76 378 158 500 255 500 C332 500 418 450 436 403 C436 403 436 128 436 128 L436 128 Z " />
<glyph glyph-name="ccedilla" unicode="&#xe7;" horiz-adv-x="454" d="M402 43 C402 43 400 45 400 45 C379 25 307 7 243 7 C150 7 71 117 71 246 C71 383 171 499 289 499 C336 499 381 455 385 403 C386 398 390 393 395 393 C400 393 404 397 404 402 C399 458 347 505 291 505 C161 505 50 382 50 238 C50 107 131 -5 226 -5 C295 -5 375 17 402 43 L402 43 Z " />
<glyph glyph-name="egrave" unicode="&#xe8;" horiz-adv-x="461" d="M409 43 C409 43 407 45 407 45 C386 25 312 7 246 7 C151 7 71 117 71 246 C71 273 74 299 80 324 C80 324 411 324 411 324 C411 422 339 505 254 505 C144 505 50 382 50 238 C50 107 132 -5 229 -5 C300 -5 382 17 409 43 L409 43 Z M229 671 C206 702 186 729 184 729 C181 729 172 723 173 721 C172 718 194 692 219 663 C219 663 329 532 329 532 C329 532 331 533 331 533 C331 533 229 671 229 671 L229 671 Z M81 328 C107 426 175 499 253 499 C328 499 392 426 392 341 C392 335 388 331 383 331 C383 331 392 331 392 331 C392 331 81 328 81 328 L81 328 Z " />
<glyph glyph-name="eacute" unicode="&#xe9;" horiz-adv-x="461" d="M221 532 C221 532 328 663 328 663 C353 693 374 720 373 721 C373 723 365 729 362 729 C361 729 341 702 318 671 C318 671 219 533 219 533 C219 533 221 532 221 532 L221 532 Z M409 43 C409 43 407 45 407 45 C386 25 312 7 246 7 C151 7 71 117 71 246 C71 273 74 299 80 324 C80 324 411 324 411 324 C411 422 339 505 254 505 C144 505 50 382 50 238 C50 107 132 -5 229 -5 C300 -5 382 17 409 43 L409 43 Z M81 328 C107 426 175 499 253 499 C328 499 392 426 392 341 C392 335 388 331 383 331 C383 331 392 331 392 331 C392 331 81 328 81 328 L81 328 Z " />
<glyph glyph-name="ecircumflex" unicode="&#xea;" horiz-adv-x="461" d="M409 43 C409 43 407 45 407 45 C386 25 312 7 246 7 C151 7 71 117 71 246 C71 273 74 299 80 324 C80 324 411 324 411 324 C411 422 339 505 254 505 C144 505 50 382 50 238 C50 107 132 -5 229 -5 C300 -5 382 17 409 43 L409 43 Z M254 722 C254 722 368 534 368 534 C368 534 370 536 370 536 C370 536 261 739 261 739 C260 741 257 745 254 745 C252 745 249 741 248 739 C248 739 138 536 138 536 C138 536 140 534 140 534 C140 534 254 722 254 722 L254 722 Z M81 328 C107 426 175 499 253 499 C328 499 392 426 392 341 C392 335 388 331 383 331 C383 331 392 331 392 331 C392 331 81 328 81 328 L81 328 Z " />
<glyph glyph-name="edieresis" unicode="&#xeb;" horiz-adv-x="461" d="M338 570 C349 570 358 579 358 590 C358 601 349 610 338 610 C327 610 318 601 318 590 C318 579 327 570 338 570 L338 570 Z M171 570 C182 570 191 579 191 590 C191 601 182 610 171 610 C160 610 151 601 151 590 C151 579 160 570 171 570 L171 570 Z M409 43 C409 43 407 45 407 45 C386 25 312 7 246 7 C151 7 71 117 71 246 C71 273 74 299 80 324 C80 324 411 324 411 324 C411 422 339 505 254 505 C144 505 50 382 50 238 C50 107 132 -5 229 -5 C300 -5 382 17 409 43 L409 43 Z M81 328 C107 426 175 499 253 499 C328 499 392 426 392 341 C392 335 388 331 383 331 C383 331 392 331 392 331 C392 331 81 328 81 328 L81 328 Z " />
<glyph glyph-name="igrave" unicode="&#xec;" horiz-adv-x="231" d="M126 0 C126 0 186 0 186 0 C186 0 186 13 186 13 C186 13 174 13 174 13 C148 13 126 10 126 0 C126 0 126 404 126 404 C126 404 126 505 126 505 C126 505 125 505 125 505 C125 505 55 484 55 484 C55 484 55 475 55 475 C55 475 91 461 91 461 C99 458 106 441 106 398 C106 398 106 404 106 404 C106 404 126 404 126 404 C126 404 126 0 126 0 L126 0 Z M106 398 C106 398 106 0 106 0 C106 10 84 13 57 13 C57 13 45 13 45 13 C45 13 45 0 45 0 C45 0 106 0 106 0 C106 0 106 398 106 398 L106 398 Z M90 671 C68 702 47 729 45 729 C42 729 34 723 34 721 C34 718 55 692 80 663 C80 663 190 532 190 532 C190 532 192 533 192 533 C192 533 90 671 90 671 L90 671 Z " />
<glyph glyph-name="iacute" unicode="&#xed;" horiz-adv-x="231" d="M37 532 C37 532 144 663 144 663 C168 693 189 720 189 721 C189 723 181 729 178 729 C177 729 157 702 134 671 C134 671 35 533 35 533 C35 533 37 532 37 532 L37 532 Z M126 0 C126 0 186 0 186 0 C186 0 186 13 186 13 C186 13 174 13 174 13 C148 13 126 10 126 0 C126 0 126 404 126 404 C126 404 126 505 126 505 C126 505 125 505 125 505 C125 505 55 484 55 484 C55 484 55 475 55 475 C55 475 91 461 91 461 C99 458 106 441 106 398 C106 398 106 404 106 404 C106 404 126 404 126 404 C126 404 126 0 126 0 L126 0 Z M106 398 C106 398 106 0 106 0 C106 10 84 13 57 13 C57 13 45 13 45 13 C45 13 45 0 45 0 C45 0 106 0 106 0 C106 0 106 398 106 398 L106 398 Z " />
<glyph glyph-name="icircumflex" unicode="&#xee;" horiz-adv-x="231" d="M126 0 C126 0 186 0 186 0 C186 0 186 13 186 13 C186 13 174 13 174 13 C148 13 126 10 126 0 C126 0 126 404 126 404 C126 404 126 505 126 505 C126 505 125 505 125 505 C125 505 55 484 55 484 C55 484 55 475 55 475 C55 475 91 461 91 461 C99 458 106 441 106 398 C106 398 106 404 106 404 C106 404 126 404 126 404 C126 404 126 0 126 0 L126 0 Z M106 398 C106 398 106 0 106 0 C106 10 84 13 57 13 C57 13 45 13 45 13 C45 13 45 0 45 0 C45 0 106 0 106 0 C106 0 106 398 106 398 L106 398 Z M116 736 C116 736 109 739 109 739 C109 739 -1 536 -1 536 C-1 536 1 534 1 534 C1 534 116 722 116 722 C116 722 230 534 230 534 C230 534 232 536 232 536 C232 536 122 739 122 739 C122 739 116 736 116 736 L116 736 Z M109 733 C109 733 116 722 116 722 C116 722 109 733 109 733 L109 733 Z M122 739 C121 741 118 745 116 745 C113 745 110 741 109 739 C109 739 122 739 122 739 L122 739 Z " />
<glyph glyph-name="idieresis" unicode="&#xef;" horiz-adv-x="231" d="M199 570 C210 570 219 579 219 590 C219 601 210 610 199 610 C188 610 179 601 179 590 C179 579 188 570 199 570 L199 570 Z M32 570 C43 570 52 579 52 590 C52 601 43 610 32 610 C21 610 12 601 12 590 C12 579 21 570 32 570 L32 570 Z M126 0 C126 0 186 0 186 0 C186 0 186 13 186 13 C186 13 174 13 174 13 C148 13 126 10 126 0 C126 0 126 404 126 404 C126 404 126 505 126 505 C126 505 125 505 125 505 C125 505 55 484 55 484 C55 484 55 475 55 475 C55 475 91 461 91 461 C99 458 106 441 106 398 C106 398 106 404 106 404 C106 404 126 404 126 404 C126 404 126 0 126 0 L126 0 Z M106 398 C106 398 106 0 106 0 C106 10 84 13 57 13 C57 13 45 13 45 13 C45 13 45 0 45 0 C45 0 106 0 106 0 C106 0 106 398 106 398 L106 398 Z " />
<glyph glyph-name="ntilde" unicode="&#xf1;" horiz-adv-x="584" d="M151 595 C151 634 173 667 199 667 C255 667 328 604 384 604 C415 604 441 638 441 677 C441 677 438 677 438 677 C438 645 415 617 389 617 C333 617 260 680 204 680 C174 680 148 641 148 595 C148 595 151 595 151 595 L151 595 Z M544 13 C544 13 535 13 535 13 C508 13 485 48 484 91 C484 91 484 96 484 96 C484 96 484 336 484 336 C484 427 437 505 350 505 C302 505 200 474 126 437 C126 437 126 500 126 500 C126 500 122 500 122 500 C122 500 45 478 45 478 C45 478 45 471 45 471 C91 461 106 443 106 373 C106 373 106 96 106 96 C106 51 82 13 54 13 C54 13 45 13 45 13 C45 13 45 0 45 0 C45 0 106 0 106 0 C106 0 116 0 116 0 C116 0 126 0 126 0 C126 0 186 0 186 0 C186 0 186 13 186 13 C186 13 177 13 177 13 C150 13 127 48 126 91 C126 91 126 96 126 96 C126 96 126 379 126 379 C126 379 126 399 126 399 C126 399 126 435 126 435 C188 466 283 492 335 492 C418 492 463 419 464 333 C464 333 464 96 464 96 C464 51 440 13 412 13 C412 13 403 13 403 13 C403 13 403 0 403 0 C403 0 464 0 464 0 C464 0 474 0 474 0 C474 0 484 0 484 0 C484 0 544 0 544 0 C544 0 544 13 544 13 L544 13 Z " />
<glyph glyph-name="ograve" unicode="&#xf2;" horiz-adv-x="580" d="M290 -1 C172 -1 72 114 72 250 C72 386 172 501 290 501 C408 501 508 386 508 250 C508 114 408 -1 290 -1 L290 -1 Z M50 250 C50 112 160 -5 290 -5 C420 -5 531 112 531 250 C531 388 420 505 290 505 C160 505 50 388 50 250 L50 250 Z M265 671 C242 702 222 729 220 729 C217 729 208 723 209 721 C208 718 230 692 255 663 C255 663 365 532 365 532 C365 532 367 533 367 533 C367 533 265 671 265 671 L265 671 Z " />
<glyph glyph-name="oacute" unicode="&#xf3;" horiz-adv-x="580" d="M257 532 C257 532 364 663 364 663 C389 693 410 720 409 721 C409 723 401 729 398 729 C397 729 377 702 354 671 C354 671 255 533 255 533 C255 533 257 532 257 532 L257 532 Z M290 -1 C172 -1 72 114 72 250 C72 386 172 501 290 501 C408 501 508 386 508 250 C508 114 408 -1 290 -1 L290 -1 Z M50 250 C50 112 160 -5 290 -5 C420 -5 531 112 531 250 C531 388 420 505 290 505 C160 505 50 388 50 250 L50 250 Z " />
<glyph glyph-name="ocircumflex" unicode="&#xf4;" horiz-adv-x="580" d="M290 -1 C172 -1 72 114 72 250 C72 386 172 501 290 501 C408 501 508 386 508 250 C508 114 408 -1 290 -1 L290 -1 Z M50 250 C50 112 160 -5 290 -5 C420 -5 531 112 531 250 C531 388 420 505 290 505 C160 505 50 388 50 250 L50 250 Z M290 722 C290 722 404 534 404 534 C404 534 407 536 407 536 C407 536 297 739 297 739 C296 741 293 745 290 745 C288 745 285 741 284 739 C284 739 174 536 174 536 C174 536 176 534 176 534 C176 534 290 722 290 722 L290 722 Z " />
<glyph glyph-name="otilde" unicode="&#xf5;" horiz-adv-x="580" d="M147 595 C147 634 169 667 195 667 C251 667 324 604 380 604 C411 604 437 638 437 677 C437 677 433 677 433 677 C433 645 411 617 384 617 C328 617 255 680 200 680 C170 680 144 641 144 595 C144 595 147 595 147 595 L147 595 Z M290 -1 C172 -1 72 114 72 250 C72 386 172 501 290 501 C408 501 508 386 508 250 C508 114 408 -1 290 -1 L290 -1 Z M50 250 C50 112 160 -5 290 -5 C420 -5 531 112 531 250 C531 388 420 505 290 505 C160 505 50 388 50 250 L50 250 Z " />
<glyph glyph-name="odieresis" unicode="&#xf6;" horiz-adv-x="580" d="M374 570 C385 570 394 579 394 590 C394 601 385 610 374 610 C363 610 354 601 354 590 C354 579 363 570 374 570 L374 570 Z M207 570 C218 570 227 579 227 590 C227 601 218 610 207 610 C196 610 187 601 187 590 C187 579 196 570 207 570 L207 570 Z M290 -1 C172 -1 72 114 72 250 C72 386 172 501 290 501 C408 501 508 386 508 250 C508 114 408 -1 290 -1 L290 -1 Z M50 250 C50 112 160 -5 290 -5 C420 -5 531 112 531 250 C531 388 420 505 290 505 C160 505 50 388 50 250 L50 250 Z " />
<glyph glyph-name="oslash" unicode="&#xf8;" horiz-adv-x="580" d="M52 -7 C52 -7 123 69 123 69 C167 23 226 -5 290 -5 C420 -5 531 112 531 250 C531 318 504 381 461 427 C461 427 533 503 533 503 C533 503 528 507 528 507 C528 507 457 432 457 432 C413 477 354 505 290 505 C160 505 50 388 50 250 C50 182 77 119 119 73 C119 73 48 -3 48 -3 C48 -3 52 -7 52 -7 L52 -7 Z M290 -1 C229 -1 173 30 133 78 C133 78 451 417 451 417 C486 372 508 313 508 250 C508 114 408 -1 290 -1 C290 -1 290 -1 290 -1 L290 -1 Z M129 83 C94 128 72 187 72 250 C72 386 172 501 290 501 C351 501 407 470 448 421 C448 421 129 83 129 83 L129 83 Z " />
<glyph glyph-name="ugrave" unicode="&#xf9;" horiz-adv-x="549" d="M514 29 C471 38 455 54 454 114 C454 114 454 127 454 127 C454 127 454 500 454 500 C454 500 444 500 444 500 C444 500 434 500 434 500 C434 500 373 500 373 500 C373 500 373 487 373 487 C373 487 382 487 382 487 C410 487 434 449 434 404 C434 404 434 121 434 121 C434 121 434 66 434 66 C409 35 340 8 253 8 C159 8 95 77 95 159 C95 159 96 500 96 500 C96 500 86 500 86 500 C86 500 76 500 76 500 C76 500 15 500 15 500 C15 500 15 487 15 487 C15 487 24 487 24 487 C52 487 76 449 76 404 C76 404 76 156 76 156 C76 69 141 -5 237 -5 C327 -5 402 26 434 63 C434 63 434 5 434 5 C434 5 434 0 434 0 C434 0 438 0 438 0 C438 0 514 22 514 22 C514 22 514 29 514 29 L514 29 Z M239 671 C217 702 196 729 194 729 C191 729 183 723 183 721 C183 718 204 692 229 663 C229 663 339 532 339 532 C339 532 341 533 341 533 C341 533 239 671 239 671 L239 671 Z " />
<glyph glyph-name="uacute" unicode="&#xfa;" horiz-adv-x="549" d="M232 532 C232 532 339 663 339 663 C363 693 384 720 384 721 C384 723 375 729 372 729 C372 729 352 702 328 671 C328 671 229 533 229 533 C229 533 232 532 232 532 L232 532 Z M514 29 C471 38 455 54 454 114 C454 114 454 127 454 127 C454 127 454 500 454 500 C454 500 444 500 444 500 C444 500 434 500 434 500 C434 500 373 500 373 500 C373 500 373 487 373 487 C373 487 382 487 382 487 C410 487 434 449 434 404 C434 404 434 121 434 121 C434 121 434 66 434 66 C409 35 340 8 253 8 C159 8 95 77 95 159 C95 159 96 500 96 500 C96 500 86 500 86 500 C86 500 76 500 76 500 C76 500 15 500 15 500 C15 500 15 487 15 487 C15 487 24 487 24 487 C52 487 76 449 76 404 C76 404 76 156 76 156 C76 69 141 -5 237 -5 C327 -5 402 26 434 63 C434 63 434 5 434 5 C434 5 434 0 434 0 C434 0 438 0 438 0 C438 0 514 22 514 22 C514 22 514 29 514 29 L514 29 Z " />
<glyph glyph-name="ucircumflex" unicode="&#xfb;" horiz-adv-x="549" d="M514 29 C471 38 455 54 454 114 C454 114 454 127 454 127 C454 127 454 500 454 500 C454 500 444 500 444 500 C444 500 434 500 434 500 C434 500 373 500 373 500 C373 500 373 487 373 487 C373 487 382 487 382 487 C410 487 434 449 434 404 C434 404 434 121 434 121 C434 121 434 66 434 66 C409 35 340 8 253 8 C159 8 95 77 95 159 C95 159 96 500 96 500 C96 500 86 500 86 500 C86 500 76 500 76 500 C76 500 15 500 15 500 C15 500 15 487 15 487 C15 487 24 487 24 487 C52 487 76 449 76 404 C76 404 76 156 76 156 C76 69 141 -5 237 -5 C327 -5 402 26 434 63 C434 63 434 5 434 5 C434 5 434 0 434 0 C434 0 438 0 438 0 C438 0 514 22 514 22 C514 22 514 29 514 29 L514 29 Z M265 722 C265 722 379 534 379 534 C379 534 381 536 381 536 C381 536 271 739 271 739 C270 741 267 745 265 745 C262 745 259 741 258 739 C258 739 148 536 148 536 C148 536 150 534 150 534 C150 534 265 722 265 722 L265 722 Z " />
<glyph glyph-name="udieresis" unicode="&#xfc;" horiz-adv-x="549" d="M348 570 C359 570 368 579 368 590 C368 601 359 610 348 610 C337 610 328 601 328 590 C328 579 337 570 348 570 L348 570 Z M181 570 C192 570 201 579 201 590 C201 601 192 610 181 610 C170 610 161 601 161 590 C161 579 170 570 181 570 L181 570 Z M514 29 C471 38 455 54 454 114 C454 114 454 127 454 127 C454 127 454 500 454 500 C454 500 444 500 444 500 C444 500 434 500 434 500 C434 500 373 500 373 500 C373 500 373 487 373 487 C373 487 382 487 382 487 C410 487 434 449 434 404 C434 404 434 121 434 121 C434 121 434 66 434 66 C409 35 340 8 253 8 C159 8 95 77 95 159 C95 159 96 500 96 500 C96 500 86 500 86 500 C86 500 76 500 76 500 C76 500 15 500 15 500 C15 500 15 487 15 487 C15 487 24 487 24 487 C52 487 76 449 76 404 C76 404 76 156 76 156 C76 69 141 -5 237 -5 C327 -5 402 26 434 63 C434 63 434 5 434 5 C434 5 434 0 434 0 C434 0 438 0 438 0 C438 0 514 22 514 22 C514 22 514 29 514 29 L514 29 Z " />
<glyph glyph-name="ydieresis" unicode="&#xff;" horiz-adv-x="418" d="M326 570 C337 570 346 579 346 590 C346 601 337 610 326 610 C315 610 306 601 306 590 C306 579 315 570 326 570 L326 570 Z M159 570 C170 570 179 579 179 590 C179 601 170 610 159 610 C148 610 139 601 139 590 C139 579 148 570 159 570 L159 570 Z M476 500 C476 500 419 500 419 500 C419 500 416 500 416 500 C416 500 413 500 413 500 C413 500 352 500 352 500 C352 500 352 487 352 487 C352 487 361 487 361 487 C387 487 395 449 380 404 C380 404 380 404 380 404 C380 404 239 -6 239 -6 C239 -6 239 -6 239 -6 C239 -6 246 15 246 15 C246 15 118 410 118 410 C106 452 116 487 141 487 C141 487 149 487 149 487 C150 487 150 490 149 494 C150 497 150 500 149 500 C149 500 89 500 89 500 C89 500 77 500 77 500 C77 500 66 500 66 500 C66 500 10 500 10 500 C10 500 10 487 10 487 C10 487 19 487 19 487 C46 487 83 449 98 404 C98 404 98 404 98 404 C98 404 237 -7 237 -7 C237 -7 214 -70 214 -70 C181 -165 146 -217 113 -217 C96 -217 76 -193 58 -193 C53 -193 48 -197 48 -202 C48 -217 72 -230 101 -230 C142 -230 183 -174 219 -72 C219 -72 241 -10 241 -10 C241 -10 385 404 385 404 C385 404 386 404 386 404 C402 449 439 487 467 487 C467 487 476 487 476 487 C476 487 476 500 476 500 L476 500 Z " />
<glyph glyph-name="Amacron" unicode="&#x100;" horiz-adv-x="573" d="M136 774 C136 774 436 774 436 774 C436 774 436 785 436 785 C436 785 136 785 136 785 C136 785 136 774 136 774 L136 774 Z M566 13 C566 13 558 13 558 13 C536 13 506 44 489 84 C489 84 289 675 289 675 C289 675 284 675 284 675 C284 675 94 96 94 96 C94 96 94 96 94 96 C80 51 43 13 16 13 C16 13 6 13 6 13 C6 13 6 0 6 0 C6 0 63 0 63 0 C63 0 67 0 67 0 C67 0 70 0 70 0 C70 0 159 0 159 0 C159 0 159 13 159 13 C159 13 146 13 146 13 C107 13 89 57 106 110 C106 110 145 232 145 232 C145 232 417 232 417 232 C417 232 462 96 462 96 C477 51 459 13 422 13 C422 13 409 13 409 13 C409 13 409 0 409 0 C409 0 494 0 494 0 C494 0 506 0 506 0 C506 0 518 0 518 0 C518 0 566 0 566 0 C566 0 566 13 566 13 L566 13 Z M415 238 C415 238 147 238 147 238 C147 238 279 645 279 645 C279 645 415 238 415 238 L415 238 Z " />
<glyph glyph-name="amacron" unicode="&#x101;" horiz-adv-x="565" d="M98 614 C98 614 398 614 398 614 C398 614 398 625 398 625 C398 625 98 625 98 625 C98 625 98 614 98 614 L98 614 Z M455 4 C455 4 517 22 517 22 C517 22 517 29 517 29 C470 38 456 57 456 127 C456 127 456 500 456 500 C456 500 450 500 450 500 C450 500 437 413 437 413 C413 458 331 505 256 505 C147 505 55 378 55 228 C55 102 144 -5 248 -5 C319 -5 403 53 436 122 C436 122 436 121 436 121 C436 121 436 0 436 0 C436 0 436 -5 436 -5 C436 -5 439 -5 439 -5 C439 -5 455 4 455 4 L455 4 Z M436 128 C408 63 327 7 259 7 C160 7 76 112 76 236 C76 378 158 500 255 500 C332 500 418 450 436 403 C436 403 436 128 436 128 L436 128 Z " />
<glyph glyph-name="Abreve" unicode="&#x102;" horiz-adv-x="573" d="M179 872 C182 824 232 783 286 783 C341 783 390 824 394 872 C394 872 390 872 390 872 C387 831 340 796 286 796 C233 796 185 831 183 872 C183 872 179 872 179 872 L179 872 Z M566 13 C566 13 558 13 558 13 C536 13 506 44 489 84 C489 84 289 675 289 675 C289 675 284 675 284 675 C284 675 94 96 94 96 C94 96 94 96 94 96 C80 51 43 13 16 13 C16 13 6 13 6 13 C6 13 6 0 6 0 C6 0 63 0 63 0 C63 0 67 0 67 0 C67 0 70 0 70 0 C70 0 159 0 159 0 C159 0 159 13 159 13 C159 13 146 13 146 13 C107 13 89 57 106 110 C106 110 145 232 145 232 C145 232 417 232 417 232 C417 232 462 96 462 96 C477 51 459 13 422 13 C422 13 409 13 409 13 C409 13 409 0 409 0 C409 0 494 0 494 0 C494 0 506 0 506 0 C506 0 518 0 518 0 C518 0 566 0 566 0 C566 0 566 13 566 13 L566 13 Z M415 238 C415 238 147 238 147 238 C147 238 279 645 279 645 C279 645 415 238 415 238 L415 238 Z " />
<glyph glyph-name="abreve" unicode="&#x103;" horiz-adv-x="565" d="M141 682 C144 634 193 593 248 593 C303 593 352 634 355 682 C355 682 352 682 352 682 C349 641 301 606 248 606 C195 606 147 641 144 682 C144 682 141 682 141 682 L141 682 Z M455 4 C455 4 517 22 517 22 C517 22 517 29 517 29 C470 38 456 57 456 127 C456 127 456 500 456 500 C456 500 450 500 450 500 C450 500 437 413 437 413 C413 458 331 505 256 505 C147 505 55 378 55 228 C55 102 144 -5 248 -5 C319 -5 403 53 436 122 C436 122 436 121 436 121 C436 121 436 0 436 0 C436 0 436 -5 436 -5 C436 -5 439 -5 439 -5 C439 -5 455 4 455 4 L455 4 Z M436 128 C408 63 327 7 259 7 C160 7 76 112 76 236 C76 378 158 500 255 500 C332 500 418 450 436 403 C436 403 436 128 436 128 L436 128 Z " />
<glyph glyph-name="Aogonek" unicode="&#x104;" horiz-adv-x="573" d="M566 13 C566 13 558 13 558 13 C536 13 506 44 489 84 C489 84 289 675 289 675 C289 675 284 675 284 675 C284 675 94 96 94 96 C94 96 94 96 94 96 C80 51 43 13 16 13 C16 13 6 13 6 13 C6 13 6 0 6 0 C6 0 63 0 63 0 C63 0 67 0 67 0 C67 0 70 0 70 0 C70 0 159 0 159 0 C159 0 159 13 159 13 C159 13 146 13 146 13 C107 13 89 57 106 110 C106 110 145 232 145 232 C145 232 417 232 417 232 C417 232 462 96 462 96 C477 51 459 13 422 13 C422 13 409 13 409 13 C409 13 409 0 409 0 C409 0 485 0 485 0 C445 -21 365 -102 365 -160 C365 -198 405 -231 452 -231 C481 -231 516 -218 530 -202 C530 -202 528 -200 528 -200 C517 -214 484 -226 456 -226 C413 -226 377 -195 377 -158 C377 -96 463 -12 494 0 C494 0 506 0 506 0 C506 0 518 0 518 0 C518 0 566 0 566 0 C566 0 566 13 566 13 L566 13 Z M415 238 C415 238 147 238 147 238 C147 238 279 645 279 645 C279 645 415 238 415 238 L415 238 Z " />
<glyph glyph-name="aogonek" unicode="&#x105;" horiz-adv-x="469" d="M479 28 C479 28 479 33 479 33 C444 20 350 -72 350 -141 C350 -189 390 -231 437 -231 C466 -231 501 -218 515 -202 C515 -202 513 -200 513 -200 C502 -214 469 -226 441 -226 C399 -226 362 -186 362 -139 C362 -71 448 17 479 28 L479 28 Z M447 34 C429 16 407 0 392 0 C365 0 354 25 354 54 C354 54 354 363 354 363 C354 440 302 505 241 505 C161 505 83 465 72 417 C72 417 92 417 92 417 C102 461 169 499 237 499 C289 499 333 438 333 367 C333 367 333 238 333 238 C333 238 194 226 194 226 C108 218 35 160 35 100 C35 43 86 -5 146 -5 C206 -5 288 34 333 82 C333 82 333 52 333 52 C333 19 347 -10 378 -10 C399 -10 427 9 449 31 C449 31 447 34 447 34 L447 34 Z M333 233 C333 233 333 86 333 86 C291 43 214 8 156 8 C101 8 55 53 55 106 C55 159 119 212 194 219 C194 219 333 233 333 233 L333 233 Z " />
<glyph glyph-name="Cacute" unicode="&#x106;" horiz-adv-x="726" d="M359 692 C359 692 466 823 466 823 C490 853 510 880 511 881 C511 883 502 889 499 889 C499 889 479 862 455 831 C455 831 356 693 356 693 C356 693 359 692 359 692 L359 692 Z M667 497 C667 497 667 603 667 603 C605 637 486 665 407 665 C225 665 71 511 71 330 C71 149 225 -5 407 -5 C495 -5 615 28 667 67 C667 67 667 172 667 172 C667 172 656 172 656 172 C653 164 648 149 645 140 C622 72 527 8 438 2 C438 2 438 1 438 1 C427 0 417 0 407 0 C238 0 95 152 95 330 C95 508 238 660 407 660 C427 660 450 658 474 655 C474 655 474 654 474 654 C546 644 624 586 645 528 C648 519 653 505 656 497 C656 497 667 497 667 497 L667 497 Z " />
<glyph glyph-name="cacute" unicode="&#x107;" horiz-adv-x="454" d="M213 532 C213 532 320 663 320 663 C344 693 365 720 365 721 C365 723 356 729 353 729 C352 729 332 702 309 671 C309 671 210 533 210 533 C210 533 213 532 213 532 L213 532 Z M402 43 C402 43 400 45 400 45 C379 25 307 7 243 7 C150 7 71 117 71 246 C71 383 171 499 289 499 C336 499 381 455 385 403 C386 398 390 393 395 393 C400 393 404 397 404 402 C399 458 347 505 291 505 C161 505 50 382 50 238 C50 107 131 -5 226 -5 C295 -5 375 17 402 43 L402 43 Z " />
<glyph glyph-name="Ccircumflex" unicode="&#x108;" horiz-adv-x="726" d="M667 497 C667 497 667 603 667 603 C605 637 486 665 407 665 C225 665 71 511 71 330 C71 149 225 -5 407 -5 C495 -5 615 28 667 67 C667 67 667 172 667 172 C667 172 656 172 656 172 C653 164 648 149 645 140 C622 72 527 8 438 2 C438 2 438 1 438 1 C427 0 417 0 407 0 C238 0 95 152 95 330 C95 508 238 660 407 660 C427 660 450 658 474 655 C474 655 474 654 474 654 C546 644 624 586 645 528 C648 519 653 505 656 497 C656 497 667 497 667 497 L667 497 Z M407 882 C407 882 521 694 521 694 C521 694 523 696 523 696 C523 696 413 899 413 899 C412 901 409 905 407 905 C404 905 401 901 400 899 C400 899 290 696 290 696 C290 696 292 694 292 694 C292 694 407 882 407 882 L407 882 Z " />
<glyph glyph-name="Cdotaccent" unicode="&#x10a;" horiz-adv-x="726" d="M407 730 C418 730 427 739 427 750 C427 761 418 770 407 770 C396 770 387 761 387 750 C387 739 396 730 407 730 L407 730 Z M667 497 C667 497 667 603 667 603 C605 637 486 665 407 665 C225 665 71 511 71 330 C71 149 225 -5 407 -5 C495 -5 615 28 667 67 C667 67 667 172 667 172 C667 172 656 172 656 172 C653 164 648 149 645 140 C622 72 527 8 438 2 C438 2 438 1 438 1 C427 0 417 0 407 0 C238 0 95 152 95 330 C95 508 238 660 407 660 C427 660 450 658 474 655 C474 655 474 654 474 654 C546 644 624 586 645 528 C648 519 653 505 656 497 C656 497 667 497 667 497 L667 497 Z " />
<glyph glyph-name="cdotaccent" unicode="&#x10b;" horiz-adv-x="454" d="M291 570 C302 570 311 579 311 590 C311 601 302 610 291 610 C280 610 271 601 271 590 C271 579 280 570 291 570 L291 570 Z M402 43 C402 43 400 45 400 45 C379 25 307 7 243 7 C150 7 71 117 71 246 C71 383 171 499 289 499 C336 499 381 455 385 403 C386 398 390 393 395 393 C400 393 404 397 404 402 C399 458 347 505 291 505 C161 505 50 382 50 238 C50 107 131 -5 226 -5 C295 -5 375 17 402 43 L402 43 Z " />
<glyph glyph-name="Ccaron" unicode="&#x10c;" horiz-adv-x="726" d="M667 497 C667 497 667 603 667 603 C605 637 486 665 407 665 C225 665 71 511 71 330 C71 149 225 -5 407 -5 C495 -5 615 28 667 67 C667 67 667 172 667 172 C667 172 656 172 656 172 C653 164 648 149 645 140 C622 72 527 8 438 2 C438 2 438 1 438 1 C427 0 417 0 407 0 C238 0 95 152 95 330 C95 508 238 660 407 660 C427 660 450 658 474 655 C474 655 474 654 474 654 C546 644 624 586 645 528 C648 519 653 505 656 497 C656 497 667 497 667 497 L667 497 Z M407 738 C407 738 521 926 521 926 C521 926 523 924 523 924 C523 924 413 721 413 721 C412 719 409 715 407 715 C404 715 401 719 400 721 C400 721 290 924 290 924 C290 924 292 926 292 926 C292 926 407 738 407 738 L407 738 Z " />
<glyph glyph-name="ccaron" unicode="&#x10d;" horiz-adv-x="454" d="M402 43 C402 43 400 45 400 45 C379 25 307 7 243 7 C150 7 71 117 71 246 C71 383 171 499 289 499 C336 499 381 455 385 403 C386 398 390 393 395 393 C400 393 404 397 404 402 C399 458 347 505 291 505 C161 505 50 382 50 238 C50 107 131 -5 226 -5 C295 -5 375 17 402 43 L402 43 Z M291 577 C291 577 405 766 405 766 C405 766 407 764 407 764 C407 764 297 561 297 561 C297 559 293 555 291 555 C289 555 286 559 285 561 C285 561 175 764 175 764 C175 764 177 766 177 766 C177 766 291 577 291 577 L291 577 Z " />
<glyph glyph-name="Dcaron" unicode="&#x10e;" horiz-adv-x="651" d="M60 647 C60 647 69 647 69 647 C96 647 120 609 120 564 C120 564 120 96 120 96 C120 51 96 13 69 13 C69 13 60 13 60 13 C60 13 60 0 60 0 C60 0 120 0 120 0 C120 0 131 0 131 0 C131 0 142 0 142 0 C142 0 317 0 317 0 C471 0 602 152 602 330 C602 508 451 660 273 660 C273 660 142 660 142 660 C142 660 131 660 131 660 C131 660 120 660 120 660 C120 660 60 660 60 660 C60 660 60 647 60 647 L60 647 Z M350 738 C350 738 464 926 464 926 C464 926 466 924 466 924 C466 924 357 721 357 721 C356 719 353 715 350 715 C348 715 345 719 344 721 C344 721 234 924 234 924 C234 924 236 926 236 926 C236 926 350 738 350 738 L350 738 Z M142 6 C142 6 142 654 142 654 C142 654 273 654 273 654 C439 654 580 505 580 330 C580 155 459 6 317 6 C317 6 142 6 142 6 L142 6 Z " />
<glyph glyph-name="dcaron" unicode="&#x10f;" horiz-adv-x="587" d="M577 644 C593 695 607 747 607 750 C607 753 598 754 594 754 C590 755 574 689 565 649 C565 649 527 488 527 488 C527 488 530 487 530 487 C530 487 577 644 577 644 L577 644 Z M478 599 C478 599 478 715 478 715 C478 715 478 720 478 720 C478 720 474 720 474 720 C474 720 397 698 397 698 C397 698 397 691 397 691 C443 681 458 662 458 593 C458 593 458 418 458 418 C428 463 344 505 268 505 C153 505 55 378 55 228 C55 102 149 -5 260 -5 C336 -5 425 25 458 61 C458 61 458 5 458 5 C458 5 458 0 458 0 C458 0 462 0 462 0 C462 0 539 22 539 22 C539 22 539 29 539 29 C492 38 478 57 478 127 C478 127 478 599 478 599 L478 599 Z M458 121 C458 121 458 64 458 64 C432 33 346 7 271 7 C166 7 76 112 76 236 C76 378 164 500 267 500 C347 500 434 453 458 408 C458 408 458 121 458 121 L458 121 Z " />
<glyph glyph-name="Emacron" unicode="&#x112;" horiz-adv-x="518" d="M104 774 C104 774 404 774 404 774 C404 774 404 785 404 785 C404 785 104 785 104 785 C104 785 104 774 104 774 L104 774 Z M352 271 C352 271 352 340 352 340 C352 340 352 342 352 342 C352 342 352 345 352 345 C352 345 352 406 352 406 C352 406 342 406 342 406 C342 406 339 397 339 397 C330 369 273 345 214 345 C214 345 122 345 122 345 C122 345 122 655 122 655 C122 655 245 655 245 655 C309 655 378 612 395 562 C395 562 401 545 401 545 C401 545 410 545 410 545 C410 545 410 657 410 657 C410 657 410 660 410 660 C410 660 407 660 407 660 C407 660 314 660 314 660 C314 660 122 660 122 660 C122 660 112 660 112 660 C112 660 101 660 101 660 C101 660 40 660 40 660 C40 660 40 647 40 647 C40 647 49 647 49 647 C77 647 101 609 101 564 C101 564 101 96 101 96 C101 51 77 13 49 13 C49 13 40 13 40 13 C40 13 40 0 40 0 C40 0 101 0 101 0 C101 0 112 0 112 0 C112 0 122 0 122 0 C122 0 322 0 322 0 C322 0 417 0 417 0 C417 0 418 0 418 0 C418 1 418 2 419 3 C424 33 433 84 438 115 C438 115 429 115 429 115 C429 115 421 98 421 98 C395 48 318 6 254 5 C254 5 122 5 122 5 C122 5 122 340 122 340 C122 340 214 340 214 340 C273 340 330 313 339 281 C339 281 342 271 342 271 C342 271 352 271 352 271 L352 271 Z " />
<glyph glyph-name="emacron" unicode="&#x113;" horiz-adv-x="461" d="M104 614 C104 614 404 614 404 614 C404 614 404 625 404 625 C404 625 104 625 104 625 C104 625 104 614 104 614 L104 614 Z M409 43 C409 43 407 45 407 45 C386 25 312 7 246 7 C151 7 71 117 71 246 C71 273 74 299 80 324 C80 324 411 324 411 324 C411 422 339 505 254 505 C144 505 50 382 50 238 C50 107 132 -5 229 -5 C300 -5 382 17 409 43 L409 43 Z M81 328 C107 426 175 499 253 499 C328 499 392 426 392 341 C392 335 388 331 383 331 C383 331 392 331 392 331 C392 331 81 328 81 328 L81 328 Z " />
<glyph glyph-name="Ebreve" unicode="&#x114;" horiz-adv-x="518" d="M147 872 C150 824 199 783 254 783 C309 783 358 824 361 872 C361 872 358 872 358 872 C355 831 308 796 254 796 C201 796 153 831 150 872 C150 872 147 872 147 872 L147 872 Z M352 271 C352 271 352 340 352 340 C352 340 352 342 352 342 C352 342 352 345 352 345 C352 345 352 406 352 406 C352 406 342 406 342 406 C342 406 339 397 339 397 C330 369 273 345 214 345 C214 345 122 345 122 345 C122 345 122 655 122 655 C122 655 245 655 245 655 C309 655 378 612 395 562 C395 562 401 545 401 545 C401 545 410 545 410 545 C410 545 410 657 410 657 C410 657 410 660 410 660 C410 660 407 660 407 660 C407 660 314 660 314 660 C314 660 122 660 122 660 C122 660 112 660 112 660 C112 660 101 660 101 660 C101 660 40 660 40 660 C40 660 40 647 40 647 C40 647 49 647 49 647 C77 647 101 609 101 564 C101 564 101 96 101 96 C101 51 77 13 49 13 C49 13 40 13 40 13 C40 13 40 0 40 0 C40 0 101 0 101 0 C101 0 112 0 112 0 C112 0 122 0 122 0 C122 0 322 0 322 0 C322 0 417 0 417 0 C417 0 418 0 418 0 C418 1 418 2 419 3 C424 33 433 84 438 115 C438 115 429 115 429 115 C429 115 421 98 421 98 C395 48 318 6 254 5 C254 5 122 5 122 5 C122 5 122 340 122 340 C122 340 214 340 214 340 C273 340 330 313 339 281 C339 281 342 271 342 271 C342 271 352 271 352 271 L352 271 Z " />
<glyph glyph-name="ebreve" unicode="&#x115;" horiz-adv-x="461" d="M147 712 C150 664 200 623 254 623 C309 623 358 664 362 712 C362 712 358 712 358 712 C355 671 308 636 254 636 C201 636 153 671 150 712 C150 712 147 712 147 712 L147 712 Z M409 43 C409 43 407 45 407 45 C386 25 312 7 246 7 C151 7 71 117 71 246 C71 273 74 299 80 324 C80 324 411 324 411 324 C411 422 339 505 254 505 C144 505 50 382 50 238 C50 107 132 -5 229 -5 C300 -5 382 17 409 43 L409 43 Z M81 328 C107 426 175 499 253 499 C328 499 392 426 392 341 C392 335 388 331 383 331 C383 331 392 331 392 331 C392 331 81 328 81 328 L81 328 Z " />
<glyph glyph-name="Edotaccent" unicode="&#x116;" horiz-adv-x="518" d="M254 730 C265 730 274 739 274 750 C274 761 265 770 254 770 C243 770 234 761 234 750 C234 739 243 730 254 730 L254 730 Z M352 271 C352 271 352 340 352 340 C352 340 352 342 352 342 C352 342 352 345 352 345 C352 345 352 406 352 406 C352 406 342 406 342 406 C342 406 339 397 339 397 C330 369 273 345 214 345 C214 345 122 345 122 345 C122 345 122 655 122 655 C122 655 245 655 245 655 C309 655 378 612 395 562 C395 562 401 545 401 545 C401 545 410 545 410 545 C410 545 410 657 410 657 C410 657 410 660 410 660 C410 660 407 660 407 660 C407 660 314 660 314 660 C314 660 122 660 122 660 C122 660 112 660 112 660 C112 660 101 660 101 660 C101 660 40 660 40 660 C40 660 40 647 40 647 C40 647 49 647 49 647 C77 647 101 609 101 564 C101 564 101 96 101 96 C101 51 77 13 49 13 C49 13 40 13 40 13 C40 13 40 0 40 0 C40 0 101 0 101 0 C101 0 112 0 112 0 C112 0 122 0 122 0 C122 0 322 0 322 0 C322 0 417 0 417 0 C417 0 418 0 418 0 C418 1 418 2 419 3 C424 33 433 84 438 115 C438 115 429 115 429 115 C429 115 421 98 421 98 C395 48 318 6 254 5 C254 5 122 5 122 5 C122 5 122 340 122 340 C122 340 214 340 214 340 C273 340 330 313 339 281 C339 281 342 271 342 271 C342 271 352 271 352 271 L352 271 Z " />
<glyph glyph-name="edotaccent" unicode="&#x117;" horiz-adv-x="461" d="M254 570 C265 570 274 579 274 590 C274 601 265 610 254 610 C243 610 234 601 234 590 C234 579 243 570 254 570 L254 570 Z M409 43 C409 43 407 45 407 45 C386 25 312 7 246 7 C151 7 71 117 71 246 C71 273 74 299 80 324 C80 324 411 324 411 324 C411 422 339 505 254 505 C144 505 50 382 50 238 C50 107 132 -5 229 -5 C300 -5 382 17 409 43 L409 43 Z M81 328 C107 426 175 499 253 499 C328 499 392 426 392 341 C392 335 388 331 383 331 C383 331 392 331 392 331 C392 331 81 328 81 328 L81 328 Z " />
<glyph glyph-name="Eogonek" unicode="&#x118;" horiz-adv-x="518" d="M352 271 C352 271 352 340 352 340 C352 340 352 342 352 342 C352 342 352 345 352 345 C352 345 352 406 352 406 C352 406 342 406 342 406 C342 406 339 397 339 397 C330 369 273 345 214 345 C214 345 122 345 122 345 C122 345 122 655 122 655 C122 655 245 655 245 655 C309 655 378 612 395 562 C395 562 401 545 401 545 C401 545 410 545 410 545 C410 545 410 657 410 657 C410 657 410 660 410 660 C410 660 407 660 407 660 C407 660 314 660 314 660 C314 660 122 660 122 660 C122 660 112 660 112 660 C112 660 101 660 101 660 C101 660 40 660 40 660 C40 660 40 647 40 647 C40 647 49 647 49 647 C77 647 101 609 101 564 C101 564 101 96 101 96 C101 51 77 13 49 13 C49 13 40 13 40 13 C40 13 40 0 40 0 C40 0 101 0 101 0 C101 0 112 0 112 0 C112 0 122 0 122 0 C122 0 322 0 322 0 C322 0 408 0 408 0 C368 -21 288 -102 288 -160 C288 -198 328 -231 375 -231 C404 -231 439 -218 453 -202 C453 -202 451 -200 451 -200 C440 -214 407 -226 379 -226 C337 -226 300 -195 300 -158 C300 -96 386 -12 417 0 C417 0 418 0 418 0 C418 1 418 2 419 3 C424 33 433 84 438 115 C438 115 429 115 429 115 C429 115 421 98 421 98 C395 48 318 6 254 5 C254 5 122 5 122 5 C122 5 122 340 122 340 C122 340 214 340 214 340 C273 340 330 313 339 281 C339 281 342 271 342 271 C342 271 352 271 352 271 L352 271 Z " />
<glyph glyph-name="eogonek" unicode="&#x119;" horiz-adv-x="461" d="M348 20 C318 12 281 7 246 7 C151 7 71 117 71 246 C71 273 74 299 80 324 C80 324 411 324 411 324 C411 422 339 505 254 505 C144 505 50 382 50 238 C50 107 132 -5 229 -5 C263 -5 300 0 332 8 C290 -24 230 -93 230 -146 C230 -192 270 -231 317 -231 C346 -231 381 -218 395 -202 C395 -202 393 -200 393 -200 C382 -214 349 -226 321 -226 C279 -226 242 -188 242 -144 C242 -87 306 -14 344 12 C373 20 397 31 409 43 C409 43 407 45 407 45 C398 37 381 29 359 23 C359 23 359 25 359 25 C356 24 352 22 348 20 L348 20 Z M81 328 C107 426 175 499 253 499 C328 499 392 426 392 341 C392 335 388 331 383 331 C383 331 392 331 392 331 C392 331 81 328 81 328 L81 328 Z " />
<glyph glyph-name="Ecaron" unicode="&#x11a;" horiz-adv-x="518" d="M352 271 C352 271 352 340 352 340 C352 340 352 342 352 342 C352 342 352 345 352 345 C352 345 352 406 352 406 C352 406 342 406 342 406 C342 406 339 397 339 397 C330 369 273 345 214 345 C214 345 122 345 122 345 C122 345 122 655 122 655 C122 655 245 655 245 655 C309 655 378 612 395 562 C395 562 401 545 401 545 C401 545 410 545 410 545 C410 545 410 657 410 657 C410 657 410 660 410 660 C410 660 407 660 407 660 C407 660 314 660 314 660 C314 660 122 660 122 660 C122 660 112 660 112 660 C112 660 101 660 101 660 C101 660 40 660 40 660 C40 660 40 647 40 647 C40 647 49 647 49 647 C77 647 101 609 101 564 C101 564 101 96 101 96 C101 51 77 13 49 13 C49 13 40 13 40 13 C40 13 40 0 40 0 C40 0 101 0 101 0 C101 0 112 0 112 0 C112 0 122 0 122 0 C122 0 322 0 322 0 C322 0 417 0 417 0 C417 0 418 0 418 0 C418 1 418 2 419 3 C424 33 433 84 438 115 C438 115 429 115 429 115 C429 115 421 98 421 98 C395 48 318 6 254 5 C254 5 122 5 122 5 C122 5 122 340 122 340 C122 340 214 340 214 340 C273 340 330 313 339 281 C339 281 342 271 342 271 C342 271 352 271 352 271 L352 271 Z M254 737 C254 737 368 926 368 926 C368 926 370 924 370 924 C370 924 260 721 260 721 C260 719 256 715 254 715 C252 715 249 719 248 721 C248 721 138 924 138 924 C138 924 140 926 140 926 C140 926 254 737 254 737 L254 737 Z " />
<glyph glyph-name="ecaron" unicode="&#x11b;" horiz-adv-x="461" d="M409 43 C409 43 407 45 407 45 C386 25 312 7 246 7 C151 7 71 117 71 246 C71 273 74 299 80 324 C80 324 411 324 411 324 C411 422 339 505 254 505 C144 505 50 382 50 238 C50 107 132 -5 229 -5 C300 -5 382 17 409 43 L409 43 Z M254 578 C254 578 368 766 368 766 C368 766 370 764 370 764 C370 764 261 561 261 561 C260 559 257 555 254 555 C252 555 249 559 248 561 C248 561 138 764 138 764 C138 764 140 766 140 766 C140 766 254 578 254 578 L254 578 Z M81 328 C107 426 175 499 253 499 C328 499 392 426 392 341 C392 335 388 331 383 331 C383 331 392 331 392 331 C392 331 81 328 81 328 L81 328 Z " />
<glyph glyph-name="Gcircumflex" unicode="&#x11c;" horiz-adv-x="806" d="M713 310 C713 310 652 310 652 310 C652 310 642 310 642 310 C642 310 632 310 632 310 C632 310 572 310 572 310 C572 310 572 297 572 297 C572 297 581 297 581 297 C609 297 632 259 632 214 C632 214 632 55 632 55 C569 24 466 0 395 0 C233 0 95 152 95 330 C95 508 233 660 395 660 C412 660 432 658 453 655 C453 655 453 655 453 655 C525 645 604 587 625 528 C628 519 633 505 636 497 C636 497 647 497 647 497 C647 497 647 603 647 603 C585 637 470 665 395 665 C220 665 71 511 71 330 C71 149 220 -5 395 -5 C474 -5 592 24 652 59 C652 59 652 214 652 214 C652 259 676 297 703 297 C703 297 713 297 713 297 C713 297 713 310 713 310 L713 310 Z M396 882 C396 882 510 694 510 694 C510 694 512 696 512 696 C512 696 402 899 402 899 C401 901 398 905 395 905 C393 905 390 901 389 899 C389 899 279 696 279 696 C279 696 281 694 281 694 C281 694 396 882 396 882 L396 882 Z " />
<glyph glyph-name="Gbreve" unicode="&#x11e;" horiz-adv-x="806" d="M288 872 C291 824 341 783 395 783 C450 783 500 824 503 872 C503 872 499 872 499 872 C496 831 449 796 395 796 C342 796 295 831 292 872 C292 872 288 872 288 872 L288 872 Z M713 310 C713 310 652 310 652 310 C652 310 642 310 642 310 C642 310 632 310 632 310 C632 310 572 310 572 310 C572 310 572 297 572 297 C572 297 581 297 581 297 C609 297 632 259 632 214 C632 214 632 55 632 55 C569 24 466 0 395 0 C233 0 95 152 95 330 C95 508 233 660 395 660 C412 660 432 658 453 655 C453 655 453 655 453 655 C525 645 604 587 625 528 C628 519 633 505 636 497 C636 497 647 497 647 497 C647 497 647 603 647 603 C585 637 470 665 395 665 C220 665 71 511 71 330 C71 149 220 -5 395 -5 C474 -5 592 24 652 59 C652 59 652 214 652 214 C652 259 676 297 703 297 C703 297 713 297 713 297 C713 297 713 310 713 310 L713 310 Z " />
<glyph glyph-name="gbreve" unicode="&#x11f;" horiz-adv-x="461" d="M147 712 C150 664 199 623 254 623 C309 623 358 664 361 712 C361 712 358 712 358 712 C355 671 308 636 254 636 C201 636 153 671 150 712 C150 712 147 712 147 712 L147 712 Z M462 500 C462 500 319 494 319 494 C319 494 319 494 319 494 C299 501 277 505 254 505 C158 505 76 435 76 352 C76 279 139 216 220 202 C220 202 199 202 199 202 C122 202 57 165 57 122 C57 72 119 33 193 37 C193 37 260 40 260 40 C350 40 427 -10 427 -69 C427 -156 312 -231 178 -231 C106 -231 45 -170 45 -98 C45 -65 106 -20 177 -1 C177 -1 174 1 174 1 C98 -19 32 -66 32 -100 C32 -174 98 -236 175 -236 C319 -236 442 -154 442 -59 C442 5 361 59 265 59 C265 59 192 56 192 56 C126 52 70 86 70 130 C70 167 129 199 199 199 C199 199 254 199 254 199 C350 199 432 269 432 352 C432 409 393 460 337 486 C337 486 462 489 462 489 C462 489 462 500 462 500 L462 500 Z M95 352 C95 432 168 501 254 501 C277 501 299 496 319 487 C319 487 319 486 319 486 C319 486 322 486 322 486 C375 462 413 410 413 352 C413 271 340 203 254 203 C168 203 95 271 95 352 C95 352 95 352 95 352 L95 352 Z " />
<glyph glyph-name="Gdotaccent" unicode="&#x120;" horiz-adv-x="806" d="M395 730 C406 730 415 739 415 750 C415 761 406 770 395 770 C384 770 375 761 375 750 C375 739 384 730 395 730 L395 730 Z M713 310 C713 310 652 310 652 310 C652 310 642 310 642 310 C642 310 632 310 632 310 C632 310 572 310 572 310 C572 310 572 297 572 297 C572 297 581 297 581 297 C609 297 632 259 632 214 C632 214 632 55 632 55 C569 24 466 0 395 0 C233 0 95 152 95 330 C95 508 233 660 395 660 C412 660 432 658 453 655 C453 655 453 655 453 655 C525 645 604 587 625 528 C628 519 633 505 636 497 C636 497 647 497 647 497 C647 497 647 603 647 603 C585 637 470 665 395 665 C220 665 71 511 71 330 C71 149 220 -5 395 -5 C474 -5 592 24 652 59 C652 59 652 214 652 214 C652 259 676 297 703 297 C703 297 713 297 713 297 C713 297 713 310 713 310 L713 310 Z " />
<glyph glyph-name="gdotaccent" unicode="&#x121;" horiz-adv-x="461" d="M254 570 C265 570 274 579 274 590 C274 601 265 610 254 610 C243 610 234 601 234 590 C234 579 243 570 254 570 L254 570 Z M462 500 C462 500 319 494 319 494 C319 494 319 494 319 494 C299 501 277 505 254 505 C158 505 76 435 76 352 C76 279 139 216 220 202 C220 202 199 202 199 202 C122 202 57 165 57 122 C57 72 119 33 193 37 C193 37 260 40 260 40 C350 40 427 -10 427 -69 C427 -156 312 -231 178 -231 C106 -231 45 -170 45 -98 C45 -65 106 -20 177 -1 C177 -1 174 1 174 1 C98 -19 32 -66 32 -100 C32 -174 98 -236 175 -236 C319 -236 442 -154 442 -59 C442 5 361 59 265 59 C265 59 192 56 192 56 C126 52 70 86 70 130 C70 167 129 199 199 199 C199 199 254 199 254 199 C350 199 432 269 432 352 C432 409 393 460 337 486 C337 486 462 489 462 489 C462 489 462 500 462 500 L462 500 Z M95 352 C95 432 168 501 254 501 C277 501 299 496 319 487 C319 487 319 486 319 486 C319 486 322 486 322 486 C375 462 413 410 413 352 C413 271 340 203 254 203 C168 203 95 271 95 352 C95 352 95 352 95 352 L95 352 Z " />
<glyph glyph-name="Hcircumflex" unicode="&#x124;" horiz-adv-x="731" d="M692 660 C692 660 631 660 631 660 C631 660 620 660 620 660 C620 660 610 660 610 660 C610 660 549 660 549 660 C549 660 549 647 549 647 C549 647 558 647 558 647 C586 647 610 609 610 564 C610 564 610 340 610 340 C610 340 122 340 122 340 C122 340 122 564 122 564 C123 609 146 647 174 647 C174 647 183 647 183 647 C183 647 183 660 183 660 C183 660 122 660 122 660 C122 660 112 660 112 660 C112 660 101 660 101 660 C101 660 40 660 40 660 C40 660 40 647 40 647 C40 647 49 647 49 647 C77 647 101 609 101 564 C101 564 101 96 101 96 C101 51 77 13 49 13 C49 13 40 13 40 13 C40 13 40 0 40 0 C40 0 101 0 101 0 C101 0 112 0 112 0 C112 0 122 0 122 0 C122 0 183 0 183 0 C183 0 183 13 183 13 C183 13 174 13 174 13 C146 13 123 51 122 96 C122 96 122 335 122 335 C122 335 610 335 610 335 C610 335 610 96 610 96 C610 51 586 13 558 13 C558 13 549 13 549 13 C549 13 549 0 549 0 C549 0 610 0 610 0 C610 0 620 0 620 0 C620 0 631 0 631 0 C631 0 692 0 692 0 C692 0 692 13 692 13 C692 13 683 13 683 13 C655 13 631 51 631 96 C631 96 631 564 631 564 C631 609 655 647 683 647 C683 647 692 647 692 647 C692 647 692 660 692 660 L692 660 Z M366 883 C366 883 480 694 480 694 C480 694 482 696 482 696 C482 696 372 899 372 899 C371 901 368 905 366 905 C364 905 361 901 360 899 C360 899 250 696 250 696 C250 696 252 694 252 694 C252 694 366 883 366 883 L366 883 Z " />
<glyph glyph-name="Itilde" unicode="&#x128;" horiz-adv-x="223" d="M-31 755 C-31 794 -9 827 17 827 C72 827 146 764 201 764 C232 764 258 798 258 837 C258 837 255 837 255 837 C255 805 232 777 206 777 C150 777 77 840 21 840 C-9 840 -35 801 -35 755 C-35 755 -31 755 -31 755 L-31 755 Z M183 660 C183 660 123 660 123 660 C123 660 112 660 112 660 C112 660 101 660 101 660 C101 660 40 660 40 660 C40 660 40 647 40 647 C40 647 49 647 49 647 C77 647 101 609 101 564 C101 564 101 96 101 96 C101 51 77 13 49 13 C49 13 40 13 40 13 C40 13 40 0 40 0 C40 0 101 0 101 0 C101 0 112 0 112 0 C112 0 123 0 123 0 C123 0 183 0 183 0 C183 0 183 13 183 13 C183 13 174 13 174 13 C147 13 124 48 123 91 C123 91 123 96 123 96 C123 96 123 564 123 564 C123 564 123 569 123 569 C124 612 147 647 174 647 C174 647 183 647 183 647 C183 647 183 660 183 660 L183 660 Z " />
<glyph glyph-name="itilde" unicode="&#x129;" horiz-adv-x="231" d="M-28 595 C-28 634 -6 667 21 667 C76 667 150 604 205 604 C236 604 262 638 262 677 C262 677 259 677 259 677 C259 645 236 617 210 617 C154 617 81 680 25 680 C-5 680 -31 641 -31 595 C-31 595 -28 595 -28 595 L-28 595 Z M126 0 C126 0 186 0 186 0 C186 0 186 13 186 13 C186 13 174 13 174 13 C148 13 126 10 126 0 C126 0 126 404 126 404 C126 404 126 505 126 505 C126 505 125 505 125 505 C125 505 55 484 55 484 C55 484 55 475 55 475 C55 475 91 461 91 461 C99 458 106 441 106 398 C106 398 106 404 106 404 C106 404 126 404 126 404 C126 404 126 0 126 0 L126 0 Z M106 398 C106 398 106 0 106 0 C106 10 84 13 57 13 C57 13 45 13 45 13 C45 13 45 0 45 0 C45 0 106 0 106 0 C106 0 106 398 106 398 L106 398 Z " />
<glyph glyph-name="Imacron" unicode="&#x12a;" horiz-adv-x="223" d="M-38 774 C-38 774 262 774 262 774 C262 774 262 785 262 785 C262 785 -38 785 -38 785 C-38 785 -38 774 -38 774 L-38 774 Z M183 660 C183 660 123 660 123 660 C123 660 112 660 112 660 C112 660 101 660 101 660 C101 660 40 660 40 660 C40 660 40 647 40 647 C40 647 49 647 49 647 C77 647 101 609 101 564 C101 564 101 96 101 96 C101 51 77 13 49 13 C49 13 40 13 40 13 C40 13 40 0 40 0 C40 0 101 0 101 0 C101 0 112 0 112 0 C112 0 123 0 123 0 C123 0 183 0 183 0 C183 0 183 13 183 13 C183 13 174 13 174 13 C147 13 124 48 123 91 C123 91 123 96 123 96 C123 96 123 564 123 564 C123 564 123 569 123 569 C124 612 147 647 174 647 C174 647 183 647 183 647 C183 647 183 660 183 660 L183 660 Z " />
<glyph glyph-name="imacron" unicode="&#x12b;" horiz-adv-x="231" d="M-34 614 C-34 614 266 614 266 614 C266 614 266 625 266 625 C266 625 -34 625 -34 625 C-34 625 -34 614 -34 614 L-34 614 Z M126 0 C126 0 186 0 186 0 C186 0 186 13 186 13 C186 13 174 13 174 13 C148 13 126 10 126 0 C126 0 126 404 126 404 C126 404 126 505 126 505 C126 505 125 505 125 505 C125 505 55 484 55 484 C55 484 55 475 55 475 C55 475 91 461 91 461 C99 458 106 441 106 398 C106 398 106 404 106 404 C106 404 126 404 126 404 C126 404 126 0 126 0 L126 0 Z M106 398 C106 398 106 0 106 0 C106 10 84 13 57 13 C57 13 45 13 45 13 C45 13 45 0 45 0 C45 0 106 0 106 0 C106 0 106 398 106 398 L106 398 Z " />
<glyph glyph-name="Ibreve" unicode="&#x12c;" horiz-adv-x="223" d="M4 872 C8 824 57 783 112 783 C166 783 216 824 219 872 C219 872 216 872 216 872 C213 831 165 796 112 796 C58 796 11 831 8 872 C8 872 4 872 4 872 L4 872 Z M183 660 C183 660 123 660 123 660 C123 660 112 660 112 660 C112 660 101 660 101 660 C101 660 40 660 40 660 C40 660 40 647 40 647 C40 647 49 647 49 647 C77 647 101 609 101 564 C101 564 101 96 101 96 C101 51 77 13 49 13 C49 13 40 13 40 13 C40 13 40 0 40 0 C40 0 101 0 101 0 C101 0 112 0 112 0 C112 0 123 0 123 0 C123 0 183 0 183 0 C183 0 183 13 183 13 C183 13 174 13 174 13 C147 13 124 48 123 91 C123 91 123 96 123 96 C123 96 123 564 123 564 C123 564 123 569 123 569 C124 612 147 647 174 647 C174 647 183 647 183 647 C183 647 183 660 183 660 L183 660 Z " />
<glyph glyph-name="ibreve" unicode="&#x12d;" horiz-adv-x="231" d="M8 712 C12 664 61 623 116 623 C170 623 220 664 223 712 C223 712 219 712 219 712 C216 671 169 636 116 636 C62 636 15 671 12 712 C12 712 8 712 8 712 L8 712 Z M126 0 C126 0 186 0 186 0 C186 0 186 13 186 13 C186 13 174 13 174 13 C148 13 126 10 126 0 C126 0 126 404 126 404 C126 404 126 505 126 505 C126 505 125 505 125 505 C125 505 55 484 55 484 C55 484 55 475 55 475 C55 475 91 461 91 461 C99 458 106 441 106 398 C106 398 106 404 106 404 C106 404 126 404 126 404 C126 404 126 0 126 0 L126 0 Z M106 398 C106 398 106 0 106 0 C106 10 84 13 57 13 C57 13 45 13 45 13 C45 13 45 0 45 0 C45 0 106 0 106 0 C106 0 106 398 106 398 L106 398 Z " />
<glyph glyph-name="Idotaccent" unicode="&#x130;" horiz-adv-x="223" d="M112 730 C123 730 132 739 132 750 C132 761 123 770 112 770 C101 770 92 761 92 750 C92 739 101 730 112 730 L112 730 Z M183 660 C183 660 123 660 123 660 C123 660 112 660 112 660 C112 660 101 660 101 660 C101 660 40 660 40 660 C40 660 40 647 40 647 C40 647 49 647 49 647 C77 647 101 609 101 564 C101 564 101 96 101 96 C101 51 77 13 49 13 C49 13 40 13 40 13 C40 13 40 0 40 0 C40 0 101 0 101 0 C101 0 112 0 112 0 C112 0 123 0 123 0 C123 0 183 0 183 0 C183 0 183 13 183 13 C183 13 174 13 174 13 C147 13 124 48 123 91 C123 91 123 96 123 96 C123 96 123 564 123 564 C123 564 123 569 123 569 C124 612 147 647 174 647 C174 647 183 647 183 647 C183 647 183 660 183 660 L183 660 Z " />
<glyph glyph-name="dotlessi" unicode="&#x131;" horiz-adv-x="231" d="M126 0 C126 0 186 0 186 0 C186 0 186 13 186 13 C186 13 174 13 174 13 C148 13 126 10 126 0 C126 0 126 404 126 404 C126 404 126 505 126 505 C126 505 125 505 125 505 C125 505 55 484 55 484 C55 484 55 475 55 475 C55 475 91 461 91 461 C99 458 106 441 106 398 C106 398 106 404 106 404 C106 404 126 404 126 404 C126 404 126 0 126 0 L126 0 Z M106 398 C106 398 106 0 106 0 C106 10 84 13 57 13 C57 13 45 13 45 13 C45 13 45 0 45 0 C45 0 106 0 106 0 C106 0 106 398 106 398 L106 398 Z " />
<glyph glyph-name="Jcircumflex" unicode="&#x134;" horiz-adv-x="326" d="M287 660 C287 660 226 660 226 660 C226 660 215 660 215 660 C215 660 205 660 205 660 C205 660 144 660 144 660 C144 660 144 647 144 647 C144 647 153 647 153 647 C181 647 205 609 205 564 C205 564 205 200 205 200 C205 66 165 -6 92 -6 C60 -6 26 20 19 50 C18 55 13 59 9 59 C3 59 -1 55 0 50 C8 18 48 -10 86 -10 C177 -10 226 70 226 218 C226 218 226 564 226 564 C226 609 250 647 278 647 C278 647 287 647 287 647 C287 647 287 660 287 660 L287 660 Z M216 882 C216 882 330 694 330 694 C330 694 332 696 332 696 C332 696 222 899 222 899 C221 901 218 905 215 905 C213 905 210 901 209 899 C209 899 99 696 99 696 C99 696 101 694 101 694 C101 694 216 882 216 882 L216 882 Z " />
<glyph glyph-name="Lacute" unicode="&#x139;" horiz-adv-x="518" d="M86 692 C86 692 193 823 193 823 C218 853 238 880 238 881 C238 883 230 889 227 889 C226 889 206 862 183 831 C183 831 84 693 84 693 C84 693 86 692 86 692 L86 692 Z M424 127 C424 127 417 108 417 108 C393 53 323 6 264 5 C264 5 122 5 122 5 C122 5 122 564 122 564 C123 609 146 647 174 647 C174 647 183 647 183 647 C183 647 183 660 183 660 C183 660 122 660 122 660 C122 660 112 660 112 660 C112 660 101 660 101 660 C101 660 40 660 40 660 C40 660 40 647 40 647 C40 647 49 647 49 647 C77 647 101 609 101 564 C101 564 101 96 101 96 C101 51 77 13 49 13 C49 13 40 13 40 13 C40 13 40 0 40 0 C40 0 101 0 101 0 C101 0 112 0 112 0 C112 0 122 0 122 0 C122 0 322 0 322 0 C322 0 417 0 417 0 C417 0 418 0 418 0 C418 1 418 2 419 3 C424 35 434 89 439 121 C433 123 424 127 424 127 L424 127 Z " />
<glyph glyph-name="Lcaron" unicode="&#x13d;" horiz-adv-x="518" d="M424 127 C424 127 417 108 417 108 C393 53 323 6 264 5 C264 5 122 5 122 5 C122 5 122 564 122 564 C123 609 146 647 174 647 C174 647 183 647 183 647 C183 647 183 660 183 660 C183 660 122 660 122 660 C122 660 112 660 112 660 C112 660 101 660 101 660 C101 660 40 660 40 660 C40 660 40 647 40 647 C40 647 49 647 49 647 C77 647 101 609 101 564 C101 564 101 96 101 96 C101 51 77 13 49 13 C49 13 40 13 40 13 C40 13 40 0 40 0 C40 0 101 0 101 0 C101 0 112 0 112 0 C112 0 122 0 122 0 C122 0 322 0 322 0 C322 0 417 0 417 0 C417 0 418 0 418 0 C418 1 418 2 419 3 C424 35 434 89 439 121 C433 123 424 127 424 127 L424 127 Z M282 584 C298 635 312 687 312 690 C312 693 303 694 299 694 C295 695 279 629 270 589 C270 589 232 428 232 428 C232 428 235 427 235 427 C235 427 282 584 282 584 L282 584 Z " />
<glyph glyph-name="lcaron" unicode="&#x13e;" horiz-adv-x="231" d="M186 13 C186 13 177 13 177 13 C150 13 127 48 126 91 C126 91 126 96 126 96 C126 96 126 599 126 599 C126 599 126 715 126 715 C126 715 126 720 126 720 C126 720 122 720 122 720 C122 720 45 698 45 698 C45 698 45 691 45 691 C91 681 106 662 106 593 C106 593 106 96 106 96 C106 51 82 13 54 13 C54 13 45 13 45 13 C45 13 45 0 45 0 C45 0 106 0 106 0 C106 0 116 0 116 0 C116 0 126 0 126 0 C126 0 186 0 186 0 C186 0 186 13 186 13 L186 13 Z M225 614 C241 665 255 717 255 720 C255 723 246 724 242 724 C238 725 221 659 212 619 C212 619 175 458 175 458 C175 458 178 457 178 457 C178 457 225 614 225 614 L225 614 Z " />
<glyph glyph-name="Lslash" unicode="&#x141;" horiz-adv-x="518" d="M51 277 C51 277 101 300 101 300 C101 300 101 96 101 96 C101 51 77 13 49 13 C49 13 40 13 40 13 C40 13 40 0 40 0 C40 0 101 0 101 0 C101 0 112 0 112 0 C112 0 122 0 122 0 C122 0 322 0 322 0 C322 0 417 0 417 0 C417 0 418 0 418 0 C418 1 418 2 419 3 C424 35 434 89 439 121 C433 123 424 127 424 127 C424 127 417 108 417 108 C393 53 323 6 264 5 C264 5 122 5 122 5 C122 5 122 309 122 309 C122 309 270 377 270 377 C270 377 270 383 270 383 C270 383 122 315 122 315 C122 315 122 564 122 564 C123 609 146 647 174 647 C174 647 183 647 183 647 C183 647 183 660 183 660 C183 660 122 660 122 660 C122 660 112 660 112 660 C112 660 101 660 101 660 C101 660 40 660 40 660 C40 660 40 647 40 647 C40 647 49 647 49 647 C77 647 101 609 101 564 C101 564 101 306 101 306 C101 306 51 283 51 283 C51 283 51 277 51 277 L51 277 Z " />
<glyph glyph-name="lslash" unicode="&#x142;" horiz-adv-x="231" d="M6 307 C6 307 106 352 106 352 C106 352 106 96 106 96 C106 51 82 13 54 13 C54 13 45 13 45 13 C45 13 45 0 45 0 C45 0 106 0 106 0 C106 0 116 0 116 0 C116 0 126 0 126 0 C126 0 186 0 186 0 C186 0 186 13 186 13 C186 13 177 13 177 13 C150 13 127 48 126 91 C126 91 126 96 126 96 C126 96 126 362 126 362 C126 362 226 407 226 407 C226 407 226 413 226 413 C226 413 126 368 126 368 C126 368 126 599 126 599 C126 599 126 715 126 715 C126 715 126 720 126 720 C126 720 122 720 122 720 C122 720 45 698 45 698 C45 698 45 691 45 691 C91 681 106 662 106 593 C106 593 106 358 106 358 C106 358 6 313 6 313 C6 313 6 307 6 307 L6 307 Z " />
<glyph glyph-name="Nacute" unicode="&#x143;" horiz-adv-x="660" d="M301 692 C301 692 408 823 408 823 C433 853 453 880 453 881 C453 883 445 889 442 889 C441 889 421 862 398 831 C398 831 299 693 299 693 C299 693 301 692 301 692 L301 692 Z M623 660 C623 660 562 660 562 660 C562 660 559 660 559 660 C559 660 556 660 556 660 C556 660 495 660 495 660 C495 660 495 647 495 647 C495 647 504 647 504 647 C532 647 556 609 556 564 C556 564 556 31 556 31 C556 31 125 660 125 660 C125 660 112 650 112 650 C112 650 112 651 112 651 C112 651 125 660 125 660 C125 660 112 660 112 660 C112 660 109 660 109 660 C109 660 106 660 106 660 C106 660 45 660 45 660 C45 660 45 647 45 647 C45 647 54 647 54 647 C82 647 106 609 106 564 C106 564 106 96 106 96 C106 51 82 13 54 13 C54 13 45 13 45 13 C45 13 45 0 45 0 C45 0 106 0 106 0 C106 0 109 0 109 0 C109 0 112 0 112 0 C112 0 173 0 173 0 C173 0 173 13 173 13 C173 13 164 13 164 13 C136 13 112 51 112 96 C112 96 112 641 112 641 C112 641 546 9 546 9 C546 9 555 -4 555 -4 C555 -4 562 -4 562 -4 C562 -4 562 17 562 17 C562 17 562 564 562 564 C562 609 586 647 614 647 C614 647 623 647 623 647 C623 647 623 660 623 660 L623 660 Z " />
<glyph glyph-name="nacute" unicode="&#x144;" horiz-adv-x="584" d="M216 532 C216 532 323 663 323 663 C347 693 368 720 368 721 C368 723 360 729 357 729 C356 729 336 702 313 671 C313 671 214 533 214 533 C214 533 216 532 216 532 L216 532 Z M544 13 C544 13 535 13 535 13 C508 13 485 48 484 91 C484 91 484 96 484 96 C484 96 484 336 484 336 C484 427 437 505 350 505 C302 505 200 474 126 437 C126 437 126 500 126 500 C126 500 122 500 122 500 C122 500 45 478 45 478 C45 478 45 471 45 471 C91 461 106 443 106 373 C106 373 106 96 106 96 C106 51 82 13 54 13 C54 13 45 13 45 13 C45 13 45 0 45 0 C45 0 106 0 106 0 C106 0 116 0 116 0 C116 0 126 0 126 0 C126 0 186 0 186 0 C186 0 186 13 186 13 C186 13 177 13 177 13 C150 13 127 48 126 91 C126 91 126 96 126 96 C126 96 126 379 126 379 C126 379 126 399 126 399 C126 399 126 435 126 435 C188 466 283 492 335 492 C418 492 463 419 464 333 C464 333 464 96 464 96 C464 51 440 13 412 13 C412 13 403 13 403 13 C403 13 403 0 403 0 C403 0 464 0 464 0 C464 0 474 0 474 0 C474 0 484 0 484 0 C484 0 544 0 544 0 C544 0 544 13 544 13 L544 13 Z " />
<glyph glyph-name="Ncaron" unicode="&#x147;" horiz-adv-x="660" d="M623 660 C623 660 562 660 562 660 C562 660 559 660 559 660 C559 660 556 660 556 660 C556 660 495 660 495 660 C495 660 495 647 495 647 C495 647 504 647 504 647 C532 647 556 609 556 564 C556 564 556 31 556 31 C556 31 125 660 125 660 C125 660 112 650 112 650 C112 650 112 651 112 651 C112 651 125 660 125 660 C125 660 112 660 112 660 C112 660 109 660 109 660 C109 660 106 660 106 660 C106 660 45 660 45 660 C45 660 45 647 45 647 C45 647 54 647 54 647 C82 647 106 609 106 564 C106 564 106 96 106 96 C106 51 82 13 54 13 C54 13 45 13 45 13 C45 13 45 0 45 0 C45 0 106 0 106 0 C106 0 109 0 109 0 C109 0 112 0 112 0 C112 0 173 0 173 0 C173 0 173 13 173 13 C173 13 164 13 164 13 C136 13 112 51 112 96 C112 96 112 641 112 641 C112 641 546 9 546 9 C546 9 555 -4 555 -4 C555 -4 562 -4 562 -4 C562 -4 562 17 562 17 C562 17 562 564 562 564 C562 609 586 647 614 647 C614 647 623 647 623 647 C623 647 623 660 623 660 L623 660 Z M334 737 C334 737 448 926 448 926 C448 926 450 924 450 924 C450 924 340 721 340 721 C340 719 336 715 334 715 C332 715 329 719 328 721 C328 721 218 924 218 924 C218 924 220 926 220 926 C220 926 334 737 334 737 L334 737 Z " />
<glyph glyph-name="ncaron" unicode="&#x148;" horiz-adv-x="584" d="M544 13 C544 13 535 13 535 13 C508 13 485 48 484 91 C484 91 484 96 484 96 C484 96 484 336 484 336 C484 427 437 505 350 505 C302 505 200 474 126 437 C126 437 126 500 126 500 C126 500 122 500 122 500 C122 500 45 478 45 478 C45 478 45 471 45 471 C91 461 106 443 106 373 C106 373 106 96 106 96 C106 51 82 13 54 13 C54 13 45 13 45 13 C45 13 45 0 45 0 C45 0 106 0 106 0 C106 0 116 0 116 0 C116 0 126 0 126 0 C126 0 186 0 186 0 C186 0 186 13 186 13 C186 13 177 13 177 13 C150 13 127 48 126 91 C126 91 126 96 126 96 C126 96 126 379 126 379 C126 379 126 399 126 399 C126 399 126 435 126 435 C188 466 283 492 335 492 C418 492 463 419 464 333 C464 333 464 96 464 96 C464 51 440 13 412 13 C412 13 403 13 403 13 C403 13 403 0 403 0 C403 0 464 0 464 0 C464 0 474 0 474 0 C474 0 484 0 484 0 C484 0 544 0 544 0 C544 0 544 13 544 13 L544 13 Z M295 578 C295 578 409 766 409 766 C409 766 411 764 411 764 C411 764 301 561 301 561 C300 559 297 555 295 555 C292 555 289 559 288 561 C288 561 178 764 178 764 C178 764 180 766 180 766 C180 766 295 578 295 578 L295 578 Z " />
<glyph glyph-name="Omacron" unicode="&#x14c;" horiz-adv-x="759" d="M240 774 C240 774 540 774 540 774 C540 774 540 785 540 785 C540 785 240 785 240 785 C240 785 240 774 240 774 L240 774 Z M390 0 C215 0 95 170 95 330 C95 490 215 660 390 660 C565 660 685 490 685 330 C685 170 565 0 390 0 L390 0 Z M71 330 C71 167 200 -5 390 -5 C580 -5 709 167 709 330 C709 493 580 665 390 665 C200 665 71 493 71 330 L71 330 Z " />
<glyph glyph-name="omacron" unicode="&#x14d;" horiz-adv-x="580" d="M140 614 C140 614 440 614 440 614 C440 614 440 625 440 625 C440 625 140 625 140 625 C140 625 140 614 140 614 L140 614 Z M290 -1 C172 -1 72 114 72 250 C72 386 172 501 290 501 C408 501 508 386 508 250 C508 114 408 -1 290 -1 L290 -1 Z M50 250 C50 112 160 -5 290 -5 C420 -5 531 112 531 250 C531 388 420 505 290 505 C160 505 50 388 50 250 L50 250 Z " />
<glyph glyph-name="Obreve" unicode="&#x14e;" horiz-adv-x="759" d="M283 872 C286 824 335 783 390 783 C445 783 494 824 497 872 C497 872 494 872 494 872 C491 831 443 796 390 796 C337 796 289 831 286 872 C286 872 283 872 283 872 L283 872 Z M390 0 C215 0 95 170 95 330 C95 490 215 660 390 660 C565 660 685 490 685 330 C685 170 565 0 390 0 L390 0 Z M71 330 C71 167 200 -5 390 -5 C580 -5 709 167 709 330 C709 493 580 665 390 665 C200 665 71 493 71 330 L71 330 Z " />
<glyph glyph-name="obreve" unicode="&#x14f;" horiz-adv-x="580" d="M183 712 C186 664 236 623 290 623 C345 623 394 664 398 712 C398 712 394 712 394 712 C391 671 344 636 290 636 C237 636 189 671 186 712 C186 712 183 712 183 712 L183 712 Z M290 -1 C172 -1 72 114 72 250 C72 386 172 501 290 501 C408 501 508 386 508 250 C508 114 408 -1 290 -1 L290 -1 Z M50 250 C50 112 160 -5 290 -5 C420 -5 531 112 531 250 C531 388 420 505 290 505 C160 505 50 388 50 250 L50 250 Z " />
<glyph glyph-name="Racute" unicode="&#x154;" horiz-adv-x="596" d="M223 692 C223 692 330 823 330 823 C355 853 376 880 375 881 C376 883 367 889 364 889 C363 889 343 862 320 831 C320 831 221 693 221 693 C221 693 223 692 223 692 L223 692 Z M60 647 C60 647 69 647 69 647 C96 647 120 609 120 564 C120 564 120 96 120 96 C120 51 96 13 69 13 C69 13 60 13 60 13 C60 13 60 0 60 0 C60 0 120 0 120 0 C120 0 131 0 131 0 C131 0 142 0 142 0 C142 0 202 0 202 0 C203 0 203 3 202 6 C203 10 203 13 202 13 C202 13 193 13 193 13 C165 13 142 51 142 96 C142 96 142 310 142 310 C142 310 258 310 258 310 C258 310 458 106 458 106 C547 14 564 0 585 0 C585 0 597 0 597 0 C597 0 597 4 597 4 C597 4 592 4 592 4 C584 4 570 17 488 102 C488 102 283 310 283 310 C393 317 484 395 484 485 C484 580 400 660 301 660 C301 660 142 660 142 660 C142 660 131 660 131 660 C131 660 120 660 120 660 C120 660 60 660 60 660 C60 660 60 647 60 647 L60 647 Z M269 315 C269 315 253 315 253 315 C253 315 142 315 142 315 C142 315 142 654 142 654 C142 654 301 654 301 654 C388 654 461 576 461 485 C461 393 373 315 269 315 L269 315 Z " />
<glyph glyph-name="Rcaron" unicode="&#x158;" horiz-adv-x="521" d="M60 647 C60 647 69 647 69 647 C96 647 120 609 120 564 C120 564 120 96 120 96 C120 51 96 13 69 13 C69 13 60 13 60 13 C60 13 60 0 60 0 C60 0 120 0 120 0 C120 0 131 0 131 0 C131 0 142 0 142 0 C142 0 202 0 202 0 C203 0 203 3 202 6 C203 10 203 13 202 13 C202 13 193 13 193 13 C165 13 142 51 142 96 C142 96 142 310 142 310 C142 310 269 310 269 310 C318 176 434 15 521 -42 C521 -42 523 -39 523 -39 C450 9 343 170 292 311 C292 311 291 311 291 311 C397 320 484 397 484 485 C484 580 400 660 301 660 C301 660 142 660 142 660 C142 660 131 660 131 660 C131 660 120 660 120 660 C120 660 60 660 60 660 C60 660 60 647 60 647 L60 647 Z M302 737 C302 737 416 926 416 926 C416 926 418 924 418 924 C418 924 308 721 308 721 C307 719 304 715 302 715 C300 715 297 719 296 721 C296 721 186 924 186 924 C186 924 188 926 188 926 C188 926 302 737 302 737 L302 737 Z M142 315 C142 315 142 654 142 654 C142 654 301 654 301 654 C388 654 461 576 461 485 C461 393 373 315 269 315 C269 315 142 315 142 315 L142 315 Z " />
<glyph glyph-name="rcaron" unicode="&#x159;" horiz-adv-x="389" d="M186 13 C186 13 177 13 177 13 C150 13 127 48 126 91 C126 91 126 96 126 96 C126 96 126 379 126 379 C126 379 126 399 126 399 C126 399 126 399 126 399 C126 399 125 417 125 417 C160 456 225 490 270 490 C299 490 340 460 370 460 C375 460 380 465 380 470 C380 489 347 505 286 505 C238 505 164 466 125 420 C125 420 123 500 123 500 C123 500 119 500 119 500 C119 500 45 478 45 478 C45 478 45 471 45 471 C91 461 106 443 106 373 C106 373 106 96 106 96 C106 51 82 13 54 13 C54 13 45 13 45 13 C45 13 45 0 45 0 C45 0 106 0 106 0 C106 0 116 0 116 0 C116 0 126 0 126 0 C126 0 186 0 186 0 C186 0 186 13 186 13 L186 13 Z M196 578 C196 578 310 766 310 766 C310 766 312 764 312 764 C312 764 202 561 202 561 C201 559 198 555 196 555 C193 555 190 559 189 561 C189 561 79 764 79 764 C79 764 81 766 81 766 C81 766 196 578 196 578 L196 578 Z " />
<glyph glyph-name="Sacute" unicode="&#x15a;" horiz-adv-x="499" d="M182 692 C182 692 289 823 289 823 C313 853 334 880 334 881 C334 883 326 889 322 889 C322 889 302 862 279 831 C279 831 180 693 180 693 C180 693 182 692 182 692 L182 692 Z M44 163 C44 163 44 56 44 56 C89 23 198 -5 281 -5 C375 -5 455 70 455 159 C455 226 366 308 262 338 C159 368 72 442 72 500 C72 586 145 660 230 660 C245 660 264 658 284 654 C284 654 284 654 284 654 C329 645 381 598 398 551 C402 538 410 518 414 506 C414 506 425 506 425 506 C425 506 425 613 425 613 C374 641 284 665 231 665 C137 665 57 585 57 491 C57 429 143 351 245 322 C350 292 439 213 439 150 C439 69 367 0 281 0 C266 0 250 1 234 3 C234 3 234 3 234 3 C164 11 87 70 66 132 C63 140 58 155 55 163 C55 163 44 163 44 163 L44 163 Z " />
<glyph glyph-name="sacute" unicode="&#x15b;" horiz-adv-x="423" d="M126 532 C126 532 233 663 233 663 C257 693 278 720 278 721 C278 723 270 729 267 729 C266 729 246 702 223 671 C223 671 124 533 124 533 C124 533 126 532 126 532 L126 532 Z M49 117 C49 117 49 43 49 43 C84 17 169 -5 234 -5 C309 -5 373 56 373 128 C373 170 310 229 236 257 C156 287 88 349 88 392 C88 451 142 501 205 501 C212 501 222 500 233 497 C276 486 321 448 333 412 C335 407 337 398 339 393 C339 393 349 393 349 393 C349 393 349 460 349 460 C304 484 238 505 205 505 C133 505 72 450 72 385 C72 339 141 273 222 243 C295 216 357 160 357 120 C357 55 301 0 235 0 C225 0 213 1 202 2 C202 2 202 2 202 2 C147 8 86 51 67 95 C65 101 61 111 58 117 C58 117 49 117 49 117 L49 117 Z " />
<glyph glyph-name="Scircumflex" unicode="&#x15c;" horiz-adv-x="499" d="M44 163 C44 163 44 56 44 56 C89 23 198 -5 281 -5 C375 -5 455 70 455 159 C455 226 366 308 262 338 C159 368 72 442 72 500 C72 586 145 660 230 660 C245 660 264 658 284 654 C284 654 284 654 284 654 C329 645 381 598 398 551 C402 538 410 518 414 506 C414 506 425 506 425 506 C425 506 425 613 425 613 C374 641 284 665 231 665 C137 665 57 585 57 491 C57 429 143 351 245 322 C350 292 439 213 439 150 C439 69 367 0 281 0 C266 0 250 1 234 3 C234 3 234 3 234 3 C164 11 87 70 66 132 C63 140 58 155 55 163 C55 163 44 163 44 163 L44 163 Z M230 883 C230 883 344 694 344 694 C344 694 346 696 346 696 C346 696 236 899 236 899 C235 901 232 905 230 905 C228 905 225 901 224 899 C224 899 114 696 114 696 C114 696 116 694 116 694 C116 694 230 883 230 883 L230 883 Z " />
<glyph glyph-name="Scedilla" unicode="&#x15e;" horiz-adv-x="499" d="M44 163 C44 163 44 56 44 56 C89 23 198 -5 281 -5 C375 -5 455 70 455 159 C455 226 366 308 262 338 C159 368 72 442 72 500 C72 586 145 660 230 660 C245 660 264 658 284 654 C284 654 284 654 284 654 C329 645 381 598 398 551 C402 538 410 518 414 506 C414 506 425 506 425 506 C425 506 425 613 425 613 C374 641 284 665 231 665 C137 665 57 585 57 491 C57 429 143 351 245 322 C350 292 439 213 439 150 C439 69 367 0 281 0 C266 0 250 1 234 3 C234 3 234 3 234 3 C164 11 87 70 66 132 C63 140 58 155 55 163 C55 163 44 163 44 163 L44 163 Z " />
<glyph glyph-name="scedilla" unicode="&#x15f;" horiz-adv-x="423" d="M49 117 C49 117 49 43 49 43 C84 17 169 -5 234 -5 C309 -5 373 56 373 128 C373 170 310 229 236 257 C156 287 88 349 88 392 C88 451 142 501 205 501 C212 501 222 500 233 497 C276 486 321 448 333 412 C335 407 337 398 339 393 C339 393 349 393 349 393 C349 393 349 460 349 460 C304 484 238 505 205 505 C133 505 72 450 72 385 C72 339 141 273 222 243 C295 216 357 160 357 120 C357 55 301 0 235 0 C225 0 213 1 202 2 C202 2 202 2 202 2 C147 8 86 51 67 95 C65 101 61 111 58 117 C58 117 49 117 49 117 L49 117 Z " />
<glyph glyph-name="Scaron" unicode="&#x160;" horiz-adv-x="499" d="M44 163 C44 163 44 56 44 56 C89 23 198 -5 281 -5 C375 -5 455 70 455 159 C455 226 366 308 262 338 C159 368 72 442 72 500 C72 586 145 660 230 660 C245 660 264 658 284 654 C284 654 284 654 284 654 C329 645 381 598 398 551 C402 538 410 518 414 506 C414 506 425 506 425 506 C425 506 425 613 425 613 C374 641 284 665 231 665 C137 665 57 585 57 491 C57 429 143 351 245 322 C350 292 439 213 439 150 C439 69 367 0 281 0 C266 0 250 1 234 3 C234 3 234 3 234 3 C164 11 87 70 66 132 C63 140 58 155 55 163 C55 163 44 163 44 163 L44 163 Z M230 737 C230 737 344 926 344 926 C344 926 346 924 346 924 C346 924 236 721 236 721 C235 719 232 715 230 715 C228 715 225 719 224 721 C224 721 114 924 114 924 C114 924 116 926 116 926 C116 926 230 737 230 737 L230 737 Z " />
<glyph glyph-name="scaron" unicode="&#x161;" horiz-adv-x="423" d="M49 117 C49 117 49 43 49 43 C84 17 169 -5 234 -5 C309 -5 373 56 373 128 C373 170 310 229 236 257 C156 287 88 349 88 392 C88 451 142 501 205 501 C212 501 222 500 233 497 C276 486 321 448 333 412 C335 407 337 398 339 393 C339 393 349 393 349 393 C349 393 349 460 349 460 C304 484 238 505 205 505 C133 505 72 450 72 385 C72 339 141 273 222 243 C295 216 357 160 357 120 C357 55 301 0 235 0 C225 0 213 1 202 2 C202 2 202 2 202 2 C147 8 86 51 67 95 C65 101 61 111 58 117 C58 117 49 117 49 117 L49 117 Z M205 578 C205 578 319 766 319 766 C319 766 321 764 321 764 C321 764 211 561 211 561 C210 559 207 555 205 555 C202 555 199 559 198 561 C198 561 89 764 89 764 C89 764 91 766 91 766 C91 766 205 578 205 578 L205 578 Z " />
<glyph glyph-name="Tcaron" unicode="&#x164;" horiz-adv-x="620" d="M596 533 C594 567 589 624 586 657 C586 658 585 659 585 660 C585 660 580 660 580 660 C580 660 489 660 489 660 C489 660 131 660 131 660 C131 660 40 660 40 660 C40 660 35 660 35 660 C35 659 34 658 34 657 C31 624 26 567 24 533 C24 533 34 533 34 533 C34 533 43 556 43 556 C65 609 130 655 183 655 C183 655 299 655 299 655 C299 655 299 96 299 96 C299 51 275 13 248 13 C248 13 239 13 239 13 C239 13 239 0 239 0 C239 0 299 0 299 0 C299 0 310 0 310 0 C310 0 321 0 321 0 C321 0 381 0 381 0 C382 0 382 3 381 6 C382 10 382 13 381 13 C381 13 372 13 372 13 C344 13 321 51 321 96 C321 96 321 655 321 655 C321 655 437 655 437 655 C490 655 555 609 577 556 C577 556 586 533 586 533 C586 533 596 533 596 533 L596 533 Z M310 737 C310 737 424 926 424 926 C424 926 426 924 426 924 C426 924 316 721 316 721 C315 719 312 715 310 715 C308 715 305 719 304 721 C304 721 194 924 194 924 C194 924 196 926 196 926 C196 926 310 737 310 737 L310 737 Z " />
<glyph glyph-name="tcaron" unicode="&#x165;" horiz-adv-x="350" d="M320 500 C320 500 132 500 132 500 C132 500 132 640 132 640 C132 640 129 640 129 640 C129 640 116 523 116 523 C111 510 71 497 25 494 C25 494 25 492 25 492 C25 492 112 492 112 492 C112 492 112 110 112 110 C112 29 138 -5 198 -5 C249 -5 298 18 330 45 C330 45 329 46 329 46 C301 23 257 4 208 4 C155 4 132 34 132 106 C132 106 132 492 132 492 C132 492 320 492 320 492 C320 492 320 500 320 500 L320 500 Z M419 614 C435 665 449 717 449 720 C449 723 440 724 436 724 C432 725 416 659 407 619 C407 619 369 458 369 458 C369 458 372 457 372 457 C372 457 419 614 419 614 L419 614 Z " />
<glyph glyph-name="Utilde" unicode="&#x168;" horiz-adv-x="662" d="M199 755 C199 794 221 827 247 827 C303 827 376 764 432 764 C463 764 489 798 489 837 C489 837 485 837 485 837 C485 805 462 777 436 777 C380 777 307 840 251 840 C221 840 196 801 196 755 C196 755 199 755 199 755 L199 755 Z M643 660 C643 660 574 660 574 660 C574 660 571 660 571 660 C571 660 567 660 567 660 C567 660 494 660 494 660 C494 660 494 647 494 647 C494 647 505 647 505 647 C539 647 567 604 567 554 C567 554 567 176 567 176 C567 82 491 3 350 3 C209 3 132 93 132 199 C132 199 132 564 132 564 C132 609 155 647 183 647 C183 647 192 647 192 647 C193 647 193 650 192 654 C193 657 193 660 192 660 C192 660 132 660 132 660 C132 660 121 660 121 660 C121 660 110 660 110 660 C110 660 50 660 50 660 C50 660 50 647 50 647 C50 647 59 647 59 647 C86 647 110 609 110 564 C110 564 110 203 110 203 C110 91 193 -5 347 -5 C494 -5 574 77 574 173 C574 173 574 554 574 554 C574 604 601 647 632 647 C632 647 643 647 643 647 C643 647 643 660 643 660 L643 660 Z " />
<glyph glyph-name="utilde" unicode="&#x169;" horiz-adv-x="549" d="M121 595 C121 634 143 667 169 667 C225 667 298 604 354 604 C385 604 411 638 411 677 C411 677 408 677 408 677 C408 645 385 617 359 617 C303 617 230 680 174 680 C144 680 118 641 118 595 C118 595 121 595 121 595 L121 595 Z M514 29 C471 38 455 54 454 114 C454 114 454 127 454 127 C454 127 454 500 454 500 C454 500 444 500 444 500 C444 500 434 500 434 500 C434 500 373 500 373 500 C373 500 373 487 373 487 C373 487 382 487 382 487 C410 487 434 449 434 404 C434 404 434 121 434 121 C434 121 434 66 434 66 C409 35 340 8 253 8 C159 8 95 77 95 159 C95 159 96 500 96 500 C96 500 86 500 86 500 C86 500 76 500 76 500 C76 500 15 500 15 500 C15 500 15 487 15 487 C15 487 24 487 24 487 C52 487 76 449 76 404 C76 404 76 156 76 156 C76 69 141 -5 237 -5 C327 -5 402 26 434 63 C434 63 434 5 434 5 C434 5 434 0 434 0 C434 0 438 0 438 0 C438 0 514 22 514 22 C514 22 514 29 514 29 L514 29 Z " />
<glyph glyph-name="Umacron" unicode="&#x16a;" horiz-adv-x="662" d="M192 774 C192 774 492 774 492 774 C492 774 492 785 492 785 C492 785 192 785 192 785 C192 785 192 774 192 774 L192 774 Z M643 660 C643 660 574 660 574 660 C574 660 571 660 571 660 C571 660 567 660 567 660 C567 660 494 660 494 660 C494 660 494 647 494 647 C494 647 505 647 505 647 C539 647 567 604 567 554 C567 554 567 176 567 176 C567 82 491 3 350 3 C209 3 132 93 132 199 C132 199 132 564 132 564 C132 609 155 647 183 647 C183 647 192 647 192 647 C193 647 193 650 192 654 C193 657 193 660 192 660 C192 660 132 660 132 660 C132 660 121 660 121 660 C121 660 110 660 110 660 C110 660 50 660 50 660 C50 660 50 647 50 647 C50 647 59 647 59 647 C86 647 110 609 110 564 C110 564 110 203 110 203 C110 91 193 -5 347 -5 C494 -5 574 77 574 173 C574 173 574 554 574 554 C574 604 601 647 632 647 C632 647 643 647 643 647 C643 647 643 660 643 660 L643 660 Z " />
<glyph glyph-name="umacron" unicode="&#x16b;" horiz-adv-x="549" d="M115 614 C115 614 415 614 415 614 C415 614 415 625 415 625 C415 625 115 625 115 625 C115 625 115 614 115 614 L115 614 Z M514 29 C471 38 455 54 454 114 C454 114 454 127 454 127 C454 127 454 500 454 500 C454 500 444 500 444 500 C444 500 434 500 434 500 C434 500 373 500 373 500 C373 500 373 487 373 487 C373 487 382 487 382 487 C410 487 434 449 434 404 C434 404 434 121 434 121 C434 121 434 66 434 66 C409 35 340 8 253 8 C159 8 95 77 95 159 C95 159 96 500 96 500 C96 500 86 500 86 500 C86 500 76 500 76 500 C76 500 15 500 15 500 C15 500 15 487 15 487 C15 487 24 487 24 487 C52 487 76 449 76 404 C76 404 76 156 76 156 C76 69 141 -5 237 -5 C327 -5 402 26 434 63 C434 63 434 5 434 5 C434 5 434 0 434 0 C434 0 438 0 438 0 C438 0 514 22 514 22 C514 22 514 29 514 29 L514 29 Z " />
<glyph glyph-name="Ubreve" unicode="&#x16c;" horiz-adv-x="662" d="M235 872 C238 824 287 783 342 783 C397 783 446 824 449 872 C449 872 446 872 446 872 C443 831 396 796 342 796 C289 796 241 831 238 872 C238 872 235 872 235 872 L235 872 Z M643 660 C643 660 574 660 574 660 C574 660 571 660 571 660 C571 660 567 660 567 660 C567 660 494 660 494 660 C494 660 494 647 494 647 C494 647 505 647 505 647 C539 647 567 604 567 554 C567 554 567 176 567 176 C567 82 491 3 350 3 C209 3 132 93 132 199 C132 199 132 564 132 564 C132 609 155 647 183 647 C183 647 192 647 192 647 C193 647 193 650 192 654 C193 657 193 660 192 660 C192 660 132 660 132 660 C132 660 121 660 121 660 C121 660 110 660 110 660 C110 660 50 660 50 660 C50 660 50 647 50 647 C50 647 59 647 59 647 C86 647 110 609 110 564 C110 564 110 203 110 203 C110 91 193 -5 347 -5 C494 -5 574 77 574 173 C574 173 574 554 574 554 C574 604 601 647 632 647 C632 647 643 647 643 647 C643 647 643 660 643 660 L643 660 Z " />
<glyph glyph-name="ubreve" unicode="&#x16d;" horiz-adv-x="549" d="M157 712 C160 664 210 623 265 623 C319 623 369 664 372 712 C372 712 368 712 368 712 C365 671 318 636 265 636 C211 636 164 671 161 712 C161 712 157 712 157 712 L157 712 Z M514 29 C471 38 455 54 454 114 C454 114 454 127 454 127 C454 127 454 500 454 500 C454 500 444 500 444 500 C444 500 434 500 434 500 C434 500 373 500 373 500 C373 500 373 487 373 487 C373 487 382 487 382 487 C410 487 434 449 434 404 C434 404 434 121 434 121 C434 121 434 66 434 66 C409 35 340 8 253 8 C159 8 95 77 95 159 C95 159 96 500 96 500 C96 500 86 500 86 500 C86 500 76 500 76 500 C76 500 15 500 15 500 C15 500 15 487 15 487 C15 487 24 487 24 487 C52 487 76 449 76 404 C76 404 76 156 76 156 C76 69 141 -5 237 -5 C327 -5 402 26 434 63 C434 63 434 5 434 5 C434 5 434 0 434 0 C434 0 438 0 438 0 C438 0 514 22 514 22 C514 22 514 29 514 29 L514 29 Z " />
<glyph glyph-name="Uring" unicode="&#x16e;" horiz-adv-x="662" d="M342 699 C300 699 255 744 255 788 C255 835 295 876 342 876 C390 876 430 835 430 788 C430 744 385 699 342 699 L342 699 Z M249 788 C249 743 297 695 342 695 C387 695 435 743 435 788 C435 837 392 880 342 880 C292 880 249 837 249 788 L249 788 Z M643 660 C643 660 574 660 574 660 C574 660 571 660 571 660 C571 660 567 660 567 660 C567 660 494 660 494 660 C494 660 494 647 494 647 C494 647 505 647 505 647 C539 647 567 604 567 554 C567 554 567 176 567 176 C567 82 491 3 350 3 C209 3 132 93 132 199 C132 199 132 564 132 564 C132 609 155 647 183 647 C183 647 192 647 192 647 C193 647 193 650 192 654 C193 657 193 660 192 660 C192 660 132 660 132 660 C132 660 121 660 121 660 C121 660 110 660 110 660 C110 660 50 660 50 660 C50 660 50 647 50 647 C50 647 59 647 59 647 C86 647 110 609 110 564 C110 564 110 203 110 203 C110 91 193 -5 347 -5 C494 -5 574 77 574 173 C574 173 574 554 574 554 C574 604 601 647 632 647 C632 647 643 647 643 647 C643 647 643 660 643 660 L643 660 Z " />
<glyph glyph-name="uring" unicode="&#x16f;" horiz-adv-x="549" d="M265 539 C222 539 177 584 177 628 C177 675 217 716 265 716 C312 716 352 675 352 628 C352 584 307 539 265 539 L265 539 Z M171 628 C171 583 219 535 265 535 C310 535 358 583 358 628 C358 677 315 720 265 720 C214 720 171 677 171 628 L171 628 Z M514 29 C471 38 455 54 454 114 C454 114 454 127 454 127 C454 127 454 500 454 500 C454 500 444 500 444 500 C444 500 434 500 434 500 C434 500 373 500 373 500 C373 500 373 487 373 487 C373 487 382 487 382 487 C410 487 434 449 434 404 C434 404 434 121 434 121 C434 121 434 66 434 66 C409 35 340 8 253 8 C159 8 95 77 95 159 C95 159 96 500 96 500 C96 500 86 500 86 500 C86 500 76 500 76 500 C76 500 15 500 15 500 C15 500 15 487 15 487 C15 487 24 487 24 487 C52 487 76 449 76 404 C76 404 76 156 76 156 C76 69 141 -5 237 -5 C327 -5 402 26 434 63 C434 63 434 5 434 5 C434 5 434 0 434 0 C434 0 438 0 438 0 C438 0 514 22 514 22 C514 22 514 29 514 29 L514 29 Z " />
<glyph glyph-name="Wcircumflex" unicode="&#x174;" horiz-adv-x="859" d="M765 564 C765 564 765 564 765 564 C765 564 615 21 615 21 C615 21 429 670 429 670 C429 670 423 670 423 670 C423 670 255 19 255 19 C255 19 97 564 97 564 C97 564 97 564 97 564 C84 609 100 647 132 647 C132 647 142 647 142 647 C142 647 142 660 142 660 C142 660 69 660 69 660 C69 660 57 660 57 660 C57 660 45 660 45 660 C45 660 1 660 1 660 C1 660 1 647 1 647 C1 647 8 647 8 647 C28 647 55 616 70 577 C70 577 246 -15 246 -15 C246 -15 251 -15 251 -15 C251 -15 419 632 419 632 C419 632 605 -15 605 -15 C605 -15 610 -15 610 -15 C610 -15 773 571 773 571 C788 613 819 647 846 647 C846 647 855 647 855 647 C856 647 856 650 855 654 C856 657 856 660 855 660 C855 660 798 660 798 660 C798 660 795 660 795 660 C795 660 792 660 792 660 C792 660 707 660 707 660 C706 660 706 657 707 654 C706 650 706 647 707 647 C707 647 719 647 719 647 C756 647 778 609 765 564 C765 564 765 564 765 564 L765 564 Z M426 882 C426 882 540 694 540 694 C540 694 542 696 542 696 C542 696 432 899 432 899 C431 901 428 905 426 905 C424 905 420 901 420 899 C420 899 310 696 310 696 C310 696 312 694 312 694 C312 694 426 882 426 882 L426 882 Z " />
<glyph glyph-name="Ycircumflex" unicode="&#x176;" horiz-adv-x="549" d="M359 13 C359 13 350 13 350 13 C322 13 298 51 298 96 C298 96 298 256 298 256 C298 256 298 256 298 256 C298 256 455 564 455 564 C455 564 455 564 455 564 C478 609 519 647 543 647 C543 647 551 647 551 647 C551 647 551 660 551 660 C551 660 504 660 504 660 C504 660 501 660 501 660 C501 660 498 660 498 660 C498 660 409 660 409 660 C409 660 409 647 409 647 C409 647 421 647 421 647 C459 647 467 600 439 544 C439 544 439 544 439 544 C439 544 293 256 293 256 C293 256 292 256 292 256 C292 256 294 259 294 259 C294 259 139 573 139 573 C122 614 130 647 159 647 C159 647 169 647 169 647 C169 647 169 660 169 660 C169 660 96 660 96 660 C96 660 83 660 83 660 C83 660 70 660 70 660 C70 660 32 660 32 660 C32 660 32 647 32 647 C32 647 38 647 38 647 C58 647 93 612 116 569 C116 569 276 247 276 247 C276 247 276 96 276 96 C276 51 252 13 225 13 C225 13 216 13 216 13 C216 13 216 0 216 0 C216 0 276 0 276 0 C276 0 287 0 287 0 C287 0 298 0 298 0 C298 0 359 0 359 0 C359 0 359 13 359 13 L359 13 Z M287 882 C287 882 401 694 401 694 C401 694 403 696 403 696 C403 696 294 899 294 899 C293 901 290 905 287 905 C285 905 282 901 281 899 C281 899 171 696 171 696 C171 696 173 694 173 694 C173 694 287 882 287 882 L287 882 Z " />
<glyph glyph-name="Ydieresis" unicode="&#x178;" horiz-adv-x="549" d="M371 730 C382 730 391 739 391 750 C391 761 382 770 371 770 C360 770 351 761 351 750 C351 739 360 730 371 730 L371 730 Z M204 730 C215 730 224 739 224 750 C224 761 215 770 204 770 C193 770 184 761 184 750 C184 739 193 730 204 730 L204 730 Z M359 13 C359 13 350 13 350 13 C322 13 298 51 298 96 C298 96 298 256 298 256 C298 256 298 256 298 256 C298 256 455 564 455 564 C455 564 455 564 455 564 C478 609 519 647 543 647 C543 647 551 647 551 647 C551 647 551 660 551 660 C551 660 504 660 504 660 C504 660 501 660 501 660 C501 660 498 660 498 660 C498 660 409 660 409 660 C409 660 409 647 409 647 C409 647 421 647 421 647 C459 647 467 600 439 544 C439 544 439 544 439 544 C439 544 293 256 293 256 C293 256 292 256 292 256 C292 256 294 259 294 259 C294 259 139 573 139 573 C122 614 130 647 159 647 C159 647 169 647 169 647 C169 647 169 660 169 660 C169 660 96 660 96 660 C96 660 83 660 83 660 C83 660 70 660 70 660 C70 660 32 660 32 660 C32 660 32 647 32 647 C32 647 38 647 38 647 C58 647 93 612 116 569 C116 569 276 247 276 247 C276 247 276 96 276 96 C276 51 252 13 225 13 C225 13 216 13 216 13 C216 13 216 0 216 0 C216 0 276 0 276 0 C276 0 287 0 287 0 C287 0 298 0 298 0 C298 0 359 0 359 0 C359 0 359 13 359 13 L359 13 Z " />
<glyph glyph-name="Zacute" unicode="&#x179;" horiz-adv-x="587" d="M333 692 C333 692 440 823 440 823 C464 853 485 880 485 881 C485 883 477 889 474 889 C473 889 453 862 430 831 C430 831 331 693 331 693 C331 693 333 692 333 692 L333 692 Z M524 3 C530 35 539 89 545 121 C545 121 544 122 542 122 C536 125 530 127 530 127 C530 127 522 109 522 109 C499 54 432 7 374 6 C374 6 370 6 370 6 C370 6 90 6 90 6 C90 6 529 660 529 660 C529 660 517 660 517 660 C517 660 504 660 504 660 C504 660 233 660 233 660 C233 660 142 660 142 660 C142 660 137 660 137 660 C136 659 136 658 136 657 C129 630 116 584 109 558 C109 558 119 558 119 558 C119 558 129 572 129 572 C159 617 231 655 284 655 C284 655 501 655 501 655 C501 655 62 0 62 0 C62 0 74 0 74 0 C74 0 86 0 86 0 C86 0 427 0 427 0 C427 0 523 0 523 0 C523 0 524 0 524 0 C524 0 524 3 524 3 L524 3 Z " />
<glyph glyph-name="zacute" unicode="&#x17a;" horiz-adv-x="483" d="M177 532 C177 532 284 663 284 663 C308 693 329 720 329 721 C329 723 320 729 317 729 C316 729 296 702 273 671 C273 671 174 533 174 533 C174 533 177 532 177 532 L177 532 Z M435 126 C435 126 427 108 427 108 C404 52 334 4 275 5 C275 5 275 5 275 5 C275 5 92 4 92 4 C92 4 434 500 434 500 C434 500 422 500 422 500 C422 500 411 500 411 500 C411 500 167 500 167 500 C167 500 76 500 76 500 C76 500 71 500 71 500 C71 499 71 498 70 498 C65 477 56 443 50 423 C50 423 60 423 60 423 C60 423 69 433 69 433 C96 467 165 495 219 495 C219 495 219 495 219 495 C219 495 408 496 408 496 C408 496 65 0 65 0 C65 0 77 0 77 0 C77 0 89 0 89 0 C89 0 333 0 333 0 C333 0 428 0 428 0 C428 0 429 0 429 0 C429 0 429 2 429 2 C435 34 445 88 450 120 C445 122 435 126 435 126 L435 126 Z " />
<glyph glyph-name="Zdotaccent" unicode="&#x17b;" horiz-adv-x="587" d="M336 730 C347 730 356 739 356 750 C356 761 347 770 336 770 C325 770 316 761 316 750 C316 739 325 730 336 730 L336 730 Z M524 3 C530 35 539 89 545 121 C545 121 544 122 542 122 C536 125 530 127 530 127 C530 127 522 109 522 109 C499 54 432 7 374 6 C374 6 370 6 370 6 C370 6 90 6 90 6 C90 6 529 660 529 660 C529 660 517 660 517 660 C517 660 504 660 504 660 C504 660 233 660 233 660 C233 660 142 660 142 660 C142 660 137 660 137 660 C136 659 136 658 136 657 C129 630 116 584 109 558 C109 558 119 558 119 558 C119 558 129 572 129 572 C159 617 231 655 284 655 C284 655 501 655 501 655 C501 655 62 0 62 0 C62 0 74 0 74 0 C74 0 86 0 86 0 C86 0 427 0 427 0 C427 0 523 0 523 0 C523 0 524 0 524 0 C524 0 524 3 524 3 L524 3 Z " />
<glyph glyph-name="zdotaccent" unicode="&#x17c;" horiz-adv-x="483" d="M255 570 C266 570 275 579 275 590 C275 601 266 610 255 610 C244 610 235 601 235 590 C235 579 244 570 255 570 L255 570 Z M435 126 C435 126 427 108 427 108 C404 52 334 4 275 5 C275 5 275 5 275 5 C275 5 92 4 92 4 C92 4 434 500 434 500 C434 500 422 500 422 500 C422 500 411 500 411 500 C411 500 167 500 167 500 C167 500 76 500 76 500 C76 500 71 500 71 500 C71 499 71 498 70 498 C65 477 56 443 50 423 C50 423 60 423 60 423 C60 423 69 433 69 433 C96 467 165 495 219 495 C219 495 219 495 219 495 C219 495 408 496 408 496 C408 496 65 0 65 0 C65 0 77 0 77 0 C77 0 89 0 89 0 C89 0 333 0 333 0 C333 0 428 0 428 0 C428 0 429 0 429 0 C429 0 429 2 429 2 C435 34 445 88 450 120 C445 122 435 126 435 126 L435 126 Z " />
<glyph glyph-name="Zcaron" unicode="&#x17d;" horiz-adv-x="587" d="M336 738 C336 738 450 926 450 926 C450 926 452 924 452 924 C452 924 342 721 342 721 C341 719 338 715 336 715 C333 715 330 719 329 721 C329 721 219 924 219 924 C219 924 221 926 221 926 C221 926 336 738 336 738 L336 738 Z M524 3 C530 35 539 89 545 121 C545 121 544 122 542 122 C536 125 530 127 530 127 C530 127 522 109 522 109 C499 54 432 7 374 6 C374 6 370 6 370 6 C370 6 90 6 90 6 C90 6 529 660 529 660 C529 660 517 660 517 660 C517 660 504 660 504 660 C504 660 233 660 233 660 C233 660 142 660 142 660 C142 660 137 660 137 660 C136 659 136 658 136 657 C129 630 116 584 109 558 C109 558 119 558 119 558 C119 558 129 572 129 572 C159 617 231 655 284 655 C284 655 501 655 501 655 C501 655 62 0 62 0 C62 0 74 0 74 0 C74 0 86 0 86 0 C86 0 427 0 427 0 C427 0 523 0 523 0 C523 0 524 0 524 0 C524 0 524 3 524 3 L524 3 Z " />
<glyph glyph-name="zcaron" unicode="&#x17e;" horiz-adv-x="483" d="M435 126 C435 126 427 108 427 108 C404 52 334 4 275 5 C275 5 275 5 275 5 C275 5 92 4 92 4 C92 4 434 500 434 500 C434 500 422 500 422 500 C422 500 411 500 411 500 C411 500 167 500 167 500 C167 500 76 500 76 500 C76 500 71 500 71 500 C71 499 71 498 70 498 C65 477 56 443 50 423 C50 423 60 423 60 423 C60 423 69 433 69 433 C96 467 165 495 219 495 C219 495 219 495 219 495 C219 495 408 496 408 496 C408 496 65 0 65 0 C65 0 77 0 77 0 C77 0 89 0 89 0 C89 0 333 0 333 0 C333 0 428 0 428 0 C428 0 429 0 429 0 C429 0 429 2 429 2 C435 34 445 88 450 120 C445 122 435 126 435 126 L435 126 Z M255 577 C255 577 369 766 369 766 C369 766 371 764 371 764 C371 764 261 561 261 561 C261 559 257 555 255 555 C253 555 250 559 249 561 C249 561 139 764 139 764 C139 764 141 766 141 766 C141 766 255 577 255 577 L255 577 Z " />
<glyph glyph-name="SmallLetterOwithogon" unicode="&#x1eb;" horiz-adv-x="699" d="M713 -50 C713 -50 711 -49 711 -49 C683 -81 622 -109 578 -109 C507 -109 420 -61 362 -5 C533 -4 649 141 649 277 C649 413 532 558 360 558 C189 558 72 413 72 277 C72 141 187 -2 355 -5 C420 -68 510 -122 576 -122 C617 -122 681 -89 713 -50 L713 -50 Z M360 0 C201 0 93 142 93 277 C93 411 201 553 360 553 C519 553 628 411 628 277 C628 142 519 0 360 0 L360 0 Z " />
<glyph glyph-name="CapitalLetterAwithdo" unicode="&#x226;" horiz-adv-x="573" d="M286 730 C297 730 306 739 306 750 C306 761 297 770 286 770 C275 770 266 761 266 750 C266 739 275 730 286 730 L286 730 Z M566 13 C566 13 558 13 558 13 C536 13 506 44 489 84 C489 84 289 675 289 675 C289 675 284 675 284 675 C284 675 94 96 94 96 C94 96 94 96 94 96 C80 51 43 13 16 13 C16 13 6 13 6 13 C6 13 6 0 6 0 C6 0 63 0 63 0 C63 0 67 0 67 0 C67 0 70 0 70 0 C70 0 159 0 159 0 C159 0 159 13 159 13 C159 13 146 13 146 13 C107 13 89 57 106 110 C106 110 145 232 145 232 C145 232 417 232 417 232 C417 232 462 96 462 96 C477 51 459 13 422 13 C422 13 409 13 409 13 C409 13 409 0 409 0 C409 0 494 0 494 0 C494 0 506 0 506 0 C506 0 518 0 518 0 C518 0 566 0 566 0 C566 0 566 13 566 13 L566 13 Z M415 238 C415 238 147 238 147 238 C147 238 279 645 279 645 C279 645 415 238 415 238 L415 238 Z " />
<glyph glyph-name="LETTERSMALLCAPITALG" unicode="&#x262;" horiz-adv-x="747" d="M653 260 C653 260 592 260 592 260 C592 260 584 260 584 260 C584 260 575 260 575 260 C575 260 514 260 514 260 C514 260 514 247 514 247 C514 247 523 247 523 247 C551 248 575 209 575 164 C575 164 575 55 575 55 C515 25 421 0 362 0 C217 0 93 127 93 277 C93 426 217 553 362 553 C373 553 385 552 399 550 C469 540 545 481 565 422 C568 413 573 399 576 391 C576 391 587 391 587 391 C587 391 587 496 587 496 C526 530 422 558 362 558 C206 558 72 429 72 277 C72 125 206 -5 362 -5 C427 -5 533 24 592 59 C592 59 592 164 592 164 C593 209 616 248 644 247 C644 247 653 247 653 247 C653 247 653 260 653 260 L653 260 Z " />
<glyph glyph-name="LETTERSMALLCAPITALI" unicode="&#x26a;" horiz-adv-x="222" d="M182 553 C163 554 131 554 112 553 C93 552 61 554 41 553 C41 553 41 541 41 541 C41 541 50 541 50 541 C78 541 102 502 102 457 C102 457 102 96 102 96 C102 51 78 13 50 13 C50 13 41 13 41 13 C41 13 41 0 41 0 C41 0 102 0 102 0 C102 0 112 0 112 0 C112 0 121 0 121 0 C121 0 182 0 182 0 C182 0 182 13 182 13 C182 13 173 13 173 13 C145 13 122 51 121 96 C121 96 121 457 121 457 C122 502 145 541 173 541 C173 541 182 541 182 541 C182 541 182 553 182 553 L182 553 Z " />
<glyph glyph-name="LETTERSMALLCAPITALN" unicode="&#x274;" horiz-adv-x="600" d="M562 553 C545 554 515 554 499 553 C482 554 452 554 435 553 C435 553 435 541 435 541 C435 541 444 541 444 541 C472 541 496 502 496 457 C496 457 496 29 496 29 C496 29 123 553 123 553 C123 553 112 545 112 545 C112 545 112 545 112 545 C112 545 123 553 123 553 C123 553 112 553 112 553 C112 553 109 553 109 553 C92 554 63 554 46 553 C46 553 46 541 46 541 C46 541 55 541 55 541 C82 541 106 502 106 457 C106 457 106 96 106 96 C106 51 82 13 55 13 C55 13 46 13 46 13 C46 13 46 0 46 0 C46 0 106 0 106 0 C106 0 109 0 109 0 C109 0 112 0 112 0 C112 0 173 0 173 0 C173 0 173 13 173 13 C173 13 164 13 164 13 C136 13 112 51 112 96 C112 96 112 536 112 536 C112 536 487 8 487 8 C487 8 496 -4 496 -4 C496 -4 501 -4 501 -4 C501 -4 501 15 501 15 C501 15 501 457 501 457 C502 502 525 541 553 541 C553 541 562 541 562 541 C562 541 562 553 562 553 L562 553 Z " />
<glyph glyph-name="LETTERSMALLCAPITALR" unicode="&#x280;" horiz-adv-x="554" d="M60 541 C60 541 69 541 69 541 C97 541 121 502 121 457 C121 457 121 96 121 96 C121 51 97 13 69 13 C69 13 60 13 60 13 C60 13 60 0 60 0 C60 0 121 0 121 0 C121 0 130 0 130 0 C130 0 140 0 140 0 C140 0 201 0 201 0 C201 0 201 13 201 13 C201 13 192 13 192 13 C164 13 140 51 140 96 C140 96 140 260 140 260 C140 260 218 260 218 260 C218 260 399 106 399 106 C506 14 526 0 543 0 C543 0 554 0 554 0 C554 0 554 4 554 4 C554 4 549 4 549 4 C542 4 525 17 426 102 C426 102 241 260 241 260 C340 266 422 331 422 409 C422 487 343 553 250 553 C250 553 140 553 140 553 C140 553 130 553 130 553 C111 554 79 554 60 553 C60 553 60 541 60 541 L60 541 Z M228 265 C228 265 212 265 212 265 C212 265 140 265 140 265 C140 265 140 548 140 548 C140 548 250 548 250 548 C332 548 402 484 402 409 C402 331 322 265 228 265 L228 265 Z " />
<glyph glyph-name="LETTERSMALLCAPITALY" unicode="&#x28f;" horiz-adv-x="487" d="M327 13 C327 13 318 13 318 13 C290 13 266 51 266 96 C266 96 266 214 266 214 C266 214 394 461 394 461 C418 504 457 541 480 541 C480 541 488 541 488 541 C489 541 489 544 488 547 C489 551 489 554 488 553 C475 554 453 554 439 553 C415 554 373 554 348 553 C348 552 348 550 347 547 C348 544 348 541 347 541 C347 541 360 541 360 541 C398 541 405 493 376 437 C376 437 376 437 376 437 C376 437 262 216 262 216 C262 216 142 457 142 457 C142 457 142 457 142 457 C119 502 126 541 157 541 C157 541 167 541 167 541 C167 541 167 553 167 553 C144 554 105 554 82 553 C69 554 46 554 32 553 C32 553 32 541 32 541 C32 541 39 541 39 541 C60 541 97 502 119 457 C119 457 120 457 120 457 C120 457 247 207 247 207 C247 207 247 96 247 96 C247 51 223 13 195 13 C195 13 186 13 186 13 C186 13 186 0 186 0 C186 0 247 0 247 0 C247 0 256 0 256 0 C256 0 266 0 266 0 C266 0 327 0 327 0 C327 0 327 13 327 13 L327 13 Z M348 553 C347 553 347 553 347 553 C347 553 347 553 348 553 C348 553 348 553 348 553 L348 553 Z " />
<glyph glyph-name="LETTERSMALLCAPITALB" unicode="&#x299;" horiz-adv-x="491" d="M60 541 C60 541 69 541 69 541 C97 541 121 502 121 457 C121 457 121 96 121 96 C121 51 97 13 69 13 C69 13 60 13 60 13 C60 13 60 0 60 0 C60 0 121 0 121 0 C121 0 130 0 130 0 C130 0 140 0 140 0 C140 0 270 0 270 0 C379 0 472 67 472 146 C472 215 382 276 269 289 C354 303 420 361 420 427 C420 495 341 553 249 553 C249 553 140 553 140 553 C140 553 130 553 130 553 C111 554 79 554 60 553 C60 553 60 541 60 541 L60 541 Z M254 290 C244 291 234 291 224 291 C224 291 140 290 140 290 C140 290 140 548 140 548 C140 548 249 548 249 548 C331 548 401 493 401 427 C401 359 336 301 254 290 C254 290 254 290 254 290 L254 290 Z M247 286 C361 277 452 216 452 146 C452 70 368 5 268 5 C268 5 140 5 140 5 C140 5 140 285 140 285 C140 285 227 285 227 285 C234 285 241 285 247 286 L247 286 Z " />
<glyph glyph-name="LETTERSMALLCAPITALH" unicode="&#x29c;" horiz-adv-x="671" d="M632 553 C613 554 580 554 561 553 C542 552 510 554 491 553 C491 553 491 541 491 541 C491 541 500 541 500 541 C528 541 552 502 552 457 C552 457 552 288 552 288 C552 288 121 288 121 288 C121 288 121 457 121 457 C121 502 144 541 172 541 C172 541 181 541 181 541 C181 541 181 553 181 553 C163 554 130 554 111 553 C92 552 60 554 41 553 C41 553 41 541 41 541 C41 541 50 541 50 541 C77 541 101 502 101 457 C101 457 101 96 101 96 C101 51 77 13 50 13 C50 13 41 13 41 13 C41 13 41 0 41 0 C41 0 101 0 101 0 C101 0 111 0 111 0 C111 0 121 0 121 0 C121 0 181 0 181 0 C181 0 181 13 181 13 C181 13 172 13 172 13 C144 13 121 51 121 96 C121 96 121 283 121 283 C121 283 552 283 552 283 C552 283 552 96 552 96 C552 51 528 13 500 13 C500 13 491 13 491 13 C491 13 491 0 491 0 C491 0 552 0 552 0 C552 0 561 0 561 0 C561 0 571 0 571 0 C571 0 632 0 632 0 C632 0 632 13 632 13 C632 13 623 13 623 13 C595 13 571 51 571 96 C571 96 571 457 571 457 C571 502 595 541 623 541 C623 541 632 541 632 541 C632 541 632 553 632 553 L632 553 Z " />
<glyph glyph-name="LETTERSMALLCAPITALL" unicode="&#x29f;" horiz-adv-x="471" d="M378 126 C378 126 370 108 370 108 C346 52 276 5 217 5 C217 5 121 5 121 5 C121 5 121 457 121 457 C121 502 144 541 172 541 C172 541 181 541 181 541 C181 541 181 553 181 553 C163 554 130 554 111 553 C92 552 60 554 41 553 C41 553 41 541 41 541 C41 541 50 541 50 541 C77 541 101 502 101 457 C101 457 101 96 101 96 C101 51 77 13 50 13 C50 13 41 13 41 13 C41 13 41 0 41 0 C41 0 101 0 101 0 C101 0 111 0 111 0 C111 0 121 0 121 0 C121 0 275 0 275 0 C275 0 371 0 371 0 C372 1 372 2 372 2 C378 34 387 89 393 120 C387 122 378 126 378 126 L378 126 Z " />
<glyph glyph-name="LETTERSMALLCAPITALA" unicode="&#x1d00;" horiz-adv-x="510" d="M504 13 C504 13 496 13 496 13 C472 13 438 51 422 96 C422 96 422 96 422 96 C422 96 258 566 258 566 C258 566 253 566 253 566 C253 566 95 96 95 96 C95 96 95 96 95 96 C80 51 43 13 16 13 C16 13 7 13 7 13 C7 13 7 0 7 0 C7 0 63 0 63 0 C63 0 66 0 66 0 C66 0 70 0 70 0 C70 0 158 0 158 0 C158 0 158 13 158 13 C158 13 146 13 146 13 C107 13 89 58 107 111 C107 111 107 111 107 111 C107 111 134 194 134 194 C134 194 368 194 368 194 C368 194 401 96 401 96 C401 96 401 96 401 96 C417 51 399 13 362 13 C362 13 350 13 350 13 C350 13 350 0 350 0 C350 0 434 0 434 0 C434 0 445 0 445 0 C445 0 455 0 455 0 C455 0 504 0 504 0 C504 0 504 13 504 13 L504 13 Z M366 199 C366 199 136 199 136 199 C136 199 249 540 249 540 C249 540 366 199 366 199 L366 199 Z " />
<glyph glyph-name="LETTERSMALLCAPITALC" unicode="&#x1d04;" horiz-adv-x="667" d="M607 391 C607 391 607 496 607 496 C546 530 438 558 374 558 C211 558 72 429 72 277 C72 125 211 -5 374 -5 C447 -5 555 28 607 67 C607 67 606 69 606 69 C606 69 606 69 606 69 C606 69 607 67 607 67 C607 67 607 172 607 172 C607 172 597 172 597 172 C594 163 589 148 586 140 C562 68 471 5 386 0 C382 0 378 0 374 0 C222 0 93 127 93 277 C93 426 222 553 374 553 C390 553 409 551 430 548 C497 532 566 477 585 422 C588 413 593 399 596 391 C596 391 607 391 607 391 L607 391 Z " />
<glyph glyph-name="LETTERSMALLCAPITALD" unicode="&#x1d05;" horiz-adv-x="590" d="M60 541 C60 541 69 541 69 541 C97 541 121 502 121 457 C121 457 121 96 121 96 C121 51 97 13 69 13 C69 13 60 13 60 13 C60 13 60 0 60 0 C60 0 121 0 121 0 C121 0 130 0 130 0 C130 0 140 0 140 0 C140 0 268 0 268 0 C415 0 540 127 540 277 C540 426 400 553 236 553 C236 553 140 553 140 553 C140 553 130 553 130 553 C111 554 79 554 60 553 C60 553 60 541 60 541 L60 541 Z M140 5 C140 5 140 548 140 548 C140 548 236 548 236 548 C390 548 521 423 521 277 C521 130 404 5 268 5 C268 5 140 5 140 5 L140 5 Z " />
<glyph glyph-name="LETTERSMALLCAPITALE" unicode="&#x1d07;" horiz-adv-x="471" d="M306 216 C306 216 306 285 306 285 C306 285 306 287 306 287 C306 287 306 289 306 289 C306 289 306 350 306 350 C306 350 295 350 295 350 C295 350 293 341 293 341 C284 313 226 290 167 289 C167 289 121 289 121 289 C121 289 121 548 121 548 C121 548 198 548 198 548 C263 548 332 506 348 456 C348 456 354 439 354 439 C354 439 363 439 363 439 C363 439 363 551 363 551 C363 551 363 553 363 553 C363 554 360 554 357 553 C355 554 352 554 351 553 C328 554 289 554 267 553 C267 553 121 553 121 553 C121 553 111 553 111 553 C92 554 60 554 41 553 C41 553 41 541 41 541 C41 541 50 541 50 541 C77 541 101 502 101 457 C101 457 101 96 101 96 C101 51 77 13 50 13 C50 13 41 13 41 13 C41 13 41 0 41 0 C41 0 101 0 101 0 C101 0 111 0 111 0 C111 0 121 0 121 0 C121 0 275 0 275 0 C275 0 371 0 371 0 C372 1 372 2 372 2 C377 32 386 84 392 114 C392 114 382 114 382 114 C382 114 374 98 374 98 C348 47 272 5 207 5 C207 5 121 5 121 5 C121 5 121 285 121 285 C121 285 167 285 167 285 C226 285 284 258 293 226 C293 226 295 216 295 216 C295 216 306 216 306 216 L306 216 Z " />
<glyph glyph-name="LETTERSMALLCAPITALJ" unicode="&#x1d0a;" horiz-adv-x="269" d="M230 553 C210 554 178 554 159 553 C140 552 108 554 89 553 C89 553 89 541 89 541 C89 541 98 541 98 541 C126 541 150 502 150 457 C150 457 150 168 150 168 C150 55 121 -6 69 -6 C48 -6 25 20 17 50 C16 54 12 58 8 58 C3 58 -1 54 0 50 C8 18 37 -10 64 -10 C132 -10 169 58 169 184 C169 184 169 457 169 457 C169 502 193 541 221 541 C221 541 230 541 230 541 C230 541 230 553 230 553 L230 553 Z " />
<glyph glyph-name="LETTERSMALLCAPITALK" unicode="&#x1d0b;" horiz-adv-x="549" d="M328 457 C328 457 328 457 328 457 C328 457 155 311 155 311 C155 311 155 311 155 311 C155 311 140 298 140 298 C140 298 140 457 140 457 C140 502 164 541 192 541 C192 541 201 541 201 541 C201 541 201 553 201 553 C182 554 149 554 130 553 C111 552 79 554 60 553 C60 553 60 541 60 541 C60 541 69 541 69 541 C97 541 121 502 121 457 C121 457 121 96 121 96 C121 51 97 13 69 13 C69 13 60 13 60 13 C60 13 60 0 60 0 C60 0 121 0 121 0 C121 0 130 0 130 0 C130 0 140 0 140 0 C140 0 201 0 201 0 C201 0 201 13 201 13 C201 13 192 13 192 13 C164 13 140 51 140 96 C140 96 140 298 140 298 C140 298 143 294 143 294 C143 294 144 295 144 295 C144 295 253 197 253 197 C399 66 496 -5 528 -5 C528 -5 539 -5 539 -5 C539 -5 539 -1 539 -1 C539 -1 534 -1 534 -1 C515 -1 422 73 268 210 C268 210 159 308 159 308 C159 308 335 457 335 457 C335 457 335 457 335 457 C388 502 457 541 485 541 C485 541 494 541 494 541 C494 541 494 553 494 553 C480 554 458 554 445 553 C428 554 399 554 382 553 C381 554 381 551 382 547 C381 544 381 541 382 541 C382 541 388 541 388 541 C409 541 382 502 328 457 C328 457 328 457 328 457 L328 457 Z " />
<glyph glyph-name="LETTERSMALLCAPITALM" unicode="&#x1d0d;" horiz-adv-x="699" d="M691 13 C691 13 681 13 681 13 C657 13 633 44 626 83 C626 83 606 466 606 466 C606 507 626 541 652 541 C652 541 661 541 661 541 C660 541 660 544 661 547 C660 550 660 552 660 553 C641 554 610 554 592 553 C592 553 590 553 590 553 C590 553 583 553 583 553 C583 553 368 19 368 19 C368 19 366 23 366 23 C366 23 140 553 140 553 C140 553 131 553 131 553 C131 553 128 553 128 553 C111 554 82 554 65 553 C65 553 65 541 65 541 C65 541 74 541 74 541 C99 541 120 507 121 466 C121 466 104 83 104 83 C98 44 74 13 49 13 C49 13 40 13 40 13 C40 13 40 0 40 0 C40 0 100 0 100 0 C100 0 103 0 103 0 C103 0 106 0 106 0 C106 0 195 0 195 0 C195 0 195 13 195 13 C195 13 182 13 182 13 C141 13 110 57 111 110 C111 110 130 529 130 529 C130 529 353 8 353 8 C353 8 358 -5 358 -5 C358 -5 363 -5 363 -5 C363 -5 584 538 584 538 C584 538 606 96 606 96 C606 96 606 96 606 96 C609 51 587 13 560 13 C560 13 551 13 551 13 C551 13 551 0 551 0 C551 0 611 0 611 0 C611 0 621 0 621 0 C621 0 631 0 631 0 C631 0 691 0 691 0 C691 0 691 13 691 13 L691 13 Z M660 553 C661 553 661 553 661 553 C661 553 661 553 660 553 C660 553 660 553 660 553 L660 553 Z " />
<glyph glyph-name="LETTERSMALLCAPITALO" unicode="&#x1d0f;" horiz-adv-x="699" d="M360 0 C201 0 93 142 93 277 C93 411 201 553 360 553 C519 553 628 411 628 277 C628 142 519 0 360 0 L360 0 Z M72 277 C72 140 189 -5 360 -5 C532 -5 649 140 649 277 C649 413 532 558 360 558 C189 558 72 413 72 277 L72 277 Z " />
<glyph glyph-name="LETTERSMALLCAPITALP" unicode="&#x1d18;" horiz-adv-x="476" d="M60 541 C60 541 69 541 69 541 C97 541 121 502 121 457 C121 457 121 96 121 96 C121 51 97 13 69 13 C69 13 60 13 60 13 C60 13 60 0 60 0 C60 0 121 0 121 0 C121 0 130 0 130 0 C130 0 140 0 140 0 C140 0 201 0 201 0 C201 0 201 13 201 13 C201 13 192 13 192 13 C164 13 140 51 140 96 C140 96 140 245 140 245 C140 245 239 245 239 245 C356 245 456 315 456 397 C456 481 368 553 264 553 C264 553 140 553 140 553 C140 553 130 553 130 553 C111 554 79 554 60 553 C60 553 60 541 60 541 L60 541 Z M140 250 C140 250 140 548 140 548 C140 548 264 548 264 548 C357 548 436 479 436 397 C436 318 345 250 239 250 C239 250 140 250 140 250 L140 250 Z " />
<glyph glyph-name="LETTERSMALLCAPITALT" unicode="&#x1d1b;" horiz-adv-x="560" d="M536 427 C533 461 528 517 525 551 C525 551 525 553 525 553 C525 554 522 554 519 553 C517 554 514 554 512 553 C490 554 451 554 429 553 C429 553 131 553 131 553 C109 554 70 554 48 553 C46 554 43 554 41 553 C38 554 35 554 35 553 C35 553 35 551 35 551 C32 517 27 461 24 427 C24 427 34 427 34 427 C34 427 44 450 44 450 C66 503 130 548 184 548 C184 548 270 548 270 548 C270 548 270 96 270 96 C270 51 246 13 219 13 C219 13 210 13 210 13 C210 13 210 0 210 0 C210 0 270 0 270 0 C270 0 280 0 280 0 C280 0 290 0 290 0 C290 0 350 0 350 0 C350 0 350 13 350 13 C350 13 341 13 341 13 C313 13 290 51 290 96 C290 96 290 548 290 548 C290 548 376 548 376 548 C430 548 494 503 516 450 C516 450 526 427 526 427 C526 427 536 427 536 427 L536 427 Z " />
<glyph glyph-name="LETTERSMALLCAPITALU" unicode="&#x1d1c;" horiz-adv-x="602" d="M583 553 C564 554 531 554 511 553 C491 552 456 554 436 553 C436 553 436 541 436 541 C436 541 446 541 446 541 C480 541 508 498 508 447 C508 447 508 146 508 146 C508 68 442 2 319 2 C197 2 130 77 130 166 C130 166 130 457 130 457 C130 502 154 541 182 541 C182 541 191 541 191 541 C191 541 191 553 191 553 C172 554 139 554 120 553 C101 552 69 554 50 553 C50 553 50 541 50 541 C50 541 59 541 59 541 C87 541 111 502 111 457 C111 457 111 169 111 169 C111 75 183 -5 317 -5 C445 -5 514 64 514 144 C514 144 514 447 514 447 C514 498 541 541 573 541 C573 541 583 541 583 541 C583 541 583 553 583 553 L583 553 Z " />
<glyph glyph-name="LETTERSMALLCAPITALV" unicode="&#x1d20;" horiz-adv-x="516" d="M516 553 C500 554 472 554 456 553 C429 554 383 554 356 553 C356 553 356 541 356 541 C356 541 370 541 370 541 C413 541 433 488 415 427 C415 427 415 427 415 427 C415 427 290 11 290 11 C290 11 124 457 124 457 C124 457 124 457 124 457 C107 502 123 541 158 541 C158 541 169 541 169 541 C169 541 169 553 169 553 C145 554 103 554 78 553 C63 554 38 554 23 553 C23 553 23 541 23 541 C23 541 31 541 31 541 C53 541 87 502 103 457 C103 457 103 457 103 457 C103 457 282 -15 282 -15 C282 -15 287 -15 287 -15 C287 -15 430 457 430 457 C430 457 430 457 430 457 C443 502 479 541 507 541 C507 541 516 541 516 541 C516 541 516 553 516 553 L516 553 Z " />
<glyph glyph-name="LETTERSMALLCAPITALW" unicode="&#x1d21;" horiz-adv-x="737" d="M733 553 C716 554 689 554 673 553 C649 554 608 554 585 553 C585 553 585 541 585 541 C585 541 597 541 597 541 C634 541 656 502 643 457 C643 457 643 457 643 457 C643 457 513 -15 513 -15 C513 -15 518 -15 518 -15 C518 -15 652 467 652 467 C666 508 698 541 724 541 C724 541 733 541 733 541 C733 541 733 553 733 553 L733 553 Z M140 553 C117 554 79 554 56 553 C41 554 15 554 1 553 C1 553 1 541 1 541 C1 541 8 541 8 541 C28 541 56 508 70 468 C70 468 215 -15 215 -15 C215 -15 220 -15 220 -15 C220 -15 358 532 358 532 C358 532 513 -15 513 -15 C513 -15 521 14 521 14 C521 14 366 563 366 563 C366 563 361 563 361 563 C361 563 215 -15 215 -15 C215 -15 222 13 222 13 C222 13 92 466 92 466 C84 507 100 541 129 541 C129 541 140 541 140 541 C140 541 140 553 140 553 L140 553 Z " />
<glyph glyph-name="LETTERSMALLCAPITALZ" unicode="&#x1d22;" horiz-adv-x="527" d="M465 3 C471 34 480 88 485 120 C485 120 484 121 483 121 C476 124 470 126 470 126 C470 126 463 108 463 108 C439 52 369 5 310 5 C310 5 87 5 87 5 C87 5 469 553 469 553 C469 553 458 553 458 553 C458 553 447 553 447 553 C447 553 234 553 234 553 C212 554 173 554 150 553 C149 554 146 554 144 553 C140 554 138 554 138 553 C137 552 137 551 137 551 C130 524 117 478 110 451 C110 451 121 451 121 451 C121 451 130 466 130 466 C161 510 232 548 285 548 C285 548 444 548 444 548 C444 548 63 0 63 0 C63 0 73 0 73 0 C73 0 84 0 84 0 C84 0 368 0 368 0 C368 0 464 0 464 0 C465 1 465 2 465 3 L465 3 Z " />
<glyph glyph-name="Wgrave" unicode="&#x1e80;" horiz-adv-x="859" d="M765 564 C765 564 765 564 765 564 C765 564 615 21 615 21 C615 21 429 670 429 670 C429 670 423 670 423 670 C423 670 255 19 255 19 C255 19 97 564 97 564 C97 564 97 564 97 564 C84 609 100 647 132 647 C132 647 142 647 142 647 C142 647 142 660 142 660 C142 660 69 660 69 660 C69 660 57 660 57 660 C57 660 45 660 45 660 C45 660 1 660 1 660 C1 660 1 647 1 647 C1 647 8 647 8 647 C28 647 55 616 70 577 C70 577 246 -15 246 -15 C246 -15 251 -15 251 -15 C251 -15 419 632 419 632 C419 632 605 -15 605 -15 C605 -15 610 -15 610 -15 C610 -15 773 571 773 571 C788 613 819 647 846 647 C846 647 855 647 855 647 C856 647 856 650 855 654 C856 657 856 660 855 660 C855 660 798 660 798 660 C798 660 795 660 795 660 C795 660 792 660 792 660 C792 660 707 660 707 660 C706 660 706 657 707 654 C706 650 706 647 707 647 C707 647 719 647 719 647 C756 647 778 609 765 564 C765 564 765 564 765 564 L765 564 Z M401 831 C378 862 357 889 356 889 C352 889 344 883 344 881 C344 878 365 852 390 823 C390 823 500 692 500 692 C500 692 503 693 503 693 C503 693 401 831 401 831 L401 831 Z " />
<glyph glyph-name="Wacute" unicode="&#x1e82;" horiz-adv-x="859" d="M363 692 C363 692 470 823 470 823 C494 853 514 880 515 881 C514 883 506 889 503 889 C503 889 483 862 459 831 C459 831 360 693 360 693 C360 693 363 692 363 692 L363 692 Z M765 564 C765 564 765 564 765 564 C765 564 615 21 615 21 C615 21 429 670 429 670 C429 670 423 670 423 670 C423 670 255 19 255 19 C255 19 97 564 97 564 C97 564 97 564 97 564 C84 609 100 647 132 647 C132 647 142 647 142 647 C142 647 142 660 142 660 C142 660 69 660 69 660 C69 660 57 660 57 660 C57 660 45 660 45 660 C45 660 1 660 1 660 C1 660 1 647 1 647 C1 647 8 647 8 647 C28 647 55 616 70 577 C70 577 246 -15 246 -15 C246 -15 251 -15 251 -15 C251 -15 419 632 419 632 C419 632 605 -15 605 -15 C605 -15 610 -15 610 -15 C610 -15 773 571 773 571 C788 613 819 647 846 647 C846 647 855 647 855 647 C856 647 856 650 855 654 C856 657 856 660 855 660 C855 660 798 660 798 660 C798 660 795 660 795 660 C795 660 792 660 792 660 C792 660 707 660 707 660 C706 660 706 657 707 654 C706 650 706 647 707 647 C707 647 719 647 719 647 C756 647 778 609 765 564 C765 564 765 564 765 564 L765 564 Z " />
<glyph glyph-name="Wdieresis" unicode="&#x1e84;" horiz-adv-x="859" d="M509 730 C520 730 529 739 529 750 C529 761 520 770 509 770 C498 770 489 761 489 750 C489 739 498 730 509 730 L509 730 Z M342 730 C353 730 362 739 362 750 C362 761 353 770 342 770 C331 770 322 761 322 750 C322 739 331 730 342 730 L342 730 Z M765 564 C765 564 765 564 765 564 C765 564 615 21 615 21 C615 21 429 670 429 670 C429 670 423 670 423 670 C423 670 255 19 255 19 C255 19 97 564 97 564 C97 564 97 564 97 564 C84 609 100 647 132 647 C132 647 142 647 142 647 C142 647 142 660 142 660 C142 660 69 660 69 660 C69 660 57 660 57 660 C57 660 45 660 45 660 C45 660 1 660 1 660 C1 660 1 647 1 647 C1 647 8 647 8 647 C28 647 55 616 70 577 C70 577 246 -15 246 -15 C246 -15 251 -15 251 -15 C251 -15 419 632 419 632 C419 632 605 -15 605 -15 C605 -15 610 -15 610 -15 C610 -15 773 571 773 571 C788 613 819 647 846 647 C846 647 855 647 855 647 C856 647 856 650 855 654 C856 657 856 660 855 660 C855 660 798 660 798 660 C798 660 795 660 795 660 C795 660 792 660 792 660 C792 660 707 660 707 660 C706 660 706 657 707 654 C706 650 706 647 707 647 C707 647 719 647 719 647 C756 647 778 609 765 564 C765 564 765 564 765 564 L765 564 Z " />
<glyph glyph-name="CapitalLetterEWITHTI" unicode="&#x1ebc;" horiz-adv-x="518" d="M111 755 C111 794 133 827 159 827 C215 827 288 764 344 764 C375 764 401 798 401 837 C401 837 397 837 397 837 C397 805 375 777 348 777 C292 777 219 840 163 840 C133 840 108 801 108 755 C108 755 111 755 111 755 L111 755 Z M352 271 C352 271 352 340 352 340 C352 340 352 342 352 342 C352 342 352 345 352 345 C352 345 352 406 352 406 C352 406 342 406 342 406 C342 406 339 397 339 397 C330 369 273 345 214 345 C214 345 122 345 122 345 C122 345 122 655 122 655 C122 655 245 655 245 655 C309 655 378 612 395 562 C395 562 401 545 401 545 C401 545 410 545 410 545 C410 545 410 657 410 657 C410 657 410 660 410 660 C410 660 407 660 407 660 C407 660 314 660 314 660 C314 660 122 660 122 660 C122 660 112 660 112 660 C112 660 101 660 101 660 C101 660 40 660 40 660 C40 660 40 647 40 647 C40 647 49 647 49 647 C77 647 101 609 101 564 C101 564 101 96 101 96 C101 51 77 13 49 13 C49 13 40 13 40 13 C40 13 40 0 40 0 C40 0 101 0 101 0 C101 0 112 0 112 0 C112 0 122 0 122 0 C122 0 322 0 322 0 C322 0 417 0 417 0 C417 0 418 0 418 0 C418 1 418 2 419 3 C424 33 433 84 438 115 C438 115 429 115 429 115 C429 115 421 98 421 98 C395 48 318 6 254 5 C254 5 122 5 122 5 C122 5 122 340 122 340 C122 340 214 340 214 340 C273 340 330 313 339 281 C339 281 342 271 342 271 C342 271 352 271 352 271 L352 271 Z " />
<glyph glyph-name="Ygrave" unicode="&#x1ef2;" horiz-adv-x="549" d="M359 13 C359 13 350 13 350 13 C322 13 298 51 298 96 C298 96 298 256 298 256 C298 256 298 256 298 256 C298 256 455 564 455 564 C455 564 455 564 455 564 C478 609 519 647 543 647 C543 647 551 647 551 647 C551 647 551 660 551 660 C551 660 504 660 504 660 C504 660 501 660 501 660 C501 660 498 660 498 660 C498 660 409 660 409 660 C409 660 409 647 409 647 C409 647 421 647 421 647 C459 647 467 600 439 544 C439 544 439 544 439 544 C439 544 293 256 293 256 C293 256 292 256 292 256 C292 256 294 259 294 259 C294 259 139 573 139 573 C122 614 130 647 159 647 C159 647 169 647 169 647 C169 647 169 660 169 660 C169 660 96 660 96 660 C96 660 83 660 83 660 C83 660 70 660 70 660 C70 660 32 660 32 660 C32 660 32 647 32 647 C32 647 38 647 38 647 C58 647 93 612 116 569 C116 569 276 247 276 247 C276 247 276 96 276 96 C276 51 252 13 225 13 C225 13 216 13 216 13 C216 13 216 0 216 0 C216 0 276 0 276 0 C276 0 287 0 287 0 C287 0 298 0 298 0 C298 0 359 0 359 0 C359 0 359 13 359 13 L359 13 Z M262 831 C239 862 219 889 217 889 C214 889 205 883 205 881 C205 878 227 852 252 823 C252 823 362 692 362 692 C362 692 364 693 364 693 C364 693 262 831 262 831 L262 831 Z " />
<glyph glyph-name="quoteleft" unicode="&#x2018;" horiz-adv-x="150" d="M-14 586 C-14 586 1 600 1 600 C20 581 37 573 50 577 C38 555 14 557 -14 586 L-14 586 Z M79 603 C75 603 72 602 69 601 C71 607 72 615 72 624 C72 639 82 657 92 662 C92 662 91 666 91 666 C72 657 57 632 57 611 C57 596 55 585 50 577 C54 578 57 580 60 583 C61 573 68 566 79 566 C89 566 98 574 98 584 C98 595 89 603 79 603 L79 603 Z " />
<glyph glyph-name="quoteright" unicode="&#x2019;" horiz-adv-x="150" d="M171 645 C171 645 157 631 157 631 C138 650 121 658 108 654 C119 675 144 673 171 645 L171 645 Z M79 627 C82 627 85 628 87 629 C86 623 85 615 85 607 C85 591 76 574 65 569 C65 569 67 565 67 565 C85 574 101 599 101 620 C101 635 103 646 108 654 C104 653 101 651 98 649 C96 658 88 665 79 665 C69 665 60 656 60 646 C60 636 69 627 79 627 L79 627 Z " />
<glyph glyph-name="quotedblleft" unicode="&#x201c;" horiz-adv-x="206" d="M-94 586 C-94 586 -80 600 -80 600 C-11 529 52 506 90 529 C56 487 -15 504 -94 586 L-94 586 Z M-14 586 C-14 586 1 600 1 600 C20 581 37 573 50 577 C38 555 14 557 -14 586 L-14 586 Z M134 603 C131 603 128 602 126 601 C127 608 127 616 127 624 C127 639 137 657 148 662 C148 662 146 666 146 666 C128 657 112 632 112 611 C112 574 104 546 90 529 C103 537 114 552 120 572 C124 568 129 566 134 566 C144 566 153 574 153 584 C153 595 144 603 134 603 L134 603 Z M79 603 C75 603 72 602 69 601 C71 607 72 615 72 624 C72 639 82 657 92 662 C92 662 91 666 91 666 C72 657 57 632 57 611 C57 596 55 585 50 577 C54 578 57 580 60 583 C61 573 68 566 79 566 C89 566 98 574 98 584 C98 595 89 603 79 603 L79 603 Z " />
</font>
</svg>
